<?xml version="1.0" standalone="no"?>
<!DOCTYPE svg PUBLIC "-//W3C//DTD SVG 1.1//EN" "http://www.w3.org/Graphics/SVG/1.1/DTD/svg11.dtd" >
<svg xmlns="http://www.w3.org/2000/svg">
<metadata></metadata>
<defs>
<font id="breezi_icon_setregular" horiz-adv-x="2048" >
<font-face units-per-em="2048" ascent="1638" descent="-410" />
<missing-glyph horiz-adv-x="500" />
<glyph horiz-adv-x="0" />
<glyph unicode="&#xd;" />
<glyph unicode="+" d="M220 1048q0 58 41 99t99 41h296q22 -68 78 -113t126 -53v666q0 58 41 99t99 41t99 -41t41 -99v-500h500q58 0 99 -41t41 -99t-40 -98q-42 -42 -100 -42h-500v-500q0 -58 -41 -99t-99 -41t-99 41t-41 99v500h-500q-58 0 -99 41t-41 99z" />
<glyph unicode="-" d="M318 1048q0 58 41 99t97 41h1088q58 0 98 -41t40 -99t-41 -99t-97 -41h-1088q-56 0 -97 41t-41 99z" />
<glyph unicode="&#x3c;" d="M480 1048l108 108l618 618q54 54 130 54t130 -54t54 -130t-54 -130l-616 -614q70 -40 152 -42t154 34l310 -310q54 -54 54 -130t-54 -130t-130 -54q-74 0 -128 52z" />
<glyph unicode="&#x3e;" d="M480 452q0 -76 54 -130t130 -54q74 0 128 52l728 728l-108 108l-618 618q-54 54 -130 54t-130 -54t-54 -130t54 -130l616 -614q-70 -40 -152 -42t-154 34l-310 -310q-54 -54 -54 -130z" />
<glyph unicode="A" d="M268 1514q4 -240 96 -457t260 -385q166 -164 376 -256t444 -100q12 60 54 104l14 14l82 -84q12 10 16 14l84 84q38 38 38 92t-38 92l-246 246q-36 38 -91 38t-93 -38l-84 -84q-24 -24 -32 -56q-154 66 -273 185t-185 273q32 10 56 32l84 86q38 36 38 90t-38 92l-246 246 q-36 38 -91 38t-93 -38l-84 -84q-4 -4 -14 -16l66 -66l-12 -12q-36 -36 -88 -50z" />
<glyph unicode="B" d="M220 766h2q2 -38 30 -65t66 -27h438q2 92 64 159t152 77l352 346q44 42 105 45h9q55 0 94 -33q44 -40 48 -100v-11q0 -54 -36 -99l-300 -382v-2h438q38 0 66 27t30 65h2v3v3q-2 212 -106 390t-283 282t-391 104t-391 -104t-283 -282t-106 -390v-3v-3zM404 882l16 126 l198 -26l-18 -126zM536 1240l90 88l140 -140l-90 -88zM880 670q0 48 34 83t84 37q106 104 328 324q18 16 40 18t37 -11t15 -35t-16 -40q-42 -54 -90 -115t-105 -133t-89 -114q0 -2 1 -7t1 -7q0 -50 -35 -86t-85 -36t-85 36t-35 86zM936 1260v198h128v-198h-128z" />
<glyph unicode="C" d="M220 364v1270q0 40 28 68t70 28h118v-224q0 -74 52 -126t126 -52t125 52t51 126v224h420v-224q0 -74 51 -126t125 -52t126 52t52 126v224h118q42 0 70 -28t28 -68v-1122q-16 -102 -96 -172t-186 -72h-1182q-40 0 -68 29t-28 67zM484 528h426v132h-200v2l56 44 q134 110 134 222q0 86 -57 136t-155 50q-118 0 -200 -60l44 -114q64 46 124 46q42 0 64 -19t22 -53q-2 -40 -42 -88t-136 -130l-80 -70v-98zM534 1506q0 -34 23 -57t56 -23t57 23t24 57v242q0 34 -24 57t-57 23t-56 -23t-23 -57v-242zM1088 974h256v-2l-232 -444h170 l232 478v98h-426v-130zM1306 1506v242q0 34 24 57t57 23t56 -23t23 -57v-242q0 -34 -23 -57t-56 -23t-57 23t-24 57z" />
<glyph unicode="D" d="M200 662q0 32 24 56t56 24h244q32 0 55 -24t23 -56t-23 -56t-55 -24h-244q-32 0 -56 24t-24 56zM200 1434q0 32 24 56t56 24h244q32 0 55 -24t23 -56t-23 -56t-55 -24h-244q-32 0 -56 24t-24 56zM434 366q0 -40 29 -69t69 -29h1170q40 0 69 29t29 69v1364q0 40 -29 69 t-69 29h-1170q-40 0 -69 -29t-29 -69v-118h90q72 0 124 -52t52 -126t-52 -125t-124 -51h-90v-418h90q72 0 124 -52t52 -126t-52 -126t-124 -52h-90v-118zM872 734v146h498v-146h-498zM872 1098v148h684v-148h-684zM872 1464v148h684v-148h-684z" />
<glyph unicode="E" d="M172 1000q0 -40 29 -69t69 -29h114q24 -100 76 -186l-80 -80q-28 -30 -28 -70t28 -68l70 -70q28 -28 68 -28t70 28l80 80q86 -52 186 -76v-114q0 -40 29 -69t69 -29h96q40 0 69 29t29 69v114q98 24 186 76l80 -80q30 -28 70 -28t68 28l70 70q28 28 28 68t-28 70l-80 80 q52 88 76 186h114q40 0 69 28t29 70v96q0 40 -29 69t-69 29h-114q-24 100 -76 186l80 80q28 30 28 70t-28 68l-70 70q-28 28 -68 28t-70 -28l-80 -80q-88 52 -186 76v114q0 40 -29 69t-69 29h-96q-40 0 -69 -29t-29 -69v-114q-100 -24 -186 -76l-80 80q-30 28 -70 28 t-68 -28l-70 -70q-28 -28 -28 -68t28 -70l80 -80q-52 -86 -76 -186h-114q-40 0 -69 -28t-29 -70v-96zM804 1048q0 80 58 138t138 58t138 -58t58 -138t-58 -138t-138 -58t-138 58t-58 138z" />
<glyph unicode="F" d="M270 456q0 -36 27 -63t65 -27h1276q38 0 65 27t27 63v822q0 38 -27 65t-65 27h-1206q82 90 204 90h532l-52 182q-10 38 -44 63t-72 25h-638q-38 0 -65 -26t-27 -64v-362v-94v-728z" />
<glyph unicode="G" d="M276 1642l538 -1292q16 -38 50 -60t74 -22q28 0 52 10q50 20 71 69q11 26 11 54q0 23 -8 47l-348 836l-1 2t-1 4q84 -4 154 -51t104 -125l120 -288q134 -14 204 -14q244 0 420 146q18 16 18 38v590q0 28 -25 42t-51 0q-102 -66 -226 -66q-108 0 -332 70q-236 76 -360 76 q-96 0 -186 -34l-30 72q-22 50 -73 72q-25 11 -51 11l-51 -11q-51 -22 -73 -73q-11 -25 -11 -51t11 -52z" />
<glyph unicode="H" d="M256 1456q0 -118 70 -216l222 -320l452 -652l452 652l214 310q78 102 78 226q0 154 -109 263t-263 109q-90 0 -169 -41t-129 -111h-2l-336 -486q-50 68 -52 152v6q0 80 48 152l42 60l112 162q-110 106 -258 106q-154 0 -263 -109t-109 -263z" />
<glyph unicode="I" d="M224 784q18 -40 84 -40h2l378 24q16 0 25 -9t7 -25l-26 -376v-8q0 -40 20 -62q18 -20 44 -20q32 0 66 32l918 920q38 38 38 92q0 8 -6 32q-12 2 -23 2q-35 0 -61 -24l-516 -518l-4 -2q-32 66 -32 139q0 27 4 54q16 103 88 179l304 304q30 30 80 54l-260 260 q-36 36 -91 36t-91 -36l-920 -920q-33 -32 -33 -63q0 -13 5 -25z" />
<glyph unicode="J" d="M144 980q0 182 129 311t309 129q24 0 46 -2q56 126 172 203t256 77q192 0 330 -137t138 -331q0 -16 -2 -32h6q134 0 230 -95q98 -97 98 -235q0 -134 -96 -231t-232 -97h-300q-2 2 -8 11t-10 13l-372 372q-72 70 -178 70t-178 -70l-236 -236q-102 124 -102 280zM232 342 q0 -44 31 -75t76 -31t75 30l246 246l246 -246q32 -30 76 -30t75 31t31 75t-30 76l-322 322q-32 30 -76 30t-76 -30l-322 -322q-30 -32 -30 -76z" />
<glyph unicode="K" d="M414 374q0 -40 29 -69t69 -29h976q40 0 69 29t29 69v780q0 40 -29 69t-69 29h-644v244q0 64 46 109t110 45t110 -45t46 -109h186q0 140 -101 240t-242 100t-241 -100t-100 -240v-244h-146q-40 0 -69 -29t-29 -69v-780zM902 536v194h196v-194h-196z" />
<glyph unicode="L" d="M220 609q0 -141 100 -241t241 -100t241 100l218 218l-28 28q-50 48 -118 48t-118 -46l-102 -102q-38 -38 -93 -38t-94 39t-39 94t38 95l246 244l-148 146l-244 -244q-100 -100 -100 -241zM596 1328l246 -248l126 124l-248 248zM980 1510l218 218q100 100 241 100 t241 -100t100 -241t-100 -241l-244 -244l-148 146l246 244q38 40 38 95t-39 94t-94 39t-93 -38l-104 -102q-48 -46 -116 -46t-118 48zM1032 892l248 -248l124 124l-248 248z" />
<glyph unicode="M" d="M220 396q0 -40 28 -69t70 -29h1364q40 0 69 29t29 69v974q0 52 -48 82l2 2l-12 6h-2l-72 38l-562 282q-36 18 -87 18t-87 -18l-308 -156l-204 -102l-48 -24l-72 -38h-2l-14 -6l2 -2q-46 -30 -46 -82v-974zM290 1190q0 28 14 54h1390q16 -26 16 -54q0 -62 -60 -92 l-318 -166l242 -406q10 -18 -8 -32q-6 -4 -14 -4q-10 0 -18 8l-330 366l-128 -66q-34 -18 -76 -18t-76 18l-138 72l-336 -372q-6 -8 -18 -8q-8 0 -14 4q-18 14 -6 32l244 412l-306 160q-60 30 -60 92z" />
<glyph unicode="N" d="M224 852q0 -40 29 -69t69 -29h78v30q0 82 50 147t126 89v-266l330 -292v1172l-330 -292h-254q-40 0 -69 -29t-29 -69v-392z" />
<glyph unicode="O" d="M224 852v392q0 40 29 69t69 29h254l330 292v-1172l-330 292v266q-76 -24 -126 -89t-50 -147v-30h-78q-40 0 -69 29t-29 69zM992 834q0 -30 21 -52t52 -22t51 22q118 118 118 285t-118 285q-20 20 -51 20t-52 -21t-21 -51t22 -52q74 -76 74 -182t-74 -180q-22 -22 -22 -52 zM1186 642q0 -30 21 -51t52 -21t51 20q198 198 198 477t-198 475q-20 22 -51 22t-52 -22t-21 -52t22 -52q154 -154 154 -372t-154 -372q-22 -22 -22 -52z" />
<glyph unicode="P" d="M224 870v392q0 40 29 69t69 29h254l330 294v-1174l-330 292v266q-76 -24 -126 -89t-50 -147v-30h-78q-40 0 -69 29t-29 69zM992 815q0 -31 21 -52t52 -21t51 22q118 118 118 284t-118 284q-20 22 -51 22t-52 -21t-21 -52t22 -51q74 -76 74 -182t-74 -182q-22 -20 -22 -51 zM1186 624q0 -30 21 -52t52 -22t51 22q198 198 198 476t-198 476q-20 22 -51 22t-52 -22t-21 -52t22 -52q154 -154 154 -372t-154 -372q-22 -22 -22 -52zM1378 432q0 -30 21 -51t52 -21t51 20q134 134 206 306t72 362t-72 362t-206 306q-20 20 -51 20t-52 -21t-21 -51 t22 -52q112 -114 173 -259t61 -305t-61 -306t-173 -258q-22 -22 -22 -52z" />
<glyph unicode="Q" d="M300 528q8 -96 80 -162t168 -66h910q88 0 157 57t85 143h-1186q-10 0 -17 8t-7 18v18v1156q0 40 -28 68t-67 28t-67 -28t-28 -68v-1172zM650 748q0 -48 35 -84t85 -36t85 36t35 84v250q0 50 -35 85t-85 35t-85 -35t-35 -85v-250zM1056 748q0 -48 35 -84t85 -36t85 36 t35 84v540q0 50 -35 85t-85 35t-85 -35t-35 -85v-540zM1460 748v928q0 50 35 85t85 35t85 -35t35 -85v-928q0 -48 -35 -84t-85 -36t-85 36t-35 84z" />
<glyph unicode="R" d="M344 896q12 -264 203 -446t453 -182h28q178 8 325 102t229 248q75 140 74 297v31v38q-2 106 -74 183t-176 87v-312v-17q0 -158 -108 -275q-114 -124 -281 -131h-19q-155 0 -272 107q-124 114 -132 282q0 8 -1 17q0 150 102 265q107 122 267 136l-30 -28q-36 -38 -36 -89 t37 -88t88 -37t89 36l246 246v2q38 36 38 88t-38 88v2l-246 246q-38 36 -89 36t-88 -37t-37 -88t36 -89l36 -34q-178 -8 -324 -103t-227 -249q-74 -140 -74 -300q0 -16 1 -32z" />
<glyph unicode="S" d="M226 364v684l694 -204v-178h160v178l694 204v-684q0 -40 -29 -68t-67 -28h-1356q-38 0 -67 28t-29 68zM226 1138v194q0 40 29 68t67 28h252v216q0 76 54 130t130 54h484q76 0 130 -54t54 -130v-216h252q38 0 67 -28t29 -68v-194l-774 -226zM748 1428h504v216q0 10 -10 10 h-484q-10 0 -10 -10v-216z" />
<glyph unicode="T" d="M220 746q0 -40 29 -69t69 -29h96v16q0 92 55 167t141 107v-572q0 -80 40 -97q9 -4 19 -4q34 0 79 45l338 338h596q40 0 69 29t29 69v132v854q0 40 -29 69t-69 29h-1364q-40 0 -69 -29t-29 -69v-878v-108z" />
<glyph unicode="V" d="M220 1048q100 208 311 333t468 125t469 -125t312 -333q-100 -208 -312 -333t-469 -125t-468 125t-311 333zM708 1048q0 -122 85 -207t207 -85t207 85t85 207q0 88 -48 162l-192 -194q-2 0 -4 -2q-26 54 -26 115q0 22 3 45q13 86 71 148h2q-52 18 -98 18q-122 0 -207 -85 t-85 -207z" />
<glyph unicode="X" d="M188 982q0 -88 62 -150l354 -356q64 -62 153 -62t151 62l842 842q62 64 62 152t-62 150t-151 62t-151 -62l-424 -424l-150 -152l22 -22q58 -58 72 -137q4 -24 4 -47q0 -53 -22 -104l-192 194h-2l-204 204q-64 62 -152 62t-150 -62t-62 -150z" />
<glyph unicode="Y" d="M220 1038q0 -58 42 -100t100 -42h306v500q-86 48 -137 133t-51 185v44h-118q-58 0 -100 -42t-42 -102v-576zM358 1127q0 41 29 71t71 30t71 -30t29 -71t-29 -71t-71 -30t-71 30t-29 71zM766 1078v412q0 110 78 188t188 80h334q108 0 202 -76t118 -184l88 -428 q7 -29 7 -56q0 -71 -46 -127q-63 -77 -171 -77l-294 2l40 -182q6 -26 6 -52q0 -63 -36 -119q-50 -79 -142 -99l-94 -22l-80 352q-24 116 -116 196v2q-82 78 -82 190z" />
<glyph unicode="a" d="M274 821q0 -229 161 -391t390 -162t391 162l510 510q-58 29 -124 29q-25 0 -50 -4q-94 -15 -162 -83l-52 -52l-262 -262q-104 -102 -251 -102t-251 104t-104 251t104 251l16 16l368 368l116 116q60 58 144 58t144 -59t60 -144t-60 -145l-460 -460l-2 -2l-36 -36 q-14 -16 -36 -16t-38 16t-16 38t16 36l364 364q30 30 30 71t-29 70t-70 29t-71 -30l-364 -364q-73 -73 -73 -174q0 -105 74 -180q73 -74 177 -74t176 74l422 422q2 0 2 2v2l74 74q118 116 118 283t-118 284t-284 117t-284 -118l-116 -114l-366 -368l-18 -16 q-160 -162 -160 -391z" />
<glyph unicode="b" d="M507 1531q-32 -84 -32 -167q0 -94 41 -187q78 -175 257 -245q85 -33 168 -33q93 0 186 41q175 78 245 257q33 85 33 169q0 94 -41 186q-78 176 -257 245q-84 32 -167 32q-94 0 -188 -41q-176 -78 -245 -257zM1006 774q94 6 176 42l2 1l2 1q33 14 67 14q31 0 62 -12 q65 -24 97 -86l96 -216q16 -36 16 -73q0 -32 -12 -64q-26 -69 -94 -99q-35 -15 -71 -15l-65 13q-68 26 -98 94z" />
<glyph unicode="c" d="M220 1048q0 -212 104 -392t284 -284t392 -104t392 104t284 284t104 392t-104 392t-284 284t-392 104t-392 -104t-284 -284t-104 -392zM902 1050v584q0 40 29 68t69 28t69 -28t29 -68v-584q0 -40 -29 -69t-69 -29t-69 29t-29 69zM1146 1146h342q40 0 69 -29t29 -69 t-29 -69t-69 -29h-224q-106 78 -118 196z" />
<glyph unicode="d" d="M304 542v1200q0 36 25 61t61 25h1028q36 0 61 -25t25 -61v-1200q0 -36 -25 -61t-61 -25h-1028q-36 0 -61 25t-25 61zM466 656h638v96h-638v-96zM466 948h876v96h-876v-96zM466 1240h876v96h-876v-96zM466 1534h876v96h-876v-96zM496 354h1026q36 0 61 25t25 61v1114h2 q36 0 61 -25t25 -61v-1114q0 -36 -25 -61t-61 -25h-1028q-36 0 -61 25t-25 61z" />
<glyph unicode="e" d="M272 414l36 190q10 48 42 58q7 2 14 2q26 0 54 -28l170 -170q28 -28 28 -54q0 -7 -2 -14q-10 -32 -58 -42l-190 -38q-11 -2 -22 -2q-35 0 -55 21q-20 20 -20 52q0 11 3 25zM442 832l138 -140l488 488l64 -64l-488 -488l140 -138l752 752l-342 342zM1306 1696l342 -342 l48 50q36 34 36 84t-36 86l-170 170q-36 36 -86 36t-84 -36z" />
<glyph unicode="f" d="M186 456q0 -36 27 -63t65 -27h90h1186q38 0 70 26t38 64l150 824q2 10 2 18q0 25 -16 44q-22 26 -58 26h-1100q-18 0 -34 -13t-20 -31l-120 -656l-2 -12q-10 -50 -47 -86t-87 -44l148 818q10 56 57 95t105 39h440l-48 164q-10 38 -44 63t-72 25h-638q-38 0 -65 -26 t-27 -64v-456v-2v-726z" />
<glyph unicode="g" d="M506 1334q0 -120 60 -234l380 -726l54 -106l146 276l-356 682q-28 50 -28 108q0 100 70 169t168 69t168 -69t70 -169q0 -26 -21 -82t-39 -90l-6 -12q-34 -73 -34 -148q0 -62 24 -126l78 -148l164 314q32 60 61 147t29 145q0 204 -145 349t-349 145t-349 -145t-145 -349z " />
<glyph unicode="h" d="M214 1018h2q22 -50 92 -50q18 0 31 -15t13 -35v-500q0 -48 27 -86t71 -54h668q26 0 44 18t18 44v546q0 26 -18 44t-44 18h-236q-26 0 -44 -18t-18 -44v-288q0 -28 -20 -47t-47 -19t-46 19t-19 47v288q0 80 57 137t137 57h236q80 0 137 -57t57 -137v-546q0 -36 -14 -72 h200q62 0 106 44t44 106v500q0 20 13 35t31 15q70 0 92 50h2l-2 2q6 14 6 29q0 38 -38 75l-646 662q-42 42 -106 42t-106 -42l-646 -662q-38 -38 -38 -75q0 -14 6 -29z" />
<glyph unicode="i" d="M220 1048q0 -212 104 -392t284 -284t392 -104t392 104t284 284t104 392t-104 392t-284 284t-392 104t-392 -104t-284 -284t-104 -392zM730 1082q36 70 103 112t147 42h40v-2h8h8q48 -8 75 -47q22 -32 22 -70q0 -8 -1 -17l-78 -452h164q-36 -70 -102 -113t-148 -43h-38v4 q-2 0 -10 -1t-10 -1q-46 8 -74 47q-22 30 -22 66q0 10 2 21l78 454h-164zM942 1507q10 57 57 93q37 28 80 28q12 0 25 -2q56 -10 90 -54q26 -34 26 -76q0 -12 -2 -26l-2 -10q-10 -58 -57 -91q-36 -25 -78 -25q-13 0 -26 2q-57 10 -90 57q-25 36 -25 78q0 13 2 26z" />
<glyph unicode="j" d="M144 1040q22 162 146 270t288 108q20 0 44 -2q56 128 173 204t257 76q194 0 332 -137t138 -331q0 -16 -2 -34h11q133 0 227 -94q98 -98 98 -236q0 -136 -96 -232t-232 -96h-442l94 92q82 84 82 202t-83 201t-201 83t-202 -84l-120 -120l-122 120q-80 82 -194 84h-6 q-110 0 -190 -74zM226 829q0 -45 30 -75l324 -324q32 -30 76 -30t76 30l322 324q32 30 32 75t-32 76t-76 31t-76 -30l-246 -248l-248 248q-30 30 -75 30t-76 -31t-31 -76z" />
<glyph unicode="k" d="M414 414q0 -40 29 -69t69 -29h976q40 0 69 29t29 69v780q0 42 -29 70t-69 28h-60v-194q0 -90 -63 -153t-152 -63t-152 63t-63 153v194h-188v146q0 64 46 110t110 46t109 -46t45 -110v-248v-92q0 -40 28 -67t66 -27t66 27t28 67v340l-2 2q0 140 -100 240t-241 100 t-241 -100t-100 -242v-146h-112q-40 0 -69 -28t-29 -70v-780zM902 576v196h196v-196h-196z" />
<glyph unicode="l" d="M220 609q0 -141 100 -241t241 -100t241 100l218 218l-28 28q-50 48 -118 48t-118 -46l-102 -102q-38 -38 -93 -38t-95 38q-38 40 -38 95t38 93l386 386q38 38 93 39h3q53 0 92 -39l146 146q-100 100 -240 100q-142 0 -242 -100l-384 -384q-100 -100 -100 -241zM814 862 l146 146q39 -39 92 -39h3q55 1 93 39l386 384q38 40 38 95t-39 94t-93 39q-56 0 -94 -38l-102 -102q-50 -46 -118 -46t-118 48l-28 28l218 218q100 100 241 100t241 -100t100 -241t-100 -241l-384 -384q-100 -100 -241 -100t-241 100z" />
<glyph unicode="m" d="M220 396q0 -40 28 -69t70 -29h1364q40 0 69 29t29 69v974q0 42 -29 70t-69 28h-1364q-42 0 -70 -28t-28 -70v-974zM290 1190q0 28 14 54l696 -292l694 292q16 -26 16 -54q0 -62 -60 -92l-312 -164l242 -408q12 -18 -6 -32q-6 -4 -14 -4q-12 0 -18 8l-334 370l-132 -70 q-34 -18 -76 -18t-76 18l-132 70l-334 -370q-8 -8 -18 -8q-8 0 -14 4q-18 14 -8 32l244 408l-312 164q-60 30 -60 92z" />
<glyph unicode="n" d="M228 1654l378 -908q14 -32 43 -51t65 -19h2h4h84h3h1h762q32 0 57 20t33 52l118 510q2 10 3 20q0 27 -17 51q-22 33 -62 41l-926 148l84 -204q22 -52 22 -105q0 -40 -13 -80q-29 -93 -109 -149l-318 762q-20 44 -64 62q-22 9 -44 9l-44 -9q-44 -18 -62 -62q-9 -22 -9 -44 t9 -44zM624 421q0 57 40 98t98 41t98 -41t40 -98t-40 -98t-98 -41t-98 41t-40 98zM1408 421q0 -57 40 -98t97 -41t98 41t41 98t-41 98t-98 41t-97 -41t-40 -98z" />
<glyph unicode="o" d="M366 494v1108q0 34 23 57t57 23h104l226 -226h-184v-816h816v184l226 -226v-104q0 -34 -23 -57t-57 -23h-1108q-34 0 -57 23t-23 57zM890 824l22 -22l496 494v-180q0 -46 33 -80t80 -34t80 34t33 80v424q0 58 -42 100t-100 42h-424q-48 0 -81 -33t-33 -80t33 -80t81 -33 h180l-364 -364q-51 -55 -51 -131q0 -80 57 -137z" />
<glyph unicode="p" d="M220 366q0 -40 29 -69t69 -29h1364q40 0 69 29t29 69v584q0 40 -29 69t-69 29h-798q38 66 106 107t146 41h450v534q0 40 -29 69t-69 29h-976q-40 0 -69 -29t-29 -69v-682h-96q-40 0 -69 -29t-29 -69v-584zM610 1362q0 20 14 34t34 14h390q20 0 35 -14t15 -34t-15 -34 t-35 -14h-390q-20 0 -34 14t-14 34zM610 1618q0 20 14 34t34 14h684q20 0 34 -14t14 -34t-14 -34t-34 -14h-684q-20 0 -34 14t-14 34zM1442 807q0 41 29 69t69 28t69 -28t29 -69t-29 -69t-69 -28t-69 28t-29 69z" />
<glyph unicode="q" d="M220 644q0 -48 37 -84t87 -36t86 35t36 85t-36 86t-86 36h-8q-50 0 -83 -35t-33 -87zM220 1048q0 -50 37 -85t87 -35t86 35t36 85t-36 85t-86 35h-8q-50 0 -83 -35t-33 -85zM220 1452q0 -50 37 -86t87 -36t86 36t36 85t-36 85t-86 36h-8q-50 0 -83 -35t-33 -85zM608 644 q0 -50 36 -85t86 -35h930q50 0 85 35t35 85t-35 86t-85 36h-930q-50 0 -86 -36t-36 -86zM608 1048q0 -50 36 -85t86 -35h930q50 0 85 35t35 85t-35 85t-85 35h-930q-50 0 -86 -35t-36 -85zM608 1451q0 49 36 85t86 36h930q50 0 85 -36t35 -85t-35 -85t-85 -36h-930 q-50 0 -86 36t-36 85z" />
<glyph unicode="r" d="M364 1022q0 -2 1 -5l1 -3q8 -176 102 -318l178 180q-36 74 -40 160q0 36 6 72q0 2 1 7l1 5q6 30 16 58q0 4 4 16q12 28 28 54q0 2 2 5l2 3q82 130 230 172l-16 -18q-36 -34 -36 -85t35 -86t86 -35t87 34l238 240h2q34 36 34 86q0 52 -34 86q-2 0 -2 2l-240 238 q-34 36 -85 36t-86 -36t-35 -86t36 -86l38 -38q-222 -28 -378 -192q-8 -6 -10 -8t-5 -7t-5 -7q-24 -28 -46 -58q-14 -22 -16 -24q-20 -34 -38 -74q-6 -14 -10 -24q-18 -42 -28 -82l-4 -16q-10 -44 -12 -86q0 -2 -1 -5t-1 -5q-1 -18 -1 -35.5t1 -34.5zM674 532q0 50 34 86h2 l238 240q36 34 86 34t86 -35t36 -86t-36 -85l-16 -18q148 40 228 170q2 2 5 7t3 7q12 22 24 46q6 18 8 26q4 10 10 36q10 46 10 90q0 88 -40 170l178 180q92 -140 104 -312q0 -2 1 -7t1 -7q1 -14 1 -28q0 -123 -49 -240q0 -4 -2 -9t-4 -7q-20 -44 -42 -80q-2 -4 -7 -10 t-5 -8q-26 -36 -52 -66q0 -2 -3 -5t-3 -5q-2 0 -4 -2l-2 -2q-156 -166 -382 -196l38 -38q36 -36 36 -86t-36 -86t-86 -36t-84 36l-240 238v1t-2 1q-34 34 -34 86z" />
<glyph unicode="s" d="M270 1212q-1 -3 -1 -7q0 -22 41 -51l202 -144l186 -132l-54 -160l-98 -292q-8 -26 -8 -43q0 -20 11 -28q6 -4 15 -4q20 0 52 25l234 172q-44 56 -56 125q-4 26 -4 51q0 42 12 84q4 0 4 -2l442 -330l136 -100q32 -25 52 -25q8 0 15 4q11 8 11 28q0 17 -8 43l-86 256 l-66 196l186 132l202 144q41 29 41 51q0 4 -1 7q-8 24 -66 24h-170h-36h-270l-110 342l-34 110q-18 56 -44 56t-44 -56l-34 -110l-110 -342h-270h-36h-170q-58 0 -66 -24z" />
<glyph unicode="t" d="M220 746q0 -40 29 -69t69 -29h96v16q0 92 55 167t141 107v-572q0 -80 40 -97q9 -4 19 -4q34 0 79 45l338 338h596q40 0 69 29t29 69v132v854q0 40 -29 69t-69 29h-1364q-40 0 -69 -29t-29 -69v-878v-108zM414 1256v98h852v-98h-852zM414 1450v98h1172v-98h-1172z" />
<glyph unicode="u" d="M220 436q42 -24 94 -50q18 -10 57 -25t185 -44t322 -35l-12 56l116 450l-84 114l26 34l76 -36l78 36l24 -34l-84 -114l116 -450l-12 -56q176 6 317 33t195 49l52 22l94 50l-3 12t-10 38t-13 52l-96 354q-10 44 -49 78t-83 40h-366v64q98 66 128 234q16 20 32 52 q10 24 10 50q0 10 -1 20q-5 38 -29 64q15 75 15 151q0 17 -1 33q-4 90 -27 90h-1h-4q-25 0 -98 19q-80 21 -134 25q-15 2 -30 2q-33 0 -67 -9q-51 -13 -73 -23t-30 -16q-90 -12 -133 -54q-34 -33 -34 -67q0 -10 3 -19q10 -32 10 -78q0 -29 -4 -62q-23 -30 -23 -69 q0 -37 21 -83q10 -18 24 -30q30 -164 126 -230v-64h-366q-44 -6 -83 -40t-49 -78l-96 -354q-6 -28 -12 -52t-10 -37z" />
<glyph unicode="v" d="M178 1048l6 14q86 240 312 388t504 148t504 -148t312 -388l6 -14l-6 -14q-86 -240 -312 -388t-504 -148t-504 148t-312 388zM422 1048q78 -150 234 -238t344 -88t344 88t234 238q-78 150 -234 238t-344 88t-344 -88t-234 -238zM680 1048q0 132 94 226t226 94 q52 0 106 -20q-66 -68 -80 -162q-4 -24 -4 -48q0 -67 30 -126l4 2l210 210q54 -80 54 -176q0 -132 -94 -226t-226 -94t-226 94t-94 226z" />
<glyph unicode="w" d="M316 366h94h34h344q28 0 49 20t21 49t-21 49t-49 20h-236l314 314q20 20 20 48t-20 49t-49 21t-49 -20l-314 -314v234q0 30 -20 50t-49 20t-49 -20t-20 -50v-344v-126zM316 1260v344v126h128h344q28 0 49 -20t21 -49t-21 -49t-49 -20h-236l260 -258q20 -20 20 -49 t-20 -49t-49 -20t-49 20l-260 260v-236q0 -30 -20 -50t-48 -20t-49 20t-21 50zM1130 1250q0 -28 21 -49t49 -21t48 20l298 298v-238q0 -30 20 -50t49 -20t49 20t20 50v344v32v94h-128h-344q-28 0 -48 -20t-20 -49t20 -49t48 -20h234l-294 -294q-22 -20 -22 -48zM1144 435 q0 -29 20 -49t48 -20h344h34h94v94v32v344q0 30 -20 50t-49 20t-49 -20t-20 -50v-236l-280 280q-20 20 -49 20t-49 -20t-20 -49t20 -49l278 -278h-234q-28 0 -48 -20t-20 -49z" />
<glyph unicode="x" d="M268 489q0 -71 51 -122t122 -51t121 52l438 436l438 -436q50 -52 121 -52t122 51t51 122t-50 121l-438 438l438 438q50 50 50 121t-51 122t-122 51t-121 -50l-258 -260q31 -61 31 -131q0 -17 -2 -34q-9 -89 -65 -157l-582 582q-50 50 -121 50t-122 -51t-51 -122t50 -121 l438 -438l-438 -438q-50 -50 -50 -121z" />
<glyph unicode="y" d="M220 482q0 -60 42 -102t100 -42h118v44q0 100 51 185t137 133v500h-306q-58 0 -100 -42t-42 -100v-576zM358 969q0 41 29 71t71 30t71 -30t29 -71t-29 -71t-71 -30t-71 30t-29 71zM766 606v412q0 112 82 190v2q92 80 116 196l80 352l94 -22q92 -20 142 -99 q36 -56 36 -119q0 -26 -6 -52l-40 -182l294 2q108 0 171 -77q46 -56 46 -127q0 -27 -7 -56l-88 -428q-24 -108 -118 -184t-202 -76h-334q-110 2 -188 80t-78 188z" />
<glyph unicode="z" d="M80 482q0 -58 42 -101t100 -43h116v44q0 100 52 185t138 133v502h-306q-58 0 -100 -42t-42 -102v-576zM216 970q0 42 30 71t71 29t71 -29t30 -71t-30 -71t-71 -29t-71 29t-30 71zM626 606v86v328v84q0 134 95 229t229 95h6q8 2 10 2l54 -2h36h5h5h210q22 0 40 -18 q16 -16 16 -40v-84h412q72 0 124 -52t52 -125t-52 -125t-124 -52h-128l-70 -334q-24 -106 -118 -183t-202 -77l-334 2q-110 0 -188 78t-78 188z" />
<glyph unicode="&#xad;" d="M318 1048q0 58 41 99t97 41h1088q58 0 98 -41t40 -99t-41 -99t-97 -41h-1088q-56 0 -97 41t-41 99z" />
<glyph unicode="&#x2000;" horiz-adv-x="963" />
<glyph unicode="&#x2001;" horiz-adv-x="1926" />
<glyph unicode="&#x2002;" horiz-adv-x="963" />
<glyph unicode="&#x2003;" horiz-adv-x="1926" />
<glyph unicode="&#x2004;" horiz-adv-x="642" />
<glyph unicode="&#x2005;" horiz-adv-x="481" />
<glyph unicode="&#x2006;" horiz-adv-x="321" />
<glyph unicode="&#x2007;" horiz-adv-x="321" />
<glyph unicode="&#x2008;" horiz-adv-x="240" />
<glyph unicode="&#x2009;" horiz-adv-x="385" />
<glyph unicode="&#x200a;" horiz-adv-x="107" />
<glyph unicode="&#x2010;" d="M318 1048q0 58 41 99t97 41h1088q58 0 98 -41t40 -99t-41 -99t-97 -41h-1088q-56 0 -97 41t-41 99z" />
<glyph unicode="&#x2011;" d="M318 1048q0 58 41 99t97 41h1088q58 0 98 -41t40 -99t-41 -99t-97 -41h-1088q-56 0 -97 41t-41 99z" />
<glyph unicode="&#x2012;" d="M318 1048q0 58 41 99t97 41h1088q58 0 98 -41t40 -99t-41 -99t-97 -41h-1088q-56 0 -97 41t-41 99z" />
<glyph unicode="&#x2013;" horiz-adv-x="1708" d="M318 1048q0 58 31 99t73 41h816q44 0 74 -41t30 -99t-31 -99t-73 -41h-816q-42 0 -73 41t-31 99z" />
<glyph unicode="&#x2014;" horiz-adv-x="2732" d="M318 1048q0 58 61.5 99t145.5 41h1634q87 0 147 -41t60 -99t-61.5 -99t-145.5 -41h-1634q-84 0 -145.5 41t-61.5 99z" />
<glyph unicode="&#x202f;" horiz-adv-x="385" />
<glyph unicode="&#x205f;" horiz-adv-x="481" />
<glyph unicode="&#xe000;" horiz-adv-x="1780" d="M0 0v1780h1780v-1780h-1780z" />
</font>
</defs>
</svg>
