<?xml version="1.0" standalone="no"?>
<!DOCTYPE svg PUBLIC "-//W3C//DTD SVG 1.1//EN" "http://www.w3.org/Graphics/SVG/1.1/DTD/svg11.dtd" >
<svg xmlns="http://www.w3.org/2000/svg">
<metadata>
This is a custom SVG webfont generated by Font Squirrel.
Copyright   : Copyright c 2011 by BSozoo All rights reserved3
Designer    : BSozoo
Foundry     : BSozoo
</metadata>
<defs>
<font id="BeonMedium" horiz-adv-x="1339" >
<font-face units-per-em="2048" ascent="1638" descent="-410" />
<missing-glyph horiz-adv-x="389" />
<glyph unicode=" "  horiz-adv-x="389" />
<glyph unicode="&#x09;" horiz-adv-x="389" />
<glyph unicode="&#xa0;" horiz-adv-x="389" />
<glyph unicode="!" horiz-adv-x="266" d="M-4 75.5q0 57.5 40 97.5t97 40t97 -40t40 -97.5t-40 -97t-97 -39.5t-97 39.5t-40 97zM72 315v1004q0 27 17 44t44 17t44.5 -17t17.5 -44v-1004q0 -27 -17.5 -44t-44.5 -17t-44 17t-17 44z" />
<glyph unicode="&#x22;" horiz-adv-x="280" d="M2 1008v321q0 27 17.5 44.5t44 17.5t44 -17.5t17.5 -44.5v-321q0 -27 -17.5 -44.5t-44 -17.5t-44 17.5t-17.5 44.5zM156 1008v321q0 27 17 44.5t44 17.5t44.5 -17.5t17.5 -44.5v-321q0 -27 -17.5 -44.5t-44.5 -17.5t-44 17.5t-17 44.5z" />
<glyph unicode="#" horiz-adv-x="837" d="M16 335.5q0 26.5 17.5 44t44.5 17.5h55l29 109h-84q-27 0 -44.5 17.5t-17.5 44t17.5 44t44.5 17.5h117l75 289q6 25 27.5 38t46.5 6.5t38 -28t7 -45.5l-67 -256h243l76 289q6 25 27.5 38t46 7t38 -27.5t7.5 -46.5l-68 -256h29q27 0 44 -17.5t17 -44t-17 -44t-44 -17.5 h-62l-28 -108h90q27 0 44 -17.5t17 -44.5t-17 -44t-44 -17h-123l-80 -299q-6 -25 -27.5 -38.5t-46 -7t-38 28t-7.5 45.5l72 267h-244l-80 -299q-6 -25 -27.5 -38.5t-46 -7t-37.5 28t-7 45.5l71 266h-22q-27 0 -44.5 17.5t-17.5 44zM260 406h244l28 108h-243z" />
<glyph unicode="$" horiz-adv-x="909" d="M-7 133.5q-3 24.5 11 44.5q16 20 41 23.5t45 -11.5q37 -27 72 -47v4q115 -68 239 -81q45 -4 70 -5q80 0 143 21q94 29 148 92q51 57 51 129v14q-2 51 -39 101q-33 45 -92 78q-35 20 -77 34.5t-107.5 31t-85.5 22.5q-147 43 -230 110q-55 47 -88 105q-37 66 -39 133v16 q0 82 41 154q43 76 125 121q72 41 166 47h27h6q-33 16 -33 53v66q0 27 17.5 44t44 17t44 -17.5t17.5 -43.5v-66q0 -43 -39 -57q41 -6 80 -19q88 -25 164 -78v37q0 27 17.5 44.5t44 17.5t44 -17.5t17.5 -44.5v-178q0 -43 -41 -55q-43 -12 -68 18q-82 104 -209 142 q-53 16 -100 16h-23q-63 -4 -112 -31q-51 -29 -80 -76q-25 -43 -25 -94v-10q4 -45 25 -82q23 -41 59 -72q66 -55 185 -86q18 -6 87.5 -23.5t117.5 -33.5t89 -41q80 -47 129 -113q55 -74 62 -165v-23q0 -115 -80 -209q-74 -86 -203 -129q-86 -27 -182 -27q-43 0 -86 7 q-145 18 -283 96q-47 27 -84 55q-20 17 -23 41.5zM389 -150q0 27 17.5 44.5t44 17.5t44 -17.5t17.5 -44.5v-59q0 -27 -17.5 -44t-44 -17t-44 17t-17.5 44v59zM389 158v311q0 27 17.5 44t44 17t44 -17t17.5 -44v-311q0 -27 -17.5 -44.5t-44 -17.5t-44 17.5t-17.5 44.5z M389 821v226q0 27 17.5 44t44 17t44 -17.5t17.5 -43.5v-226q0 -27 -17.5 -44t-44 -17t-44 17t-17.5 44z" />
<glyph unicode="%" horiz-adv-x="1292" d="M-14 1028q0 131 53 221q39 66 94 103q63 41 137 45h9q74 0 137 -39q59 -35 100 -98q61 -98 62 -246q0 -137 -56 -232q-37 -61 -92 -96q-61 -39 -135 -43h-8q-72 0 -131.5 35t-98.5 94q-63 96 -67 236v22zM71 -8.5q-3 24.5 11 45.5l1008 1319q16 20 40.5 23t45.5 -11 q20 -16 23 -40.5t-11 -45.5l-1008 -1319q-16 -20 -40.5 -23t-45.5 11q-20 16 -23 40.5zM109 1001q4 -102 47 -170q20 -33 57 -53q31 -18 70 -18h4q41 0 73 22q31 20 54 58q39 63 39 168q0 111 -43 182q-20 37 -58 59q-35 20 -73 21h-5q-41 0 -73 -23q-33 -20 -56 -59 q-37 -61 -36 -160v-18v-9zM680 324q0 131 53 221q39 66 94 102q63 41 138 45h8q74 0 137 -39q59 -35 100 -98q61 -98 62 -246q0 -137 -55 -231q-37 -61 -93 -96q-61 -39 -135 -43h-8q-72 0 -131 34.5t-98 94.5q-63 96 -68 235v23zM803 297q4 -102 47 -170q20 -33 57 -53 q31 -18 70 -19h4q39 0 74 23q31 20 53 57q39 63 39 168q0 111 -43 182q-20 37 -57 60q-35 20 -74 20h-4q-39 0 -74 -22q-33 -20 -55 -60q-37 -61 -37 -159v-19v-8z" />
<glyph unicode="&#x26;" horiz-adv-x="1443" d="M-25 367q0 33 2 49q18 158 138 272q20 20 41 35q20 16 45.5 13t40.5 -23q16 -20 13 -46t-24 -40q-20 -16 -30 -27l2 2q-88 -84 -101 -199q-2 -12 -2 -36q0 -82 41 -152q49 -88 142 -129q66 -31 141 -31q16 0 49 4q98 14 176 82l15 15q18 16 43.5 15t42 -19.5t15.5 -44 t-20 -41.5l-20 -21q-106 -88 -240 -111q-35 -6 -67 -6q-102 0 -191 43q-129 61 -196 183q-56 98 -56 213zM215 997q0 49 16 103q31 86 99 143q70 59 162 70h28q86 0 158 -49q86 -61 104 -164q4 -25 4 -41q0 -61 -28 -119q-37 -70 -99 -115q-35 -27 -84 -51q-23 -10 -47 -2 t-34.5 30.5t-2 47t30.5 35.5q35 16 62 37q43 33 63 71q16 33 17 64v20q-10 53 -54 84q-39 25 -86 25h-14q-51 -6 -94 -41t-60 -90q-10 -35 -10 -62q0 -12 4 -37q8 -49 41 -90l619 -774q25 -31 59 -35h12q29 0 49 15q27 16 37 51q6 25 28 37t46.5 6t36.5 -27.5t6 -46.5 q-23 -80 -86 -121l-12 4q-51 -35 -117 -34h-27q-86 12 -137 82l-618 774q-51 66 -66 145q-6 28 -6 55zM811 418q16 41 27 61l-7 2q31 66 70 103q61 49 115 55h18h8q68 0 115 -45q49 -45 49 -111q0 -27 -17.5 -44t-44 -17t-44 17.5t-17.5 43.5q0 14 -10 23q-10 10 -29 10h-2 h-6q-20 -2 -45 -22q-25 -23 -43 -66q-8 -16 -24 -53q-10 -23 -33 -33t-45 -2q-23 10 -33 32.5t-2 45.5z" />
<glyph unicode="'" horiz-adv-x="329" d="M29 1251q0 57 40 97.5t97 40.5h2q25 0 45 -7l-2 -6q45 -14 72 -57q25 -33 26 -82v-8q0 -55 -28 -107q-23 -37 -60 -78q-47 -53 -100 -81q-23 -12 -47.5 -4t-36.5 30.5t-4 47t30 36.5q27 14 60 47q-41 14 -67.5 50t-26.5 81z" />
<glyph unicode="(" horiz-adv-x="495" d="M92 639q0 379 182 713q12 23 37 30t47.5 -5.5t29.5 -37t-5 -47.5q-166 -307 -166 -655q0 -350 170 -660q12 -23 5 -47t-29.5 -36.5t-47 -5t-36.5 29.5q-184 334 -185 717z" />
<glyph unicode=")" horiz-adv-x="495" d="M79 -71.5q-7 24.5 5 46.5q170 309 170 660l-2 -4q0 348 -166 655q-12 23 -5 47.5t29.5 36.5t47 5t37.5 -29q182 -334 182 -713q0 -383 -184 -717q-12 -23 -37 -30t-47.5 5.5t-29.5 37z" />
<glyph unicode="*" horiz-adv-x="546" d="M39 1027.5q6 23.5 29 35.5l86 49l-86 49q-23 12 -29 36t6 46.5t35.5 28.5t46.5 -6l86 -49v98q0 27 17.5 44t44 17t44 -17.5t17.5 -43.5v-98l86 49q23 12 46.5 6t35.5 -28.5t6 -46t-29 -36.5l-86 -49l86 -49q23 -12 29 -35.5t-6 -46.5t-36 -29t-46 6l-86 50v-99 q0 -27 -17.5 -44t-44 -17t-44 17.5t-17.5 43.5v99l-86 -50q-23 -12 -46.5 -6t-35.5 29t-6 46.5z" />
<glyph unicode="+" horiz-adv-x="837" d="M76 575.5q0 26.5 17.5 44t43.5 17.5h215v207q0 27 17.5 44t44 17t44 -17.5t17.5 -43.5v-207h211q27 0 44.5 -17.5t17.5 -44t-17.5 -44t-44.5 -17.5h-211v-219q0 -27 -17.5 -44.5t-44 -17.5t-44 17.5t-17.5 44.5v219h-215q-27 0 -44 17.5t-17 44z" />
<glyph unicode="," horiz-adv-x="425" d="M66 78q0 55 38.5 94t94.5 39h2h12q16 0 35 -6l-4 -4q45 -14 71 -58q25 -33 27 -82v-8q0 -55 -29 -106q-23 -37 -59 -78q-25 -27 -74 -76q-18 -16 -43.5 -16t-42 18.5t-16.5 44t18 41.5q45 45 66 68q-43 12 -69.5 48t-26.5 81z" />
<glyph unicode="-" horiz-adv-x="415" d="M-31 575.5q0 26.5 17.5 44t44.5 17.5h350h-2q27 0 44 -17.5t17 -44t-17 -44t-44 -17.5h-348q-27 0 -44.5 17.5t-17.5 44z" />
<glyph unicode="." horiz-adv-x="348" d="M35 75.5q0 57.5 40 97.5t97 40t97 -40t40 -97.5t-40 -97t-97 -39.5t-97 39.5t-40 97z" />
<glyph unicode="/" horiz-adv-x="655" d="M72 0l413 1319q8 25 31 37t47.5 4t36.5 -30.5t4 -47.5l-414 -1319q-8 -25 -30.5 -37t-47 -4t-36.5 30.5t-4 47.5z" />
<glyph unicode="0" horiz-adv-x="1259" d="M94 645q0 240 99 410q66 115 167 182q111 74 244 78h12q129 0 242 -68q106 -66 176 -178q115 -184 115 -461q0 -256 -105 -430q-66 -111 -165 -174q-109 -72 -238 -74h-12q-123 0 -232 64q-106 61 -178 170q-115 174 -123 438v29zM213 606h6q6 -227 103 -373 q53 -82 135 -129q80 -45 172 -45h8q92 4 174 56q74 47 127 133q86 143 86 366q0 240 -96 394q-55 90 -137 137q-86 49 -179 49h-8q-98 -4 -182 -59q-76 -49 -129 -140q-80 -141 -80 -350v-14v-25z" />
<glyph unicode="1" horiz-adv-x="651" d="M39 1086.5q6 23.5 29 35.5l317 185q23 12 46.5 6t35.5 -28.5t6 -46.5t-29 -36l-317 -184q-23 -12 -46.5 -6t-35.5 28.5t-6 46zM354 0v1028q0 27 17.5 44.5t44 17.5t44 -17.5t17.5 -44.5v-1028q0 -27 -17.5 -44t-44 -17t-44 17t-17.5 44z" />
<glyph unicode="2" horiz-adv-x="1050" d="M117 37v10q0 150 84 285q76 121 256 254q10 6 54 38.5t59.5 45t47 37t52 45t39.5 43.5q45 55 63 108q12 37 12 74q0 12 -4 37q-12 74 -80 125q-70 53 -159 53h-4q-90 0 -164 -53q-72 -51 -92 -129q-6 -25 -28 -38.5t-46.5 -7t-37.5 28t-7 45.5q31 121 141 199 q104 72 238 72h4q131 0 231.5 -76t126.5 -199q6 -31 6 -61q0 -59 -18 -115q-27 -78 -86 -147q-29 -35 -70 -72t-58.5 -51.5t-80.5 -61.5l-64 -47q-158 -117 -225 -221q-66 -102 -65 -221v-31q2 -27 -14.5 -46t-43.5 -21q-25 -2 -44 14t-21 41q-2 14 -2 43zM279 0q0 27 17 44 t44 17h524q27 0 44.5 -17t17.5 -44t-17.5 -44t-44.5 -17h-524q-27 0 -44 17t-17 44z" />
<glyph unicode="3" horiz-adv-x="1067" d="M101 145.5q3 24.5 24 40.5q20 14 45 11.5t41 -23.5q27 -35 61 -59q88 -63 217 -64q109 0 189 47q70 37 104 103q35 63 35 141t-37 139q-23 37 -59 60q-20 14 -26.5 39.5t8 46t40 26.5t45.5 -8q63 -43 99 -102l2 -2q55 -92 55 -201t-51 -201q-53 -94 -150 -149 q-109 -61 -251 -62q-168 0 -289 86q-55 39 -90 86q-15 21 -12 45.5zM174 1044q6 35 23 72l2 -4q14 33 41 66q25 31 55.5 55t66.5 43q35 16 76 27q45 10 80 10h2h2h2q37 0 74 -6q35 -6 72 -22.5t65 -37.5q31 -23 55.5 -49.5t43.5 -60.5q20 -39 28 -70q4 -16 6 -27 q4 -16 4 -26v-29q0 -25 -2 -41q-4 -29 -8 -43q-6 -25 -14 -39q-12 -33 -31 -59q-20 -31 -43 -53q-16 -16 -53 -45t-80 -43q-35 -14 -84 -21q-41 -6 -80 -6q-27 0 -44 17.5t-17 44t17.5 44t43.5 17.5q31 0 62 6q41 8 59 14q31 14 53 31q18 12 35 29q20 25 28.5 37t20.5 36 q4 8 8 25l7 25q2 10 2 26v19v14q-2 6 -7 14q-6 23 -18 43q-8 14 -29 39q-12 16 -36 33q-20 14 -41 22q-16 6 -50 15q-25 6 -49 6h-2h-2h-2q-29 0 -55 -6q-27 -6 -51 -19q-29 -14 -43 -26q-18 -16 -35 -35q-14 -16 -25 -41q-8 -20 -12 -43q-4 -25 -25.5 -39t-46 -10t-39 25 t-10.5 46z" />
<glyph unicode="4" horiz-adv-x="942" d="M-12.5 370.5q-16.5 32.5 2.5 63.5l561 852q14 20 39.5 26.5t46 -8t27 -40t-8.5 -45.5l-497 -756h407q27 0 44.5 -17.5t17.5 -44t-17.5 -44t-44.5 -17.5h-522l-2 -2q-37 0 -53.5 32.5zM662 -2v891q0 27 17 44t44 17t44 -17.5t17 -43.5v-891q0 -27 -17 -44t-44 -17t-44 17 t-17 44z" />
<glyph unicode="5" horiz-adv-x="1079" d="M151 103.5q-1 25.5 15 44t41.5 19.5t44.5 -15q37 -33 74 -54l-4 2q37 -20 86 -32q47 -12 92 -13h16h16h17q33 6 67 19q31 12 64 30q31 18 55.5 43t42.5 56q20 35 29 63q8 33 12 68v2v2v4q0 27 -6 55q-6 23 -16 54q-10 27 -25 47q-14 23 -37 45q-51 49 -127 71 q-51 14 -116 15h-37q-49 -2 -111 -17q-49 -10 -90 -24q-25 -8 -47.5 2t-32.5 35q-8 25 2 47t35 33q47 18 102 30q63 14 129 19q16 2 50 2q80 0 149 -21q102 -29 176 -102q29 -29 55 -66q23 -35 37 -69q16 -39 25 -76q8 -33 8 -78v-6v-8v-8q-4 -51 -18.5 -96.5t-40.5 -90.5 q-25 -43 -60 -78q-33 -33 -75.5 -59.5t-85.5 -40.5q-51 -16 -95 -23h-20h-21h-20q-59 0 -120.5 16.5t-115 43t-100.5 67.5q-18 17 -19 42.5zM172 821v430q0 27 17.5 44.5t44 17.5t44 -17.5t17.5 -44.5v-430q0 -27 -17.5 -44t-44 -17t-44 17t-17.5 44zM348 1251.5 q0 26.5 17.5 44t44.5 17.5h387q27 0 44 -17.5t17 -44t-17.5 -44t-43.5 -17.5h-387q-27 0 -44.5 17.5t-17.5 44z" />
<glyph unicode="6" horiz-adv-x="1079" d="M84 416q0 84 18 162q45 184 209 399q170 219 428 350q23 10 47.5 2t34.5 -30.5t2 -47t-30 -34.5q-236 -117 -387 -318q-150 -197 -187 -354q-16 -66 -16 -131q0 -111 39 -189q43 -82 125 -127q72 -39 155 -39q25 0 35 2q115 12 193 91q66 70 75 159q2 10 2 31 q0 76 -36 139q-43 74 -115 115q-68 39 -148 45h-30q-35 0 -66 -6q-25 -4 -46 10t-25.5 39t10 46.5t39.5 25.5q39 8 86 8l16 -2q29 0 43 -2q106 -8 199 -64q100 -57 157 -157q53 -94 54 -201q0 -29 -2 -43q-16 -133 -113 -229q-109 -109 -268 -125q-16 -2 -50 -2 q-115 0 -215 53q-117 61 -178 178q-55 107 -55 246z" />
<glyph unicode="7" horiz-adv-x="989" d="M117 1253.5q0 26.5 17.5 44t43.5 17.5h662q27 0 44 -17.5t17 -44t-17.5 -44t-43.5 -17.5h-662q-27 0 -44 17.5t-17 44zM162 -20.5q-8 24.5 2 47.5l514 1038q10 23 34.5 31t47 -2.5t31 -35t-2.5 -46.5l-514 -1039q-10 -23 -34.5 -31t-47 2.5t-30.5 35z" />
<glyph unicode="8" horiz-adv-x="1042" d="M113 346q0 115 59 215q25 43 59 78q18 18 44 18t44.5 -18t18.5 -44t-19 -44q-23 -23 -43 -53q-41 -72 -40 -150q0 -20 2 -31q12 -137 131 -215q70 -45 151 -45q49 0 94 17q104 39 156 145q25 55 25 119q0 47 -17 96q-41 117 -145 168q-29 14 -115 25q-86 8 -141 30 q-70 29 -121 86.5t-72 128.5q-14 45 -14 99q0 96 51 180q80 129 232 158q31 6 61 6q88 0 166 -43q111 -61 154 -174q25 -61 24.5 -127t-24.5 -125q-14 -37 -41 -74q-16 -20 -41 -23.5t-45 11.5q-20 16 -23.5 40.5t11 45t24.5 47.5l2 2q14 35 14 78t-16 82q-29 74 -98 112 q-51 29 -107 29q-12 0 -37 -4q-98 -18 -151 -102q-33 -55 -33 -119q0 -29 10 -64q14 -47 49 -83t76 -54q41 -16 107 -22q102 -10 155 -37q150 -74 205 -238q23 -68 23 -133q0 -92 -37 -172q-68 -152 -226 -209q-66 -25 -135 -25q-119 0 -219 64q-166 109 -186 305 q-2 14 -2 43z" />
<glyph unicode="9" horiz-adv-x="1024" d="M92 895q0 20 2 33q12 150 125 258q94 94 227 119q33 6 68 6q102 0 188 -49q92 -51 148 -144q47 -80 59 -180q6 -45 6 -92q0 -94 -26 -201q-49 -195 -189 -377q-137 -180 -342 -323q-20 -14 -45.5 -9t-40 25.5t-9.5 46t26 39.5q184 129 313 297q123 162 168 332 q23 86 23 168q0 41 -7 78q-10 78 -45 137q-37 63 -98 100q-61 33 -133 33q-16 0 -49 -4q-96 -16 -164 -84q-78 -78 -88 -182v-21q0 -94 61 -166q57 -66 146 -88q45 -10 80 -10q16 0 49 4q25 4 45 -10.5t24 -39t-10 -45t-39 -24.5q-33 -6 -67 -6l4 -10q-59 0 -111 14 q-129 35 -209 129q-90 107 -90 246z" />
<glyph unicode=":" horiz-adv-x="401" d="M37 75.5q0 57.5 40 97.5t97 40t97 -40t40 -97.5t-40 -97t-97 -39.5t-97 39.5t-40 97zM37 845.5q0 57.5 40 97.5t97 40t97 -40t40 -97.5t-40 -97t-97 -39.5t-97 39.5t-40 97z" />
<glyph unicode=";" horiz-adv-x="397" d="M51 74q0 57 40 97t97 40h2q23 0 46 -6l-3 -4q45 -14 72 -58q25 -33 27 -82v-8q0 -55 -29 -106q-23 -37 -59 -78q-25 -27 -74 -76q-18 -16 -44 -16t-42 18.5t-16 44t18 41.5q41 41 59 62q-41 14 -67.5 50t-26.5 81zM51 845.5q0 57.5 40 97.5t97.5 40t97.5 -40t40 -97.5 t-40 -97t-97.5 -39.5t-97.5 39.5t-40 97z" />
<glyph unicode="&#x3c;" horiz-adv-x="266" d="M-33 448.5q0 38.5 37 55.5q74 33 111 51q41 20 123 66q23 12 46 6t35.5 -29t6 -46.5t-28.5 -35.5q-82 -45 -125 -65v-2q41 -20 123 -66q23 -12 29 -35.5t-6.5 -46t-36 -29t-45.5 6.5q-41 23 -123 63q-37 18 -111 51q-35 17 -35 55.5z" />
<glyph unicode="=" horiz-adv-x="837" d="M25 460.5q0 26.5 17 44t44 17.5h643q27 0 44.5 -17.5t17.5 -44t-17.5 -44t-44.5 -17.5h-643q-27 0 -44 17.5t-17 44zM25 692.5q0 26.5 17 44t44 17.5h643q27 0 44.5 -17.5t17.5 -44t-17.5 -44t-44.5 -17.5h-643q-27 0 -44 17.5t-17 44z" />
<glyph unicode="&#x3e;" horiz-adv-x="266" d="M-53 556q-6 24 6 46.5t35.5 28.5t46.5 -6q82 -45 123 -66v2q37 -18 110 -51q37 -16 37 -55t-35 -56q-74 -33 -110 -51q-82 -41 -123 -63q-23 -12 -46.5 -6t-35.5 28.5t-6 46t28 35.5q82 45 123 66q-43 20 -125 65q-22 12 -28 36z" />
<glyph unicode="?" horiz-adv-x="679" d="M39 1287.5q6 25.5 27 39.5q72 47 159 53h29q104 0 186 -57q100 -72 123 -188q6 -31 6 -62q0 -59 -18 -115q-25 -70 -78 -141q-6 -8 -73.5 -95t-90.5 -130q-45 -82 -47 -170v-107q0 -27 -17.5 -44t-44 -17t-44 17.5t-17.5 43.5v111l6 -2q2 115 60 223q23 43 52.5 85t67 87 t54.5 70q41 57 59 110q12 37 13 76q0 12 -5 37q-14 72 -73 113q-49 35 -115 35h-20q-59 -6 -105 -37q-20 -14 -46 -8t-40 26.5t-8 46zM70 73.5q0 57.5 40 97.5t97 40t97 -40t40 -97.5t-40 -97t-97 -39.5t-97 39.5t-40 97z" />
<glyph unicode="@" horiz-adv-x="972" d="M-37 440q0 72 14 135q27 117 91 203q78 104 200 156q96 39 205 39q29 0 43 -2q100 -10 193 -56q92 -47 155 -131q94 -125 94 -307v-35q-8 -145 -55 -241q-27 -55 -65 -88q-20 -16 -46 -13.5t-40 23.5q-16 20 -13.5 46t23.5 40q20 20 33 47l6 10q37 76 43 193v28 q0 143 -70 236q-45 59 -112 94q-70 35 -148 41h-37q-84 0 -158 -31q-92 -39 -151 -116q-49 -68 -68 -156q-12 -51 -12 -109q0 -23 4 -67q8 -88 47 -170q39 -80 103 -135q74 -59 166 -82q49 -12 102 -12q45 0 88 6q162 25 301 123q20 14 46 9t40 -25.5t9 -46.5t-25 -40 q-164 -113 -353 -143q-47 -8 -108 -8q-70 0 -129 14q-123 29 -219 108q-84 72 -133 177q-45 94 -58 206q-6 41 -6 80zM180 268v17q0 90 48 151.5t126 87.5l125 41q25 8 47.5 -4t30.5 -36.5t-4 -47t-37 -31.5l-125 -40l-4 -5q-88 -29 -88 -122v-7q4 -29 18 -47q12 -14 31 -18 q6 -2 21 -2q12 0 34 6l72 25q25 8 47.5 -3.5t30.5 -36t-3 -47t-36 -30.5l-74 -25q-37 -10 -69 -10q-27 0 -52 6q-53 14 -94 62q-35 42 -45 116zM213 666.5q-6 25.5 8 46.5q12 18 27 32q35 37 82 60q59 27 139 31h8q35 0 66 -9q45 -10 78 -34q49 -35 71 -97q14 -37 15 -84v-4 v-12v-27v-16v-358q0 -27 -17.5 -44.5t-44.5 -17.5t-44 17.5t-17 44.5v358v16v27v14v4q0 23 -6 41q-10 29 -29 41q-12 8 -31 13q-25 4 -39 4h-8q-49 0 -90 -19q-25 -12 -43 -30l-12 -19q-14 -20 -40 -26.5t-46.5 8t-26.5 40z" />
<glyph unicode="A" d="M40 -23q-4 12 -4 23q0 12 5 25l455 1060q10 23 34.5 32t47 -1t31.5 -34.5t-1 -47.5l-454 -1061q-10 -23 -35 -31q-12 -4 -23 -5q-12 0 -24 6q-23 9 -32 34zM432 462.5q0 26.5 17.5 44t44.5 17.5h327q27 0 44.5 -17.5t17.5 -44t-17.5 -44t-44.5 -17.5h-327 q-27 0 -44.5 17.5t-17.5 44zM603 1331q9 25 32 35q12 5 24 5q11 0 23 -4q25 -9 35 -32l561 -1310q5 -12 5 -25q0 -11 -4 -23q-9 -25 -32 -34q-12 -5 -24 -6q-11 0 -23 5q-25 9 -35 31l-561 1311q-5 12 -5 24q0 11 4 23z" />
<glyph unicode="B" horiz-adv-x="1386" d="M174 -2v1311q0 27 17.5 44t44 17t44 -17.5t17.5 -43.5v-1311q0 -27 -17.5 -44t-44 -17t-44 17t-17.5 44zM365 1308.5q0 26.5 17 44t44 17.5h313q211 0 305.5 -103.5t94.5 -256.5q0 -150 -105.5 -242t-294.5 -92h-295q-27 0 -44 17.5t-17 44t17.5 44t43.5 17.5h295 q135 0 206 57t71 154q0 238 -277 237h-313q-27 0 -44 17.5t-17 44zM379 0q0 27 17.5 44t43.5 17h330q72 0 132.5 14.5t114.5 48.5t86 99.5t32 155.5v2q0 154 -86 229q-20 16 -21.5 42t15 46.5t41.5 21.5h3q24 0 43 -15q129 -113 130 -324l-3 -2q0 -207 -131 -323.5 t-356 -116.5h-330q-27 0 -44 17t-17 44z" />
<glyph unicode="C" horiz-adv-x="1318" d="M74 623v26q0 160 57 301q84 209 260 324q152 98 334 98t334 -98q20 -14 26.5 -40t-8 -46.5t-40 -26.5t-46.5 8q-123 78 -266 78t-266 -78q-143 -94 -213 -270q-49 -121 -49 -252v-20q6 -150 69 -271q70 -135 193 -212.5t268 -82.5h8q215 0 369 154q18 18 44 18t44 -18 t18 -44t-18 -44q-188 -188 -455 -188l-6 4h-8q-182 4 -332 100q-154 96 -235 258q-76 148 -82 322z" />
<glyph unicode="D" horiz-adv-x="1255" d="M172 4v1311q0 27 17.5 44t44 17t44 -17.5t17.5 -43.5v-1311q0 -27 -17.5 -44t-44 -17t-44 17t-17.5 44zM346 0q0 27 17.5 44t44.5 17h96h26h27q59 2 121 23q125 41 207 139q68 78 100 199q29 100 29 225v4q0 119 -27 223q-29 109 -92 191q-59 76 -143 119q-80 41 -183 57 q-29 4 -77 8h-70q-27 0 -44.5 17.5t-17.5 44t17.5 44t44.5 17.5h72l-5 4q66 -4 95 -8q123 -20 221 -72q111 -57 182 -151q78 -98 115 -236q31 -115 31 -254v-4q0 -143 -31 -260q-41 -147 -123 -246q-104 -127 -264 -178q-78 -27 -152 -28h-33h-30h-92q-27 0 -44.5 17 t-17.5 44z" />
<glyph unicode="E" horiz-adv-x="1251" d="M174 0v1311q0 27 17.5 44t44 17t44 -17.5t17.5 -43.5v-1311q0 -27 -17.5 -44t-44 -17t-44 17t-17.5 44zM346 0q0 27 17.5 44t44.5 17h655q27 0 44 -17t17 -44t-17 -44t-44 -17h-655q-27 0 -44.5 17t-17.5 44zM350 704.5q0 26.5 17.5 44t44.5 17.5h528q27 0 44 -17.5 t17 -44t-17 -44t-44 -17.5h-528q-27 0 -44.5 17.5t-17.5 44zM350 1310.5q0 26.5 17.5 44t44.5 17.5h649q27 0 44 -17.5t17 -44t-17.5 -44t-43.5 -17.5h-649q-27 0 -44.5 17.5t-17.5 44z" />
<glyph unicode="F" horiz-adv-x="1169" d="M174 0v1311q0 27 17.5 44t44 17t44 -17.5t17.5 -43.5v-1311q0 -27 -17.5 -44t-44 -17t-44 17t-17.5 44zM350 704.5q0 26.5 17.5 44t44.5 17.5h495q27 0 44.5 -17.5t17.5 -44t-17.5 -44t-44.5 -17.5h-495q-27 0 -44.5 17.5t-17.5 44zM350 1310.5q0 26.5 17.5 44t44.5 17.5 h616q27 0 44.5 -17.5t17.5 -44t-17.5 -44t-44.5 -17.5h-616q-27 0 -44.5 17.5t-17.5 44z" />
<glyph unicode="G" horiz-adv-x="1376" d="M82 621v12v12q0 51 6 105q6 51 18.5 100t30.5 98q31 70 64 123q37 59 86 111q47 51 108 92q53 33 104.5 53.5t112.5 32.5q59 12 116.5 12t117.5 -12q61 -12 112.5 -32.5t104.5 -53.5q20 -14 26.5 -40t-8 -46.5t-40 -26.5t-46.5 8q-37 23 -84 43l4 7q-37 16 -90 26 q-51 10 -92 10t-92 -10q-53 -10 -90 -26q-47 -20 -84 -43q-43 -27 -88 -72q-43 -47 -72 -92q-33 -53 -53 -105q-12 -33 -27 -82q-12 -43 -18 -86t-6 -86v-12v-12q2 -47 12 -92q10 -49 25 -91q16 -45 36 -84q23 -43 52 -81q31 -39 67 -74q37 -37 74 -59.5t84 -43.5 q37 -16 90 -26q51 -10 92 -10q59 0 121 16q55 14 111 47q131 78 159 215q8 33 9 82v209q0 27 17 44t44 17t44 -17t17 -44v-207q0 -66 -8 -108q-41 -190 -219 -297q-66 -39 -143 -62q-70 -20 -152 -20q-59 0 -117 12q-51 10 -112 35q-51 20 -105 53q-45 29 -92 72 q-43 41 -80 86q-35 43 -63 98q-23 47 -43 102q-20 57 -29 109q-8 56 -12 111zM553 639q0 27 18.5 44t44.5 17l388 -2q27 0 44 -18t17 -45t-18.5 -44.5t-45.5 -17.5l-387 2q-27 0 -44 18.5t-17 45.5z" />
<glyph unicode="H" horiz-adv-x="1361" d="M172 0v1311q0 27 17.5 44t44 17t44 -17.5t17.5 -43.5v-1311q0 -27 -17.5 -44t-44 -17t-44 17t-17.5 44zM348 704.5q0 26.5 17.5 44t44.5 17.5h544q27 0 44.5 -17.5t17.5 -44t-17.5 -44t-44.5 -17.5h-544q-27 0 -44.5 17.5t-17.5 44zM1065 0v1311q0 27 17.5 44t44 17 t44 -17.5t17.5 -43.5v-1311q0 -27 -17.5 -44t-44 -17t-44 17t-17.5 44z" />
<glyph unicode="I" horiz-adv-x="471" d="M174 0v1311q0 27 17.5 44t44 17t44 -17.5t17.5 -43.5v-1311q0 -27 -17.5 -44t-44 -17t-44 17t-17.5 44z" />
<glyph unicode="J" horiz-adv-x="1157" d="M82 360q0 21 14 38q16 19 41 21.5t44.5 -14t21.5 -40.5q10 -131 108 -220q96 -88 228 -88h2q143 0 241 105q23 25 43 59q12 23 36 29t46.5 -6.5t28.5 -36t-6 -45.5q-23 -41 -60 -80v2q-137 -143 -331 -143h-2q-176 0 -308 118q-147 135 -147 301zM872 416v895 q0 27 17.5 44t44.5 17t44 -17.5t17 -43.5v-895q0 -27 -17 -44.5t-44 -17.5t-44.5 17.5t-17.5 44.5z" />
<glyph unicode="K" horiz-adv-x="1255" d="M174 0v1311q0 27 17.5 44t44 17t44 -17.5t17.5 -43.5v-1311q0 -27 -17.5 -44t-44 -17t-44 17t-17.5 44zM328 717.5q0 25.5 18 44.5l596 596q18 18 44 18t44.5 -18.5t18.5 -44t-19 -43.5l-596 -596q-18 -18 -43.5 -18.5t-44 18t-18.5 44zM461 586.5q0 25.5 18.5 44 t44 18.5t43.5 -18l586 -586q18 -18 18 -44t-18 -44t-44 -18t-44 18l-586 586q-18 18 -18 43.5z" />
<glyph unicode="L" horiz-adv-x="1142" d="M174 0v1311q0 27 17.5 44t44 17t44 -17.5t17.5 -43.5v-1311q0 -27 -17.5 -44t-44 -17t-44 17t-17.5 44zM379 0q0 27 17.5 44t43.5 17h617q27 0 44 -17t17 -44t-17.5 -44t-43.5 -17h-617q-27 0 -44 17t-17 44z" />
<glyph unicode="M" horiz-adv-x="1830" d="M174 0v1311q0 27 17.5 44t44 17t44 -17.5t17.5 -43.5v-1311q0 -27 -17.5 -44t-44 -17t-44 17t-17.5 44zM354 991q8 25 31 35t47.5 2t34.5 -31l491 -972q10 -23 2 -47.5t-30 -34.5q-13 -6 -26 -6q-11 0 -21 4q-25 8 -35 30l-492 973q-6 13 -5 26q-1 10 3 21zM991 240 q-3 10 -3 19q0 14 7 28l547 1052q12 23 37 31q10 3 19 3q14 0 28 -7q23 -12 31 -37q3 -10 3 -19q0 -14 -7 -28l-547 -1053q-12 -23 -37 -31t-47.5 4.5t-30.5 37.5zM1536 0v913q0 27 17.5 44.5t44 17.5t44 -17.5t17.5 -44.5v-913q0 -27 -17.5 -44t-44 -17t-44 17t-17.5 44z " />
<glyph unicode="N" horiz-adv-x="1357" d="M176 0v901q0 27 17.5 44.5t44 17.5t44 -17.5t17.5 -44.5v-901q0 -27 -17.5 -44t-44 -17t-44 17t-17.5 44zM178 1322q6 26 26.5 40t46 8t40.5 -27l887 -1310q10 -14 10 -31q0 -7 -2 -15q-6 -26 -27 -40q-14 -10 -31 -10q-7 0 -15 2q-26 6 -40 26l-887 1311q-10 14 -10 31 q0 7 2 15zM1063 410v901q0 27 17.5 44t44 17t44 -17.5t17.5 -43.5v-901q0 -27 -17.5 -44.5t-44 -17.5t-44 17.5t-17.5 44.5z" />
<glyph unicode="O" horiz-adv-x="1509" d="M76 655q0 295 193.5 506t470 211t470 -211t193.5 -506t-193.5 -505.5t-470 -210.5t-470 210.5t-193.5 505.5zM197 655.5q0 -247.5 158.5 -421t382 -173.5t382 173.5t158.5 421t-158.5 420.5t-382 173t-382 -173t-158.5 -420.5z" />
<glyph unicode="P" horiz-adv-x="1241" d="M176 0v1311q0 27 17.5 44t44 17t44 -17.5t17.5 -43.5v-1311q0 -27 -17.5 -44t-44 -17t-44 17t-17.5 44zM383 1310.5q0 26.5 17.5 44t43.5 17.5h297q199 0 302.5 -121t103.5 -301q0 -186 -107.5 -292.5t-273.5 -106.5h-315q-27 0 -44.5 17.5t-17.5 44t17.5 44t44.5 17.5 h315q119 0 188.5 72.5t69.5 203.5q0 121 -64.5 210t-218.5 89h-297q-27 0 -44 17.5t-17 44z" />
<glyph unicode="Q" horiz-adv-x="1531" d="M76 651q0 295 193.5 506t470 211t470 -211t193.5 -506q0 -188 -88 -354q-12 -23 -37 -31t-47.5 4.5t-30.5 37t4 46.5q74 137 74 299q0 248 -158.5 421t-382 173t-382 -173t-158.5 -420.5t158.5 -421t381.5 -173.5q104 0 205 45q23 10 47.5 1t34.5 -31.5t1 -47t-32 -34.5 q-119 -53 -254 -53v-5q-276 0 -469.5 211t-193.5 506zM713 513q0 26 18.5 44t44 18t43.5 -18l514 -514q18 -18 18.5 -44t-18 -44t-44 -18t-44.5 18l-514 514q-18 18 -18 44z" />
<glyph unicode="R" horiz-adv-x="1331" d="M176 0v1311q0 27 17.5 44t44 17t44 -17.5t17.5 -43.5v-1311q0 -27 -17.5 -44t-44 -17t-44 17t-17.5 44zM381 1310.5q0 26.5 17.5 44t43.5 17.5h324v-2q176 0 279.5 -95t103.5 -278q0 -178 -102.5 -271t-276.5 -93h-315q-27 0 -44.5 17.5t-17.5 44t17.5 44t44.5 17.5h315 q256 0 256 243q0 250 -260 250h-324q-27 0 -44 17.5t-17 44zM551 513q0 26 16.5 44t42 18t43.5 -16l545 -516q18 -16 18.5 -42t-16 -44t-42 -18t-44.5 16l-545 516q-18 16 -18 42z" />
<glyph unicode="S" horiz-adv-x="1193" d="M100 358v13q2 27 20.5 44t45.5 15t44 -20.5t17 -44.5v-9q0 -109 78 -186q55 -55 135 -84q74 -27 164 -27h2q78 0 142 21q72 23 118 67q76 72 76 175v4q0 27 17.5 45t44 18t45 -17.5t18.5 -43.5v-6l-6 2q0 -154 -115 -263q-68 -63 -164 -94q-86 -27 -180 -26h-2 q-109 0 -205 32q-109 37 -182 113q-113 112 -113 272zM305 1260q55 57 139 88q68 23 150 22h4q160 0 274 -86q139 -104 150 -274v-6q0 -23 -15 -39q-17 -18 -44 -20.5t-45.5 15t-20.5 44.5q-6 113 -100 182h10q-82 61 -203 61h-4q-59 0 -111 -18q-57 -20 -92 -55 q-49 -49 -55 -123q-2 -27 -20.5 -44.5t-45 -15.5t-44.5 21q-16 16 -15 39q0 119 88 209zM267 896q5 24 28 38q17 11 34 10q6 0 12 -1q24 -5 38 -28q20 -31 43 -53v-2q72 -74 196 -117q20 -8 68.5 -23t79.5 -26.5t73 -32t72 -43.5q35 -25 60 -49q15 -17 15 -41q0 -28 -19 -45 q-17 -15 -41 -15h-3q-26 1 -42 19q-20 20 -41 35q-33 23 -72 40.5t-104.5 38t-88.5 28.5q-154 55 -243 147q-31 35 -56 74q-11 17 -10 34q0 6 1 12z" />
<glyph unicode="T" horiz-adv-x="1173" d="M43 1310.5q0 26.5 17.5 44t43.5 17.5h961q27 0 44 -17.5t17 -44t-17 -44t-44 -17.5h-961q-27 0 -44 17.5t-17 44zM522 0v1126q0 27 17.5 44.5t44 17.5t44 -17.5t17.5 -44.5v-1126q0 -27 -17.5 -44t-44 -17t-44 17t-17.5 44z" />
<glyph unicode="U" horiz-adv-x="1413" d="M152 348v963q0 27 17 44t44 17t44 -17.5t17 -43.5v-963q0 -27 -17 -44t-44 -17t-44 17t-17 44zM246 190q18 16 43.5 15.5t42.5 -19.5q41 -43 100 -71l2 -2q106 -51 264 -51.5t269 53.5q59 29 100 71q16 18 42 19.5t44 -15t19.5 -42t-15.5 -44.5q-57 -61 -137 -100 q-131 -66 -322 -65q-182 0 -319 65q-80 39 -137 100q-15 17 -16 41q0 28 20 45zM1128 346v963q0 27 17.5 44t44.5 17t44 -17.5t17 -43.5v-963q0 -27 -17 -44t-44 -17t-44.5 17t-17.5 44z" />
<glyph unicode="V" horiz-adv-x="1269" d="M82 1288q-4 11 -4 22q0 13 6 25q10 23 35 33q11 4 21 4q13 0 26 -6q23 -10 33 -35l485 -1311q8 -25 -2 -47t-35 -32q-11 -4 -21 -4q-13 0 -26 6q-23 10 -33 34zM713 410l344 921q10 25 33 35q13 6 25 6q11 0 22 -4q25 -10 34 -33q6 -13 6 -25q0 -11 -3 -22l-345 -921 q-10 -25 -32 -35q-13 -6 -26 -6q-11 0 -21 4q-25 10 -35 32q-6 13 -6 26q0 11 4 22z" />
<glyph unicode="W" horiz-adv-x="1865" d="M82 1290q-4 11 -4 22q0 13 6 25q10 23 35 33q11 4 21 4q13 0 26 -6q23 -10 33 -35l485 -1310q8 -25 -2 -47.5t-35 -32.5q-11 -4 -21 -4q-13 0 -26 6q-23 10 -33 35zM690 354l365 979q10 25 32 35q13 6 26 6q11 0 22 -4q25 -10 35 -32.5t1 -47.5l-364 -979 q-10 -25 -32.5 -35t-47.5 -2q-25 10 -35 33q-6 13 -5 26q-1 10 3 21zM963 500q-4 10 -4 20q0 13 6 25q10 23 32 33q23 8 45.5 -2.5t32.5 -32.5l203 -520q8 -23 -2 -45.5t-33 -32.5q-10 -4 -20 -4l-25 6q-23 10 -33 33zM1305 403l346 930q10 25 32 35q13 6 26 6q11 0 22 -4 q25 -10 34 -33q6 -13 6 -25q0 -11 -4 -22l-346 -930q-10 -25 -32 -34q-13 -6 -26 -6q-11 0 -22 4q-25 10 -34 32q-6 13 -6 26q0 10 4 21z" />
<glyph unicode="X" horiz-adv-x="1597" d="M99 -2q0 24 16 41l489 528q16 18 42 19.5t44.5 -15t19.5 -42t-16 -44.5l-489 -528q-16 -18 -42 -19q-2 0 -3 -1q-24 0 -41 16q-20 17 -20 45zM203 1356q17 15 41 15h3q26 -1 42 -19l1198 -1311q15 -17 15 -41v-3q-1 -26 -19 -42q-17 -15 -41 -15h-3q-26 1 -42 19 l-1198 1311q-15 17 -16 41q0 28 20 45zM916 887q0 24 16 41l389 422q16 18 42 19h3q24 0 41 -15q18 -16 19 -42v-3q0 -24 -15 -41l-389 -422q-16 -18 -42 -20h-3q-24 0 -41 16q-20 17 -20 45z" />
<glyph unicode="Y" horiz-adv-x="1349" d="M70 1356q17 15 41 15h3q26 -1 42 -19l559 -611q16 -18 15 -43.5t-19.5 -42t-44 -15.5t-41.5 19l-559 611q-15 17 -16 41q0 28 20 45zM608 0v492q0 27 17.5 44t44 17t44 -17.5t17.5 -43.5v-492q0 -27 -17.5 -44t-44 -17t-44 17t-17.5 44zM816 926q0 24 15 41l355 385 q16 18 42 19h3q24 0 41 -15q18 -16 19 -42v-3q0 -24 -15 -41l-354 -385q-16 -18 -42 -20h-3q-24 0 -41 16q-20 17 -20 45z" />
<glyph unicode="Z" horiz-adv-x="1439" d="M113 -1q0 21 14 38l905 1118q14 20 40 23.5t46 -13.5q20 -14 23.5 -39.5t-13.5 -46.5l-905 -1118q-14 -20 -40 -23q-4 0 -8 -1q-21 0 -38 14q-24 17 -24 48zM150 1312.5q0 26.5 17 44t44 17.5h1012q27 0 44 -17.5t17 -44t-17.5 -44t-43.5 -17.5h-1012q-27 0 -44 17.5 t-17 44zM418 0q0 27 17.5 44t43.5 17h817q27 0 44.5 -17t17.5 -44t-17.5 -44t-44.5 -17h-817q-27 0 -44 17t-17 44z" />
<glyph unicode="[" horiz-adv-x="348" d="M70 1319q0 27 17 44t44 17h141q27 0 44.5 -17t17.5 -44t-17.5 -44.5t-44.5 -17.5h-79l2 -1359h77q27 0 44.5 -17.5t17.5 -44t-17.5 -44t-44.5 -17.5h-139q-27 0 -44 17.5t-17 43.5z" />
<glyph unicode="\" horiz-adv-x="495" d="M-18 1300q-8 25 4 47.5t36.5 30.5t47 -4t30.5 -37l414 -1319q8 -25 -4 -47t-36.5 -30.5t-47.5 4t-31 37.5z" />
<glyph unicode="]" horiz-adv-x="348" d="M-8 -163.5q0 26.5 17.5 44t43.5 17.5h80l-2 1359h-78q-27 0 -44 17.5t-17 44.5t17.5 44t43.5 17h140q27 0 44 -17t17 -44l2 -1483q0 -27 -17.5 -44t-43.5 -17h-142q-27 0 -44 17.5t-17 44z" />
<glyph unicode="^" horiz-adv-x="333" d="M-46 1029.5q-3 25.5 13 45.5l150 195l-2 -2q18 25 49 24.5t49 -24.5l147 -195q14 -20 11.5 -44.5t-23.5 -41.5q-20 -14 -44.5 -11t-41.5 23l-98 131l-101 -131q-14 -20 -39.5 -23t-46.5 13q-20 15 -23 40.5z" />
<glyph unicode="_" horiz-adv-x="784" d="M-61 -16.5q0 26.5 17 44t44 17.5h784q27 0 44.5 -17.5t17.5 -44t-17.5 -44t-44.5 -17.5h-784q-27 0 -44 17.5t-17 44z" />
<glyph unicode="`" horiz-adv-x="208" d="M-35 1253.5q8 24.5 30.5 34.5t47.5 2t35 -30q49 -98 141 -175l-2 2q20 -16 22.5 -41.5t-14 -46t-42 -22.5t-46.5 14q-113 96 -170 215q-10 23 -2 47.5z" />
<glyph unicode="a" d="M40 -23q-4 12 -4 23q0 12 5 25l455 1060q10 23 34.5 32t47 -1t31.5 -34.5t-1 -47.5l-454 -1061q-10 -23 -35 -31q-12 -4 -23 -5q-12 0 -24 6q-23 9 -32 34zM432 462.5q0 26.5 17.5 44t44.5 17.5h327q27 0 44.5 -17.5t17.5 -44t-17.5 -44t-44.5 -17.5h-327 q-27 0 -44.5 17.5t-17.5 44zM603 1331q9 25 32 35q12 5 24 5q11 0 23 -4q25 -9 35 -32l561 -1310q5 -12 5 -25q0 -11 -4 -23q-9 -25 -32 -34q-12 -5 -24 -6q-11 0 -23 5q-25 9 -35 31l-561 1311q-5 12 -5 24q0 11 4 23z" />
<glyph unicode="b" horiz-adv-x="1386" d="M174 -2v1311q0 27 17.5 44t44 17t44 -17.5t17.5 -43.5v-1311q0 -27 -17.5 -44t-44 -17t-44 17t-17.5 44zM365 1308.5q0 26.5 17 44t44 17.5h313q211 0 305.5 -103.5t94.5 -256.5q0 -150 -105.5 -242t-294.5 -92h-295q-27 0 -44 17.5t-17 44t17.5 44t43.5 17.5h295 q135 0 206 57t71 154q0 238 -277 237h-313q-27 0 -44 17.5t-17 44zM379 0q0 27 17.5 44t43.5 17h330q72 0 132.5 14.5t114.5 48.5t86 99.5t32 155.5v2q0 154 -86 229q-20 16 -21.5 42t15 46.5t41.5 21.5h3q24 0 43 -15q129 -113 130 -324l-3 -2q0 -207 -131 -323.5 t-356 -116.5h-330q-27 0 -44 17t-17 44z" />
<glyph unicode="c" horiz-adv-x="1318" d="M74 623v26q0 160 57 301q84 209 260 324q152 98 334 98t334 -98q20 -14 26.5 -40t-8 -46.5t-40 -26.5t-46.5 8q-123 78 -266 78t-266 -78q-143 -94 -213 -270q-49 -121 -49 -252v-20q6 -150 69 -271q70 -135 193 -212.5t268 -82.5h8q215 0 369 154q18 18 44 18t44 -18 t18 -44t-18 -44q-188 -188 -455 -188l-6 4h-8q-182 4 -332 100q-154 96 -235 258q-76 148 -82 322z" />
<glyph unicode="d" horiz-adv-x="1255" d="M172 4v1311q0 27 17.5 44t44 17t44 -17.5t17.5 -43.5v-1311q0 -27 -17.5 -44t-44 -17t-44 17t-17.5 44zM346 0q0 27 17.5 44t44.5 17h96h26h27q59 2 121 23q125 41 207 139q68 78 100 199q29 100 29 225v4q0 119 -27 223q-29 109 -92 191q-59 76 -143 119q-80 41 -183 57 q-29 4 -77 8h-70q-27 0 -44.5 17.5t-17.5 44t17.5 44t44.5 17.5h72l-5 4q66 -4 95 -8q123 -20 221 -72q111 -57 182 -151q78 -98 115 -236q31 -115 31 -254v-4q0 -143 -31 -260q-41 -147 -123 -246q-104 -127 -264 -178q-78 -27 -152 -28h-33h-30h-92q-27 0 -44.5 17 t-17.5 44z" />
<glyph unicode="e" horiz-adv-x="1251" d="M174 0v1311q0 27 17.5 44t44 17t44 -17.5t17.5 -43.5v-1311q0 -27 -17.5 -44t-44 -17t-44 17t-17.5 44zM346 0q0 27 17.5 44t44.5 17h655q27 0 44 -17t17 -44t-17 -44t-44 -17h-655q-27 0 -44.5 17t-17.5 44zM350 704.5q0 26.5 17.5 44t44.5 17.5h528q27 0 44 -17.5 t17 -44t-17 -44t-44 -17.5h-528q-27 0 -44.5 17.5t-17.5 44zM350 1310.5q0 26.5 17.5 44t44.5 17.5h649q27 0 44 -17.5t17 -44t-17.5 -44t-43.5 -17.5h-649q-27 0 -44.5 17.5t-17.5 44z" />
<glyph unicode="f" horiz-adv-x="1169" d="M174 0v1311q0 27 17.5 44t44 17t44 -17.5t17.5 -43.5v-1311q0 -27 -17.5 -44t-44 -17t-44 17t-17.5 44zM350 704.5q0 26.5 17.5 44t44.5 17.5h495q27 0 44.5 -17.5t17.5 -44t-17.5 -44t-44.5 -17.5h-495q-27 0 -44.5 17.5t-17.5 44zM350 1310.5q0 26.5 17.5 44t44.5 17.5 h616q27 0 44.5 -17.5t17.5 -44t-17.5 -44t-44.5 -17.5h-616q-27 0 -44.5 17.5t-17.5 44z" />
<glyph unicode="g" horiz-adv-x="1376" d="M82 621v12v12q0 51 6 105q6 51 18.5 100t30.5 98q31 70 64 123q37 59 86 111q47 51 108 92q53 33 104.5 53.5t112.5 32.5q59 12 116.5 12t117.5 -12q61 -12 112.5 -32.5t104.5 -53.5q20 -14 26.5 -40t-8 -46.5t-40 -26.5t-46.5 8q-37 23 -84 43l4 7q-37 16 -90 26 q-51 10 -92 10t-92 -10q-53 -10 -90 -26q-47 -20 -84 -43q-43 -27 -88 -72q-43 -47 -72 -92q-33 -53 -53 -105q-12 -33 -27 -82q-12 -43 -18 -86t-6 -86v-12v-12q2 -47 12 -92q10 -49 25 -91q16 -45 36 -84q23 -43 52 -81q31 -39 67 -74q37 -37 74 -59.5t84 -43.5 q37 -16 90 -26q51 -10 92 -10q59 0 121 16q55 14 111 47q131 78 159 215q8 33 9 82v209q0 27 17 44t44 17t44 -17t17 -44v-207q0 -66 -8 -108q-41 -190 -219 -297q-66 -39 -143 -62q-70 -20 -152 -20q-59 0 -117 12q-51 10 -112 35q-51 20 -105 53q-45 29 -92 72 q-43 41 -80 86q-35 43 -63 98q-23 47 -43 102q-20 57 -29 109q-8 56 -12 111zM553 639q0 27 18.5 44t44.5 17l388 -2q27 0 44 -18t17 -45t-18.5 -44.5t-45.5 -17.5l-387 2q-27 0 -44 18.5t-17 45.5z" />
<glyph unicode="h" horiz-adv-x="1361" d="M172 0v1311q0 27 17.5 44t44 17t44 -17.5t17.5 -43.5v-1311q0 -27 -17.5 -44t-44 -17t-44 17t-17.5 44zM348 704.5q0 26.5 17.5 44t44.5 17.5h544q27 0 44.5 -17.5t17.5 -44t-17.5 -44t-44.5 -17.5h-544q-27 0 -44.5 17.5t-17.5 44zM1065 0v1311q0 27 17.5 44t44 17 t44 -17.5t17.5 -43.5v-1311q0 -27 -17.5 -44t-44 -17t-44 17t-17.5 44z" />
<glyph unicode="i" horiz-adv-x="471" d="M174 0v1311q0 27 17.5 44t44 17t44 -17.5t17.5 -43.5v-1311q0 -27 -17.5 -44t-44 -17t-44 17t-17.5 44z" />
<glyph unicode="j" horiz-adv-x="1167" d="M92 360q0 21 14 38q16 19 41 21.5t44.5 -14t21.5 -40.5q10 -131 109 -220q96 -88 227 -88h2q143 0 242 105q23 25 43 59q12 23 35.5 29t46 -6.5t28.5 -36t-6 -45.5q-23 -41 -59 -80v2q-137 -143 -332 -143h-2q-176 0 -307 118q-148 135 -148 301zM883 416v895 q0 27 17.5 44t44 17t44 -17.5t17.5 -43.5v-895q0 -27 -17.5 -44.5t-44 -17.5t-44 17.5t-17.5 44.5z" />
<glyph unicode="k" horiz-adv-x="1255" d="M174 0v1311q0 27 17.5 44t44 17t44 -17.5t17.5 -43.5v-1311q0 -27 -17.5 -44t-44 -17t-44 17t-17.5 44zM328 717.5q0 25.5 18 44.5l596 596q18 18 44 18t44.5 -18.5t18.5 -44t-19 -43.5l-596 -596q-18 -18 -43.5 -18.5t-44 18t-18.5 44zM461 586.5q0 25.5 18.5 44 t44 18.5t43.5 -18l586 -586q18 -18 18 -44t-18 -44t-44 -18t-44 18l-586 586q-18 18 -18 43.5z" />
<glyph unicode="l" horiz-adv-x="1142" d="M174 0v1311q0 27 17.5 44t44 17t44 -17.5t17.5 -43.5v-1311q0 -27 -17.5 -44t-44 -17t-44 17t-17.5 44zM379 0q0 27 17.5 44t43.5 17h617q27 0 44 -17t17 -44t-17.5 -44t-43.5 -17h-617q-27 0 -44 17t-17 44z" />
<glyph unicode="m" horiz-adv-x="1830" d="M174 0v1311q0 27 17.5 44t44 17t44 -17.5t17.5 -43.5v-1311q0 -27 -17.5 -44t-44 -17t-44 17t-17.5 44zM354 991q8 25 31 35t47.5 2t34.5 -31l491 -972q10 -23 2 -47.5t-30 -34.5q-13 -6 -26 -6q-11 0 -21 4q-25 8 -35 30l-492 973q-6 13 -5 26q-1 10 3 21zM991 240 q-3 10 -3 19q0 14 7 28l547 1052q12 23 37 31q10 3 19 3q14 0 28 -7q23 -12 31 -37q3 -10 3 -19q0 -14 -7 -28l-547 -1053q-12 -23 -37 -31t-47.5 4.5t-30.5 37.5zM1536 0v913q0 27 17.5 44.5t44 17.5t44 -17.5t17.5 -44.5v-913q0 -27 -17.5 -44t-44 -17t-44 17t-17.5 44z " />
<glyph unicode="n" horiz-adv-x="1357" d="M176 0v901q0 27 17.5 44.5t44 17.5t44 -17.5t17.5 -44.5v-901q0 -27 -17.5 -44t-44 -17t-44 17t-17.5 44zM178 1322q6 26 26.5 40t46 8t40.5 -27l887 -1310q10 -14 10 -31q0 -7 -2 -15q-6 -26 -27 -40q-14 -10 -31 -10q-7 0 -15 2q-26 6 -40 26l-887 1311q-10 14 -10 31 q0 7 2 15zM1063 410v901q0 27 17.5 44t44 17t44 -17.5t17.5 -43.5v-901q0 -27 -17.5 -44.5t-44 -17.5t-44 17.5t-17.5 44.5z" />
<glyph unicode="o" horiz-adv-x="1509" d="M76 655q0 295 193.5 506t470 211t470 -211t193.5 -506t-193.5 -505.5t-470 -210.5t-470 210.5t-193.5 505.5zM197 655.5q0 -247.5 158.5 -421t382 -173.5t382 173.5t158.5 421t-158.5 420.5t-382 173t-382 -173t-158.5 -420.5z" />
<glyph unicode="p" horiz-adv-x="1241" d="M176 0v1311q0 27 17.5 44t44 17t44 -17.5t17.5 -43.5v-1311q0 -27 -17.5 -44t-44 -17t-44 17t-17.5 44zM383 1310.5q0 26.5 17.5 44t43.5 17.5h297q199 0 302.5 -121t103.5 -301q0 -186 -107.5 -292.5t-273.5 -106.5h-315q-27 0 -44.5 17.5t-17.5 44t17.5 44t44.5 17.5 h315q119 0 188.5 72.5t69.5 203.5q0 121 -64.5 210t-218.5 89h-297q-27 0 -44 17.5t-17 44z" />
<glyph unicode="q" horiz-adv-x="1531" d="M76 651q0 295 193.5 506t470 211t470 -211t193.5 -506q0 -188 -88 -354q-12 -23 -37 -31t-47.5 4.5t-30.5 37t4 46.5q74 137 74 299q0 248 -158.5 421t-382 173t-382 -173t-158.5 -420.5t158.5 -421t381.5 -173.5q104 0 205 45q23 10 47.5 1t34.5 -31.5t1 -47t-32 -34.5 q-119 -53 -254 -53v-5q-276 0 -469.5 211t-193.5 506zM713 513q0 26 18.5 44t44 18t43.5 -18l514 -514q18 -18 18.5 -44t-18 -44t-44 -18t-44.5 18l-514 514q-18 18 -18 44z" />
<glyph unicode="r" horiz-adv-x="1331" d="M176 0v1311q0 27 17.5 44t44 17t44 -17.5t17.5 -43.5v-1311q0 -27 -17.5 -44t-44 -17t-44 17t-17.5 44zM381 1310.5q0 26.5 17.5 44t43.5 17.5h324v-2q176 0 279.5 -95t103.5 -278q0 -178 -102.5 -271t-276.5 -93h-315q-27 0 -44.5 17.5t-17.5 44t17.5 44t44.5 17.5h315 q256 0 256 243q0 250 -260 250h-324q-27 0 -44 17.5t-17 44zM535 529.5q0 25.5 16 44t41.5 18.5t44.5 -17l561 -532q18 -16 18.5 -42t-16 -44t-42 -18t-44.5 16l-561 532q-18 17 -18 42.5z" />
<glyph unicode="s" horiz-adv-x="1193" d="M100 358v13q2 27 20.5 44t45.5 15t44 -20.5t17 -44.5v-9q0 -109 78 -186q55 -55 135 -84q74 -27 164 -27h2q78 0 142 21q72 23 118 67q76 72 76 175v4q0 27 17.5 45t44 18t45 -17.5t18.5 -43.5v-6l-6 2q0 -154 -115 -263q-68 -63 -164 -94q-86 -27 -180 -26h-2 q-109 0 -205 32q-109 37 -182 113q-113 112 -113 272zM305 1260q55 57 139 88q68 23 150 22h4q160 0 274 -86q139 -104 150 -274v-6q0 -23 -15 -39q-17 -18 -44 -20.5t-45.5 15t-20.5 44.5q-6 113 -100 182h10q-82 61 -203 61h-4q-59 0 -111 -18q-57 -20 -92 -55 q-49 -49 -55 -123q-2 -27 -20.5 -44.5t-45 -15.5t-44.5 21q-16 16 -15 39q0 119 88 209zM267 896q5 24 28 38q17 11 34 10q6 0 12 -1q24 -5 38 -28q20 -31 43 -53v-2q72 -74 196 -117q20 -8 68.5 -23t79.5 -26.5t73 -32t72 -43.5q35 -25 60 -49q15 -17 15 -41q0 -28 -19 -45 q-17 -15 -41 -15h-3q-26 1 -42 19q-20 20 -41 35q-33 23 -72 40.5t-104.5 38t-88.5 28.5q-154 55 -243 147q-31 35 -56 74q-11 17 -10 34q0 6 1 12z" />
<glyph unicode="t" horiz-adv-x="1173" d="M43 1310.5q0 26.5 17.5 44t43.5 17.5h961q27 0 44 -17.5t17 -44t-17 -44t-44 -17.5h-961q-27 0 -44 17.5t-17 44zM522 0v1126q0 27 17.5 44.5t44 17.5t44 -17.5t17.5 -44.5v-1126q0 -27 -17.5 -44t-44 -17t-44 17t-17.5 44z" />
<glyph unicode="u" horiz-adv-x="1413" d="M152 348v963q0 27 17 44t44 17t44 -17.5t17 -43.5v-963q0 -27 -17 -44t-44 -17t-44 17t-17 44zM246 190q18 16 43.5 15.5t42.5 -19.5q41 -43 100 -71l2 -2q106 -51 264 -51.5t269 53.5q59 29 100 71q16 18 42 19.5t44 -15t19.5 -42t-15.5 -44.5q-57 -61 -137 -100 q-131 -66 -322 -65q-182 0 -319 65q-80 39 -137 100q-15 17 -16 41q0 28 20 45zM1128 346v963q0 27 17.5 44t44.5 17t44 -17.5t17 -43.5v-963q0 -27 -17 -44t-44 -17t-44.5 17t-17.5 44z" />
<glyph unicode="v" horiz-adv-x="1269" d="M82 1288q-4 11 -4 22q0 13 6 25q10 23 35 33q11 4 21 4q13 0 26 -6q23 -10 33 -35l485 -1311q8 -25 -2 -47t-35 -32q-11 -4 -21 -4q-13 0 -26 6q-23 10 -33 34zM713 410l344 921q10 25 33 35q13 6 25 6q11 0 22 -4q25 -10 34 -33q6 -13 6 -25q0 -11 -3 -22l-345 -921 q-10 -25 -32 -35q-13 -6 -26 -6q-11 0 -21 4q-25 10 -35 32q-6 13 -6 26q0 11 4 22z" />
<glyph unicode="w" horiz-adv-x="1865" d="M82 1290q-4 11 -4 22q0 13 6 25q10 23 35 33q11 4 21 4q13 0 26 -6q23 -10 33 -35l485 -1310q8 -25 -2 -47.5t-35 -32.5q-11 -4 -21 -4q-13 0 -26 6q-23 10 -33 35zM690 354l365 979q10 25 32 35q13 6 26 6q11 0 22 -4q25 -10 35 -32.5t1 -47.5l-364 -979 q-10 -25 -32.5 -35t-47.5 -2q-25 10 -35 33q-6 13 -5 26q-1 10 3 21zM963 500q-4 10 -4 20q0 13 6 25q10 23 32 33q23 8 45.5 -2.5t32.5 -32.5l203 -520q8 -23 -2 -45.5t-33 -32.5q-10 -4 -20 -4l-25 6q-23 10 -33 33zM1305 403l346 930q10 25 32 35q13 6 26 6q11 0 22 -4 q25 -10 34 -33q6 -13 6 -25q0 -11 -4 -22l-346 -930q-10 -25 -32 -34q-13 -6 -26 -6q-11 0 -22 4q-25 10 -34 32q-6 13 -6 26q0 10 4 21z" />
<glyph unicode="x" horiz-adv-x="1597" d="M99 -2q0 24 16 41l489 528q16 18 42 19.5t44.5 -15t19.5 -42t-16 -44.5l-489 -528q-16 -18 -42 -19q-2 0 -3 -1q-24 0 -41 16q-20 17 -20 45zM203 1356q17 15 41 15h3q26 -1 42 -19l1198 -1311q15 -17 15 -41v-3q-1 -26 -19 -42q-17 -15 -41 -15h-3q-26 1 -42 19 l-1198 1311q-15 17 -16 41q0 28 20 45zM916 887q0 24 16 41l389 422q16 18 42 19h3q24 0 41 -15q18 -16 19 -42v-3q0 -24 -15 -41l-389 -422q-16 -18 -42 -20h-3q-24 0 -41 16q-20 17 -20 45z" />
<glyph unicode="y" horiz-adv-x="1349" d="M70 1356q17 15 41 15h3q26 -1 42 -19l559 -611q16 -18 15 -43.5t-19.5 -42t-44 -15.5t-41.5 19l-559 611q-15 17 -16 41q0 28 20 45zM608 0v492q0 27 17.5 44t44 17t44 -17.5t17.5 -43.5v-492q0 -27 -17.5 -44t-44 -17t-44 17t-17.5 44zM816 926q0 24 15 41l355 385 q16 18 42 19h3q24 0 41 -15q18 -16 19 -42v-3q0 -24 -15 -41l-354 -385q-16 -18 -42 -20h-3q-24 0 -41 16q-20 17 -20 45z" />
<glyph unicode="z" horiz-adv-x="1439" d="M113 -1q0 21 14 38l905 1118q14 20 40 23.5t46 -13.5q20 -14 23.5 -39.5t-13.5 -46.5l-905 -1118q-14 -20 -40 -23q-4 0 -8 -1q-21 0 -38 14q-24 17 -24 48zM150 1312.5q0 26.5 17 44t44 17.5h1012q27 0 44 -17.5t17 -44t-17.5 -44t-43.5 -17.5h-1012q-27 0 -44 17.5 t-17 44zM418 0q0 27 17.5 44t43.5 17h817q27 0 44.5 -17t17.5 -44t-17.5 -44t-44.5 -17h-817q-27 0 -44 17t-17 44z" />
<glyph unicode="{" horiz-adv-x="348" d="M-33 571.5q0 26.5 17.5 44t44.5 17.5q35 0 41 2v647q0 51 32.5 82t85.5 31q45 0 107 -21q25 -8 35 -32.5t-0.5 -47t-34 -33t-45.5 0.5q-25 10 -57 14l-3 -664q0 -27 -12 -45q4 -8 7 -18t4 -17.5t1 -9.5v-655q8 20 78 22q2 0 2 2.5t2 2.5q4 0 4 -5q25 -4 40.5 -23.5 t13.5 -43.5q-4 -25 -23.5 -40t-44.5 -13q-195 35 -194 100v637q-16 4 -39 4q-27 0 -44.5 17.5t-17.5 44z" />
<glyph unicode="|" horiz-adv-x="245" d="M61 -86v1405q0 27 17.5 44t44.5 17t44 -17t17 -44v-1405q0 -27 -17 -44t-44 -17t-44.5 17t-17.5 44z" />
<glyph unicode="}" horiz-adv-x="348" d="M14 -164q-2 25 13.5 44.5t40.5 23.5h2q12 0 38.5 -9.5t43.5 -11.5v654q0 2 1 9t4 17t7 19q-12 18 -12 45v653q-33 -4 -58 -14q-23 -10 -46 0t-33.5 32.5t0 47t34.5 32.5q61 20 107 21q53 0 85.5 -31t32.5 -82v-647q6 -2 41 -2q27 0 44.5 -17.5t17.5 -44t-17.5 -44 t-44.5 -17.5q-23 0 -39 -4v-629q0 -59 -34.5 -90t-81.5 -31q-31 0 -48.5 3.5t-21.5 7.5t-6 7t-4 3q-25 -2 -43.5 14t-22.5 41z" />
<glyph unicode="~" horiz-adv-x="540" d="M-16 1112q0 49 26 88q35 57 115 64h12h17q27 -2 59 -17q25 -10 66 -43q68 -57 83 -63q14 -6 29 -6h2q12 0 25 8q10 6 14 16t2 8l-2 -4q2 4 2 11l-2 6q-4 25 10.5 46t39 25t46 -10t25.5 -39q4 -12 4 -31l12 -2q-2 -29 -8 -47q0 -4 -6 -16q-20 -45 -61 -71.5t-86 -28.5h-9 q-39 0 -75 16q-33 12 -117 82q-23 18 -39 24q-12 6 -21 7h-6h-4q-16 0 -24 -11q-4 -6 -4 -14v-6q8 -25 -3.5 -47.5t-36 -30.5t-47 3t-30.5 35.5t-8 47.5z" />
<glyph unicode="&#xa0;" horiz-adv-x="370" d="M33 647.5q0 26.5 17.5 44t43.5 17.5h172q27 0 44.5 -17.5t17.5 -44t-17.5 -44t-44.5 -17.5h-172q-27 0 -44 17.5t-17 44z" />
<glyph unicode="&#xa1;" horiz-adv-x="266" d="M-4 1153q0 57 40 97t97 40t97 -40t40 -97t-40 -97t-97 -40t-97 40t-40 97zM72 -90v1003q0 27 17 44.5t44 17.5t44.5 -17.5t17.5 -44.5v-1003q0 -27 -17.5 -44.5t-44.5 -17.5t-44 17.5t-17 44.5z" />
<glyph unicode="&#xa2;" horiz-adv-x="1224" d="M72 569v27q0 141 53 276q76 193 240 299q139 92 305 92.5t305 -92.5q20 -12 25.5 -34.5t-7 -43t-35 -25.5t-43.5 7q-111 74 -245.5 74t-245.5 -74q-133 -86 -195 -246q-43 -111 -43 -233v-21q4 -135 62 -247q63 -123 176 -195q115 -72 246 -76h8q199 0 340 142 q39 39 80 0q16 -16 16 -40t-16 -40q-174 -174 -418 -174h-6h-8q-166 4 -303.5 90t-215.5 237q-69 135 -75 297zM592 225v729q0 27 17.5 44.5t44 17.5t44 -17.5t17.5 -44.5v-729q0 -27 -17.5 -44t-44 -17t-44 17t-17.5 44z" />
<glyph unicode="&#xa3;" horiz-adv-x="931" d="M-33 96v8q2 53 33 95q29 39 74 61q43 20 94 21q41 0 78 -13l18 -6q6 57 6 121v6q0 61 -6 123h-180q-27 0 -44 17.5t-17 44t17 44t44 17.5h160l-2 8q-6 23 -23.5 86.5t-25.5 101.5q-16 70 -17 134q0 47 8 86q23 104 95 172q76 74 180 86q16 2 41 2q66 0 123 -25 q78 -31 131 -100q53 -68 65 -154q4 -33 4 -49q0 -59 -18 -115q-10 -25 -32.5 -35t-47.5 -2q-25 10 -35 33t-2 47q12 35 12 72l7 -2q0 20 -2 31q-10 55 -43 94q-37 43 -84 61q-39 16 -78 17q-18 0 -27 -2q-66 -10 -108 -54q-47 -43 -62 -108q-6 -29 -6 -59q0 -39 14 -105 q8 -31 25.5 -92.5t25.5 -93.5l7 -37h288q27 0 44.5 -17.5t17.5 -44t-17.5 -44t-44.5 -17.5h-268q6 -61 6 -123v-8q0 -109 -14 -180q102 -68 121 -78q61 -33 121 -41q12 -2 36 -2q51 0 101 22q63 29 96 90q12 23 37 31t47.5 -4t30.5 -36.5t-4 -47.5q-51 -98 -152 -145 q-72 -33 -153 -33q-18 0 -56 4q-80 10 -162 55q-31 16 -100 64q-35 -76 -96 -117q-37 -25 -84 -31q-4 0 -14.5 -1t-12.5 -1q-31 2 -49 9q-4 2 -16 6q-49 18 -78 63q-27 39 -27 90zM90 96q0 -12 8 -24q6 -10 23 -17q4 -2 6 -2q6 -2 16 -2h9q16 2 30 12q31 23 54 70l4 10 l-4 -2q-16 8 -25 11q-23 6 -43 6q-27 0 -43 -8.5t-27 -22.5q-8 -14 -8 -29v-2z" />
<glyph unicode="&#xa4;" horiz-adv-x="991" d="M84 320.5q0 25.5 18 44.5l111 110q-61 90 -61 196.5t61 196.5l-111 111q-18 18 -18 44t18.5 44t44 18t43.5 -18l111 -111q88 61 196.5 61.5t196.5 -61.5l111 111q18 18 43.5 18t44 -18t18.5 -44t-18 -44l-111 -111q61 -90 61.5 -196.5t-61.5 -196.5l111 -110 q18 -18 18 -44t-18.5 -44.5t-44 -18.5t-43.5 18l-111 111q-88 -61 -196.5 -61t-196.5 61l-111 -111q-18 -18 -43.5 -18t-44 18.5t-18.5 44zM276 672q0 -92 63.5 -155.5t156.5 -63.5q82 0 143 55q2 4 10 12t13 10q55 61 55 144q0 92 -64 155l-2 -2q-63 63 -155 64 q-86 0 -150 -57l-6 -7l-6 -6q-58 -63 -58 -149z" />
<glyph unicode="&#xa5;" horiz-adv-x="1413" d="M85 1315.5q-1 -25.5 15 -43.5l467 -510h164l-541 592q-16 18 -41.5 19t-44 -15.5t-19.5 -42zM332 497.5q0 22.5 17.5 39t43.5 16.5h643q27 0 44.5 -16.5t17.5 -39t-17.5 -39t-44.5 -16.5h-272v-444q0 -27 -17.5 -44t-44 -17t-44 17t-17.5 44v444h-248q-27 0 -44 16.5 t-17 39zM332 706.5q0 22.5 17.5 39t43.5 16.5h172l76 -82q18 -18 44 -17t44 19q23 20 27 28.5t-8 30.5l-17 19h305v2q27 0 44.5 -16.5t17.5 -39t-17.5 -39t-44.5 -16.5h-643q-27 0 -44 16.5t-17 39zM851 924.5q-1 25.5 15 44.5l355 385q16 18 41.5 19t44 -15.5t19.5 -42 t-15 -43.5l-355 -385q-16 -18 -41.5 -19.5t-44 15t-19.5 42z" />
<glyph unicode="&#xa6;" horiz-adv-x="245" d="M61 0v481q0 27 17.5 44.5t44.5 17.5t44 -17.5t17 -44.5v-481q0 -27 -17 -44t-44 -17t-44.5 17t-17.5 44zM61 772v481q0 27 17.5 44.5t44.5 17.5t44 -17.5t17 -44.5v-481q0 -27 -17 -44t-44 -17t-44.5 17t-17.5 44z" />
<glyph unicode="&#xa7;" horiz-adv-x="1257" d="M90 -19.5q-2 25.5 14.5 46t42 22.5t46.5 -14q37 -29 71 -53l2 4q115 -74 238 -92q33 -6 67 -7q76 0 144 25q94 33 147 102q53 68 53 150v14q-2 61 -38 117q-33 49 -93 86q-35 20 -78.5 36.5t-107 34t-84.5 23.5q-147 47 -229 121q-53 47 -88 113q-37 68 -39 143v16 q0 88 41 164q35 68 100 117q8 27 25 55q43 84 122 131q74 45 166 51h29q70 0 137 -22q84 -27 160 -84v45q0 27 17.5 44t44 17t44 -17t17.5 -44v-195q0 -47 -43 -59q-43 -14 -70 23q-86 117 -211 157q-53 16 -98 17h-21q-59 -4 -110 -35q-53 -33 -80 -84q-12 -20 -18 -47 q0 -8 -2 -12q-6 -25 -7 -50v-12q4 -51 25 -94q23 -43 59 -78q61 -57 183 -96q23 -6 70.5 -20.5t78.5 -23.5t73 -26.5t75 -38.5q80 -49 129 -123q55 -82 61 -176v-22q0 -125 -78 -226q-35 -45 -65 -69q-23 -59 -58 -103q-78 -96 -204 -139q-90 -31 -183 -31q-43 0 -86 7 q-147 20 -284 108q-47 31 -84 62q-21 16 -23 41.5zM279 854q4 -51 24 -94q23 -43 59 -78q61 -57 183 -96q23 -6 71 -20.5t78.5 -24t72.5 -26.5t75 -38q80 -49 129 -123q33 -51 47 -104l4 2q12 37 12 78v14q-2 61 -39 117q-33 49 -92 86q-35 20 -79 36.5t-107.5 34 t-83.5 23.5q-147 47 -230 121q-53 47 -88 112q-16 35 -24 70q-12 -37 -12 -78v-12z" />
<glyph unicode="&#xa8;" horiz-adv-x="532" d="M78 1192q0 31 21.5 54.5t56.5 23.5q31 0 54 -21.5t23 -56.5q0 -31 -21.5 -54.5t-55.5 -23.5q-31 0 -54.5 21.5t-23.5 56.5zM299 1192q0 31 21.5 54.5t56.5 23.5q31 0 54.5 -21.5t23.5 -56.5q0 -31 -21.5 -54.5t-56.5 -23.5q-31 0 -54.5 21.5t-23.5 56.5z" />
<glyph unicode="&#xa9;" horiz-adv-x="434" d="M4 1065q0 86 60.5 146.5t146.5 60.5t146.5 -60.5t60.5 -146.5t-60.5 -146.5t-146.5 -60.5t-146.5 60.5t-60.5 146.5zM45 1065q0 -70 48 -118t118 -48t118 48t48 118t-48 118t-118 48t-118 -48t-48 -118zM117 1067v12q4 43 18.5 67.5t38.5 39.5q23 12 47 12h8 q20 -2 37 -12q6 10 19 10q20 0 20 -20v-31l-6 -6q0 -16 -14.5 -20.5t-22.5 7.5q-10 20 -41 23h-4q-16 0 -28.5 -6t-22.5 -23q-10 -18 -14 -49v-8q0 -29 12 -47q10 -14 26.5 -22.5t40.5 -8.5q23 0 48 10q18 8 26 -10t-10 -27q-29 -12 -62 -12q-29 0 -57 12q-27 16 -43 39 q-16 31 -16 70z" />
<glyph unicode="&#xaa;" horiz-adv-x="729" d="M223 791l236 552q10 29 41 19q29 -10 18 -41l-235 -553q-10 -29 -41 -18q-29 10 -19 41zM424 1018q0 33 33 33h170q33 0 32.5 -33t-32.5 -33h-170q-33 0 -33 33zM512 1452q-10 31 18 41q31 10 41 -18l291 -684q10 -31 -18 -41q-31 -10 -41 18z" />
<glyph unicode="&#xab;" horiz-adv-x="872" d="M74 262q0 39 37 55q25 10 110 56q39 20 121 69q23 12 46.5 6t35.5 -28.5t6 -46t-29 -35.5q-102 -55 -129 -70l-6 -6l4 -2q27 -14 129 -70q23 -12 29 -35.5t-6 -46t-36 -28.5t-46 6q-82 45 -121 66q-86 45 -110 55q-35 16 -35 55zM442 266q0 39 37 56q74 33 111 51 q41 20 123 65q23 12 46 6t35.5 -28.5t6.5 -46t-29 -35.5q-82 -45 -125 -66v-2q41 -20 123 -65q23 -12 29 -36t-6.5 -46.5t-36 -28.5t-45.5 6q-41 23 -123 64q-37 18 -111 51q-35 16 -35 55z" />
<glyph unicode="&#xac;" horiz-adv-x="567" d="M-29 575.5q0 26.5 17.5 44t44.5 17.5h502q27 0 44 -17.5t17 -44.5v-147q0 -27 -17.5 -44t-44 -17t-44 17t-17.5 44v86h-440q-27 0 -44.5 17.5t-17.5 44z" />
<glyph unicode="&#xad;" horiz-adv-x="323" d="M-31 575.5q0 26.5 17.5 44t44.5 17.5h258h-2q27 0 44 -17.5t17 -44t-17.5 -44t-43.5 -17.5h-256q-27 0 -44.5 17.5t-17.5 44z" />
<glyph unicode="&#xae;" horiz-adv-x="434" d="M14 1069q0 86 60.5 146.5t146.5 60.5t146.5 -60.5t60.5 -146.5t-60.5 -146.5t-146.5 -60.5t-146.5 60.5t-60.5 146.5zM55 1069q0 -70 48.5 -118t118 -48t117.5 48t48 118t-48 118t-117.5 48t-118 -48t-48.5 -118zM133 962.5q0 20.5 21 20.5h2v170h-2q-20 0 -20.5 20.5 t20.5 20.5h22h4h53q33 0 52.5 -20.5t19.5 -53.5q0 -29 -20.5 -47t-51.5 -18q33 -59 68 -76q18 -8 10 -26.5t-26 -10.5q-49 23 -90 98v-55h2q20 0 20 -20.5t-20 -20.5h-23h-22l2 -2q-21 0 -21 20.5zM193 1096h6h30q31 0 31 26q0 33 -31 33h-36v-59z" />
<glyph unicode="&#xaf;" horiz-adv-x="681" d="M16 575.5q0 26.5 17.5 44t44.5 17.5h526q27 0 44.5 -17.5t17.5 -44t-17.5 -44t-44.5 -17.5h-526q-27 0 -44.5 17.5t-17.5 44z" />
<glyph unicode="&#xb0;" horiz-adv-x="350" d="M12 1728.5q0 61.5 43 104.5t104.5 43t104.5 -43t43 -104.5t-43 -104.5t-104.5 -43t-104.5 43t-43 104.5zM135 1728.5q0 -24.5 24.5 -24.5t24.5 24.5t-24.5 24.5t-24.5 -24.5z" />
<glyph unicode="&#xb1;" horiz-adv-x="837" d="M76 573.5q0 26.5 17.5 44t43.5 17.5h215v207q0 27 17.5 44t44 17t44 -17.5t17.5 -43.5v-207h211q27 0 44.5 -17.5t17.5 -44t-17.5 -44t-44.5 -17.5h-211v-219q0 -27 -17.5 -44.5t-44 -17.5t-44 17.5t-17.5 44.5v219h-215q-27 0 -44 17.5t-17 44zM86 -213q0 27 17.5 44 t43.5 17h527q27 0 44 -17t17 -44t-17.5 -44t-43.5 -17h-527q-27 0 -44 17t-17 44z" />
<glyph unicode="&#xb2;" horiz-adv-x="798" d="M74 565v29q0 100 65 188q57 78 189 160q145 90 178 123q25 25 41 57q6 18 6 35q0 10 -2 14q-8 33 -47 60q-47 29 -107 29h-2q-63 0 -110 -31q-45 -27 -58 -64q-8 -25 -30.5 -37t-47 -3.5t-37 31t-3.5 46.5q23 80 110 131q78 47 174 47h4q96 0 172 -47q82 -49 101 -133 q6 -25 6 -43q0 -41 -17 -80q-23 -53 -67 -98q-55 -55 -201 -141q-113 -70 -155 -129q-27 -37 -37 -78h356l74 65q18 16 43.5 15.5t42 -19t15.5 -44t-19 -42.5l-93 -82h5q-16 -14 -41 -14h-447q-25 0 -41 15t-20 40z" />
<glyph unicode="&#xb3;" horiz-adv-x="798" d="M75 658.5q1 25.5 19.5 42t44 15.5t41.5 -20q14 -18 39 -32q66 -35 154 -35q76 0 135 26q43 20 67 56q23 29 23 65.5t-20 65.5q-25 35 -74 57q-43 16 -109 25q-10 2 -26 2q-27 2 -43.5 19.5t-14.5 44t19.5 43t44.5 16.5h4q29 0 43 2q29 4 41 8q16 6 35 16q12 6 22 17 q12 12 17 18q8 12 10 18l6 13q2 4 2 12q2 6 2 10v6v7q0 2 -2 6q-4 12 -8 18t-17 19q-10 10 -22 16q-8 4 -29 12q-10 4 -35 8q-12 2 -36 2h-2h-3h-2q-12 0 -36 -4q-16 -2 -35 -10q-20 -8 -29 -14q-16 -12 -22.5 -18.5t-14.5 -18.5q-4 -6 -8 -18q-6 -25 -27.5 -38.5t-46 -7 t-38 28t-7.5 45.5q6 27 19 51l4 -10q10 16 35 45q18 23 43 37q27 16 51 25q37 12 55 16q29 6 59 6h3h2h2q18 0 55 -4q29 -4 53 -12q16 -6 49 -23q25 -16 45.5 -32.5t36.5 -40.5q14 -20 25 -48q4 -8 4 -18q0 -2 1 -9t1 -9v-19q0 -16 -4 -29q-4 -16 -8 -28q-2 -10 -13 -27 q-16 -29 -26 -41q-16 -18 -35 -35l-8 -6q57 -33 90 -80q45 -59 45 -137q0 -76 -43 -137q-41 -61 -117 -96q-80 -37 -186 -37q-125 0 -215 53q-39 25 -70 57q-16 19 -15 44.5z" />
<glyph unicode="&#xb4;" horiz-adv-x="331" d="M-33 1043.5q2 25.5 23 41.5q92 76 141 175q10 23 34.5 30.5t47.5 -2.5t31 -34.5t-2 -47.5q-57 -119 -170 -215l-2 -2q-20 -16 -46 -14t-42.5 22.5t-14.5 46z" />
<glyph unicode="&#xb5;" horiz-adv-x="731" d="M-10 -450.5q0 26.5 17.5 44t43.5 17.5h31v659v21v6v551h-31q-27 0 -44 17.5t-17 44t17.5 44t43.5 17.5h92q27 0 44.5 -17.5t17.5 -44.5v-641q4 -113 57 -163t166 -50q88 0 242 103v690h-80q-27 0 -44.5 17.5t-17.5 44t17.5 44t44.5 17.5h141l2 4q27 0 44.5 -17.5 t17.5 -44.5v-745v-6v-76l4 -23h32q27 0 44.5 -17t17.5 -44t-17.5 -44t-44.5 -17h-36l-11 2q-10 0 -20 3t-25.5 11t-27.5 20q-23 23 -33 50q-111 -88 -250 -88t-223 59v-387h31q27 0 44 -17.5t17 -44t-17.5 -44t-43.5 -17.5h-93h-92q-27 0 -44 17.5t-17 44z" />
<glyph unicode="&#xb6;" horiz-adv-x="714" d="M2 932q0 125 69.5 200.5t182.5 75.5h152h184l2 6h70q27 -2 44 -20t15 -45t-20.5 -44.5t-45.5 -14.5h-18v-1196h20q27 0 44.5 -17.5t17.5 -44.5t-17.5 -44t-44.5 -17h-82q-27 0 -44 17t-17 44v1258h-47v-332v-37v-4v-889q0 -27 -17.5 -44t-43.5 -17h-84q-27 0 -44.5 17 t-17.5 44t17.5 44t44.5 17h22v770h-88q-109 4 -181.5 75t-72.5 198zM125 932q0 -143 131 -148h86l2 301h-90q-63 0 -96 -41.5t-33 -111.5z" />
<glyph unicode="&#xb7;" horiz-adv-x="266" d="M35 75.5q0 57.5 40 97.5t97 40t97 -40t40 -97.5t-40 -97t-97 -39.5t-97 39.5t-40 97z" />
<glyph unicode="&#xb8;" horiz-adv-x="681" d="M107.5 -264.5q-9.5 24.5 1 47t35 32t47 -1t53.5 -14.5h20q12 0 29 4q16 8 20 12.5t4 8.5l-12 -2q0 4 -2 6q-8 8 -18 8h-4q-8 0 -13 -2q-43 -14 -69.5 23t0.5 71l77 111q14 20 41 25.5t48 -11.5q20 -14 25 -40.5t-11 -47.5l-19 -26q20 -12 29 -21q43 -39 43 -96v-2 q0 -51 -37 -94q-29 -31 -76 -43q-27 -8 -61 -9q-20 0 -33 2q-45 6 -86 25q-22 10 -31.5 34.5z" />
<glyph unicode="&#xb9;" horiz-adv-x="440" d="M14 1265.5q-6 24.5 7.5 46t37.5 27.5l172 39q29 6 53.5 -12t24.5 -49v-690h51q27 0 44.5 -17.5t17.5 -44t-17.5 -44t-44.5 -17.5h-112h-113l-2 2q-27 0 -44 17.5t-17 44t17 44t44 17.5h51v614l-96 -22q-25 -6 -46.5 7t-27.5 37.5z" />
<glyph unicode="&#xba;" horiz-adv-x="573" d="M-39 926q0 137 53 233q37 68 99 109q66 45 143 47h8q76 0 144 -39q63 -39 102 -105q66 -104 65 -262q0 -150 -57 -247q-37 -63 -96 -103q-63 -41 -141 -45h-9q-74 0 -137 39q-63 37 -102 98q-63 100 -68 250v25h-4zM84 905l2 -2q4 -115 49 -186q27 -39 62 -60 q39 -20 75 -20h4q39 0 76 22q35 23 58 64q43 72 43 184q0 123 -47 199q-25 41 -64 63q-37 23 -78 23h-4q-41 0 -80 -27q-37 -25 -59 -65q-37 -68 -37 -174v-21z" />
<glyph unicode="&#xbb;" horiz-adv-x="854" d="M49 371.5q-6 23.5 6.5 46t36 29t45.5 -6.5q82 -45 123 -65q37 -18 111 -51q37 -16 37 -55.5t-35 -55.5q-74 -33 -111 -51q-82 -41 -123 -64q-23 -12 -46 -6t-35.5 28.5t-6.5 46t29 36.5q82 45 123 65v2q-43 20 -125 66q-23 12 -29 35.5zM418 382q-6 24 6 46.5t35.5 28.5 t46.5 -6q82 -49 121 -70q86 -45 110 -55q37 -16 37 -55.5t-35 -55.5q-25 -10 -110 -55q-39 -20 -121 -66q-23 -12 -46.5 -6t-35.5 28.5t-6 46t29 36.5q102 55 129 69l4 2l-4 2l-3 4q-27 14 -129 70q-22 12 -28 36z" />
<glyph unicode="&#xbc;" horiz-adv-x="1404" d="M14 1265.5q-6 24.5 7.5 46t37.5 27.5l172 39q29 6 53.5 -12t24.5 -49v-690h51q27 0 44.5 -17.5t17.5 -44t-17.5 -44t-44.5 -17.5h-112h-113l-2 2q-27 0 -44 17.5t-17 44t17 44t44 17.5h51v614l-96 -22q-25 -6 -46.5 7t-27.5 37.5zM340 2l414 1319q8 25 30.5 37t47 4 t37 -30.5t3.5 -47.5l-413 -1319q-8 -25 -30.5 -37t-47.5 -4t-37 30.5t-4 47.5zM752 238q-14 31 4 61l364 664q14 20 40 26t46.5 -8t26.5 -40t-8 -46l-301 -567h161q27 0 44.5 -17.5t17.5 -44t-17.5 -44t-44.5 -17.5h-276h-4q-37 0 -53 33zM1204 2v746q0 27 17.5 44t44 17 t44 -17.5t17.5 -43.5v-746q0 -27 -17.5 -44t-44 -17t-44 17t-17.5 44z" />
<glyph unicode="&#xbd;" horiz-adv-x="1470" d="M14 1265.5q-6 24.5 7.5 46t37.5 27.5l172 39q29 6 53.5 -12t24.5 -49v-690h51q27 0 44.5 -17.5t17.5 -44t-17.5 -44t-44.5 -17.5h-112h-113l-2 2q-27 0 -44 17.5t-17 44t17 44t44 17.5h51v614l-96 -22q-25 -6 -46.5 7t-27.5 37.5zM346 2l414 1319q8 25 30.5 37t47 4 t37 -30.5t4.5 -47.5l-414 -1319q-8 -25 -30.5 -37t-47.5 -4t-37 30.5t-4 47.5zM750 -4v29q0 100 65 188q57 78 189 160q145 90 178 123q25 25 41 57q6 18 6 35q0 10 -2 14q-8 33 -47 60q-47 29 -107 28h-2q-63 0 -110 -31q-45 -27 -58 -63q-8 -25 -30.5 -37t-47 -4t-37 30.5 t-4.5 47.5q23 80 111 131q78 47 174 47h4q96 0 172 -47q82 -49 101 -133q6 -25 6 -43q0 -41 -17 -80q-23 -53 -67 -98q-55 -55 -201 -142q-113 -70 -156 -129q-27 -37 -37 -78h357l74 66q18 16 43.5 15t42 -19.5t15.5 -44t-20 -41.5l-92 -82h4q-16 -14 -41 -14h-446 q-25 0 -41 15t-20 40z" />
<glyph unicode="&#xbe;" horiz-adv-x="1470" d="M14 1265.5q-6 24.5 7.5 46t37.5 27.5l172 39q29 6 53.5 -12t24.5 -49v-690h51q27 0 44.5 -17.5t17.5 -44t-17.5 -44t-44.5 -17.5h-112h-113l-2 2q-27 0 -44 17.5t-17 44t17 44t44 17.5h51v614l-96 -22q-25 -6 -46.5 7t-27.5 37.5zM340 2l414 1319q8 25 30.5 37t47 4 t37 -30.5t3.5 -47.5l-413 -1319q-8 -25 -30.5 -37t-47.5 -4t-37 30.5t-4 47.5zM752 238q-14 31 4 61l364 664q14 20 40 26t46.5 -8t26.5 -40t-8 -46l-301 -567h161q27 0 44.5 -17.5t17.5 -44t-17.5 -44t-44.5 -17.5h-276h-4q-37 0 -53 33zM1204 2v746q0 27 17.5 44t44 17 t44 -17.5t17.5 -43.5v-746q0 -27 -17.5 -44t-44 -17t-44 17t-17.5 44z" />
<glyph unicode="&#xbf;" horiz-adv-x="464" d="M-111 246q0 59 19 114q25 70 78 142q6 8 73.5 95t90.5 130q45 82 47 170v107q0 27 17 44t44 17t44 -17.5t17 -43.5v-111l-6 2q-2 -115 -59 -223q-23 -43 -52.5 -85t-67.5 -87t-54 -70q-41 -57 -60 -111q-12 -37 -12 -75q0 -12 4 -37q14 -72 74 -113q49 -35 115 -35h20 q59 6 105 37q20 14 45.5 8t40 -26.5t8.5 -46t-27 -39.5q-72 -47 -160 -53h-28q-104 0 -187 57q-100 72 -122 188q-7 31 -7 62zM115 1245.5q0 57.5 40 97t97 39.5t97 -39.5t40 -97t-40 -97.5t-97 -40t-97 40t-40 97.5z" />
<glyph unicode="&#xc0;" d="M40 -22.5q-9 24.5 1 47.5l455 1060q10 23 34.5 32t47 -1t31.5 -34.5t-1 -47.5l-454 -1061q-10 -23 -35 -32t-47.5 1.5t-31.5 35zM432 462.5q0 26.5 17.5 44t44.5 17.5h327q27 0 44.5 -17.5t17.5 -44t-17.5 -44t-44.5 -17.5h-327q-27 0 -44.5 17.5t-17.5 44zM475 1855.5 q8 24.5 30.5 35t47.5 2t35 -30.5q49 -98 141 -174l-2 2q20 -16 22.5 -42t-14 -46.5t-42 -22.5t-46.5 14q-113 96 -170 215q-10 23 -2 47.5zM603 1331.5q9 24.5 31.5 34.5t47.5 1t35 -32l561 -1310q10 -23 1 -47.5t-31.5 -35t-47 -1t-35.5 31.5l-561 1311q-10 23 -1 47.5z " />
<glyph unicode="&#xc1;" d="M40 -22.5q-9 24.5 1 47.5l455 1060q10 23 34.5 32t47 -1t31.5 -34.5t-1 -47.5l-454 -1061q-10 -23 -35 -32t-47.5 1.5t-31.5 35zM432 462.5q0 26.5 17.5 44t44.5 17.5h327q27 0 44.5 -17.5t17.5 -44t-17.5 -44t-44.5 -17.5h-327q-27 0 -44.5 17.5t-17.5 44zM588 1645.5 q2 25.5 22 42.5q92 76 142 174q10 23 34.5 31t47 -2.5t30.5 -35t-2 -47.5q-57 -119 -170 -215l-2 -2q-20 -16 -46 -14t-42 22.5t-14 46zM603 1331.5q9 24.5 31.5 34.5t47.5 1t35 -32l561 -1310q10 -23 1 -47.5t-31.5 -35t-47 -1t-35.5 31.5l-561 1311q-10 23 -1 47.5z" />
<glyph unicode="&#xc2;" d="M40 -22.5q-9 24.5 1 47.5l455 1060q10 23 34.5 32t47 -1t31.5 -34.5t-1 -47.5l-454 -1061q-10 -23 -35 -32t-47.5 1.5t-31.5 35zM432 462.5q0 26.5 17.5 44t44.5 17.5h327q27 0 44.5 -17.5t17.5 -44t-17.5 -44t-44.5 -17.5h-327q-27 0 -44.5 17.5t-17.5 44zM454 1631.5 q-3 25.5 13 45.5l149 195l-2 -2q18 25 49 24.5t50 -24.5l147 -195q14 -20 11 -44.5t-23 -41.5q-20 -14 -45 -11t-41 24l-98 131l-101 -131q-14 -20 -39.5 -23.5t-46.5 12.5q-20 15 -23 40.5zM603 1331.5q9 24.5 31.5 34.5t47.5 1t35 -32l561 -1310q10 -23 1 -47.5t-31.5 -35 t-47 -1t-35.5 31.5l-561 1311q-10 23 -1 47.5z" />
<glyph unicode="&#xc3;" d="M40 -22.5q-9 24.5 1 47.5l455 1060q10 23 34.5 32t47 -1t31.5 -34.5t-1 -47.5l-454 -1061q-10 -23 -35 -32t-47.5 1.5t-31.5 35zM385 1677q0 49 27 88q35 57 114 64h13h16q27 -2 59 -17q25 -10 66 -43q68 -57 84 -63q14 -6 29 -6h2q12 0 24 8q10 6 14.5 16.5t2.5 8.5 l-2 -4q2 4 2 10l-2 6q-4 25 10 46t38.5 25.5t46 -10t25.5 -39.5q4 -12 4 -30l13 -2q-2 -29 -8 -47q0 -4 -7 -17q-20 -45 -61 -71.5t-86 -28.5h-8q-39 0 -76 16q-33 12 -117 82q-23 18 -39 25q-12 6 -20 6h-6h-4q-16 0 -25 -10q-4 -6 -4 -15v-6q8 -25 -3 -47.5t-36 -30.5 t-47.5 3.5t-30.5 35.5t-8 47zM432 462.5q0 26.5 17.5 44t44.5 17.5h327q27 0 44.5 -17.5t17.5 -44t-17.5 -44t-44.5 -17.5h-327q-27 0 -44.5 17.5t-17.5 44zM603 1331.5q9 24.5 31.5 34.5t47.5 1t35 -32l561 -1310q10 -23 1 -47.5t-31.5 -35t-47 -1t-35.5 31.5l-561 1311 q-10 23 -1 47.5z" />
<glyph unicode="&#xc4;" d="M40 -22.5q-9 24.5 1 47.5l455 1060q10 23 34.5 32t47 -1t31.5 -34.5t-1 -47.5l-454 -1061q-10 -23 -35 -32t-47.5 1.5t-31.5 35zM432 462.5q0 26.5 17.5 44t44.5 17.5h327q27 0 44.5 -17.5t17.5 -44t-17.5 -44t-44.5 -17.5h-327q-27 0 -44.5 17.5t-17.5 44zM485 1700 q0 31 21.5 54.5t56.5 23.5q31 0 54.5 -21.5t23.5 -56.5q0 -31 -21.5 -54.5t-56.5 -23.5q-31 0 -54.5 21.5t-23.5 56.5zM603 1331.5q9 24.5 31.5 34.5t47.5 1t35 -32l561 -1310q10 -23 1 -47.5t-31.5 -35t-47 -1t-35.5 31.5l-561 1311q-10 23 -1 47.5zM707 1700 q0 31 21.5 54.5t55.5 23.5q31 0 54.5 -21.5t23.5 -56.5q0 -31 -21.5 -54.5t-56.5 -23.5q-31 0 -54 21.5t-23 56.5z" />
<glyph unicode="&#xc5;" d="M40 -22.5q-9 24.5 1 47.5l455 1060q10 23 34.5 32t47 -1t31.5 -34.5t-1 -47.5l-454 -1061q-10 -23 -35 -32t-47.5 1.5t-31.5 35zM432 462.5q0 26.5 17.5 44t44.5 17.5h327q27 0 44.5 -17.5t17.5 -44t-17.5 -44t-44.5 -17.5h-327q-27 0 -44.5 17.5t-17.5 44zM514 1728.5 q0 61.5 43 104.5t104.5 43t104.5 -43t43 -104.5t-43 -104.5t-104.5 -43t-104.5 43t-43 104.5zM603 1331.5q9 24.5 31.5 34.5t47.5 1t35 -32l561 -1310q10 -23 1 -47.5t-31.5 -35t-47 -1t-35.5 31.5l-561 1311q-10 23 -1 47.5zM637 1728.5q0 -24.5 24.5 -24.5t24.5 24.5 t-24.5 24.5t-24.5 -24.5z" />
<glyph unicode="&#xc6;" horiz-adv-x="2211" d="M35 -5.5q-2 25.5 14 46.5l957 1130q16 20 41.5 22.5t46 -14t22.5 -42t-14 -45.5l-957 -1131q-16 -20 -41.5 -22t-46 14t-22.5 41.5zM659 462.5q0 26.5 17.5 44t44.5 17.5h319q27 0 44.5 -17.5t17.5 -44t-17.5 -44t-44.5 -17.5h-319q-27 0 -44.5 17.5t-17.5 44zM1157 2 v1311q0 27 17.5 44t44 17t44 -17.5t17.5 -43.5v-1311q0 -27 -17.5 -44t-44 -17t-44 17t-17.5 44zM1329 2q0 27 17.5 44t44.5 17h655q27 0 44 -17t17 -44t-17 -44t-44 -17h-655q-27 0 -44.5 17t-17.5 44zM1333 706.5q0 26.5 17.5 44t44.5 17.5h528q27 0 44.5 -17.5t17.5 -44 t-17.5 -44t-44.5 -17.5h-528q-27 0 -44.5 17.5t-17.5 44zM1333 1312.5q0 26.5 17.5 44t44.5 17.5h649q27 0 44 -17.5t17 -44t-17 -44t-44 -17.5h-649q-27 0 -44.5 17.5t-17.5 44z" />
<glyph unicode="&#xc7;" horiz-adv-x="1318" d="M74 623v26q0 160 57 301q84 209 260 324q152 98 334 98t334 -98q20 -14 26.5 -40t-8 -46.5t-40 -26.5t-46.5 8q-123 78 -266 78t-266 -78q-143 -94 -213 -270q-49 -121 -49 -252v-20q6 -150 69 -271q70 -135 193 -212.5t268 -82.5h8q215 0 369 154q18 18 44 18t44 -18 t18 -44t-18 -44q-188 -188 -455 -188l-6 4h-8q-182 4 -332 100q-154 96 -235 258q-76 148 -82 322zM384 -434.5q-9 24.5 1 47t34.5 32t47 -1t53.5 -14.5h21q12 0 28 4q16 8 20.5 12.5t4.5 8.5l-12 -2q0 4 -2 6q-8 8 -19 8h-4q-8 0 -12 -2q-43 -14 -70 23q-27 35 0 71l78 111 q14 20 41 25.5t47 -11.5q20 -14 25.5 -40.5t-11.5 -47.5l-18 -26q20 -12 29 -21q43 -39 43 -96v-2q0 -51 -37 -94q-29 -31 -76 -43q-27 -8 -61 -9q-20 0 -33 2q-47 6 -86 25q-23 10 -32 34.5z" />
<glyph unicode="&#xc8;" horiz-adv-x="1251" d="M174 0v1311q0 27 17.5 44t44 17t44 -17.5t17.5 -43.5v-1311q0 -27 -17.5 -44t-44 -17t-44 17t-17.5 44zM346 0q0 27 17.5 44t44.5 17h655q27 0 44 -17t17 -44t-17 -44t-44 -17h-655q-27 0 -44.5 17t-17.5 44zM350 704.5q0 26.5 17.5 44t44.5 17.5h528q27 0 44 -17.5 t17 -44t-17 -44t-44 -17.5h-528q-27 0 -44.5 17.5t-17.5 44zM350 1310.5q0 26.5 17.5 44t44.5 17.5h649q27 0 44 -17.5t17 -44t-17.5 -44t-43.5 -17.5h-649q-27 0 -44.5 17.5t-17.5 44zM475 1855.5q8 24.5 30.5 35t47.5 2t35 -30.5q49 -98 141 -174l-2 2q20 -16 22.5 -42 t-14 -46.5t-42 -22.5t-46.5 14q-113 96 -170 215q-10 23 -2 47.5z" />
<glyph unicode="&#xc9;" horiz-adv-x="1251" d="M174 0v1311q0 27 17.5 44t44 17t44 -17.5t17.5 -43.5v-1311q0 -27 -17.5 -44t-44 -17t-44 17t-17.5 44zM346 0q0 27 17.5 44t44.5 17h655q27 0 44 -17t17 -44t-17 -44t-44 -17h-655q-27 0 -44.5 17t-17.5 44zM350 704.5q0 26.5 17.5 44t44.5 17.5h528q27 0 44 -17.5 t17 -44t-17 -44t-44 -17.5h-528q-27 0 -44.5 17.5t-17.5 44zM350 1310.5q0 26.5 17.5 44t44.5 17.5h649q27 0 44 -17.5t17 -44t-17.5 -44t-43.5 -17.5h-649q-27 0 -44.5 17.5t-17.5 44zM586 1645.5q2 25.5 22 42.5q92 76 142 174q10 23 34.5 31t47 -2.5t30.5 -35t-2 -47.5 q-57 -119 -170 -215l-2 -2q-20 -16 -46 -14t-42 22.5t-14 46z" />
<glyph unicode="&#xca;" horiz-adv-x="1251" d="M174 0v1311q0 27 17.5 44t44 17t44 -17.5t17.5 -43.5v-1311q0 -27 -17.5 -44t-44 -17t-44 17t-17.5 44zM346 0q0 27 17.5 44t44.5 17h655q27 0 44 -17t17 -44t-17 -44t-44 -17h-655q-27 0 -44.5 17t-17.5 44zM350 704.5q0 26.5 17.5 44t44.5 17.5h528q27 0 44 -17.5 t17 -44t-17 -44t-44 -17.5h-528q-27 0 -44.5 17.5t-17.5 44zM350 1310.5q0 26.5 17.5 44t44.5 17.5h649q27 0 44 -17.5t17 -44t-17.5 -44t-43.5 -17.5h-649q-27 0 -44.5 17.5t-17.5 44zM454 1631.5q-3 25.5 13 45.5l149 195l-2 -2q18 25 49 24.5t50 -24.5l147 -195 q14 -20 11 -44.5t-23 -41.5q-20 -14 -45 -11t-41 24l-98 131l-101 -131q-14 -20 -39.5 -23.5t-46.5 12.5q-20 15 -23 40.5z" />
<glyph unicode="&#xcb;" horiz-adv-x="1251" d="M174 0v1311q0 27 17.5 44t44 17t44 -17.5t17.5 -43.5v-1311q0 -27 -17.5 -44t-44 -17t-44 17t-17.5 44zM346 0q0 27 17.5 44t44.5 17h655q27 0 44 -17t17 -44t-17 -44t-44 -17h-655q-27 0 -44.5 17t-17.5 44zM350 704.5q0 26.5 17.5 44t44.5 17.5h528q27 0 44 -17.5 t17 -44t-17 -44t-44 -17.5h-528q-27 0 -44.5 17.5t-17.5 44zM350 1310.5q0 26.5 17.5 44t44.5 17.5h649q27 0 44 -17.5t17 -44t-17.5 -44t-43.5 -17.5h-649q-27 0 -44.5 17.5t-17.5 44zM483 1700q0 31 21.5 54.5t56.5 23.5q31 0 54.5 -21.5t23.5 -56.5q0 -31 -21.5 -54.5 t-56.5 -23.5q-31 0 -54.5 21.5t-23.5 56.5zM705 1700q0 31 21.5 54.5t55.5 23.5q31 0 54.5 -21.5t23.5 -56.5q0 -31 -21.5 -54.5t-56.5 -23.5q-31 0 -54 21.5t-23 56.5z" />
<glyph unicode="&#xcc;" horiz-adv-x="471" d="M88 1855.5q8 24.5 30.5 35t47 2t35.5 -30.5q49 -98 141 -174l-2 2q20 -16 22.5 -42t-14 -46.5t-42 -22.5t-46.5 14q-113 96 -170 215q-10 23 -2 47.5zM174 0v1311q0 27 17.5 44t44 17t44 -17.5t17.5 -43.5v-1311q0 -27 -17.5 -44t-44 -17t-44 17t-17.5 44z" />
<glyph unicode="&#xcd;" horiz-adv-x="471" d="M135 1645.5q2 25.5 23 42.5q92 76 141 174q10 23 34.5 31t47 -2.5t31 -35t-1.5 -47.5q-57 -119 -170 -215l-2 -2q-20 -16 -46 -14t-42.5 22.5t-14.5 46zM174 0v1311q0 27 17.5 44t44 17t44 -17.5t17.5 -43.5v-1311q0 -27 -17.5 -44t-44 -17t-44 17t-17.5 44z" />
<glyph unicode="&#xce;" horiz-adv-x="471" d="M28 1631.5q-3 25.5 13 45.5l149 195l-2 -2q18 25 49 24.5t50 -24.5l147 -195q14 -20 11 -44.5t-23 -41.5q-20 -14 -45 -11t-41 24l-98 131l-101 -131q-14 -20 -39.5 -23.5t-46.5 12.5q-20 15 -23 40.5zM174 0v1311q0 27 17.5 44t44 17t44 -17.5t17.5 -43.5v-1311 q0 -27 -17.5 -44t-44 -17t-44 17t-17.5 44z" />
<glyph unicode="&#xcf;" horiz-adv-x="471" d="M41 1700q0 31 21.5 54.5t56.5 23.5q31 0 54.5 -21.5t23.5 -56.5q0 -31 -21.5 -54.5t-56.5 -23.5q-31 0 -54.5 21.5t-23.5 56.5zM174 0v1311q0 27 17.5 44t44 17t44 -17.5t17.5 -43.5v-1311q0 -27 -17.5 -44t-44 -17t-44 17t-17.5 44zM262 1700q0 31 21.5 54.5t56.5 23.5 q31 0 54.5 -21.5t23.5 -56.5q0 -31 -21.5 -54.5t-56.5 -23.5q-31 0 -54.5 21.5t-23.5 56.5z" />
<glyph unicode="&#xd0;" horiz-adv-x="1499" d="M8 649.5q0 26.5 17.5 44t44.5 17.5h258h-2q27 0 44 -17.5t17 -44t-17.5 -44t-43.5 -17.5h-256q-27 0 -44.5 17.5t-17.5 44zM426 4v1311q0 27 17.5 44t44 17t44 -17.5t17.5 -43.5v-1311q0 -27 -17.5 -44t-44 -17t-44 17t-17.5 44zM600 0q0 27 17.5 44t44.5 17h96h26h27 q59 2 121 23q125 41 207 139q68 78 100 199q29 100 29 225v4q0 119 -27 223q-29 109 -92 191q-59 76 -143 119q-80 41 -183 57q-29 4 -78 8h-69q-27 0 -44.5 17.5t-17.5 44t17.5 44t44.5 17.5h72l-5 4q66 -4 95 -8q123 -20 221 -72q111 -57 182 -151q78 -98 115 -236 q31 -115 30 -254v-4q0 -143 -30 -260q-41 -147 -123 -246q-104 -127 -264 -178q-78 -27 -152 -28h-33h-30h-92q-27 0 -44.5 17t-17.5 44zM645 649.5q0 26.5 17.5 44t44.5 17.5h258h-2q27 0 44 -17.5t17 -44t-17.5 -44t-43.5 -17.5h-256q-27 0 -44.5 17.5t-17.5 44z" />
<glyph unicode="&#xd1;" horiz-adv-x="1357" d="M176 0v901q0 27 17.5 44.5t44 17.5t44 -17.5t17.5 -44.5v-901q0 -27 -17.5 -44t-44 -17t-44 17t-17.5 44zM178 1322q6 26 26.5 40t46 8t40.5 -27l887 -1310q14 -20 8 -46t-26.5 -40.5t-46.5 -8t-40 26.5l-887 1311q-14 20 -8 46zM387 1677q0 49 27 88q35 57 114 64h13h16 q27 -2 59 -17q25 -10 66 -43q68 -57 84 -63t29 -6h2q12 0 24 8q10 6 14.5 16.5t2.5 8.5l-2 -4q2 4 2 10l-2 6q-4 25 10 46t38.5 25.5t46 -10t25.5 -39.5q4 -12 5 -30l12 -2q-2 -29 -8 -47q0 -4 -7 -17q-20 -45 -61 -71.5t-86 -28.5h-8q-39 0 -76 16q-33 12 -117 82 q-23 18 -39 25q-12 6 -20 6h-6h-4q-16 0 -25 -10q-4 -6 -4 -15v-6q8 -25 -3 -47.5t-35.5 -30.5t-47.5 3.5t-31 35.5t-8 47zM1063 410v901q0 27 17.5 44t44 17t44 -17.5t17.5 -43.5v-901q0 -27 -17.5 -44.5t-44 -17.5t-44 17.5t-17.5 44.5z" />
<glyph unicode="&#xd2;" horiz-adv-x="1509" d="M76 655q0 295 193.5 506t470 211t470 -211t193.5 -506t-193.5 -505.5t-470 -210.5t-470 210.5t-193.5 505.5zM197 655.5q0 -247.5 158.5 -421t382 -173.5t382 173.5t158.5 421t-158.5 420.5t-382 173t-382 -173t-158.5 -420.5zM538.5 1855.5q8.5 24.5 31 35t47 2 t34.5 -30.5q49 -98 142 -174l-2 2q20 -16 22 -42t-14.5 -46.5t-42 -22.5t-45.5 14q-113 96 -170 215q-11 23 -2.5 47.5z" />
<glyph unicode="&#xd3;" horiz-adv-x="1509" d="M76 655q0 295 193.5 506t470 211t470 -211t193.5 -506t-193.5 -505.5t-470 -210.5t-470 210.5t-193.5 505.5zM197 655.5q0 -247.5 158.5 -421t382 -173.5t382 173.5t158.5 421t-158.5 420.5t-382 173t-382 -173t-158.5 -420.5zM620.5 1645.5q2.5 25.5 22.5 42.5 q92 76 141 174q10 23 35 31t47.5 -2.5t30.5 -35t-2 -47.5q-57 -119 -170 -215l-2 -2q-20 -16 -46 -14t-42.5 22.5t-14 46z" />
<glyph unicode="&#xd4;" horiz-adv-x="1509" d="M76 655q0 295 193.5 506t470 211t470 -211t193.5 -506t-193.5 -505.5t-470 -210.5t-470 210.5t-193.5 505.5zM197 655.5q0 -247.5 158.5 -421t382 -173.5t382 173.5t158.5 421t-158.5 420.5t-382 173t-382 -173t-158.5 -420.5zM525 1631.5q-3 25.5 14 45.5l149 195l-2 -2 q18 25 49 24.5t49 -24.5l148 -195q14 -20 11 -44.5t-23 -41.5q-20 -14 -45 -11t-41 24l-99 131l-100 -131q-14 -20 -40 -23.5t-46 12.5q-21 15 -24 40.5z" />
<glyph unicode="&#xd5;" horiz-adv-x="1509" d="M76 655q0 295 193.5 506t470 211t470 -211t193.5 -506t-193.5 -505.5t-470 -210.5t-470 210.5t-193.5 505.5zM197 655.5q0 -247.5 158.5 -421t382 -173.5t382 173.5t158.5 421t-158.5 420.5t-382 173t-382 -173t-158.5 -420.5z" />
<glyph unicode="&#xd6;" horiz-adv-x="1509" d="M76 655q0 295 193.5 506t470 211t470 -211t193.5 -506t-193.5 -505.5t-470 -210.5t-470 210.5t-193.5 505.5zM197 655.5q0 -247.5 158.5 -421t382 -173.5t382 173.5t158.5 421t-158.5 420.5t-382 173t-382 -173t-158.5 -420.5zM541 1700q0 31 21.5 54.5t55.5 23.5 q31 0 54.5 -21.5t23.5 -56.5q0 -31 -21.5 -54.5t-56.5 -23.5q-31 0 -54 21.5t-23 56.5zM762 1700q0 31 21.5 54.5t56.5 23.5q31 0 54.5 -21.5t23.5 -56.5q0 -31 -22 -54.5t-56 -23.5q-31 0 -54.5 21.5t-23.5 56.5z" />
<glyph unicode="&#xd7;" horiz-adv-x="1048" d="M44 -5.5q-1 25.5 15 44.5l299 321q16 18 42 19.5t44.5 -15t19.5 -42t-15 -43.5l-299 -322q-16 -18 -42 -19t-44.5 15t-19.5 41.5zM97 801.5q1 25.5 19.5 42t44 15.5t42.5 -19l731 -799q16 -18 15 -44t-19.5 -42t-44 -15t-41.5 19l-731 799q-17 18 -16 43.5zM544 537.5 q-1 25.5 15 44.5l238 258q16 18 41.5 19t44 -15.5t19.5 -42t-15 -43.5l-238 -258q-16 -18 -41.5 -19.5t-44 15t-19.5 42z" />
<glyph unicode="&#xd8;" horiz-adv-x="1509" d="M76 655q0 295 193.5 506t470 211t470 -211t193.5 -506t-193.5 -505.5t-470 -210.5t-470 210.5t-193.5 505.5zM197 655.5q0 -247.5 158.5 -421t382 -173.5t382 173.5t158.5 421t-158.5 420.5t-382 173t-382 -173t-158.5 -420.5zM569 338l222 700q8 25 30.5 37t47 4 t37 -30.5t3.5 -47.5l-221 -700q-8 -25 -30.5 -37t-47 -4t-37 30.5t-4.5 47.5z" />
<glyph unicode="&#xd9;" horiz-adv-x="1413" d="M152 348v963q0 27 17 44t44 17t44 -17.5t17 -43.5v-963q0 -27 -17 -44t-44 -17t-44 17t-17 44zM226 148.5q1 25.5 19.5 42t44 15.5t42.5 -20q41 -43 100 -71l2 -2q106 -51 264 -51.5t269 53.5q59 29 100 71q16 18 42 19.5t44 -15t19.5 -42t-15.5 -44.5q-57 -61 -137 -100 q-131 -66 -322 -65q-182 0 -319 65q-80 39 -137 100q-17 19 -16 44.5zM516 1853.5q8 24.5 30.5 34.5t47 2t35.5 -30q49 -98 141 -174l-2 2q20 -16 22.5 -42t-14 -46.5t-42 -22.5t-46.5 14q-113 96 -170 215q-10 23 -2 47.5zM1128 346v963q0 27 17.5 44t44.5 17t44 -17.5 t17 -43.5v-963q0 -27 -17 -44t-44 -17t-44.5 17t-17.5 44z" />
<glyph unicode="&#xda;" horiz-adv-x="1413" d="M152 348v963q0 27 17 44t44 17t44 -17.5t17 -43.5v-963q0 -27 -17 -44t-44 -17t-44 17t-17 44zM226 148.5q1 25.5 19.5 42t44 15.5t42.5 -20q41 -43 100 -71l2 -2q106 -51 264 -51.5t269 53.5q59 29 100 71q16 18 42 19.5t44 -15t19.5 -42t-15.5 -44.5q-57 -61 -137 -100 q-131 -66 -322 -65q-182 0 -319 65q-80 39 -137 100q-17 19 -16 44.5zM588 1643.5q2 25.5 22 42.5q92 76 142 174q10 23 34.5 30.5t47 -2.5t30.5 -34.5t-2 -47.5q-57 -119 -170 -215l-2 -2q-20 -16 -46 -14t-42 22.5t-14 46zM1128 346v963q0 27 17.5 44t44.5 17t44 -17.5 t17 -43.5v-963q0 -27 -17 -44t-44 -17t-44.5 17t-17.5 44z" />
<glyph unicode="&#xdb;" horiz-adv-x="1413" d="M152 348v963q0 27 17 44t44 17t44 -17.5t17 -43.5v-963q0 -27 -17 -44t-44 -17t-44 17t-17 44zM226 148.5q1 25.5 19.5 42t44 15.5t42.5 -20q41 -43 100 -71l2 -2q106 -51 264 -51.5t269 53.5q59 29 100 71q16 18 42 19.5t44 -15t19.5 -42t-15.5 -44.5q-57 -61 -137 -100 q-131 -66 -322 -65q-182 0 -319 65q-80 39 -137 100q-17 19 -16 44.5zM490.5 1629.5q-3.5 25.5 13.5 45.5l149 195l-2 -2q18 25 49 24.5t50 -24.5l147 -195q14 -20 11 -44.5t-23 -41.5q-20 -14 -45 -11t-41 23l-99 132l-100 -132q-14 -20 -39.5 -23t-46.5 13 q-20 15 -23.5 40.5zM1128 346v963q0 27 17.5 44t44.5 17t44 -17.5t17 -43.5v-963q0 -27 -17 -44t-44 -17t-44.5 17t-17.5 44z" />
<glyph unicode="&#xdc;" horiz-adv-x="1413" d="M152 348v963q0 27 17 44t44 17t44 -17.5t17 -43.5v-963q0 -27 -17 -44t-44 -17t-44 17t-17 44zM226 148.5q1 25.5 19.5 42t44 15.5t42.5 -20q41 -43 100 -71l2 -2q106 -51 264 -51.5t269 53.5q59 29 100 71q16 18 42 19.5t44 -15t19.5 -42t-15.5 -44.5q-57 -61 -137 -100 q-131 -66 -322 -65q-182 0 -319 65q-80 39 -137 100q-17 19 -16 44.5zM502 1698q0 31 21.5 54.5t56.5 23.5q31 0 54 -21.5t23 -56.5q0 -31 -21.5 -54.5t-55.5 -23.5q-31 0 -54.5 21.5t-23.5 56.5zM723 1698q0 31 21.5 54.5t56.5 23.5q31 0 54.5 -21.5t23.5 -56.5 q0 -31 -21.5 -54.5t-56.5 -23.5q-31 0 -54.5 21.5t-23.5 56.5zM1128 346v963q0 27 17.5 44t44.5 17t44 -17.5t17 -43.5v-963q0 -27 -17 -44t-44 -17t-44.5 17t-17.5 44z" />
<glyph unicode="&#xdd;" horiz-adv-x="1349" d="M50 1313.5q1 25.5 19.5 42t44 15.5t42.5 -19l559 -611q16 -18 15 -43.5t-19.5 -42t-44 -15.5t-41.5 19l-559 611q-17 18 -16 43.5zM584 1645.5q2 25.5 22 42.5q92 76 142 174q10 23 34.5 31t47 -2.5t30.5 -35t-2 -47.5q-57 -119 -170 -215l-2 -2q-20 -16 -46 -14 t-42 22.5t-14 46zM608 0v492q0 27 17.5 44t44 17t44 -17.5t17.5 -43.5v-492q0 -27 -17.5 -44t-44 -17t-44 17t-17.5 44zM816 922.5q-1 25.5 15 44.5l355 385q16 18 41.5 19t44 -15.5t19.5 -42t-15 -43.5l-354 -385q-16 -18 -42 -19.5t-44.5 15t-19.5 42z" />
<glyph unicode="&#xde;" horiz-adv-x="1241" d="M176 0v1311q0 27 17.5 44t44 17t44 -17.5t17.5 -43.5v-1311q0 -27 -17.5 -44t-44 -17t-44 17t-17.5 44zM383 1151q0 27 17.5 44t43.5 17h297q199 0 302.5 -120.5t103.5 -300.5q0 -186 -107.5 -293t-273.5 -107h-315q-27 0 -44.5 17.5t-17.5 44t17.5 44t44.5 17.5h315 q119 0 188.5 72.5t69.5 204.5q0 121 -64.5 210t-218.5 89h-297q-27 0 -44 17t-17 44z" />
<glyph unicode="&#xdf;" horiz-adv-x="1386" d="M-45 113q0 27 17.5 44t44 17t44 -17.5t17.5 -43.5q0 -20 12 -36t25 -16h20q23 0 31 9l2 2v2q6 18 6 67v17v1151q0 27 17.5 44t44 17t44 -17.5t17.5 -43.5l-2 -1149v-15q0 -61 -10 -100q-2 -6 -6.5 -16.5t-8.5 -18.5l-2 -2q-2 -4 -5 -8t-5 -8q-45 -53 -125 -53h-29 q-63 4 -106 57.5t-43 116.5zM463 1310.5q0 26.5 17.5 44t43.5 17.5h119q211 0 305 -103.5t94 -256.5q0 -150 -105.5 -242t-293.5 -92h-108q-27 0 -44.5 17.5t-17.5 44t17.5 44t44.5 17.5h108q135 0 206 57t71 154q0 238 -277 237h-119q-27 0 -44 17.5t-17 44zM465 0 q0 27 17.5 44t43.5 17h148q72 0 132 14.5t114.5 48.5t86 99.5t31.5 155.5v2q0 154 -86 229q-20 16 -21 42t15.5 46.5t42 21.5t45.5 -15q129 -113 129 -324l-2 -2q0 -207 -131 -323.5t-356 -116.5h-148q-27 0 -44 17t-17 44z" />
<glyph unicode="&#xe0;" d="M38 -20.5q-9 24.5 1 47.5l455 1060q10 23 34.5 32t47 -1t31.5 -34.5t-1 -47.5l-454 -1061q-10 -23 -35 -32t-47.5 1.5t-31.5 35zM430 465q0 27 17.5 44t44.5 17h327q27 0 44.5 -17t17.5 -44t-17.5 -44.5t-44.5 -17.5h-327q-27 0 -44.5 17.5t-17.5 44.5zM473 1855.5 q8 24.5 30.5 35t47 2t35.5 -30.5q49 -98 141 -174l-2 2q20 -16 22.5 -42t-14 -46.5t-42 -22.5t-46.5 14q-113 96 -170 215q-10 23 -2 47.5zM601 1333.5q9 24.5 31.5 34.5t47.5 1t35 -32l561 -1310q10 -23 1 -47.5t-31.5 -35t-47 -1t-35.5 31.5l-561 1311q-10 23 -1 47.5z " />
<glyph unicode="&#xe1;" d="M38 -26.5q-9 24.5 1 46.5l455 1061q10 23 34.5 32t47 -1t31.5 -34.5t-1 -47.5l-454 -1061q-10 -23 -35 -32t-47.5 1.5t-31.5 35zM430 458.5q0 26.5 17.5 44t44.5 17.5h327q27 0 44.5 -17.5t17.5 -44t-17.5 -44t-44.5 -17.5h-327q-27 0 -44.5 17.5t-17.5 44zM586 1645.5 q2 25.5 22 42.5q92 76 142 174q10 23 34.5 31t47 -2.5t30.5 -35t-2 -47.5q-57 -119 -170 -215l-2 -2q-20 -16 -46 -14t-42 22.5t-14 46zM601 1327.5q9 24.5 31.5 34.5t47.5 1t35 -32l561 -1311q10 -23 1 -47t-31.5 -34.5t-47 -1t-35.5 31.5l-561 1311q-10 23 -1 47.5z" />
<glyph unicode="&#xe2;" d="M38 -26.5q-9 24.5 1 46.5l455 1061q10 23 34.5 32t47 -1t31.5 -34.5t-1 -47.5l-454 -1061q-10 -23 -35 -32t-47.5 1.5t-31.5 35zM430 458.5q0 26.5 17.5 44t44.5 17.5h327q27 0 44.5 -17.5t17.5 -44t-17.5 -44t-44.5 -17.5h-327q-27 0 -44.5 17.5t-17.5 44zM454 1631.5 q-3 25.5 13 45.5l149 195l-2 -2q18 25 49 24.5t50 -24.5l147 -195q14 -20 11 -44.5t-23 -41.5q-20 -14 -45 -11t-41 24l-98 131l-101 -131q-14 -20 -39.5 -23.5t-46.5 12.5q-20 15 -23 40.5zM601 1327.5q9 24.5 31.5 34.5t47.5 1t35 -32l561 -1311q10 -23 1 -47t-31.5 -34.5 t-47 -1t-35.5 31.5l-561 1311q-10 23 -1 47.5z" />
<glyph unicode="&#xe3;" d="M52 -26.5q-9 24.5 1 46.5l455 1061q10 23 34.5 32t47 -1t32 -34.5t-0.5 -47.5l-455 -1061q-10 -23 -35 -32t-47.5 1.5t-31.5 35zM385 1677q0 49 27 88q35 57 114 64h13h16q27 -2 59 -17q25 -10 66 -43q68 -57 84 -63q14 -6 29 -6h2q12 0 24 8q10 6 14.5 16.5t2.5 8.5 l-2 -4q2 4 2 10l-2 6q-4 25 10 46t38.5 25.5t46 -10t25.5 -39.5q4 -12 4 -30l13 -2q-2 -29 -8 -47q0 -4 -7 -17q-20 -45 -61 -71.5t-86 -28.5h-8q-39 0 -76 16q-33 12 -117 82q-23 18 -39 25q-12 6 -20 6h-6h-4q-16 0 -25 -10q-4 -6 -4 -15v-6q8 -25 -3 -47.5t-36 -30.5 t-47.5 3.5t-30.5 35.5t-8 47zM444 458.5q0 26.5 17.5 44t44.5 17.5h328q27 0 44 -17.5t17 -44t-17.5 -44t-43.5 -17.5h-328q-27 0 -44.5 17.5t-17.5 44zM615.5 1327.5q9.5 24.5 32 34.5t47 1t34.5 -32l561 -1311q10 -23 1 -47t-31.5 -34.5t-47 -1t-34.5 31.5l-562 1311 q-10 23 -0.5 47.5z" />
<glyph unicode="&#xe4;" d="M40 -22.5q-9 24.5 1 47.5l455 1060q10 23 34.5 32t47 -1t31.5 -34.5t-1 -47.5l-454 -1061q-10 -23 -35 -32t-47.5 1.5t-31.5 35zM432 462.5q0 26.5 17.5 44t44.5 17.5h327q27 0 44.5 -17.5t17.5 -44t-17.5 -44t-44.5 -17.5h-327q-27 0 -44.5 17.5t-17.5 44zM483 1700 q0 31 21.5 54.5t56.5 23.5q31 0 54.5 -21.5t23.5 -56.5q0 -31 -21.5 -54.5t-56.5 -23.5q-31 0 -54.5 21.5t-23.5 56.5zM603 1331.5q9 24.5 31.5 34.5t47.5 1t35 -32l561 -1310q10 -23 1 -47.5t-31.5 -35t-47 -1t-35.5 31.5l-561 1311q-10 23 -1 47.5zM705 1700 q0 31 21.5 54.5t55.5 23.5q31 0 54.5 -21.5t23.5 -56.5q0 -31 -21.5 -54.5t-56.5 -23.5q-31 0 -54 21.5t-23 56.5z" />
<glyph unicode="&#xe5;" d="M40 -22.5q-9 24.5 1 47.5l455 1060q10 23 34.5 32t47 -1t31.5 -34.5t-1 -47.5l-454 -1061q-10 -23 -35 -32t-47.5 1.5t-31.5 35zM432 462.5q0 26.5 17.5 44t44.5 17.5h327q27 0 44.5 -17.5t17.5 -44t-17.5 -44t-44.5 -17.5h-327q-27 0 -44.5 17.5t-17.5 44zM512 1728.5 q0 61.5 43 104.5t104.5 43t104.5 -43t43 -104.5t-43 -104.5t-104.5 -43t-104.5 43t-43 104.5zM603 1331.5q9 24.5 31.5 34.5t47.5 1t35 -32l561 -1310q10 -23 1 -47.5t-31.5 -35t-47 -1t-35.5 31.5l-561 1311q-10 23 -1 47.5zM635 1728.5q0 -24.5 24.5 -24.5t24.5 24.5 t-24.5 24.5t-24.5 -24.5z" />
<glyph unicode="&#xe6;" horiz-adv-x="2211" d="M35 -5.5q-2 25.5 14 46.5l957 1130q16 20 41.5 22.5t46 -14t22.5 -42t-14 -45.5l-957 -1131q-16 -20 -41.5 -22t-46 14t-22.5 41.5zM659 462.5q0 26.5 17.5 44t44.5 17.5h319q27 0 44.5 -17.5t17.5 -44t-17.5 -44t-44.5 -17.5h-319q-27 0 -44.5 17.5t-17.5 44zM1157 2 v1311q0 27 17.5 44t44 17t44 -17.5t17.5 -43.5v-1311q0 -27 -17.5 -44t-44 -17t-44 17t-17.5 44zM1329 2q0 27 17.5 44t44.5 17h655q27 0 44 -17t17 -44t-17 -44t-44 -17h-655q-27 0 -44.5 17t-17.5 44zM1333 706.5q0 26.5 17.5 44t44.5 17.5h528q27 0 44.5 -17.5t17.5 -44 t-17.5 -44t-44.5 -17.5h-528q-27 0 -44.5 17.5t-17.5 44zM1333 1312.5q0 26.5 17.5 44t44.5 17.5h649q27 0 44 -17.5t17 -44t-17 -44t-44 -17.5h-649q-27 0 -44.5 17.5t-17.5 44z" />
<glyph unicode="&#xe7;" horiz-adv-x="1318" d="M70 612v27q0 160 57 301q84 209 260 324q152 98 334 98t334 -98q20 -14 26 -40t-8 -46.5t-39.5 -26.5t-46.5 8q-123 78 -266 78t-266 -78q-143 -94 -213 -270q-49 -119 -49 -252v-21q6 -150 69 -270q70 -135 193 -213t268 -82h8q215 0 369 154q18 18 43.5 18t44 -18.5 t18.5 -44t-18 -43.5q-176 -176 -428 -187q-4 29 -25 43q-20 16 -46.5 11.5t-41.5 -25.5l-16 -18q-135 23 -244 92q-154 96 -235 258q-76 147 -82 321zM476 -335.5q-9 24.5 1 47t35 31.5t47.5 -1t52.5 -14h21q12 0 29 4q16 8 20 12t4 8l-8 -6q0 4 -2 6q-8 8 -19 8h-4 q-8 0 -12 -2q-43 -14 -70 23q-27 35 0 72l62 88q43 -6 86 -7h8h31q2 -20 -10 -40l-19 -27q20 -12 29 -21q43 -39 43 -96v-2q0 -51 -37 -94q-29 -31 -76 -43q-27 -8 -61 -8q-20 0 -33 2q-45 6 -86 24q-23 11 -32 35.5z" />
<glyph unicode="&#xe8;" horiz-adv-x="1251" d="M172 2v1311q0 27 17.5 44t44 17t44 -17.5t17.5 -43.5v-1311q0 -27 -17.5 -44t-44 -17t-44 17t-17.5 44zM344 2q0 27 17.5 44t44.5 17h655q27 0 44 -17t17 -44t-17.5 -44t-43.5 -17h-655q-27 0 -44.5 17t-17.5 44zM348 706.5q0 26.5 17.5 44t44.5 17.5h528q27 0 44 -17.5 t17 -44t-17 -44t-44 -17.5h-528q-27 0 -44.5 17.5t-17.5 44zM348 1312.5q0 26.5 17.5 44t44.5 17.5h649q27 0 44 -17.5t17 -44t-17.5 -44t-43.5 -17.5h-649q-27 0 -44.5 17.5t-17.5 44zM473 1855.5q8 24.5 30.5 35t47 2t35.5 -30.5q49 -98 141 -174l-2 2q20 -16 22.5 -42 t-14 -46.5t-42 -22.5t-46.5 14q-113 96 -170 215q-10 23 -2 47.5z" />
<glyph unicode="&#xe9;" horiz-adv-x="1251" d="M172 -2v1311q0 27 17.5 44t44 17t44 -17.5t17.5 -43.5v-1311q0 -27 -17.5 -44t-44 -17t-44 17t-17.5 44zM344 -2q0 27 17.5 44t44.5 17h655q27 0 44 -17t17 -44t-17.5 -44t-43.5 -17h-655q-27 0 -44.5 17t-17.5 44zM348 702.5q0 26.5 17.5 44t44.5 17.5h528 q27 0 44 -17.5t17 -44t-17 -44t-44 -17.5h-528q-27 0 -44.5 17.5t-17.5 44zM348 1308.5q0 26.5 17.5 44t44.5 17.5h649q27 0 44 -17.5t17 -44t-17.5 -44t-43.5 -17.5h-649q-27 0 -44.5 17.5t-17.5 44zM586 1645.5q2 25.5 22 42.5q92 76 142 174q10 23 34.5 31t47 -2.5 t30.5 -35t-2 -47.5q-57 -119 -170 -215l-2 -2q-20 -16 -46 -14t-42 22.5t-14 46z" />
<glyph unicode="&#xea;" horiz-adv-x="1251" d="M172 -2v1311q0 27 17.5 44t44 17t44 -17.5t17.5 -43.5v-1311q0 -27 -17.5 -44t-44 -17t-44 17t-17.5 44zM344 -2q0 27 17.5 44t44.5 17h655q27 0 44 -17t17 -44t-17.5 -44t-43.5 -17h-655q-27 0 -44.5 17t-17.5 44zM348 702.5q0 26.5 17.5 44t44.5 17.5h528 q27 0 44 -17.5t17 -44t-17 -44t-44 -17.5h-528q-27 0 -44.5 17.5t-17.5 44zM348 1308.5q0 26.5 17.5 44t44.5 17.5h649q27 0 44 -17.5t17 -44t-17.5 -44t-43.5 -17.5h-649q-27 0 -44.5 17.5t-17.5 44zM454 1631.5q-3 25.5 13 45.5l149 195l-2 -2q18 25 49 24.5t50 -24.5 l147 -195q14 -20 11 -44.5t-23 -41.5q-20 -14 -45 -11t-41 24l-98 131l-101 -131q-14 -20 -39.5 -23.5t-46.5 12.5q-20 15 -23 40.5z" />
<glyph unicode="&#xeb;" horiz-adv-x="1251" d="M174 0v1311q0 27 17.5 44t44 17t44 -17.5t17.5 -43.5v-1311q0 -27 -17.5 -44t-44 -17t-44 17t-17.5 44zM346 0q0 27 17.5 44t44.5 17h655q27 0 44 -17t17 -44t-17 -44t-44 -17h-655q-27 0 -44.5 17t-17.5 44zM350 704.5q0 26.5 17.5 44t44.5 17.5h528q27 0 44 -17.5 t17 -44t-17 -44t-44 -17.5h-528q-27 0 -44.5 17.5t-17.5 44zM350 1310.5q0 26.5 17.5 44t44.5 17.5h649q27 0 44 -17.5t17 -44t-17.5 -44t-43.5 -17.5h-649q-27 0 -44.5 17.5t-17.5 44zM483 1700q0 31 21.5 54.5t56.5 23.5q31 0 54.5 -21.5t23.5 -56.5q0 -31 -21.5 -54.5 t-56.5 -23.5q-31 0 -54.5 21.5t-23.5 56.5zM705 1700q0 31 21.5 54.5t55.5 23.5q31 0 54.5 -21.5t23.5 -56.5q0 -31 -21.5 -54.5t-56.5 -23.5q-31 0 -54 21.5t-23 56.5z" />
<glyph unicode="&#xec;" horiz-adv-x="471" d="M88 1855.5q8 24.5 30.5 35t47 2t35.5 -30.5q49 -98 141 -174l-2 2q20 -16 22.5 -42t-14 -46.5t-42 -22.5t-46.5 14q-113 96 -170 215q-10 23 -2 47.5zM172 2v1311q0 27 17.5 44t44 17t44 -17.5t17.5 -43.5v-1311q0 -27 -17.5 -44t-44 -17t-44 17t-17.5 44z" />
<glyph unicode="&#xed;" horiz-adv-x="471" d="M135 1645.5q2 25.5 23 42.5q92 76 141 174q10 23 34.5 31t47 -2.5t31 -35t-1.5 -47.5q-57 -119 -170 -215l-2 -2q-20 -16 -46 -14t-42.5 22.5t-14.5 46zM172 -2v1311q0 27 17.5 44t44 17t44 -17.5t17.5 -43.5v-1311q0 -27 -17.5 -44t-44 -17t-44 17t-17.5 44z" />
<glyph unicode="&#xee;" horiz-adv-x="471" d="M28 1631.5q-3 25.5 13 45.5l149 195l-2 -2q18 25 49 24.5t50 -24.5l147 -195q14 -20 11 -44.5t-23 -41.5q-20 -14 -45 -11t-41 24l-98 131l-101 -131q-14 -20 -39.5 -23.5t-46.5 12.5q-20 15 -23 40.5zM172 -2v1311q0 27 17.5 44t44 17t44 -17.5t17.5 -43.5v-1311 q0 -27 -17.5 -44t-44 -17t-44 17t-17.5 44z" />
<glyph unicode="&#xef;" horiz-adv-x="471" d="M41 1700q0 31 21.5 54.5t56.5 23.5q31 0 54.5 -21.5t23.5 -56.5q0 -31 -21.5 -54.5t-56.5 -23.5q-31 0 -54.5 21.5t-23.5 56.5zM174 0v1311q0 27 17.5 44t44 17t44 -17.5t17.5 -43.5v-1311q0 -27 -17.5 -44t-44 -17t-44 17t-17.5 44zM262 1700q0 31 21.5 54.5t56.5 23.5 q31 0 54.5 -21.5t23.5 -56.5q0 -31 -21.5 -54.5t-56.5 -23.5q-31 0 -54.5 21.5t-23.5 56.5z" />
<glyph unicode="&#xf0;" horiz-adv-x="1499" d="M8 649.5q0 26.5 17.5 44t44.5 17.5h258h-2q27 0 44 -17.5t17 -44t-17.5 -44t-43.5 -17.5h-256q-27 0 -44.5 17.5t-17.5 44zM426 4v1311q0 27 17.5 44t44 17t44 -17.5t17.5 -43.5v-1311q0 -27 -17.5 -44t-44 -17t-44 17t-17.5 44zM600 0q0 27 17.5 44t44.5 17h96h26h27 q59 2 121 23q125 41 207 139q68 78 100 199q29 100 29 225v4q0 119 -27 223q-29 109 -92 191q-59 76 -143 119q-80 41 -183 57q-29 4 -78 8h-69q-27 0 -44.5 17.5t-17.5 44t17.5 44t44.5 17.5h72l-5 4q66 -4 95 -8q123 -20 221 -72q111 -57 182 -151q78 -98 115 -236 q31 -115 30 -254v-4q0 -143 -30 -260q-41 -147 -123 -246q-104 -127 -264 -178q-78 -27 -152 -28h-33h-30h-92q-27 0 -44.5 17t-17.5 44zM645 649.5q0 26.5 17.5 44t44.5 17.5h258h-2q27 0 44 -17.5t17 -44t-17.5 -44t-43.5 -17.5h-256q-27 0 -44.5 17.5t-17.5 44z" />
<glyph unicode="&#xf1;" horiz-adv-x="1357" d="M188 -2v901q0 27 17.5 44.5t44 17.5t44 -17.5t17.5 -44.5v-901q0 -27 -17.5 -44t-44 -17t-44 17t-17.5 44zM190.5 1320q6.5 26 27 40t46 8t39.5 -27l887 -1310q14 -20 8 -46t-26.5 -40.5t-46 -8t-40.5 26.5l-886 1311q-15 20 -8.5 46zM385 1677q0 49 27 88q35 57 114 64 h13h16q27 -2 59 -17q25 -10 66 -43q68 -57 84 -63q14 -6 29 -6h2q12 0 24 8q10 6 14.5 16.5t2.5 8.5l-2 -4q2 4 2 10l-2 6q-4 25 10 46t38.5 25.5t46 -10t25.5 -39.5q4 -12 4 -30l13 -2q-2 -29 -8 -47q0 -4 -7 -17q-20 -45 -61 -71.5t-86 -28.5h-8q-39 0 -76 16 q-33 12 -117 82q-23 18 -39 25q-12 6 -20 6h-6h-4q-16 0 -25 -10q-4 -6 -4 -15v-6q8 -25 -3 -47.5t-36 -30.5t-47.5 3.5t-30.5 35.5t-8 47zM1075 408v901q0 27 17.5 44t44 17t44 -17.5t17.5 -43.5v-901q0 -27 -17.5 -44.5t-44 -17.5t-44 17.5t-17.5 44.5z" />
<glyph unicode="&#xf2;" horiz-adv-x="1509" d="M74 657q0 295 193.5 506t470 211t470 -211t193.5 -506t-193.5 -505.5t-470 -210.5t-470 210.5t-193.5 505.5zM195 657.5q0 -247.5 158.5 -421t381.5 -173.5t382 173.5t159 421t-159 420.5t-382 173t-381.5 -173t-158.5 -420.5zM538.5 1855.5q8.5 24.5 31 35t47 2 t34.5 -30.5q49 -98 142 -174l-2 2q20 -16 22 -42t-14.5 -46.5t-42 -22.5t-45.5 14q-113 96 -170 215q-11 23 -2.5 47.5z" />
<glyph unicode="&#xf3;" horiz-adv-x="1509" d="M74 651q0 295 193.5 506t470 211t470 -211t193.5 -506t-193.5 -506t-470 -211t-470 211t-193.5 506zM195 651q0 -248 158.5 -421t381.5 -173t382 173t159 421t-159 421t-382 173t-381.5 -173t-158.5 -421zM623 1645.5q2 25.5 22 42.5q92 76 141 174q10 23 35 31 t47.5 -2.5t30.5 -35t-2 -47.5q-57 -119 -170 -215l-2 -2q-20 -16 -46 -14t-42 22.5t-14 46z" />
<glyph unicode="&#xf4;" horiz-adv-x="1509" d="M74 651q0 295 193.5 506t470 211t470 -211t193.5 -506t-193.5 -506t-470 -211t-470 211t-193.5 506zM195 651q0 -248 158.5 -421t381.5 -173t382 173t159 421t-159 421t-382 173t-381.5 -173t-158.5 -421zM527 1631.5q-3 25.5 14 45.5l149 195l-2 -2q18 25 49 24.5 t49 -24.5l148 -195q14 -20 11 -44.5t-23 -41.5q-20 -14 -45 -11t-41 24l-99 131l-100 -131q-14 -20 -40 -23.5t-46 12.5q-21 15 -24 40.5z" />
<glyph unicode="&#xf5;" horiz-adv-x="1509" d="M76 655q0 295 193.5 506t470 211t470 -211t193.5 -506t-193.5 -505.5t-470 -210.5t-470 210.5t-193.5 505.5zM197 655.5q0 -247.5 158.5 -421t382 -173.5t382 173.5t158.5 421t-158.5 420.5t-382 173t-382 -173t-158.5 -420.5z" />
<glyph unicode="&#xf6;" horiz-adv-x="1509" d="M76 655q0 295 193.5 506t470 211t470 -211t193.5 -506t-193.5 -505.5t-470 -210.5t-470 210.5t-193.5 505.5zM197 655.5q0 -247.5 158.5 -421t382 -173.5t382 173.5t158.5 421t-158.5 420.5t-382 173t-382 -173t-158.5 -420.5zM541 1700q0 31 21.5 54.5t55.5 23.5 q31 0 54.5 -21.5t23.5 -56.5q0 -31 -21.5 -54.5t-56.5 -23.5q-31 0 -54 21.5t-23 56.5zM762 1700q0 31 21.5 54.5t56.5 23.5q31 0 54.5 -21.5t23.5 -56.5q0 -31 -22 -54.5t-56 -23.5q-31 0 -54.5 21.5t-23.5 56.5z" />
<glyph unicode="&#xf7;" horiz-adv-x="454" d="M35 452.5q0 26.5 17.5 44t43.5 17.5h258h-2q27 0 44.5 -17.5t17.5 -44t-17.5 -44t-44.5 -17.5h-256q-27 0 -44 17.5t-17 44zM106 75.5q0 57.5 40 97.5t97.5 40t97.5 -40t40 -97.5t-40 -97t-97.5 -39.5t-97.5 39.5t-40 97zM106 845.5q0 57.5 40 97.5t97.5 40t97.5 -40 t40 -97.5t-40 -97t-97.5 -39.5t-97.5 39.5t-40 97z" />
<glyph unicode="&#xf8;" horiz-adv-x="1509" d="M76 655q0 295 193.5 506t470 211t470 -211t193.5 -506t-193.5 -505.5t-470 -210.5t-470 210.5t-193.5 505.5zM197 655.5q0 -247.5 158.5 -421t382 -173.5t382 173.5t158.5 421t-158.5 420.5t-382 173t-382 -173t-158.5 -420.5zM569 338l222 700q8 25 30.5 37t47 4 t37 -30.5t3.5 -47.5l-221 -700q-8 -25 -30.5 -37t-47 -4t-37 30.5t-4.5 47.5z" />
<glyph unicode="&#xf9;" horiz-adv-x="1413" d="M150 350v963q0 27 17 44t44 17t44 -17.5t17 -43.5v-963q0 -27 -17 -44t-44 -17t-44 17t-17 44zM224 150.5q1 25.5 19.5 42t44 15.5t42.5 -20q41 -43 100 -71l2 -2q106 -51 264 -51.5t269 53.5q59 29 100 71q16 18 42 19.5t44 -15t19 -42t-15 -44.5q-57 -61 -137 -100 q-131 -66 -322 -65q-182 0 -319 65q-80 39 -137 100q-17 19 -16 44.5zM514 1855.5q8 24.5 30.5 35t47 2t35.5 -30.5q49 -98 141 -174l-2 2q20 -16 22.5 -42t-14 -46.5t-42 -22.5t-46.5 14q-113 96 -170 215q-10 23 -2 47.5zM1126 348v963q0 27 17.5 44t44 17t44 -17.5 t17.5 -43.5v-963q0 -27 -17.5 -44t-44 -17t-44 17t-17.5 44z" />
<glyph unicode="&#xfa;" horiz-adv-x="1413" d="M150 344v963q0 27 17 44t44 17t44 -17.5t17 -43.5v-963q0 -27 -17 -44t-44 -17t-44 17t-17 44zM224 144.5q1 25.5 19.5 42t44 15.5t42.5 -20q41 -43 100 -71l2 -2q106 -51 264 -51.5t269 53.5q59 29 100 71q16 18 42 19.5t44 -15t19 -42t-15 -44.5q-57 -61 -137 -100 q-131 -66 -322 -66q-182 0 -319 66q-80 39 -137 100q-17 19 -16 44.5zM586 1645.5q2 25.5 22 42.5q92 76 142 174q10 23 34.5 31t47 -2.5t30.5 -35t-2 -47.5q-57 -119 -170 -215l-2 -2q-20 -16 -46 -14t-42 22.5t-14 46zM1126 342v963q0 27 17.5 44t44 17t44 -17.5 t17.5 -43.5v-963q0 -27 -17.5 -44t-44 -17t-44 17t-17.5 44z" />
<glyph unicode="&#xfb;" horiz-adv-x="1413" d="M152 344v963q0 27 17 44t44 17t44 -17.5t17 -43.5v-963q0 -27 -17 -44t-44 -17t-44 17t-17 44zM226 144.5q1 25.5 19.5 42t44 15.5t42.5 -20q41 -43 100 -71l2 -2q106 -51 264 -51.5t269 53.5q59 29 100 71q16 18 42 19.5t44 -15t19.5 -42t-15.5 -44.5q-57 -61 -137 -100 q-131 -66 -322 -66q-182 0 -319 66q-80 39 -137 100q-17 19 -16 44.5zM490.5 1631.5q-3.5 25.5 13.5 45.5l149 195l-2 -2q18 25 49 24.5t50 -24.5l147 -195q14 -20 11 -44.5t-23 -41.5q-20 -14 -45 -11t-41 24l-99 131l-100 -131q-14 -20 -39.5 -23.5t-46.5 12.5 q-20 15 -23.5 40.5zM1128 342v963q0 27 17.5 44t44.5 17t44 -17.5t17 -43.5v-963q0 -27 -17 -44t-44 -17t-44.5 17t-17.5 44z" />
<glyph unicode="&#xfc;" horiz-adv-x="1413" d="M152 348v963q0 27 17 44t44 17t44 -17.5t17 -43.5v-963q0 -27 -17 -44t-44 -17t-44 17t-17 44zM226 148.5q1 25.5 19.5 42t44 15.5t42.5 -20q41 -43 100 -71l2 -2q106 -51 264 -51.5t269 53.5q59 29 100 71q16 18 42 19.5t44 -15t19.5 -42t-15.5 -44.5q-57 -61 -137 -100 q-131 -66 -322 -65q-182 0 -319 65q-80 39 -137 100q-17 19 -16 44.5zM500 1700q0 31 21.5 54.5t56.5 23.5q31 0 54 -21.5t23 -56.5q0 -31 -21.5 -54.5t-55.5 -23.5q-31 0 -54.5 21.5t-23.5 56.5zM721 1700q0 31 21.5 54.5t56.5 23.5q31 0 54.5 -21.5t23.5 -56.5 q0 -31 -21.5 -54.5t-56.5 -23.5q-31 0 -54.5 21.5t-23.5 56.5zM1128 346v963q0 27 17.5 44t44.5 17t44 -17.5t17 -43.5v-963q0 -27 -17 -44t-44 -17t-44.5 17t-17.5 44z" />
<glyph unicode="&#xfd;" horiz-adv-x="1349" d="M48 1311.5q1 25.5 19.5 42t44 15.5t42.5 -19l559 -611q16 -18 15 -43.5t-19.5 -42t-44 -15.5t-41.5 19l-560 611q-16 18 -15 43.5zM586 1645.5q2 25.5 22 42.5q92 76 142 174q10 23 34.5 31t47 -2.5t30.5 -35t-2 -47.5q-57 -119 -170 -215l-2 -2q-20 -16 -46 -14 t-42 22.5t-14 46zM606 -2v491q0 27 17.5 44.5t44 17.5t44 -17.5t17.5 -44.5v-491q0 -27 -17.5 -44t-44 -17t-44 17t-17.5 44zM814 920.5q-1 25.5 15 44.5l355 385q16 18 41.5 19t44 -15.5t19.5 -42t-15 -43.5l-354 -385q-16 -18 -42 -19.5t-44.5 15t-19.5 42z" />
<glyph unicode="&#xfe;" horiz-adv-x="1241" d="M176 0v1311q0 27 17.5 44t44 17t44 -17.5t17.5 -43.5v-1311q0 -27 -17.5 -44t-44 -17t-44 17t-17.5 44zM383 1151q0 27 17.5 44t43.5 17h297q199 0 302.5 -120.5t103.5 -300.5q0 -186 -107.5 -293t-273.5 -107h-315q-27 0 -44.5 17.5t-17.5 44t17.5 44t44.5 17.5h315 q119 0 188.5 72.5t69.5 204.5q0 121 -64.5 210t-218.5 89h-297q-27 0 -44 17t-17 44z" />
<glyph unicode="&#xff;" horiz-adv-x="1349" d="M50 1313.5q1 25.5 19.5 42t44 15.5t42.5 -19l559 -611q16 -18 15 -43.5t-19.5 -42t-44 -15.5t-41.5 19l-559 611q-17 18 -16 43.5zM498 1700q0 31 21.5 54.5t55.5 23.5q31 0 54.5 -21.5t23.5 -56.5q0 -31 -21.5 -54.5t-56.5 -23.5q-31 0 -54 21.5t-23 56.5zM608 0v492 q0 27 17.5 44t44 17t44 -17.5t17.5 -43.5v-492q0 -27 -17.5 -44t-44 -17t-44 17t-17.5 44zM719 1700q0 31 21.5 54.5t56.5 23.5q31 0 54 -21.5t23 -56.5q0 -31 -21.5 -54.5t-55.5 -23.5q-31 0 -54.5 21.5t-23.5 56.5zM816 922.5q-1 25.5 15 44.5l355 385q16 18 41.5 19 t44 -15.5t19.5 -42t-15 -43.5l-354 -385q-16 -18 -42 -19.5t-44.5 15t-19.5 42z" />
<glyph unicode="&#x152;" horiz-adv-x="2232" d="M68 676v26q12 156 84 295q102 203 288 301q162 86 340 70q180 -16 322 -129q20 -14 23 -39.5t-13 -46.5q-14 -20 -39.5 -23.5t-46.5 13.5q-115 88 -260 102.5t-272 -53.5q-154 -82 -238 -248q-59 -119 -72 -250v-20q-10 -147 43 -277q57 -141 172 -227q117 -88 263 -104 h8q217 -18 383 118q20 16 45.5 14.5t42 -22t14.5 -46.5t-22 -42q-207 -170 -474 -145l3 -2h-9q-180 18 -321 129q-139 106 -211 278q-63 154 -53 328zM1184 -2v1311q0 27 17.5 44t44 17t44 -17.5t17.5 -43.5v-1311q0 -27 -17.5 -44t-44 -17t-44 17t-17.5 44zM1356 -2 q0 27 17.5 44t43.5 17h656q27 0 44 -17t17 -44t-17.5 -44t-43.5 -17h-656q-27 0 -44 17t-17 44zM1360 702.5q0 26.5 17.5 44t43.5 17.5h529q27 0 44 -17.5t17 -44t-17.5 -44t-43.5 -17.5h-529q-27 0 -44 17.5t-17 44zM1360 1308.5q0 26.5 17.5 44t43.5 17.5h650 q27 0 44 -17.5t17 -44t-17.5 -44t-43.5 -17.5h-650q-27 0 -44 17.5t-17 44z" />
<glyph unicode="&#x153;" horiz-adv-x="2232" d="M68 676v26q12 156 84 295q102 203 288 301q162 86 340 70q180 -16 322 -129q20 -14 23 -39.5t-13 -46.5q-14 -20 -39.5 -23.5t-46.5 13.5q-115 88 -260 102.5t-272 -53.5q-154 -82 -238 -248q-59 -119 -72 -250v-20q-10 -147 43 -277q57 -141 172 -227q117 -88 263 -104 h8q217 -18 383 118q20 16 45.5 14.5t42 -22t14.5 -46.5t-22 -42q-207 -170 -474 -145l3 -2h-9q-180 18 -321 129q-139 106 -211 278q-63 154 -53 328zM1184 -2v1311q0 27 17.5 44t44 17t44 -17.5t17.5 -43.5v-1311q0 -27 -17.5 -44t-44 -17t-44 17t-17.5 44zM1356 -2 q0 27 17.5 44t43.5 17h656q27 0 44 -17t17 -44t-17.5 -44t-43.5 -17h-656q-27 0 -44 17t-17 44zM1360 702.5q0 26.5 17.5 44t43.5 17.5h529q27 0 44 -17.5t17 -44t-17.5 -44t-43.5 -17.5h-529q-27 0 -44 17.5t-17 44zM1360 1308.5q0 26.5 17.5 44t43.5 17.5h650 q27 0 44 -17.5t17 -44t-17.5 -44t-43.5 -17.5h-650q-27 0 -44 17.5t-17 44z" />
<glyph unicode="&#x178;" horiz-adv-x="1349" d="M484 1573q0 31 21.5 54.5t56.5 23.5q31 0 54 -21.5t23 -56.5q0 -31 -21.5 -54.5t-55.5 -23.5q-31 0 -54.5 21.5t-23.5 56.5zM705 1573q0 31 21.5 54.5t56.5 23.5q31 0 54.5 -21.5t23.5 -56.5q0 -31 -21.5 -54.5t-56.5 -23.5q-31 0 -54.5 21.5t-23.5 56.5zM70 1356 q17 15 41 15h3q26 -1 42 -19l559 -611q16 -18 15 -43.5t-19.5 -42t-44 -15.5t-41.5 19l-559 611q-15 17 -16 41q0 28 20 45zM608 0v492q0 27 17.5 44t44 17t44 -17.5t17.5 -43.5v-492q0 -27 -17.5 -44t-44 -17t-44 17t-17.5 44zM816 926q0 24 15 41l355 385q16 18 42 19h3 q24 0 41 -15q18 -16 19 -42v-3q0 -24 -15 -41l-354 -385q-16 -18 -42 -20h-3q-24 0 -41 16q-20 17 -20 45z" />
<glyph unicode="&#x2c6;" horiz-adv-x="333" d="M-46 1029.5q-3 25.5 13 45.5l150 195l-2 -2q18 25 49 24.5t49 -24.5l147 -195q14 -20 11.5 -44.5t-23.5 -41.5q-20 -14 -44.5 -11t-41.5 23l-98 131l-101 -131q-14 -20 -39.5 -23t-46.5 13q-20 15 -23 40.5z" />
<glyph unicode="&#x2dc;" horiz-adv-x="389" d="M-292 229q0 49 26 88q35 57 115 64h12h17q27 -2 59 -17q25 -10 66 -43q68 -57 83 -63q14 -6 29 -6h2q12 0 25 8q10 6 14 16t2 8l-2 -4q2 4 2 11l-2 6q-4 25 10.5 46t39 25t46 -10t25.5 -39q4 -12 4 -31l12 -2q-2 -29 -8 -47q0 -4 -6 -16q-20 -45 -61 -71.5t-86 -28.5h-9 q-39 0 -75 16q-33 12 -117 82q-23 18 -39 24q-12 6 -21 7h-6h-4q-16 0 -24 -11q-4 -6 -4 -14v-6q8 -25 -3.5 -47.5t-36 -30.5t-47 3t-30.5 35.5t-8 47.5z" />
<glyph unicode="&#x2000;" horiz-adv-x="946" />
<glyph unicode="&#x2001;" horiz-adv-x="1894" />
<glyph unicode="&#x2002;" horiz-adv-x="946" />
<glyph unicode="&#x2003;" horiz-adv-x="1894" />
<glyph unicode="&#x2004;" horiz-adv-x="630" />
<glyph unicode="&#x2005;" horiz-adv-x="473" />
<glyph unicode="&#x2006;" horiz-adv-x="315" />
<glyph unicode="&#x2007;" horiz-adv-x="315" />
<glyph unicode="&#x2008;" horiz-adv-x="235" />
<glyph unicode="&#x2009;" horiz-adv-x="378" />
<glyph unicode="&#x200a;" horiz-adv-x="104" />
<glyph unicode="&#x2010;" horiz-adv-x="415" d="M-31 575.5q0 26.5 17.5 44t44.5 17.5h350h-2q27 0 44 -17.5t17 -44t-17 -44t-44 -17.5h-348q-27 0 -44.5 17.5t-17.5 44z" />
<glyph unicode="&#x2011;" horiz-adv-x="415" d="M-31 575.5q0 26.5 17.5 44t44.5 17.5h350h-2q27 0 44 -17.5t17 -44t-17 -44t-44 -17.5h-348q-27 0 -44.5 17.5t-17.5 44z" />
<glyph unicode="&#x2012;" horiz-adv-x="415" d="M-31 575.5q0 26.5 17.5 44t44.5 17.5h350h-2q27 0 44 -17.5t17 -44t-17 -44t-44 -17.5h-348q-27 0 -44.5 17.5t-17.5 44z" />
<glyph unicode="&#x2013;" horiz-adv-x="1024" d="M-31 514v123h1080v-123h-1080z" />
<glyph unicode="&#x2014;" horiz-adv-x="2048" d="M-31 514v123h2104v-123h-2104z" />
<glyph unicode="&#x2018;" horiz-adv-x="208" d="M-35 1253.5q8 24.5 30.5 34.5t47.5 2t35 -30q49 -98 141 -175l-2 2q20 -16 22.5 -41.5t-14 -46t-42 -22.5t-46.5 14q-113 96 -170 215q-10 23 -2 47.5z" />
<glyph unicode="&#x2019;" horiz-adv-x="329" d="M29 1251q0 57 40 97.5t97 40.5h2q25 0 45 -7l-2 -6q45 -14 72 -57q25 -33 26 -82v-8q0 -55 -28 -107q-23 -37 -60 -78q-47 -53 -100 -81q-23 -12 -47.5 -4t-36.5 30.5t-4 47t30 36.5q27 14 60 47q-41 14 -67.5 50t-26.5 81z" />
<glyph unicode="&#x201c;" horiz-adv-x="280" d="M2 1008v321q0 27 17.5 44.5t44 17.5t44 -17.5t17.5 -44.5v-321q0 -27 -17.5 -44.5t-44 -17.5t-44 17.5t-17.5 44.5zM156 1008v321q0 27 17 44.5t44 17.5t44.5 -17.5t17.5 -44.5v-321q0 -27 -17.5 -44.5t-44.5 -17.5t-44 17.5t-17 44.5z" />
<glyph unicode="&#x201d;" horiz-adv-x="280" d="M2 1008v321q0 27 17.5 44.5t44 17.5t44 -17.5t17.5 -44.5v-321q0 -27 -17.5 -44.5t-44 -17.5t-44 17.5t-17.5 44.5zM156 1008v321q0 27 17 44.5t44 17.5t44.5 -17.5t17.5 -44.5v-321q0 -27 -17.5 -44.5t-44.5 -17.5t-44 17.5t-17 44.5z" />
<glyph unicode="&#x2026;" horiz-adv-x="1044" d="M731 75.5q0 57.5 40 97.5t97 40t97 -40t40 -97.5t-40 -97t-97 -39.5t-97 39.5t-40 97zM383 75.5q0 57.5 40 97.5t97 40t97 -40t40 -97.5t-40 -97t-97 -39.5t-97 39.5t-40 97zM35 75.5q0 57.5 40 97.5t97 40t97 -40t40 -97.5t-40 -97t-97 -39.5t-97 39.5t-40 97z" />
<glyph unicode="&#x202f;" horiz-adv-x="378" />
<glyph unicode="&#x2039;" horiz-adv-x="266" d="M-33 448.5q0 38.5 37 55.5q74 33 111 51q41 20 123 66q23 12 46 6t35.5 -29t6 -46.5t-28.5 -35.5q-82 -45 -125 -65v-2q41 -20 123 -66q23 -12 29 -35.5t-6.5 -46t-36 -29t-45.5 6.5q-41 23 -123 63q-37 18 -111 51q-35 17 -35 55.5z" />
<glyph unicode="&#x203a;" horiz-adv-x="266" d="M-53 556q-6 24 6 46.5t35.5 28.5t46.5 -6q82 -45 123 -66v2q37 -18 110 -51q37 -16 37 -55t-35 -56q-74 -33 -110 -51q-82 -41 -123 -63q-23 -12 -46.5 -6t-35.5 28.5t-6 46t28 35.5q82 45 123 66q-43 20 -125 65q-22 12 -28 36z" />
<glyph unicode="&#x205f;" horiz-adv-x="473" />
<glyph unicode="&#x2122;" horiz-adv-x="3004" d="M1348 0v1311q0 27 17.5 44t44 17t44 -17.5t17.5 -43.5v-1311q0 -27 -17.5 -44t-44 -17t-44 17t-17.5 44zM1528 991q8 25 31 35t47.5 2t34.5 -31l491 -972q10 -23 2 -47.5t-30 -34.5q-13 -6 -26 -6q-11 0 -21 4q-25 8 -35 30l-492 973q-6 13 -5 26q-1 10 3 21zM2165 240 q-3 10 -3 19q0 14 7 28l547 1052q12 23 37 31q10 3 19 3q14 0 28 -7q23 -12 31 -37q3 -10 3 -19q0 -14 -7 -28l-547 -1053q-12 -23 -37 -31t-47.5 4.5t-30.5 37.5zM2710 0v913q0 27 17.5 44.5t44 17.5t44 -17.5t17.5 -44.5v-913q0 -27 -17.5 -44t-44 -17t-44 17t-17.5 44z M43 1310.5q0 26.5 17.5 44t43.5 17.5h961q27 0 44 -17.5t17 -44t-17 -44t-44 -17.5h-961q-27 0 -44 17.5t-17 44zM522 0v1126q0 27 17.5 44.5t44 17.5t44 -17.5t17.5 -44.5v-1126q0 -27 -17.5 -44t-44 -17t-44 17t-17.5 44z" />
<glyph unicode="&#xe000;" horiz-adv-x="1370" d="M0 1370h1370v-1370h-1370v1370z" />
<glyph unicode="&#xfb01;" horiz-adv-x="1640" d="M1343 0v1311q0 27 17.5 44t44 17t44 -17.5t17.5 -43.5v-1311q0 -27 -17.5 -44t-44 -17t-44 17t-17.5 44zM174 0v1311q0 27 17.5 44t44 17t44 -17.5t17.5 -43.5v-1311q0 -27 -17.5 -44t-44 -17t-44 17t-17.5 44zM350 704.5q0 26.5 17.5 44t44.5 17.5h495q27 0 44.5 -17.5 t17.5 -44t-17.5 -44t-44.5 -17.5h-495q-27 0 -44.5 17.5t-17.5 44zM350 1310.5q0 26.5 17.5 44t44.5 17.5h616q27 0 44.5 -17.5t17.5 -44t-17.5 -44t-44.5 -17.5h-616q-27 0 -44.5 17.5t-17.5 44z" />
<glyph unicode="&#xfb02;" horiz-adv-x="2312" d="M1343 0v1311q0 27 17.5 44t44 17t44 -17.5t17.5 -43.5v-1311q0 -27 -17.5 -44t-44 -17t-44 17t-17.5 44zM1548 0q0 27 17.5 44t43.5 17h617q27 0 44 -17t17 -44t-17.5 -44t-43.5 -17h-617q-27 0 -44 17t-17 44zM174 0v1311q0 27 17.5 44t44 17t44 -17.5t17.5 -43.5v-1311 q0 -27 -17.5 -44t-44 -17t-44 17t-17.5 44zM350 704.5q0 26.5 17.5 44t44.5 17.5h495q27 0 44.5 -17.5t17.5 -44t-17.5 -44t-44.5 -17.5h-495q-27 0 -44.5 17.5t-17.5 44zM350 1310.5q0 26.5 17.5 44t44.5 17.5h616q27 0 44.5 -17.5t17.5 -44t-17.5 -44t-44.5 -17.5h-616 q-27 0 -44.5 17.5t-17.5 44z" />
<glyph unicode="&#xfb03;" horiz-adv-x="2809" d="M2513 0v1311q0 27 17.5 44t44 17t44 -17.5t17.5 -43.5v-1311q0 -27 -17.5 -44t-44 -17t-44 17t-17.5 44zM1343 0v1311q0 27 17.5 44t44 17t44 -17.5t17.5 -43.5v-1311q0 -27 -17.5 -44t-44 -17t-44 17t-17.5 44zM1519 704.5q0 26.5 17.5 44t44.5 17.5h495 q27 0 44.5 -17.5t17.5 -44t-17.5 -44t-44.5 -17.5h-495q-27 0 -44.5 17.5t-17.5 44zM1519 1310.5q0 26.5 17.5 44t44.5 17.5h616q27 0 44.5 -17.5t17.5 -44t-17.5 -44t-44.5 -17.5h-616q-27 0 -44.5 17.5t-17.5 44zM174 0v1311q0 27 17.5 44t44 17t44 -17.5t17.5 -43.5 v-1311q0 -27 -17.5 -44t-44 -17t-44 17t-17.5 44zM350 704.5q0 26.5 17.5 44t44.5 17.5h495q27 0 44.5 -17.5t17.5 -44t-17.5 -44t-44.5 -17.5h-495q-27 0 -44.5 17.5t-17.5 44zM350 1310.5q0 26.5 17.5 44t44.5 17.5h616q27 0 44.5 -17.5t17.5 -44t-17.5 -44t-44.5 -17.5 h-616q-27 0 -44.5 17.5t-17.5 44z" />
<glyph unicode="&#xfb04;" horiz-adv-x="3481" d="M2513 0v1311q0 27 17.5 44t44 17t44 -17.5t17.5 -43.5v-1311q0 -27 -17.5 -44t-44 -17t-44 17t-17.5 44zM2718 0q0 27 17.5 44t43.5 17h617q27 0 44 -17t17 -44t-17.5 -44t-43.5 -17h-617q-27 0 -44 17t-17 44zM1343 0v1311q0 27 17.5 44t44 17t44 -17.5t17.5 -43.5 v-1311q0 -27 -17.5 -44t-44 -17t-44 17t-17.5 44zM1519 704.5q0 26.5 17.5 44t44.5 17.5h495q27 0 44.5 -17.5t17.5 -44t-17.5 -44t-44.5 -17.5h-495q-27 0 -44.5 17.5t-17.5 44zM1519 1310.5q0 26.5 17.5 44t44.5 17.5h616q27 0 44.5 -17.5t17.5 -44t-17.5 -44t-44.5 -17.5 h-616q-27 0 -44.5 17.5t-17.5 44zM174 0v1311q0 27 17.5 44t44 17t44 -17.5t17.5 -43.5v-1311q0 -27 -17.5 -44t-44 -17t-44 17t-17.5 44zM350 704.5q0 26.5 17.5 44t44.5 17.5h495q27 0 44.5 -17.5t17.5 -44t-17.5 -44t-44.5 -17.5h-495q-27 0 -44.5 17.5t-17.5 44z M350 1310.5q0 26.5 17.5 44t44.5 17.5h616q27 0 44.5 -17.5t17.5 -44t-17.5 -44t-44.5 -17.5h-616q-27 0 -44.5 17.5t-17.5 44z" />
</font>
</defs>
</svg>
