<?xml version="1.0" standalone="no"?>
<!DOCTYPE svg PUBLIC "-//W3C//DTD SVG 1.1//EN" "http://www.w3.org/Graphics/SVG/1.1/DTD/svg11.dtd" >
<svg xmlns="http://www.w3.org/2000/svg">
<metadata>
This is a custom SVG webfont generated by Font Squirrel.
Copyright   : Copyright c 2011 by Bastien Sozoo All rights reserved3
Designer    : BSozoo
Foundry     : BSozoo
</metadata>
<defs>
<font id="FuturaRenerLight" horiz-adv-x="833" >
<font-face units-per-em="1000" ascent="750" descent="-250" />
<missing-glyph horiz-adv-x="307" />
<glyph unicode=" "  horiz-adv-x="307" />
<glyph unicode="&#x09;" horiz-adv-x="307" />
<glyph unicode="&#xa0;" horiz-adv-x="307" />
<glyph unicode="!" horiz-adv-x="170" d="M107 701v-14q-6 -36 -4 -150q0 -36 1 -39q-2 -108 -1 -137q0 -5 0.5 -16t0.5 -16q2 -30 0 -68q0 -5 -1.5 -15.5t-1.5 -15.5q0 -11 1.5 -32.5t1.5 -32.5q0 -5 -6.5 -7.5t-7.5 -4.5q-12 -6 -22 -5q-17 10 -10 36q9 49 2 123q-2 33 3 47q-1 3 -1 37l-4 50q0 3 1 11t1 11 q0 5 -1 15t-1 15q2 40 2 58q0 6 -1.5 18t-1.5 17q0 7 1 29.5t0 35.5q0 5 -0.5 14.5t-0.5 15.5t1 14t4 14q10 5 25.5 3t19.5 -11zM118 33q-17 -12 -27 -13q-20 0 -29 7q-4 2 -8.5 8t-6.5 7q-3 19 8 33q1 17 25 21.5t30 -6.5v-11q2 -4 7 -8.5t6 -7.5q-5 -25 -5 -30z" />
<glyph unicode="&#x22;" horiz-adv-x="290" d="M88 519q-5 -2 -11.5 -7t-13.5 -7q-4 1 -4 3q-1 2 -4 5q-5 4 -1 19v2q-1 1 1 2q-3 7 -4 20t3 20q-4 14 -5.5 28.5t-1.5 23.5t0.5 26.5t0.5 27.5q0 7 -3 26t-2 28q21 9 30.5 9.5t23.5 -3.5l4 -4q3 -7 2 -18t3 -17q-3 -4 -3 -12q-1 -2 -3 -5.5t-3 -5.5q3 -11 1 -52 q0 -3 -2 -10.5t-2.5 -13.5t2.5 -17q-3 -11 -4.5 -34.5t-3.5 -33.5zM200 519q-10 32 -8 68q1 11 -0.5 25t-1.5 16q-2 41 1 52q-2 8 -2 14q0 2 -0.5 7t-0.5 8q0 5 -3 15t2 14l4 4q53 10 53 -6q0 -7 -3 -26.5t-2 -27.5q0 -14 -6.5 -53.5t0.5 -52.5q2 -7 1.5 -21t-2.5 -19 q2 -1 2 -2l-1 -2q4 -15 -1 -19q-2 -2 -3 -4t-1.5 -2.5t-1.5 -1t-4 -0.5q-11 0 -15.5 2.5t-6.5 11.5z" />
<glyph unicode="#" horiz-adv-x="624" d="M48 353q9 10 30 8q11 -5 106 -3q1 0 1 1q16 27 21 67q10 20 10 33q1 5 0 9.5t1 10t7 9.5q7 1 7 2q32 0 37 -1q13 -9 -1 -28q-2 -6 -7.5 -20.5t-5.5 -23.5q0 -2 -2.5 -5.5t-1.5 -7.5q-14 -33 -17 -45q20 0 40.5 1t32.5 1.5t13 0.5q4 0 35 -0.5t45 -0.5q15 35 21 65 q1 4 5 15t3 18q4 19 10 25q11 2 13 4t10 2q12 0 19 -9t0 -20q-9 -36 -9 -44q-1 -1 -4.5 -5t-2.5 -8q-2 -7 -7.5 -20.5t-7.5 -20.5h5q6 1 28.5 0.5t25.5 -0.5q45 9 49 -8q2 -6 3.5 -9.5t2.5 -6.5q1 -4 -0.5 -6.5t-3.5 -4t-5.5 -4t-5.5 -4.5q-2 -3 -20 -5q-4 0 -27.5 0.5 t-32.5 -0.5l-20 -2h1q-9 -1 -15 -12.5t-7 -22.5l-1 -10q-5 -6 -14 -37q-2 -21 -6 -31q-7 -9 -7 -30v-3q85 0 99 -1q14 -4 18 -8l6 -1l-2 -1q-5 -4 -8 -9q2 -3 -3 -6q-13 -13 -30 -7q-10 4 -96 2q-2 -10 -9 -16v-1q-6 -22 -2 -40q-1 -2 -4.5 -5.5t-4.5 -6.5q0 -1 -10 -35 q0 -9 -3 -13v-4q2 -6 -4 -9l-3 -4h-1q-2 0 -4 0.5t-5 0.5q-6 0 -14.5 -0.5t-13 -1t-8.5 0.5t-6 5q2 11 10 17q-1 3 1.5 10t2.5 11q2 7 13 40.5t13 46.5q0 2 1 3q-64 -3 -81 -3q-6 0 -39.5 1t-43.5 1q-2 -5 -8 -14v-1q-8 -22 -4 -40q-1 -2 -3.5 -5.5t-3.5 -6.5 q-2 -11 -10 -35v-5q0 -5 -3 -8q2 -10 -1 -13q-7 -7 -11 -8t-21 -2h-8t-5.5 0.5t-3.5 1.5t-2 1.5t-2.5 3t-2.5 4.5q9 16 10 17q-1 5 7 21q2 10 11.5 43t11.5 42q-5 0 -26 0.5t-23 -0.5q-11 -3 -15.5 -3.5t-12 -1t-10.5 2t-4 7.5l-2 4q-2 19 15 24q1 2 3 2.5l4 1t6 0.5t6 1 q4 0 26 -0.5t32 0.5l16 2q8 21 10 30q2 6 3 16.5t5 17.5q11 27 10 35v8q5 4 14 38q-94 0 -109 2q-15 3 -19 8q-6 0 -8.5 3.5t-1.5 8.5t5 10q0 3 5 6zM220 311q2 -1 0 -11.5t-6 -21.5l-3 -10q-5 -6 -9 -21t-4 -16q0 -2 -5 -31q-3 -3 -6.5 -14.5t-3.5 -15.5q49 -5 63 -4 q16 3 81 3q2 0 9 -0.5t10 -0.5q12 24 16 35q1 5 0 15.5t3 15.5q-1 4 4.5 17t5.5 18l-1 8q5 5 13 35q-3 0 -21.5 1.5t-31.5 1.5q-5 -1 -86 -1q-4 0 -13.5 0.5t-12.5 0.5z" />
<glyph unicode="$" horiz-adv-x="499" d="M58 166q9 -3 15 -21q0 -4 4 -10.5t5 -11.5q11 -11 16 -22q14 -9 25 -19q8 -1 26 -17q15 -3 31 -13q4 -1 7.5 0.5t6.5 1.5t6 -3t7 -2q0 7 0.5 23t0.5 24q0 6 -1 41.5t0 43.5q0 19 -2 24q1 6 1 30q-2 63 0 93q-2 20 -2 33q-2 1 -11 5l-12 6q-3 2 -8.5 3t-7.5 2q-1 0 -3 2 t-4 3h-4t-3 1t-5.5 4t-7.5 4q-11 5 -13 7q-5 1 -11 9q-3 0 -6.5 3.5l-4.5 4.5q-1 5 -8 10t-9 10q-7 7 -15 28t-11 27q0 4 -4 14q0 50 -1 55q16 52 22 64q4 5 16.5 17.5t18.5 20.5q3 1 26 19l27 12q3 1 13.5 4t15.5 6h7q0 31 4 37q4 5 23 5q16 -2 19 -8q2 -5 2 -22v-10 q3 0 10 -0.5t10 -0.5q3 -1 13.5 -4t18.5 -3q6 -7 28 -18q20 -19 41 -35q10 -17 11 -20q10 -15 10 -21q1 -6 -4 -11l-6 -6q-10 -8 -17 -10q-6 3 -12.5 12t-11.5 11q-2 6 -9.5 13.5t-9.5 11.5q-8 5 -21 13.5t-18 11.5q-5 1 -15.5 4t-15.5 4v-5q0 -5 -1 -15t-1 -15 q0 -139 3 -201q0 -2 -1.5 -8t-1.5 -10v-5q12 -6 26 -9q9 -6 17 -14q21 0 44 -17t31 -20q33 -31 47 -49l14 -37q-1 -10 3 -26q1 -2 1.5 -11.5t3.5 -11.5q0 -21 -5 -41q-1 -6 -5 -17.5t-5 -17.5q-4 -3 -6.5 -7.5t-4.5 -10.5t-4 -9q-9 -10 -16 -26q-17 -11 -37 -37q-4 1 -6.5 0 t-5 -3t-5.5 -3q-1 -2 -7 -4t-7 -5q-15 -5 -33 -14q-4 0 -12.5 -2.5t-12.5 -2.5q-2 0 -4 1t-3 1q-2 -2 -6 -2l2 -7q-1 -10 -0.5 -20t0.5 -20.5t-2 -15.5q-3 -4 -25 -6q-3 0 -7 -1q-7 -1 -10 3q-5 19 -3 54v12q-36 5 -64 12q-19 13 -47 25q-3 3 -20.5 22t-28.5 28 q-3 10 -16 25q1 6 0 14.5t-1 13.5q1 5 5.5 9.5t5.5 6.5l6 5q7 4 12 4zM251 195q0 -93 -1 -142q8 3 17 3q22 10 30 11q12 6 14 6q16 14 24 16q2 2 4.5 6t4.5 6q4 5 17 16q2 7 9 16t9 15q3 5 13 35q0 7 -1.5 21t-0.5 23q-2 9 -10 22t-10 17q-12 13 -26 26q-13 8 -28 21 q-33 11 -41 20q-14 3 -26 9v-2q2 -20 2 -31q0 -49 1 -53q-1 -10 -1 -61zM205 630q-3 16 -3 23q-22 -7 -35 -14q-9 -5 -22 -18.5t-18 -17.5q-3 -13 -12 -22q-7 -21 -10 -26q2 -4 2 -15.5v-14.5q7 -29 6 -41q6 -10 21 -23t19 -18q5 -2 52 -30v33q-1 91 0 184z" />
<glyph unicode="%" horiz-adv-x="714" d="M297 686q2 -4 11.5 -14t11.5 -14q8 -10 17 -33q0 -14 6 -18q-1 -5 1 -15q0 -2 -2 -11t-1 -13q1 -7 -1 -15t-2 -11q-8 -8 -8 -16q-3 -9 -2 -13q-4 -3 -11 -12.5t-10 -12.5l-19 -16l-9 -10q-4 -3 -7.5 -5.5t-5.5 -3.5t-3.5 -2t-1.5 -2q-28 -15 -29 -16q-2 3 -7 3 q-2 -1 -10.5 -3t-12.5 -5q-2 1 -18 1q-8 1 -18.5 2t-12.5 1q-4 0 -13 5t-15 5q-3 2 -8.5 4t-11 5.5t-10.5 8.5q-5 8 -9 8q-7 12 -18 25q-6 7 -10.5 15.5t-7.5 11.5l-11 16q1 8 -2 13q1 6 -1 13q-3 5 -3.5 12.5t-2.5 11.5q3 8 3 14q1 2 1 6.5t2 7.5q0 4 1.5 12t1.5 11 q3 5 4.5 11.5t1.5 7.5q3 6 7 11t9 9t6 6q25 23 26 24q15 8 30 20q6 1 20 8q3 -1 24 4h10h19q2 -1 4 -1t6.5 -0.5t8.5 -1.5q10 3 15 -1q2 -1 14.5 -5t18.5 -9q12 -8 34 -34zM669 136q0 -4 0.5 -18t-0.5 -18q-1 -16 -8 -36l-3 -3t-3 -3.5t-2 -5t1 -6.5q-3 -3 -9 -12 q-17 -14 -18 -16q-4 -6 -11 -11.5t-8 -6.5q-12 -2 -16 -8q-8 -3 -10 -8q-5 0 -16.5 -2.5t-15.5 -3.5h-25q-1 0 -6 -1t-7 -1q-7 0 -12.5 1t-6.5 1.5t-4 -0.5q-3 0 -13.5 3t-18.5 3q0 4 -3 7q-3 0 -10.5 4t-12.5 5q-1 1 -14 12q-4 5 -21 22q-3 3 -7 12.5t-8 13.5q-1 3 -4 8.5 t-5 11t-2 13.5q0 10 -2 12q2 12 2 31q0 9 2 18.5t2 13.5t0.5 10t0.5 9q6 5 7 11q2 2 8 11q1 6 5.5 12t5.5 10q5 3 11 9q2 0 5 4t6 5q2 3 8.5 8t8.5 8q12 4 17 10q10 0 34 6q9 0 19.5 1t15.5 1q17 -4 36 -4q5 -3 20 -7q2 -3 21 -12q3 -1 5 -3.5t3 -3.5q12 -10 14 -12 q1 -2 2.5 -3.5l4.5 -4.5l6 -6q10 -5 11 -11q9 -21 16 -32q0 -8 2 -23t2 -25zM440 505l-28 -67q-8 -12 -23 -50q-1 -3 -7.5 -20t-11.5 -27q-2 -3 -6 -10t-6 -10l-8 -22q-2 -4 -12 -28.5t-16 -36.5q-1 -7 -16 -35v-2v-2q-14 -31 -17 -43q-1 -4 -5 -9t-6 -8q-6 -16 -9 -23.5 t-4.5 -9.5t-2.5 -3t-4.5 -9l-10.5 -24q-1 -1 -8 -20t-14 -36t-9 -19q-1 -1 -2 -8.5t-6 -11.5q-5 -6 -7 -9t-7 -4.5t-7 -1.5t-13 -1q-39 -2 -40 17l15 24q2 8 19 44t22 44q4 12 29.5 64t32.5 72q4 10 17 36.5t22 47t13 37.5q4 7 10.5 23.5t13.5 25.5q1 9 9 25t10 24l3 15 q5 4 15 25t20.5 47.5t11.5 27.5q3 7 8.5 19t7.5 17l6 15q17 34 37 88q19 45 20 50q2 4 4.5 14t6 17.5t9.5 13.5q9 3 25 3q33 0 37 -2q9 -12 -14 -42q-21 -53 -25 -69q-2 -5 -7 -10t-6 -9q-6 -14 -21 -45.5t-24 -53t-16 -43.5q0 -1 -2 -3.5t-3 -4.5t0 -4zM637 126v10 q-6 6 -6 34q-8 0 -8 9q0 1 -2 4.5t-2 5.5q-3 4 -6 9.5t-4.5 8.5t-4.5 6.5t-7 6.5q-1 1 -8 4.5t-9 6.5q-4 4 -10 5.5t-7 3.5q-9 3 -46 3l-1 1q-1 0 -3 1t-5 1t-9 -0.5t-13 -2.5q-2 0 -8 -6t-9 -7q-4 -4 -15.5 -11.5t-17.5 -15.5q-3 0 -6.5 -7t-7.5 -7q-1 -7 -6 -15 q0 -6 -10 -13v-71q0 -2 10 -10q5 -5 5 -9q0 -2 15 -22q3 0 3 -5h7q0 -1 1 -2.5t2.5 -3t4 -3t3.5 -2.5q7 -1 16 -6.5t13 -6.5q27 0 28 -3q2 0 3 1.5t2 1.5l5 -3q6 0 30 3q1 0 5 2t7 2q5 4 13 6t14 5q7 3 11.5 8t9.5 15t7 13q3 11 13 25v11t0.5 7.5l1 5t1 3.5t0.5 2v1z M279 657q-7 7 -7 8q-5 0 -27 22q-1 -2 -5.5 -1t-5.5 3t-5 3t-6 2q-31 10 -36 10q-1 0 -6.5 -2.5t-7.5 -2.5t-6 2q-10 -8 -18 -4q-19 -6 -43 -20q0 -1 -18 -27q-1 -1 -2 -9.5t-3 -10.5q0 -5 -4.5 -19t-3.5 -24q-2 -1 -0.5 -8.5t-1.5 -10.5q3 -6 6 -15q3 -6 0 -18 q7 -7 11 -11.5t5 -5.5l1 -2q2 -2 5.5 -6.5t9 -11t14.5 -16.5q1 -2 13 -2q7 0 10 -3q2 -2 26 -7q2 2 6 -1l4 3q1 -2 7.5 -1.5t7.5 0.5q7 3 17 5t14 4q22 16 25 15q1 1 1 3v3l7 1l20 22l2 4q2 4 4 5q1 4 14 28q2 11 2 14.5t-1.5 14t-1.5 15.5q-5 9 -7 28q-7 8 -10.5 13.5 t-4.5 7.5z" />
<glyph unicode="&#x26;" horiz-adv-x="600" d="M556 13q-9 -6 -24.5 -4.5t-22.5 7.5q-2 3 -6.5 11.5t-7.5 12.5q-3 2 -26 29t-25 29q-2 1 -5 6.5t-6 10t-4 3.5t-4 -6t-6 -8.5t-5 -3.5q-17 -11 -28 -35l-13 -6q-20 -22 -38 -30q-20 -20 -28 -25q-9 1 -21 -3t-14 -4q-56 0 -71 -3q-3 -1 -13 2t-12 3q-19 9 -36 11 q-14 12 -19 21q-4 2 -12 7.5t-15 7.5q-6 9 -19 18q-1 3 -11 15t-11 15t-6 7t-6 8q4 16 -8 46q3 8 3 43q1 3 5 12q-1 9 2.5 21t3.5 20q14 28 16 38q1 1 7 8t9 11q2 4 7 10.5t7 9.5q1 2 4 4t5 3l3 1q3 7 7 8h3l1 3q19 9 33 30q7 1 14.5 7t11.5 8q2 1 10 6t12 9q1 15 -22 29 q-2 3 -7 8t-8.5 9t-5.5 9q-19 22 -22 24q-1 14 -11 22q1 6 -2.5 12t-3.5 9q0 1 -2 3q5 23 5 44q1 1 2.5 6.5t3.5 7.5q2 32 32 70q2 1 12.5 7.5t15.5 10.5q21 3 33 10q49 4 81 1q25 -11 30 -12q5 -5 17 -13t17 -12q0 -2 2.5 -7t2.5 -9q5 -6 11.5 -21t8.5 -19q-1 -6 2 -14.5 t3 -11.5q0 -5 -0.5 -14.5t-1 -17.5t-1.5 -14q-4 -8 -9 -16t-11 -16.5t-10 -14.5l-20 -19q-10 -4 -22 -18q-3 -1 -14.5 -10t-14.5 -10q-4 -2 -13.5 -5.5t-13.5 -5.5q-1 -4 4.5 -13.5t10.5 -11.5q13 -26 58 -67q3 -7 9 -11q1 -6 5 -11l13 -9q3 -4 18.5 -23.5t22.5 -31.5 q3 -2 11.5 -13t18.5 -12q6 2 13 11t12 11q0 2 5 9.5t11.5 16.5t8.5 13q11 7 22 22q9 12 10 13q2 9 12 8q3 -3 3 -6.5t-1.5 -8.5t-1.5 -7q0 -44 -1 -48q-7 -3 -18 -13.5t-12 -14.5q-12 -6 -21 -22q-16 -16 -17 -24q0 -3 15 -19.5t14 -19.5q0 -3 14 -22t15 -22q2 -5 15 -18.5 t21.5 -27.5t4.5 -24zM173 72q9 -8 25 -15q10 3 29 1.5t28 0.5q3 3 12 5t12 4q5 2 12 6t11 5q1 2 4 2q2 3 7 8t7 9q5 1 10.5 7t8.5 8q7 3 18 14t18 14q1 1 5 6.5t7 7.5q1 2 7.5 6.5t5.5 10.5q-1 0 -1.5 2t-1.5 2q-3 6 -11 14t-10 11q0 1 -1 4t-2 4l-6 6l-11 13 q-4 3 -10.5 11.5t-11.5 11.5q-1 4 -5.5 7.5t-4.5 6.5q-7 12 -23 24q-1 3 -7.5 10t-10.5 9q1 5 -3 11q-29 27 -34 39q-4 2 -11.5 8.5t-14.5 7.5q-6 -1 -14 -7.5t-12 -8.5q-3 -4 -9.5 -10.5t-8.5 -9.5q-6 -1 -12 -7t-8 -7q-4 -13 -5 -18q-2 -1 -7.5 -6t-9.5 -6q-7 1 -21 -18.5 t-19 -31.5q-15 -34 -14 -61q1 -4 5.5 -21.5t8.5 -25.5q12 -10 16 -20l2 -1l1 -1l11 -14q0 -7 5.5 -13.5t10.5 -3.5q20 -10 33 -11zM252 440q3 5 13 13q13 8 17 9q19 21 28 27q8 14 21 29q5 16 17 31q1 8 5 22q-4 3 -5 15.5t-3 16.5t-8 9t-16.5 12t-13.5 10q-22 7 -52 10 q-15 1 -52 -13q-6 -4 -16.5 -13.5t-13.5 -11.5q-17 -34 -16 -52q1 -8 5 -19q4 -13 8 -17q1 -5 5 -10l4 -6q2 -2 5 -8t5 -8l3 -2q2 -2 3 -4q2 -2 4 -6t3.5 -6t4.5 -5t6 -4q1 -3 5 -7t4 -8q2 -1 4 -4t4.5 -5t5.5 -2q5 -1 8.5 3t7.5 4z" />
<glyph unicode="'" horiz-adv-x="170" d="M93 519q-5 -2 -10.5 -7t-12.5 -7q-4 1 -12 8q-5 4 -1 19l-1 2q0 1 2 2q-3 7 -4 20t3 20q-4 14 -5.5 28.5t-1.5 23.5t0.5 26.5t0.5 27.5q0 7 -3 26t-2 28q21 9 31.5 9.5t24.5 -3.5l4 -4q3 -7 2 -18t3 -17q-3 -4 -3 -12q0 -2 -3 -5.5t-3 -5.5q2 -6 -1 -24t2 -28 q-10 -20 -2 -41q-3 -11 -4.5 -34.5t-3.5 -33.5z" />
<glyph unicode="(" horiz-adv-x="372" d="M194 -12q-2 0 -7 -0.5t-9 -0.5t-6 3q-14 11 -16 14q-3 30 -14 55q-1 14 -4 42.5t-4 51t0 43.5q0 5 -3.5 11.5t-4.5 9.5q3 18 3 19q-2 47 -7 75q4 21 0 41q7 34 1 81q4 5 6 22q-6 10 -0.5 39.5t5.5 40.5q2 7 13 85q6 10 12 29q0 17 4 23q9 7 17 0q16 6 20 3t4.5 -6.5 t-1 -9.5t-1.5 -10t-5 -29q-2 -39 -8 -55v-14q-1 -4 -5 -17.5t-3 -23.5l-14 -35q0 -3 1.5 -9t1.5 -10q1 -6 -1.5 -17t-2.5 -13q1 -11 -0.5 -33.5t-1.5 -30.5q0 -5 1.5 -14.5t1 -17.5t-3.5 -14q0 -38 9 -151l6 -22v-15q9 -33 15 -69q1 -6 7 -14q-1 -14 13 -39q1 -6 -1.5 -9.5 t-9.5 -6t-8 -2.5z" />
<glyph unicode=")" horiz-adv-x="353" d="M131 -1q-1 11 8 27v13q1 3 4.5 7.5t4.5 7.5q1 6 3.5 20.5t3.5 24.5q9 20 6 33q12 52 10 72q0 4 2 9.5t2 6.5q0 28 -1 33q-1 4 1 9.5t2 6.5q-2 4 -0.5 25.5t1.5 24.5q0 13 -1.5 47.5t0.5 47.5q-1 4 -3 10l-3 9l-5 44l-2 20q-1 9 -5.5 23t-5.5 17q1 14 -4 35.5t-5 35.5 q0 3 -3 6.5t-4 5.5q1 14 -4 26q1 6 1 8t-1.5 7t-1.5 8q2 3 5 5t7.5 2.5t7.5 0.5h9.5h10.5q7 -5 10.5 -24.5t7.5 -24.5l10 -66q2 -3 3.5 -9.5t2.5 -7.5v-19q2 -10 13 -137q0 -2 6 -19v-93q0 -5 3 -11t3 -8q-5 -30 -7 -35q-2 -58 -7 -71q-4 -65 -12 -85q1 -6 -0.5 -13 t-1.5 -11q0 -2 -2.5 -6t-2.5 -6q-1 -4 -1 -12t-2 -12q0 -1 -3.5 -6.5t-4.5 -9.5q0 -1 -12 -2t-26 1t-17 9z" />
<glyph unicode="*" horiz-adv-x="369" d="M314 456q-7 -3 -15.5 -3t-14.5 1.5l-16 4l-14 3.5q-1 2 -4.5 8.5t-6.5 9.5q-2 2 -6 7.5t-7 7.5q-4 1 -11 6.5t-12 6.5q-3 0 -3.5 -3t0 -7.5t0.5 -6.5q0 -3 1.5 -8t1.5 -7q-2 -53 4 -72q-1 -13 -14.5 -18t-24.5 2q-1 1 -2 5t-3 5l2 34q0 7 2.5 21.5t1.5 24t-6 19.5 q-1 0 -3.5 1.5t-5.5 0.5q-4 0 -6.5 -1.5t-4.5 -4.5t-3 -4q-30 -21 -38 -28q-2 0 -15 -4t-20 -3q-6 2 -13 9.5t-9 8.5q0 6 3 10.5t7.5 9t6.5 7.5q39 21 45 25q6 0 12.5 4t10.5 5q2 2 10.5 5t10.5 8q1 4 -1 5.5t-5 1.5t-4 1q-2 1 -9 8q-7 -2 -10 1q-3 1 -7.5 5t-7.5 5h-19 q-5 2 -12 9t-9 8q-1 4 -8 10t-8 10q2 5 2.5 12t1.5 11q10 5 36 0q3 -3 16 -18q6 -3 16.5 -11t17.5 -11q6 -13 22 -14q5 4 5 28q0 8 -1 24.5t-1 23.5q2 28 0 37q2 1 2 5q11 9 22 8q6 -3 11 -14q0 -41 -8 -68q1 -3 3 -20t7 -23q4 1 11.5 6t13.5 6q25 21 39 26q4 0 12.5 10 t20.5 11q8 -5 8 -16q12 -13 0.5 -25.5t-31.5 -9.5q-7 -4 -17.5 -14t-12.5 -11q-19 -1 -32 -16q14 -12 24 -15q16 -10 27 -11q13 -13 33 -16q4 -6 16 -14q9 -16 -5 -35z" />
<glyph unicode="+" horiz-adv-x="373" d="M208 329q10 -10 5 -22q-2 -4 -2 -22t1 -36.5t2 -35.5t1 -18v-2q13 0 40 1h27q4 0 14.5 1t16.5 0.5t14.5 -3.5t7.5 -11t-4 -22q-2 0 -10 -3.5t-12 -1.5q-12 5 -97 -2v-23l5 -41q-4 -12 -2 -33q2 -16 4 -23q0 -10 0.5 -12t-4.5 -7.5t-6 -6.5q-11 -3 -13 -3q-19 2 -27 11 q0 6 -2 18v51.5t-1 55.5l-2 11q-4 0 -11 1t-12.5 1.5t-8.5 0.5l-18 -3q-12 4 -33 2q-16 -2 -23 -4q-10 0 -12 -0.5t-7.5 4.5t-6.5 6q-4 15 -3 26q21 1 29 2h63q3 0 45 3v4q0 4 1 32.5t1 31.5q0 7 -1 34t0 35q4 8 21 14q6 1 7 -1q1 -3 5 -5q6 -3 8 -5z" />
<glyph unicode="," horiz-adv-x="268" d="M221 106q0 -7 -5 -15.5t-6 -10.5q-2 -4 -8 -11.5t-8 -11.5q0 -1 -4 -15.5t-8 -21.5q-1 -4 -5.5 -8t-5.5 -7q0 -2 -1.5 -8.5t-1.5 -10.5q-7 -10 -21 -46q-5 -5 -9.5 -12t-9 -17.5t-6.5 -14.5q0 -1 -3 -19q-2 -1 -10 -9q-23 -5 -29.5 0t-0.5 30q1 3 6.5 6t6.5 5l9 33l11 32 q7 16 8 20q3 9 8.5 26.5t10.5 31t11 24.5q1 3 3.5 14.5t4 16t5 11t8.5 10.5q11 1 14 0t6.5 -3.5t12.5 -3.5q1 -1 8 -6t9 -9z" />
<glyph unicode="-" horiz-adv-x="254" d="M210 194q-48 -9 -50 -9q-5 0 -16 2t-17 1l-18 -3q-12 5 -42.5 1t-39.5 7q-5 15 -3.5 23.5t11.5 17.5h35h10q11 -1 19 -1q3 0 21 2t21 2q4 0 10.5 -0.5t9.5 -0.5q7 0 23.5 0.5t22.5 -0.5q13 -6 14 -10q1 -11 -6 -24l-2 -3q-2 -3 -3 -5z" />
<glyph unicode="." horiz-adv-x="213" d="M138 51q3 -1 1.5 -9t-1.5 -10q-10 -25 -35 -22q-20 3 -28 11q-1 1 -2 4t-1 4q-1 1 -3 2.5t-2 3.5q2 18 8 30q9 15 32 19q27 -8 31 -33z" />
<glyph unicode="/" horiz-adv-x="385" d="M257 395l-28 -67q-8 -12 -23 -50q-1 -3 -7.5 -20t-11.5 -27q-1 -3 -6 -10t-6 -10l-8 -22q-2 -4 -12 -28.5t-16 -36.5q-1 -7 -16 -35q-1 -1 0 -2t0 -2q-14 -31 -17 -43q-2 -4 -6 -9t-5 -8q-2 -5 -23 -54q-1 -3 -2 -10.5t-4 -10.5q-1 -1 -2 -8.5t-6 -11.5q-5 -6 -7 -9 t-7 -4.5t-7 -1.5t-13 -1q-8 0 -11 0.5t-3.5 1.5t-0.5 6.5v8.5l15 24q4 15 16 34q4 12 25.5 56.5t28.5 64.5q4 10 17 36.5t22 47t13 37.5q4 7 10.5 23.5t13.5 25.5q1 9 9 25t10 24l3 15q5 4 15 25t20.5 47.5t11.5 27.5q3 7 8.5 19t7.5 17l6 15q17 34 37 88q19 45 20 50 q2 6 5.5 17t5.5 15t5.5 10t8.5 7t13 1t19 -4q9 -12 -14 -42q-21 -53 -25 -69q-2 -5 -7 -10t-6 -9q-6 -14 -21 -45.5t-24 -53t-16 -43.5q0 -1 -2 -3.5t-3 -4.5t0 -4z" />
<glyph unicode="0" horiz-adv-x="549" d="M468 124q0 -4 -4 -10t-9 -14t-8 -13q-2 -9 -8 -18t-12 -10q-13 -2 -34 -20q-3 -3 -20.5 -8t-29.5 -11q-47 0 -58 -9q-8 -2 -23.5 1t-17.5 3t-6.5 1t-6.5 1q-30 -3 -36 -2q-14 2 -34 14t-31 14q-25 25 -33 29q0 4 -2 6.5t-5 5.5t-4 5q-3 1 -6 7t-6 7q-11 30 -29 57 q-13 78 -12 96q2 10 4 16q-1 4 1 11t1 11q1 7 5 20.5t6 20.5q3 4 8.5 16.5t10.5 16.5q0 4 2.5 9t2.5 8q2 2 12 7q1 2 4 5.5t4 5.5q4 3 29 28l17.5 10.5t19.5 11.5t19.5 8.5t24.5 5.5q5 3 29 8q8 -2 29 -1.5t24 -2.5q3 3 17.5 1.5t19.5 -1.5q7 -4 47 -19q3 -1 9 -6t11 -5 q6 -7 23 -22t25 -24q4 -4 10 -14.5t10 -14.5q2 -5 7 -16.5t7 -17.5q1 -3 5 -16t8 -19q2 -21 8 -31q0 -19 3 -22q0 -2 -5 -26q-1 -3 0.5 -6.5t1.5 -5.5q-6 -45 -25 -82zM436 303q-2 7 -10 20.5t-10 22.5q-8 8 -23 26t-23 26q-7 1 -13 4t-12.5 8t-10.5 7q-8 -1 -21.5 1.5 t-21.5 0.5q-2 0 -6 1.5t-8 1.5q-55 0 -77 -5q-3 -1 -11 -6t-14 -7q-17 -15 -29 -20q-2 -5 -9 -12t-10 -12q-5 -2 -10 -11t-10 -11q0 -3 -2.5 -9t-2.5 -10q-14 -13 -22 -53v-41q10 -38 13 -43q2 -8 8.5 -19.5t8.5 -18.5q16 -16 22 -27q5 -2 14 -8.5t13 -8.5q18 -12 27 -19 q5 0 10 -1.5t10 -4t8 -3.5q5 0 29 -4.5t37 -3.5q3 0 15.5 3t20.5 2q26 16 41 22q15 17 33 25q2 6 9.5 12.5t9.5 9.5q3 6 10.5 14t8.5 10q2 5 9.5 24.5t10 34t-0.5 30.5q-6 39 -11 52z" />
<glyph unicode="1" horiz-adv-x="269" d="M148 106q-3 7 2 13q-1 3 -1.5 11t-0.5 11q0 2 1.5 10.5t0.5 11.5l-2 16q-1 6 1 20t1 16q1 7 -1.5 19t-0.5 19q1 3 -1 7t-2 6q6 29 0 42q2 11 1 17q0 9 -1 13v21q-1 3 -1 14t-1 15q-1 3 -5 4t-8.5 0.5t-9.5 -1t-6 -0.5q-3 -2 -28.5 -1t-30.5 6q0 4 -1.5 14t-1.5 18 q7 16 20 17q2 0 18 0.5t30.5 1t33 -0.5t29.5 -4l8 -9q2 -84 -7 -207q2 -1 2 -6t2 -6q0 -3 -1.5 -9t-0.5 -9q4 -7 2 -28q0 -3 2 -9.5t1 -11.5q-2 -7 -2 -19t1 -20l1 -9q1 -24 0 -33q0 -49 1 -60l-6 -8h-25q-8 2 -14 14v14t0.5 12t0.5 7q1 3 1 27q-1 4 -0.5 11.5t0.5 15 t-1 7.5z" />
<glyph unicode="2" horiz-adv-x="471" d="M420 -6q-37 0 -43 -1q-4 1 -9.5 4t-9.5 4q-84 0 -96 -2q-25 7 -72 2q-2 3 -29.5 1.5t-35.5 -6.5q-32 0 -35 14q-3 4 7 14q1 3 4.5 7.5t4.5 5.5q7 2 14 6t14.5 9.5t12.5 8.5q3 1 5 3.5t4 5.5t4 5q4 -1 36 28l6 6t7 6.5t7 5.5t8 4q2 3 6 8t5 7q6 2 17 12.5t13 15.5 q4 0 10 5t11 6q13 20 22 24q3 7 7 12.5t11 13t10 10.5q2 7 13 22q-2 7 1 18.5t3 17.5q1 5 0 12.5t-1 12.5q-1 2 -5.5 16t-8.5 19q-2 7 -9.5 16t-9.5 12q-7 6 -21.5 14t-19.5 12q-6 0 -19.5 2.5t-21.5 0.5q-3 0 -8 1t-8 0q-4 -1 -25 -8q-21 -5 -25 -7q-7 -4 -18 -15t-19 -14 q-1 -4 -17 -31q0 -3 -9 -27q-2 -16 0 -51q0 -2 2 -6t1 -8q-1 -3 3 -4q3 -2 3 -4q14 -14 14 -22q10 -10 8 -14q-1 -3 -3.5 -5t-7.5 -3.5t-6 -2.5q-4 0 -7 -5t-7 -4q-2 1 -29 28q-2 8 -7 22t-7 22q-2 26 -6 47q16 65 23 79q7 6 10 16q16 13 27 35q2 1 6.5 5.5t7.5 6.5 q6 4 16 7q8 9 52 20h36q3 0 7 2t7 1q63 -13 65 -17q23 -14 33 -30q3 -2 8 -6t7 -5q2 -3 16 -25q3 -28 18 -43q1 -3 -0.5 -6.5t-1.5 -5.5q11 -28 5 -82q-3 -5 -9 -17t-10 -18q-2 -6 -9.5 -16t-9.5 -17q-6 -3 -15.5 -12t-11.5 -10q-4 -4 -12.5 -11t-12.5 -11q-4 -1 -15 -10 t-21 -18.5t-11 -9.5l-13 -14q-12 -6 -25 -19l-24 -21q20 -4 62 1t63 2q16 3 52.5 1.5t43.5 -4.5q1 -4 1.5 -11t1.5 -12.5t3 -9.5q-2 -17 -9 -24z" />
<glyph unicode="3" horiz-adv-x="455" d="M390 -121q-1 -4 -10.5 -12t-21 -15.5t-12.5 -8.5q-24 -11 -48 -19q-19 -1 -53 -9q-12 2 -18 1q-4 0 -10 -2t-9 -2q-37 0 -56 11l-25 3q-2 2 -6.5 5.5t-7 6t-5.5 6.5t-4 9q-13 8 -17 9q-2 5 -8 12.5t-8 12.5q-4 3 -10 11t-7 10q0 2 -2 7t-1 9q-1 3 -5 7.5t-5 7.5 q-1 11 -7 27q-4 16 3 35q19 17 34 17q4 -1 6.5 -3t4.5 -5t4 -4q-1 -13 9 -51q16 -26 19 -35q4 -4 14 -10t14 -10l8 -8q17 -12 43 -20q15 -3 35.5 -2t27.5 2q5 1 16.5 4t18 4.5t14.5 5t14 8.5q4 2 9 9t5 8q6 3 15.5 12t11.5 10q2 9 9 24.5t10 24.5v38q0 7 -1.5 13.5t-3.5 13 t-4 10.5l-5.5 11l-5 10t-6.5 10.5t-6 9.5l-12 13q-11 11 -32.5 16.5t-40 7.5t-19.5 3q-3 0 -14 11q0 6 2 17.5t1 18.5q8 10 35 13q7 0 12.5 2t11.5 5.5t10 4.5q8 8 37 46q9 41 3 60q-19 44 -38 62q-3 0 -9 6.5t-16 11.5q-11 6 -22 8t-13 3q-2 0 -22.5 -1.5t-21.5 1.5 q-33 -11 -66 -41q-1 -3 -8 -16t-8 -24q-6 -9 -9 -19q0 -8 2 -19.5t2 -18.5q-5 -5 -12 -6t-22 1l-16 2l-2 33q3 12 7 19q-1 6 1 19q0 2 2 6l3 6q0 2 0.5 7t1.5 7l9 18q6 12 8 19q7 3 17 19q15 5 27 22l14 7q13 2 30 10q6 -2 17 1.5t13 3.5t6 -1t7 -1t11.5 1.5t13.5 0.5 q18 -5 25 -4q44 -22 55 -34q5 0 15.5 -11.5t16.5 -20.5q8 -18 16 -25q1 -10 7.5 -40.5t7.5 -49.5q-1 -7 -4.5 -20.5t-4.5 -21.5q-10 -10 -13 -22q-6 -3 -11 -7.5t-11 -11.5t-9 -10l-22 -12q6 -1 8 -7q40 -14 45 -17q3 -3 25 -33q4 -6 15 -27t12 -28q1 -3 3.5 -24t4.5 -31 q1 -2 2 -3t1 -2q0 -2 -1 -8t0 -11q-3 -5 -5 -16.5t-3 -13.5q-8 -25 -8 -30q-4 -3 -8 -13.5t-8 -13.5q-3 -14 -9 -16zM347 99v-1v1z" />
<glyph unicode="4" horiz-adv-x="500" d="M475 12q-3 -1 -7.5 -2t-15.5 -2.5t-14 1.5q-10 -1 -24 1t-20 2q-8 -3 -16 -21q5 -45 0 -78q1 -5 5 -16q-2 -8 0 -32q11 -39 10 -44q-1 0 -4 -2t-6 -1q-2 -1 -49 2q-3 6 -4.5 36t4.5 42q-1 9 3 33q0 5 -2 10.5t-2 7.5q0 3 1.5 8t1.5 6q-1 5 -0.5 23t-4.5 21q-5 2 -39 -1 l-7 1q-3 0 -7 -1.5t-7 -1.5q-2 0 -7.5 1t-8.5 1q-10 -2 -14 -2t-28 2t-32 0q-3 0 -6.5 2t-7.5 1q-3 1 -8 -1t-8 -2t-8.5 2t-10.5 1q-4 1 -7.5 -2t-6.5 -3q-12 1 -31 -0.5t-27 -1.5q-1 0 -7.5 1.5t-8.5 2t-6.5 2.5t-6.5 4.5t-3 5.5q8 37 8 40q10 12 27 26q1 6 5.5 12.5 t5.5 9.5q4 2 7.5 10t6.5 9q3 6 12.5 19t11.5 24q6 5 24 28q4 9 6 11q1 2 11 18t14 25q12 12 14 20l8 10q2 1 3.5 4.5t3.5 4.5q9 19 28 40q2 5 7 16t7 18l16 11q0 4 3 9t3 9q6 5 15 17t15 17q-1 5 5 15q1 1 1 2v2q2 3 8 8t7 6t1 2v2l6 15q1 2 4 5.5t4 5.5v13l12 12l12 12 q1 1 4.5 6t5.5 7t6.5 4t10.5 2q5 -4 6.5 -9t0.5 -15.5t-1 -12.5q0 -5 0.5 -16.5t0.5 -18.5t-1.5 -17t-4.5 -17q0 -4 3.5 -8.5t3.5 -7.5q-9 -39 0 -64q1 -5 -1 -9.5t-2 -6.5q2 -40 0 -81q0 -4 0.5 -31t-2.5 -28q6 -29 0 -45q1 -4 2 -15.5t3 -17.5q-2 -5 -2 -31q0 -3 -1 -11 t-0.5 -13t4.5 -9q10 -3 25 3q5 -2 32 1q22 -2 33 -9q2 -7 2 -16.5t-2 -18.5zM329 212q2 3 7 30v137q0 8 -2 10q0 1 0.5 4t0 4.5t-3.5 0.5q-3 1 -5 -2.5t-5 -8.5t-6 -6l-12 -26q-13 -13 -16 -15q-1 -8 -8 -19t-9 -18q-4 -3 -16 -20q-3 -4 -21 -35q-2 -3 -9.5 -15t-10.5 -19 q-10 -8 -11 -8q-6 -17 -26.5 -42t-27.5 -40q-7 -5 -20 -24q-1 -2 -5 -6t-5 -7q-7 -4 -7 -13.5t7 -14.5q33 -2 46 3q3 -2 10 -2.5t9 -1.5q1 0 31 3q32 0 37 1q2 0 6.5 -1.5t7.5 -1.5q5 0 35 2q26 0 31 3q3 18 3.5 38t0 45.5t-0.5 39.5q3 15 3 16z" />
<glyph unicode="5" horiz-adv-x="475" d="M20 -23q1 2 18 10q15 7 19 7q3 0 6.5 -1.5t4.5 -1.5q8 -10 8 -20q2 -4 7 -10t7 -8q1 -2 15 -25q1 0 10 -5.5t16 -6.5q3 -2 9 -8t10 -8q16 -2 22 -2q4 -1 9.5 -4.5t8.5 -4.5q4 -4 35 -1.5t34 2.5q7 2 17 7.5t15 7.5q3 3 13 16.5t20 16.5q1 9 10.5 16.5t11.5 11.5q3 7 1 17 q4 4 15 30q0 2 1.5 5t2 6t0.5 7q0 1 -1.5 4t-1.5 4q1 3 3 8t2 7q-5 19 -2 26q-2 4 -5 11.5l-5 12.5t-6 10t-9 8q0 9 -5 16q-3 5 -11.5 12.5t-11.5 11.5q-2 0 -25 12l-23 14q-31 0 -42 5q-4 -1 -14 -2t-14 -3q-6 1 -12.5 0.5t-12.5 -1.5l-5 -1q-15 -6 -27 -9q-3 -2 -7.5 -7.5 t-6.5 -6.5l-15 -3q-3 -1 -10 -8t-13 -5q-2 9 4.5 25.5t6.5 23.5q3 3 4.5 12t3.5 12q0 3 3.5 10.5t2.5 13.5q0 2 5 16t4 18q1 5 2 14.5t3 17t6 11.5q1 3 0.5 5.5t0 5t1.5 3.5q1 3 8 13q0 6 4.5 17t4.5 19q4 4 7 16t6 17q2 24 11 35q10 0 38.5 -0.5t41.5 0.5q4 0 12 1.5 t12 1.5t18 -1t21 -1h13q2 0 6 -0.5t5 -0.5l24 3q42 2 58 -7q7 -11 6 -18q0 -4 -1.5 -7.5t-4 -7.5t-3.5 -6q-1 -3 -18.5 -2.5t-19.5 0.5h-35q-1 0 -16 -0.5t-18 2.5q-13 -2 -40 -2h-33q-6 -2 -18 -3.5t-18 -2.5q-3 0 -3.5 -2t-0.5 -6t-1 -6l-3 -3q0 -2 -1.5 -9.5t-3.5 -11.5 q-1 -2 -4 -16.5t-7 -20.5q0 -2 -1 -6.5t0 -8.5q-2 -2 -5 -7.5t-5 -7.5q0 -7 -3.5 -15.5t-4.5 -11.5q0 -3 -4 -11.5t-2 -12.5l-5 -20q30 5 40 8q45 9 52 6q9 1 27 -6q7 2 19 1.5t18 -3.5q6 -1 12 -9t11 -10q2 -5 11 -9q4 -4 12 -8q3 -5 9.5 -15.5t9.5 -16.5l9 -9t8 -10 q0 -6 3 -14t4 -14q1 -2 6 -12.5t8 -14.5q2 -10 8.5 -29.5t8.5 -31.5l-4 -26q-1 -3 -1.5 -10.5t-2.5 -11.5q0 -4 -7.5 -29.5t-7.5 -30.5l-13 -3l-6 -12q-5 -1 -11.5 -6.5t-12.5 -6.5q-3 -4 -9 -11t-7 -8q-14 -5 -45 -25q-8 -1 -29 -10q-9 0 -24 -2t-22 -2q-1 0 -2.5 0.5 t-3.5 0.5l-2 -1h-4q-6 0 -25 3t-32 1q-21 11 -74 30q-3 9 -16.5 18t-15.5 11q-2 9 -17 34.5t-12 45.5z" />
<glyph unicode="6" horiz-adv-x="511" d="M328 718q6 -1 25 -13q2 -3 8.5 -8.5t7.5 -11.5q-3 -11 -16 -25t-16 -26q-1 -1 -20 -17q-1 -3 -4 -9t-4 -10q-3 -2 -15 -16t-20 -20q-4 -8 -16.5 -23.5t-16.5 -25.5q-7 -4 -15.5 -14.5t-11.5 -13.5q-3 -6 -11 -16t-11 -17q15 2 22 0q4 1 11 3.5t10 3.5q43 2 60 -3h17 q9 -1 24 -6.5t25 -7.5q3 -4 10 -9.5t9 -7.5q3 -1 9.5 -7t12.5 -7q2 -6 10 -13.5t10 -10.5q2 -5 9.5 -13t9.5 -12q2 -3 4.5 -10t3.5 -9q0 -1 1.5 -1t1.5 -1q3 -7 10.5 -25t11.5 -27q1 -10 8 -42q0 -10 -5 -70q-9 -21 -11 -31l-14 -25q0 -3 1 -6t1.5 -5t0 -4t-2.5 -4 q0 -3 -1.5 -4t-5 -1.5t-4.5 -1.5t-4.5 -3t-4.5 -3q-16 -12 -22 -25q-14 -4 -29 -21q-14 -3 -34 -17q-14 -3 -40 -13q-8 1 -36 -4q-23 2 -32 6q-13 -1 -34 2t-29 3q-2 1 -5 3.5t-6.5 3.5t-8.5 1q0 1 -13 7l-11 8q-9 10 -23 15q-1 1 -16.5 18.5t-24.5 25.5q-4 10 -7 14 q-1 1 -4 4.5t-5 6.5q-8 10 -11 24l-2 12l-3 11l-5 24q0 2 -3 10t-3 12q0 5 2 15.5t1 15.5q8 13 10 34l8 34l11 19q2 3 4.5 9.5t5 11.5t5.5 9l3 5q1 1 5 10t8 12q14 22 14 24l14 9q6 13 24 31q8 16 10 18q-1 3 3 6l4 3q2 3 6 10.5t7 11.5l8 8q0 1 1 6t0 7q4 1 21 16 q9 17 24 30q3 8 11 15q2 2 4.5 9t4.5 9q1 4 7 8.5t7 5.5q21 35 46 64q1 4 4 10.5t4 10.5q4 1 8 5.5t8 5.5zM422 286q-5 5 -9 21q-14 18 -18 31q-1 1 -4 3t-5 3.5t-3.5 4t-2.5 5.5q-3 4 -8.5 9t-7.5 8q-7 4 -19 14q-13 5 -22 11q-11 1 -27 7.5t-25 7.5q-6 0 -19.5 -2.5 t-23.5 -1.5q-5 -3 -15.5 -6t-15.5 -5l-32 -12q-4 -3 -9.5 -9.5t-7.5 -8.5q-3 -2 -10 -6.5t-11 -7.5q-1 -1 -5.5 -10t-9.5 -12q-6 -14 -14 -25q-1 -7 -6.5 -17t-6.5 -15q-3 -9 -5 -53l6 -30q8 -10 15 -30q9 -8 17 -28q9 -8 25 -26q3 -1 8.5 -3t7.5 -3l14 -14q3 -1 15 -6 t16 -5.5t17.5 -3t19.5 1.5q10 -3 49 -3q4 2 8 2q3 1 8 3.5t6 2.5q2 1 8 2.5t9 2.5q5 2 14 8t15 8q2 5 6 4q5 4 15.5 17t17.5 18q1 4 3.5 8t2.5 5l2 4l3 3t3 4q2 2 7 12q8 34 11 38q-1 6 0 16t1 17q0 2 -1 2q0 8 -3.5 20.5t-3.5 18.5z" />
<glyph unicode="7" horiz-adv-x="610" d="M318 94q-2 -3 -9 -6t-8 -8q0 -8 -8.5 -17t-17.5 -12q-3 -1 -5 -3t-5 -6.5t-4 -6.5q-13 -16 -17 -31q-1 -8 -11.5 -19.5t-18.5 -12.5q-5 0 -2 -7.5t2 -11.5q-14 -5 -17 -6q-1 -1 -6 -5.5t-10 -3.5q-9 -14 -16 -14l-8 -15l-12 -6q-7 -15 -8 -19q-10 -8 -11 -14 q-12 -7 -13 -11q-2 -3 -6.5 -5.5t-6.5 -4.5q-8 -11 -25 -20q-7 1 -18 4t-17 4q-1 2 -3.5 11.5t-3.5 15.5q1 5 7.5 12.5t7.5 13.5q2 2 6.5 5t6.5 5l5 16q19 21 31 28l7 13q6 3 14 12.5t12 12.5q0 8 3 11q2 3 6.5 6.5t5.5 4.5q6 8 11 11q3 7 13 19t13 19q2 1 11.5 8t14.5 11 q0 3 2.5 8t3.5 9q5 6 15.5 16t18.5 19t12 19q7 3 14 14t12 14q22 30 24 32q3 3 16 16.5t20 23t13 19.5l8 8t11 8q0 3 4 7.5t5 8.5l13 11q1 10 10.5 21.5t11.5 16.5l13 8q0 1 17 20q1 4 7 10.5t6 13.5q18 10 20 14q-1 3 -7 4t-7 2q-55 -3 -60 -4q-22 -1 -74.5 -1.5 t-84.5 -2.5q-3 0 -5 -0.5t-4.5 -1.5t-4.5 -1q-4 2 -12 3t-11 2q-25 -1 -73.5 -1.5t-72.5 -1.5q-18 -7 -29 0q0 20 5 25q0 12 5 24q50 5 65 -3q60 2 78 7q9 -4 31 -2t32 1q4 0 16 5q6 -2 13 -2t15.5 1t12.5 1q5 0 14.5 -2t12.5 -2t9 1t8 1q6 1 15.5 -0.5t13.5 -1.5l23 4 q12 1 35 -1.5t28 -2.5q17 0 51 2t52 2q7 -6 12 -15q-1 -8 -4.5 -13.5t-12 -14l-9.5 -9.5q-18 -22 -24 -40l-14 -9q-1 -5 -5.5 -11t-5.5 -8q-4 -2 -11 -7t-10 -7q0 -5 -4 -12t-4 -12q-5 -3 -14 -19q-3 -3 -9.5 -9t-11.5 -10.5t-10 -8.5q-4 -8 -5 -13q-5 -2 -22 -17 q-1 -7 -8.5 -17.5t-8.5 -18.5q-2 -2 -7.5 -6t-8.5 -6q-3 -5 -33 -37q-6 -5 -15 -20t-15 -20q-2 -7 3 -9z" />
<glyph unicode="8" horiz-adv-x="517" d="M451 106q-1 -1 -5 -4.5t-8 -4.5q-2 -2 -4.5 -7l-3.5 -7q-3 -2 -12 -11.5t-16 -12.5q-5 -9 -10 -16q-2 -1 -9 -4t-13 -4q-5 -4 -15.5 -10.5t-14.5 -9.5q-29 -8 -36 -9q-24 -6 -38 -7q-4 0 -12.5 1t-15.5 1t-13 -2q-8 2 -27.5 5t-28.5 6q-2 1 -10.5 4.5t-11.5 6.5 q-3 -1 -16 2q-6 4 -14 16q-4 0 -8.5 3t-7.5 3q-3 10 -21 16q-2 6 -11 18t-11 21q-2 5 -9 8q-2 9 -10 23t-9 16q1 8 -5 16q-1 2 1 3.5t2 2.5q0 2 -1 11t0 15q-3 12 -3 33q5 23 14 36q0 4 1 10t0 11q3 3 4.5 6.5t3 9.5l2.5 10l3 3v5q1 3 8 12t8 15q18 26 38 46q20 14 26 20 q26 9 32 14q0 5 -6 9l-5 4q-12 7 -14 8q-3 4 -7.5 7t-10 7t-8.5 6q1 2 -4 7q-2 10 -8 27.5t-8 25.5q-3 17 0 38q1 3 3 7t2 7v9t1 9q1 1 3 4t2 5l3 11q8 18 30 51q14 8 19 15q7 3 19.5 10t19.5 9q68 5 92 2q14 -5 35 -10q32 -22 39 -28l6 -13l16 -14q2 -4 5.5 -16t7.5 -17 q2 -22 4 -38l4 -11q0 -1 -1 -5t-1 -6t1 -5t1 -4q0 -6 -3 -18.5t-4 -19.5q-8 -12 -16 -28l-18 -18t-27 -22q1 -4 15 -11l21 -6l24 -21q2 0 3.5 -1t2.5 -2.5t2.5 -4t2.5 -3.5q4 -1 8 -6q3 -2 4 -3q7 -15 25 -41q4 -12 7 -14q1 -8 7 -25.5t5 -30.5q10 -30 10 -74 q-9 -26 -10 -28q1 -14 -6 -28q-2 -22 -6 -26zM416 262q1 3 -2.5 7.5t-3.5 7.5q-1 3 -1.5 9.5t-1.5 9.5q-1 1 -3 2t-2 2q-2 4 -10 24q-5 4 -13 13t-12 12q-13 9 -27 25q-9 1 -28 16q-7 1 -17 4t-14 4q-14 -1 -32 3q-5 -2 -18.5 -3.5t-16.5 -1.5l-45 -18q-13 -13 -19 -15 q-3 -3 -10.5 -7.5t-10.5 -6.5l-8 -12l-4 -5q-1 -1 -2 -4t-2 -4q-2 -3 -8.5 -11t-8.5 -13q-1 -3 -2 -6.5t-2 -8.5t-2 -7q-6 -21 -6 -23q0 -3 -4 -6t-3 -7q-2 -14 3 -37.5t5 -27.5q12 -16 14 -30q16 -21 18 -28q5 -3 12 -9.5t14 -11.5t15 -7q8 -11 20 -21q7 0 18.5 -4t16.5 -5 q7 -1 18.5 -1.5t14.5 -0.5q12 -2 31 2t27 4q8 6 22 10q11 13 32 19q6 8 12 9q8 13 21 22q2 4 9 17.5t11 20.5q1 8 10 29q0 5 1 15t1 18.5t-2 14.5q0 14 -5 22zM356 565l-22 47q-1 2 -12 13q-3 2 -6.5 8t-5.5 8q-6 2 -39 17q-6 0 -17.5 1.5t-18.5 0.5q-36 -8 -63 -37 q-14 -14 -24 -41q-7 -17 -8 -29q-1 -6 0.5 -13.5t1.5 -12.5q20 -44 44 -63q3 0 7.5 -3.5t9.5 -2.5q3 -1 7 -5t7 -5q5 0 5 -1q14 -1 35 2.5t30 3.5q1 3 5.5 4t5.5 1l17 14l19 14q2 8 12 24.5t10 30.5v2v22z" />
<glyph unicode="9" horiz-adv-x="504" d="M300 28q-2 5 -4.5 5.5t-9.5 -2t-8 -2.5q-33 0 -41 -3q-5 2 -10.5 2.5t-13.5 0t-14 -0.5q-7 -2 -26.5 -0.5t-23.5 3.5q-3 0 -5 0.5t-4.5 1.5t-4.5 1q-13 12 -29 20q-19 23 -33 29q-2 5 -10 14t-10 17q-1 3 -6.5 5t-6.5 3q1 8 -3 16q-15 30 -16 31q-2 17 0 24q-6 24 -4 58 q0 8 6 16q2 16 9.5 40t9.5 34q14 22 19 40q1 3 3 5t5 4t4 3q1 4 5.5 8t5.5 6q14 9 29 24q16 3 25 13q11 2 29.5 9.5t24.5 9.5q26 2 37 6q44 -2 82 -6q2 -1 11 -5t15 -5q3 0 5 -3.5t6 -2.5q1 -1 3 -1.5t4 -1.5l4 -2q3 -1 10 -4.5t13 -4.5q14 -12 22 -16q4 -5 16 -17 q10 -12 17 -15q0 -9 2 -15t7.5 -12.5t6.5 -9.5q0 -8 1.5 -14t5 -12.5t4.5 -10.5q-1 -7 1.5 -16.5t1.5 -16.5q7 -20 13 -34v-21q2 -8 2 -13q-1 -4 -5.5 -12t-4.5 -14q-1 -4 -4 -13t-4 -14q-1 -2 -5 -7.5t-6 -9t-3.5 -10t-1.5 -13.5q-23 -23 -26 -25q-1 -2 -18 -25q0 -1 -1 -4 t-2 -4q-11 -15 -11 -19q-6 -3 -13 -14.5t-14 -15.5q-1 -3 -3 -8t-3 -6t-25 -31q-1 -2 -9.5 -14.5t-9.5 -22.5q-5 -2 -10 -8.5t-9 -8.5q-2 -2 -8 -9t-9 -10l-3.5 -7t-3.5 -9q-5 -4 -13.5 -13.5t-14.5 -13.5q-13 -15 -19 -18q-4 -2 -25 -2q-20 17 -22 28q0 8 7 17t7 16 q2 2 24 29q15 15 20 30q8 6 19 19.5t16 18.5q2 2 8 8.5t8 11.5l7 7q8 7 8 14zM407 303q-6 8 -14.5 24.5t-11.5 20.5q-1 1 -8.5 5t-10.5 7q-3 16 -22 25l-2 4q-18 11 -36 11q-5 5 -12.5 7.5t-20.5 4.5t-16 3q-7 0 -21 -0.5t-23 -0.5q-10 -6 -31.5 -14t-30.5 -13q0 -2 -2 -3 l-2 -2h-1q-2 0 -2 -1q-6 -5 -17.5 -19.5t-19.5 -20.5q-2 -6 -7 -13.5t-7 -11.5q-2 -8 -13 -27q0 -18 -6 -33q-1 -13 1 -25t5.5 -26t4.5 -21q2 -3 7 -7t7 -6q1 -3 3.5 -7.5t3.5 -6.5q3 -2 11.5 -12t14.5 -13q0 -6 4.5 -10.5t5.5 -7.5q12 -3 30 -15q15 -4 49 -19q15 -2 49 -2 q26 9 37 6q16 10 27 11q9 10 25 19q4 4 12 10.5t12 10.5q27 38 40 77q1 14 1 41q0 2 -1 2q0 11 -5.5 26.5t-6.5 21.5z" />
<glyph unicode=":" horiz-adv-x="196" d="M129 102q2 -3 3.5 -14t4.5 -14q0 -3 -1.5 -9t-0.5 -10q-18 -20 -31 -27q-26 2 -35 10q-1 4 -5.5 11t-5.5 12q1 11 8.5 26t8.5 20q7 8 18 9.5t19 -7.5zM77 263q-5 6 -12 18.5t-10 16.5q1 5 7.5 11.5t8.5 10.5q3 9 19 17q22 1 37 -17q9 -42 -15 -57q-18 -4 -35 0z" />
<glyph unicode=";" horiz-adv-x="235" d="M14 -51q2 3 6.5 6t6.5 5q10 42 20 56l3 15q1 3 4 6.5t4 4.5q1 9 6.5 22.5t6.5 22.5q4 3 7.5 13t6.5 13q10 2 12.5 2t13 -2.5t12.5 -2.5q7 -15 6 -31q0 -5 -5 -16.5t-4 -18.5q-8 -9 -20 -33t-20 -33q-4 -17 -20 -43q-2 -2 -2 -7t-1 -7q-2 -3 -7.5 -9t-7.5 -10 q-7 -15 -20 -12q-2 0 -6 3.5t-5 7.5q-1 5 2 15t3 13q0 4 -1 10.5t-1 9.5zM60 306q10 10 31 19q9 -1 30 -13q18 -28 8 -46q-2 -4 -10 -9t-9 -6q-20 -3 -25 -2q-19 9 -25 31q2 8 0 26z" />
<glyph unicode="&#x3c;" horiz-adv-x="281" d="M80 231q2 -8 10.5 -18.5t10.5 -14.5q8 -7 11 -16q1 -2 5.5 -6.5t5.5 -9.5l16 -12q3 -8 12.5 -20t12.5 -18q3 -2 8 -8t8 -8q1 -3 6.5 -8t7.5 -9q12 -7 14 -8q1 -5 7.5 -13.5t5.5 -15.5q-1 -5 -5 -9t-11 -7.5t-10 -5.5q-19 0 -25 3q-5 4 -11 18q-2 2 -9 7.5t-11 7.5 q-5 7 -5 12l-18 12l-6 16q-1 2 -5 4.5t-6 4.5q-3 4 -8 12.5t-9 11.5q-3 10 -14.5 22.5t-14.5 21.5q-12 9 -31 41q0 6 4 14.5t4 14.5q11 9 27 33t26 33q2 4 7 9.5t6 7.5q3 7 13 17q3 5 11.5 17t11.5 20l19 14q2 3 7 19.5t12 21.5q7 0 15.5 -3t16.5 -2q19 -19 20 -28 q-1 -4 -6.5 -9t-6.5 -9l-15 -12q-25 -35 -35 -41q-1 -6 -14 -24q-1 -1 -2.5 -3t-3 -4.5t-2.5 -3.5l-14 -14q-1 -1 -2.5 -3t-3 -4.5t-2.5 -3.5q-17 -23 -19 -28q-12 -7 -16 -16z" />
<glyph unicode="=" horiz-adv-x="375" d="M326 274q-10 -10 -22 -5q-12 3 -33 2t-49 -3l-29 -3q-4 0 -32 2t-34 1l-18 -3q-4 1 -5 -0.5t-6 -1.5q-3 0 -19.5 0.5t-19.5 -0.5q-31 -10 -32 10v5.5t0.5 2t1.5 2t1 5.5q1 6 0.5 11t0.5 10t4 8q1 2 6 2t9.5 -0.5t8.5 0.5q3 0 19.5 -0.5t23.5 0.5q25 4 53 0.5t42 -1.5 t59 2q4 0 11 -0.5t10 -0.5q7 0 23.5 0.5t22.5 -0.5q5 -2 5 -11.5t1 -11.5q0 -4 3 -7.5t-1 -6.5q-3 -6 -5 -8zM326 151q-2 0 -10 -3.5t-12 -1.5q-12 3 -33 2t-49 -4l-29 -2q-4 0 -32 2t-34 1l-18 -3q-12 4 -33 2q-16 -2 -23 -4q-10 0 -12 -0.5t-7.5 4.5t-6.5 6q-1 5 -3 6 q-1 1 0 7q2 19 11 27q6 0 18 2q3 0 40 -1t44 0q13 2 24 2.5t17 -0.5t10 -2t6 -2t3 -1q3 0 10 1.5t11 1.5t30 0.5t29 0.5q7 0 23.5 0.5t22.5 -0.5q8 -4 14 -21q3 -4 -4 -16q-3 -7 -7 -4z" />
<glyph unicode="&#x3e;" horiz-adv-x="285" d="M63 31q-2 10 2 18.5t14 7.5v5q-1 6 2 6q2 5 9 12.5t8 9.5q16 21 17 23q1 1 2 3.5t2 3.5t6.5 6t5.5 10q14 18 16 24q6 2 12 10t8 10q2 3 8 10.5t8 13.5q3 3 9 7l9 6q-1 7 1 15q0 5 -5 9.5t-6 8.5q-2 1 -7 6t-9 6q-1 4 -4.5 9.5t-4.5 8.5q-8 7 -28 34q-25 30 -45 60 q-2 2 -9 7t-11 9.5t-6 10.5q0 9 2 15t7.5 10.5t9.5 7t12 5.5q11 -4 24 -25q2 -6 4 -8q3 -3 8 -13q3 -5 10.5 -13.5t10.5 -13.5q2 -3 6.5 -6.5t5.5 -4.5q5 -10 17.5 -25t17.5 -24q2 -2 6.5 -5.5t6.5 -5.5q7 -15 16 -22q2 -2 7 -10t10 -10q1 -6 5.5 -12.5t5.5 -9.5q-1 -2 0 -3 t1 -2q0 -2 -2.5 -8.5t-1.5 -11.5l-16 -12q-3 -5 -15.5 -21t-14.5 -29l-33 -35q-3 -12 -19 -34q-2 -6 -11 -15.5t-11 -16.5q-7 -3 -17.5 -12.5t-17.5 -12.5q-5 0 -20 5q-6 2 -18 8z" />
<glyph unicode="?" horiz-adv-x="416" d="M33 578q0 2 11 21q0 3 -1 6.5t-1 6.5q10 24 14 45q2 6 11 17.5t11 20.5q9 9 22 14q5 6 38 29q9 -1 25 2.5t21 3.5q7 0 23.5 -0.5t25.5 0.5q5 -1 21 -4.5t26 -5.5q9 -4 21.5 -14t19.5 -14q12 -16 17 -25q2 -3 6.5 -12.5t9.5 -12.5q7 -20 8 -37q1 -4 8 -15q-1 -10 6 -35 q0 -7 1 -17t1 -18t-2 -15q-2 -2 -6.5 -8t-8 -9.5t-7.5 -6.5q-2 -11 -5 -16q-3 -8 -15 -17.5t-15 -12.5t-16 -10.5t-18 -14.5q-5 -2 -27.5 -9t-31.5 -13q-15 -2 -34 1q-20 -4 -29 -7q-4 -2 -10 -8t-10 -8q-3 -8 -11 -22t-11 -21q-5 -14 -5 -16q-1 -10 2 -24t3 -21 q0 -4 5 -8.5t6 -9.5q13 -7 19 -18q8 -4 16 -12q11 -2 31 -12q7 1 17 -0.5t13 -1.5q9 1 23 7t21 7q1 1 4.5 3.5t6.5 3.5q5 6 12.5 19.5t11.5 18.5q8 20 1 45q9 14 25.5 12t25.5 -13q0 -4 2.5 -13t2.5 -14t-4.5 -17t-3.5 -19q-9 -14 -10 -29q3 -1 -1.5 -6.5t-12 -13 t-9.5 -10.5l-7 -4q-14 -10 -22 -15q-4 0 -8 -1.5t-8 -4t-7 -3.5q-12 1 -45 -1t-37 -4q-1 0 -32 3q-20 16 -33 21q-1 2 -21 19q-13 22 -22 28q0 6 -11 19q-1 4 -1.5 11t-1.5 12.5t-3 9.5q0 5 2.5 17.5t2.5 20.5q9 16 11 46q1 2 7 11t9 14q27 27 30 32q6 1 11.5 3.5t12 7 t10.5 6.5q5 2 19 4t21 5q4 0 9.5 1t9.5 1l36 12q20 14 31 19q18 28 29 40q0 1 6 16q0 6 2 23t1 25q-1 19 -16 40q1 6 -2.5 12.5t-3.5 9.5q-2 3 -6.5 7t-6.5 7q-6 2 -16 10.5t-12 10.5q-55 12 -77 11q-3 -1 -11 -4t-14 -3q-3 -1 -7 -4t-6 -4q-1 0 -6 -2t-7 -4q-4 -2 -11 -14 l-15 -9q-1 -1 -2 -7t-3 -8q-1 -4 -7 -8.5t-7 -6.5q-5 -14 -3 -54q1 -4 6 -12t6 -13q-1 -11 -20 -19.5t-30 -7.5q-4 5 -10 28q-5 28 -4 33zM258 49q-10 -12 -32.5 -13t-36.5 8q-8 19 -10 27q0 5 3 12.5t3 12.5q27 18 42 17q4 0 9 -1q14 -19 24 -40v-11t-2 -12z" />
<glyph unicode="@" horiz-adv-x="717" d="M559 184q-5 4 -16 37l-1 2q-2 -4 -5 -6.5t-7.5 -4t-6.5 -3.5q-1 -2 -16 -7.5t-17 -9.5q-1 0 -18 -7q-18 -8 -39 -9q-9 -3 -10 -3q-11 -1 -29 1.5t-26 2.5q-3 1 -22 8q-13 7 -16 7q-4 6 -16 11q0 6 -12 11q-6 14 -10 15q-5 16 -15 22q0 8 -9 28q-2 8 -3 27.5t-3 28.5 q0 1 2.5 14.5t-0.5 17.5q3 4 4 9.5t1 13t1 11.5q1 2 4 8.5t3 11.5q6 5 8 18q4 3 8 9t6 8l14 15l23 20q5 1 13.5 5t12.5 5l9 1l20 5q1 0 5.5 -0.5t6.5 -0.5q6 0 20.5 0.5t20.5 -0.5l6 -3l12 -3q14 -4 38 -17t31 -22q3 -1 5 2t2 8t-0.5 10.5t-1 11.5t0.5 10q11 4 14.5 4 t13 -2.5t14.5 -3.5q11 -21 -1 -80q3 -10 0 -63l2 -14q-2 -8 0.5 -22.5t2.5 -18.5v-44q1 -8 0 -9t1 -8l3 -13q-7 -19 18 -30t41 -5q38 14 42 21l29 44q13 20 21 60q3 11 6 38v24h-2v3q-1 10 -6 28.5t-6 30.5q-2 3 -1 4q-16 25 -18 33q-7 6 -22 33q-6 5 -29.5 29t-40.5 33 q-3 4 -12 9.5t-12 9.5q-12 3 -30 12.5t-24 11.5q-21 3 -33 9q-6 0 -17.5 2t-16.5 2q-18 1 -40 -2q-6 -1 -19 -1h-18q-9 0 -21 -6l-22 -8q-36 -7 -43 -11q-7 -2 -18.5 -11t-18.5 -11q-3 -3 -11 -7.5t-10 -5.5q-9 -9 -13 -9q-21 -30 -34 -39q-2 -9 -11.5 -20t-11.5 -14 q-3 -6 -6.5 -17t-7.5 -17q-9 -30 -11 -32q-6 -25 -6 -30q0 -3 -2.5 -13.5t-2.5 -16.5q0 -5 0.5 -16t0.5 -16l4 -37q11 -23 17 -45q2 -4 9.5 -18.5t9.5 -24.5l6 -7q5 -6 6 -11l39 -35q2 -2 6 -5.5t6.5 -6t5.5 -6t5 -6.5q10 -3 28 -18q15 -3 37 -13.5t30 -13.5q3 0 24 -9.5 t25 -9.5q6 0 39 -3t46 -2q12 1 39 4.5t54 5.5q22 -12 -5 -31q-35 -24 -80 -18h-3q-33 5 -70 -3q-5 3 -20 6t-25 6q-3 1 -16.5 3t-17.5 4q-9 0 -17 4l-1 3q-6 2 -18 4q-2 1 -7 4q-7 2 -14.5 6t-16 9.5t-12.5 7.5q-5 2 -17.5 10t-19.5 11q-4 8 -15 17.5t-14 12.5 q-32 32 -73 102q-6 26 -14 45q1 8 -3.5 22.5t-4.5 21.5q0 4 0.5 12t0.5 13q0 47 5 78q1 5 4.5 17t5.5 19q14 41 24 54l3 5q4 4 5 4v7l6 4l8 18q2 3 9 8.5t10 9.5q3 3 7.5 10.5t7.5 11.5q15 7 46 36q12 2 25 10t17 10q6 5 21.5 11.5t18.5 8.5q2 1 7 2t7 2q8 2 13 4l14 3 q3 0 13 2q10 5 31 5q8 0 26 1t30 1q2 0 5.5 -1.5t4.5 -1.5h15q12 -5 22 -5q13 -2 24 -7q12 -1 23 -11q19 0 41.5 -13t31.5 -15q8 -11 26 -20q15 -13 29 -20q4 -7 15.5 -20t16.5 -21q6 -7 16 -22t14 -20q0 -7 6 -16.5t6 -16.5q4 -4 8 -16t7 -16q0 -11 3.5 -29t3.5 -27v-25 q-3 -14 -4 -25t-1 -16t-3 -10q-2 -4 -9 -25.5t-17 -36.5q-17 -29 -48 -55.5t-59 -27.5q-15 -2 -28 -0.5t-19 1.5t-12.5 3t-8.5 4.5t-7 6.5t-8 7zM535 399q-3 2 -5 6.5t-3 5.5q-7 9 -9 14q-6 4 -15.5 12t-15.5 12q-17 7 -20 10q-7 0 -17.5 2t-17.5 2q-7 1 -18.5 -1t-16.5 -2 q-7 -3 -34 -15q-2 -2 -5.5 -6t-6 -6.5t-6.5 -5.5t-9 -5q-1 -6 -5 -13t-4 -11l-11 -25q0 -11 -4 -37q3 -12 2 -22q3 -3 6 -11.5t4 -10.5q0 -6 1 -10.5t2.5 -9l2.5 -7.5q1 -1 11.5 -8t13.5 -13q9 -8 31 -19q5 1 11.5 -1t9.5 -2q5 0 12 -3t12 -2q4 0 9.5 2t6.5 2q3 0 6.5 2.5 t7.5 1.5q2 2 7.5 2t7.5 1q3 3 12 3q4 5 17 12q3 3 9 15q30 18 30 105q0 2 -3 1q0 5 -6 35z" />
<glyph unicode="A" horiz-adv-x="628" d="M562 13q-1 -8 -11.5 -12.5t-21.5 -2.5q-2 1 -6 4t-6 3q-4 5 -10 19.5t-11 19.5q-1 8 -5.5 19.5t-5.5 18.5q-8 12 -24 61q-5 12 -11 18q-6 27 -17 36q0 1 -6 28q-2 2 -7 4.5l-7 3.5q-4 1 -8.5 -1t-7.5 -2q-23 -1 -85 -0.5t-87 -1.5q-11 4 -37.5 3.5t-36.5 4.5 q-7 -2 -19 -8q-7 -23 -13 -28q-3 -25 -14 -49q-2 -11 -10 -26t-9 -18q-2 -9 -1 -16q-14 -27 -33 -78q-25 -9 -38 12q4 22 5 33q5 8 13.5 31.5t17.5 31.5q0 12 2 13q10 20 14 42q4 5 9 17.5t10 17.5q1 10 7.5 23.5t7.5 20.5q17 38 16 43q2 1 5.5 7.5t7.5 15t5 10.5q2 2 2 8 l-1 6q0 3 3.5 5t4.5 3q4 6 6 24q9 7 28 72q2 9 15 38t22 41q0 4 2.5 9.5t2.5 9.5q2 2 15 34.5t15 34.5q0 7 11 41q0 2 1.5 8t2 9t2.5 7t4.5 7t6.5 4q8 -1 12 -12t7 -13q9 -44 22 -63q-1 -3 2 -11l12 -27q0 -13 -1 -14q15 -13 19 -33q-1 -6 7 -26q3 -2 8 -11q11 -18 11 -28 q3 -5 8.5 -16.5t9.5 -16.5q0 -2 8 -18q0 -3 1 -5.5t2.5 -6t2.5 -5.5q5 -15 15.5 -39t12.5 -30q15 -26 19 -44q2 -3 7.5 -13.5t9.5 -15.5q0 -4 8 -22q2 -4 2 -10v-7q4 -13 22 -33q0 -3 3.5 -12.5t2.5 -16.5l18 -42q13 -23 17 -43q5 -7 10 -22.5t7 -19.5v-3zM394 309 q-3 7 -9.5 25t-11.5 27q0 1 -1.5 4.5t0.5 4.5q-6 7 -13 23.5t-11 22.5q-1 6 -6 17t-5 19q-4 6 -16 30q-1 12 -8 32q-7 15 -9 36q-1 2 -5.5 5t-5.5 6q-6 30 -18 35q-1 -2 -5 -6t-3 -7q0 -3 -2.5 -9.5t-6 -13t-3.5 -7.5q-21 -32 -17 -52q-7 -7 -8 -14q-8 -16 -8 -24l-6 -12 q0 -4 -3.5 -7t-3.5 -6q1 -4 -1 -10t-2 -10q-20 -46 -20 -48q-5 -15 -5 -17q-6 -4 -14.5 -23.5t-7.5 -26.5q-9 -20 -8 -27q4 -3 16.5 -4t16.5 -3q92 3 115 2q12 4 43.5 2.5t40.5 5.5q4 -2 15 -2q3 4 3.5 9t-1 8.5t-3.5 8.5t-3 6z" />
<glyph unicode="B" horiz-adv-x="497" d="M66 13q-3 17 3 41q-1 10 0 29t-2 29q2 16 2 49t1 45q-3 16 -3 114q0 3 -0.5 9.5t-0.5 9.5v87q-2 20 1 33q-3 3 -1.5 17.5t1.5 18.5t-2.5 12.5t-2.5 11.5l1 2q1 2 1 4q-1 9 0 50.5t-3 53.5q-1 7 3 17q-6 11 3 33q12 4 25.5 5t32.5 -0.5t27 -1.5q6 0 17.5 2t17.5 2 q5 0 14 -1t14 -1h13q2 0 50 -9q7 -2 17 -7t16 -6q8 -6 23 -20t23 -21q6 -12 11 -16l8 -19l10 -17l6 -27q2 -8 6 -58q-4 -12 -6 -29q-4 -5 -18 -31l-18 -28l-9 -6t-9 -7q-1 -1 -4 -2.5l-5 -2.5t-4 -3t-3 -5q2 -3 9 -4.5t9 -3.5q12 -1 27.5 -9.5t21.5 -10.5q3 -4 20.5 -20 t23.5 -29q4 -9 12 -19q1 -12 8 -20q3 -25 11 -63q-5 -53 -9 -63q-1 -3 -9 -16.5t-10 -23.5q-5 -5 -14 -16.5t-14 -16.5q-1 -5 -7.5 -9t-8.5 -7q-4 -2 -8 -8t-6 -7q-7 -1 -17 -5.5t-16 -4.5l-34 -9h-22q-9 -3 -30 -5t-25 -3q-6 -1 -13 1t-10 2q-13 -2 -45.5 -0.5t-43.5 -2.5 q-5 1 -20 1.5t-24 3t-12 11.5zM143 47q13 4 40 3t40 2q3 -2 12.5 -2t12.5 -1q14 3 38 4.5t35 3.5q2 2 10 5t10 7q19 9 21 13q4 2 9.5 7t9.5 7q2 4 8 10t8 9q2 4 4.5 12.5t4.5 12.5q1 2 5.5 10.5t5.5 13.5v42q-4 7 -3 19q-8 21 -8 26q-7 9 -24 36l-19 16q-3 3 -10 7.5 t-10 7.5q-6 1 -22 7.5t-27 7.5l-128 -4q-29 11 -55 -3q0 -23 -1 -27q3 -9 3 -22t-1.5 -31t-1.5 -27q0 -6 0.5 -21t-0.5 -20q3 -13 1 -66q0 -3 1 -8t1 -8q0 -4 -1 -15t-0.5 -18.5t4.5 -13.5q16 1 27 -2zM171 377q5 0 11 3t11 3t11 -6q19 0 46 3q13 9 33 12q5 4 16 12t16 12 q15 28 20 32q1 11 10 25l4 39q-3 10 -3 22q-2 3 -4.5 10t-3.5 9q-4 16 -8 21q-1 2 -5 5.5t-6 5.5q-1 1 -4 6.5t-5 7.5t-9 6.5t-9 9.5q-4 1 -8 3.5t-9 5.5t-8 5q-12 3 -38 4.5t-37 3.5q-9 -3 -27.5 -4t-21.5 -1q-16 9 -30 3q-3 -4 -3 -25v-28v-54q-3 -8 0 -49q0 -4 -1 -12.5 t-1 -12.5v-30q0 -1 1 -3l1 -2q0 -33 3 -39q26 -5 58 -3z" />
<glyph unicode="C" horiz-adv-x="697" d="M641 553q-10 -1 -20 7t-15 9q-4 5 -12.5 14t-12.5 13q-6 1 -22 12q-9 2 -23 10t-18 9q-18 3 -33 11q-4 0 -12.5 2t-14.5 1q-2 3 -9 5t-10 5q-9 -2 -30 -2h-25q-31 -7 -68 -12q-15 -7 -31 -16t-35 -20.5t-30 -17.5q-5 -3 -11.5 -10t-8.5 -9q-2 -6 -10 -12.5t-9 -7.5 q-5 -12 -14 -24l-5 -5q-1 -1 -5 -7t-8 -8l-12 -27q-1 -2 -7.5 -20t-11.5 -26q-2 -12 -7 -33t-6 -28q1 -8 0 -23.5t0 -25.5q2 -14 8 -48q2 -8 9.5 -22t9.5 -23q1 -4 5.5 -9t5.5 -7q4 -8 12 -13v-15q5 -7 22 -26t24 -31l36 -24q33 -17 37 -22q25 -7 41 -16q23 1 44 -9 q10 2 28 0t25 -2q8 1 21.5 4t16.5 3h11q2 0 4.5 1.5t3.5 1.5t4.5 -1t5.5 -1h33q7 2 15.5 9.5t12.5 9.5q4 4 13 10.5t12 10.5q11 -1 22 7.5t18 9.5q2 2 12.5 16t21.5 16q7 -2 8.5 -17t4.5 -18q1 -12 -11 -38q-16 -12 -21 -14l-4 -5q-2 -1 -4 -1h-3l-11 -7q-31 -18 -42 -27 q-46 -14 -55 -20q-3 0 -22 -5q-17 0 -52.5 -3t-53.5 -2q-4 0 -11.5 2t-12.5 3q-3 1 -9.5 0t-9.5 0q-6 1 -23 7t-27 7q-5 4 -12 8t-16 8t-13 6q-12 4 -20 11q-5 1 -11 6.5t-7 6.5q-2 2 -8 3.5t-8 4.5q-5 2 -10 8.5t-7 8.5q-5 2 -12.5 8t-12.5 8q0 5 -5 9t-6 5t-1.5 4t0 6 t-0.5 6t-8 7t-8 9q-13 11 -15 14q-7 13 -8 28q-2 4 -7 10t-7 9q-1 10 -8 28t-8 31q-2 3 -3 8t-1.5 12t-1.5 10q-2 4 -1 15.5t-4 12.5q3 7 4 25t1 21q3 8 3 24.5t1 20.5q1 5 3.5 12t3.5 9l3 23q2 8 8 22t8 23q4 4 9.5 16t10.5 17q2 4 6.5 10.5t8 12t6.5 10.5q18 16 26 25 q1 1 15 17t23 24l8 6q5 4 21 13q2 2 10 6l10 5q10 6 22 16q10 -1 24 4t23 5q14 5 21 10q14 3 44.5 5t42.5 4q26 -2 37 -5q6 0 16.5 -3.5t18.5 -2.5q6 -1 28.5 -9t36.5 -10q10 -7 25 -12q5 -5 15.5 -12.5t14.5 -11.5q4 0 6.5 -2t5.5 -4.5t5 -3.5q7 -4 13 -12q1 -5 4 -16.5 t4 -16.5q4 -24 -5 -32z" />
<glyph unicode="D" horiz-adv-x="578" d="M57 14q-2 9 -0.5 36t1.5 37q0 15 -1.5 45t-1.5 44q0 5 1 14t1 13q0 3 -1 10t-1 11q0 67 -5 83q0 3 3 8t2 10q-1 17 -1.5 50t-0.5 43q0 8 0.5 26t-0.5 27q0 54 2 62q-2 10 -2 33q1 7 0 19.5t-1 16.5q0 5 1.5 15t1.5 15t-2.5 20.5t-0.5 23.5q4 6 16 14q5 2 34 0q39 -2 67 4 q12 -3 33 -3t26 -1q25 -2 34 -1q5 -3 17.5 -6t15.5 -4l33 -9q4 -2 22 -10.5t27 -13.5q3 -1 9.5 -6.5t12.5 -7.5q2 -1 9.5 -6.5t12.5 -7.5q4 -6 25.5 -26t27.5 -36q13 -9 26.5 -35.5t19.5 -33.5q1 -6 9.5 -32t7.5 -45q4 -6 5 -10q0 -1 1 -2t1 -2q-2 -11 -1.5 -30t-0.5 -30 l2 -2q-3 -2 -3 -41q-1 -14 -7 -35l-1 -2q-1 -3 -2 -5q0 -2 -0.5 -4.5t-0.5 -3.5t-2 -3t-3 -4l-2 -8q-23 -57 -23 -58q-17 -19 -21 -28q-13 -14 -19 -30q-14 -8 -17 -16q-2 -2 -8.5 -6t-8.5 -8q-6 -1 -19 -14q-2 -2 -8.5 -6.5t-9.5 -7.5q-11 -4 -33 -15q-18 -9 -57 -22 q-23 -4 -97 -6q-5 0 -15.5 -1.5t-14.5 -1.5t-33 1t-30 -3q-9 2 -18.5 1.5t-19.5 0.5t-14 6zM143 58q79 -4 122 5q6 1 16 3.5t17.5 4t13.5 3.5q17 11 30 16q5 5 16 8q15 7 55 42q4 4 16.5 18.5t19.5 21.5q4 8 15 26t15 30q2 4 22 67q10 44 -5 107q-2 5 -9 39q-3 5 -7 15 t-8 17t-9 12q-10 22 -26 41q-10 13 -34 35q-3 2 -9.5 7t-10.5 7q-13 13 -19 16q-1 1 -13.5 8t-18.5 11q-21 6 -63 20q-9 0 -28.5 3.5t-30.5 3.5q-6 0 -17.5 -2t-16.5 -2q-7 0 -21 0.5t-22 0.5t-17.5 -1.5t-16.5 -5.5q-1 -64 2 -148v-36v-76q0 -3 0.5 -9t0.5 -10q0 -41 4 -52 q-1 -3 -4 -30q0 -5 -0.5 -15.5t-0.5 -15.5q0 -10 0.5 -30t0.5 -30v-30v-47q0 -3 1 -8.5t1 -7.5q0 -26 2 -30q2 -5 19 -3.5t18 1.5z" />
<glyph unicode="E" horiz-adv-x="445" d="M389 14q-22 -7 -64.5 -6.5t-66.5 -2.5q-22 3 -65 1q-7 0 -25.5 1.5t-27.5 0.5q-6 0 -17 -3t-17 -3q-4 1 -15 3.5t-17.5 5.5t-9.5 9q-1 27 -0.5 40t3 40.5t3.5 41.5q1 4 -1 9.5t-2 9.5q0 5 0.5 12.5t0.5 13.5t-3 10q4 6 4 15t-2 18.5t-2 13.5q4 10 2 54q0 12 2 38 q0 4 -1 10t-1 10v41q0 3 -1 7.5t-1.5 8.5t-0.5 8q0 3 0.5 7t0.5 7q0 2 -1 32.5t3 33.5v62q0 6 -1 18.5t-1 19.5q2 10 2 17q0 51 2 66q0 10 3 13q6 3 24.5 2t25.5 2q10 0 29 -2t25 -2q7 0 15 0.5t18 1.5t16 1q9 1 25.5 -0.5t23.5 -1.5q10 0 42.5 0.5t50.5 1.5q6 1 12.5 -2.5 t9.5 -3.5q7 -29 4 -35q-2 -5 -5.5 -8t-9 -5.5t-8.5 -4.5q-7 0 -19.5 1t-22 1t-17.5 -3q-1 1 -8 2t-9 3q-15 -2 -82 -2q-5 -2 -17.5 -3t-17.5 -3q-2 0 -10.5 2t-14.5 2q-5 1 -11 -1.5t-8 -2.5q-13 -5 -15 -8q-1 -6 1 -17t2 -15t-2.5 -13.5t-2.5 -14.5q0 -6 2 -22q0 -4 -1 -12 t-1 -12q0 -5 1 -15t1 -18t-2 -16q0 -4 3.5 -9t2.5 -10q0 -3 -3.5 -17t0.5 -17q8 -5 32 -3.5t36 -2.5q33 9 53 3q35 0 41 3q12 -1 37 0.5t43.5 -0.5t30.5 -11q11 -20 0 -40l-16 -11q-12 -1 -41.5 -1.5t-46.5 -2.5q-14 2 -53.5 2t-57.5 4q-8 -2 -29 -0.5t-29 -2.5 q-5 -30 0 -52q1 -6 0 -16.5t-1 -13.5q-1 -14 0 -40t1 -34v-128q2 -3 5.5 -3t8 0.5t7.5 0.5q11 -5 34 -0.5t35 -0.5q11 3 49 1q4 0 12 1t11 1q4 0 11 -1.5t10 -1.5q4 0 13 0.5t14 0.5q1 0 28 -3h28q13 -8 15 -28q0 -16 -11 -27z" />
<glyph unicode="F" horiz-adv-x="383" d="M100 634q-5 -6 -5 -37q0 -13 2 -37q1 -14 -0.5 -39.5t-1.5 -35.5q0 -47 2 -69q5 -4 37 -1q25 0 38 -4q6 1 15 4t14 3q1 0 4 -1t5 -1t5 1t5 1t14 -3t19 -2q14 1 36 11q4 -1 17 -2t18 -4q0 -3 2.5 -6t3.5 -5q9 -23 0 -46q-5 -8 -30 -17q-25 0 -35 3q-4 0 -9.5 -2t-10.5 -1 q-16 -1 -74 7q-10 -2 -26 0.5t-26 1.5q-3 -1 -11 -2t-11 -3q-4 -9 1 -30q0 -11 -1 -45.5t0 -57t4 -43.5q0 -1 -1 -8t-2 -11q2 -6 1 -19t2 -17q-1 -6 -4 -63q4 -26 3 -34q-14 -22 -33 -22q-5 -1 -9 3t-6 5q-1 2 -4.5 6t-4.5 7q-1 6 2 12.5t3 10.5v138q0 7 -1 21t-1 21 q0 3 1 9t1 9q0 4 -1.5 12.5t-1.5 12.5q-1 5 0 14t1 13q0 3 -0.5 9t-0.5 9q-1 13 1 36.5t2 33.5q0 3 -1 10.5t-1 11.5q0 5 1 15t1 15q-3 129 -3 131q0 4 0.5 10.5t0.5 9.5q0 1 -1 4.5t0 5.5q0 29 -2 34q3 9 1.5 34.5t3.5 33.5q3 3 10.5 6.5t9.5 4.5q5 0 57.5 -2.5t57.5 1.5 q4 0 8.5 -2t7.5 -2q11 2 88 2q4 0 11 1t10 1q4 -1 9 -3t8 -2q7 -12 11 -44q0 -6 -3 -10t-8.5 -7t-7.5 -5q-5 -2 -21 -3t-21 -5q-7 3 -46 3q-29 7 -47 3q-2 1 -8.5 2t-9.5 3q-11 -3 -38 -3h-26z" />
<glyph unicode="G" horiz-adv-x="762" d="M681 534q-15 -20 -37 -20q-7 2 -12 6.5t-10 11t-8 9.5l-15 14q0 4 -5.5 7.5t-6.5 8.5q-14 7 -18 11q-11 11 -14 12q-4 1 -8 5.5t-7 5.5q-5 2 -16 11q-20 6 -62 27q-45 8 -49 10q-5 0 -14.5 0.5t-17 1t-13.5 1.5l-18 -5q-2 0 -7 -2t-8 -3h-12t-12 -1t-11 -4t-10 -4 q-4 -1 -10 -3t-10 -4q-4 1 -7.5 -3t-6.5 -4q-2 0 -7 -2.5t-9 -2.5q-3 -3 -22 -16l-3 -3l-5 -2l-3 -3l-3 -3q-2 -1 -5 -1.5t-5 -1.5l-6 -6q-2 -2 -4.5 -3t-3.5 -2q-7 -7 -12 -19q-4 -2 -9 -8.5t-6 -7.5q-6 -4 -14.5 -16.5t-13.5 -16.5q-13 -28 -24 -41q-1 -2 -1 -17 q-6 -4 -11 -17t-7 -16q-2 -32 -6 -40v-21.5t2 -19.5q-2 -6 -0.5 -18.5t1.5 -19.5q0 -4 4 -12.5t3 -15.5q0 -2 3.5 -11.5t3.5 -15.5l21 -34q1 -5 5.5 -10.5t5.5 -7.5q3 -9 11 -16q3 -7 13 -16.5t12 -12.5q4 -4 13.5 -13t13.5 -14q4 -2 22 -14q1 -1 4 -2l2 -2l1 -2l1 -1h3 l3 -6l5 -3q43 -18 54 -21q7 -2 27 -6.5t31 -7.5q13 1 31 -3q12 0 23.5 1t25 2.5t21.5 2.5q22 8 41 11q6 2 18.5 9t22.5 9q1 3 3.5 4.5t7 3.5t6.5 3q16 8 21 8l11 11q1 1 2 1h2l8 8q3 1 6.5 5.5t4.5 5.5q5 3 11 11q3 4 10.5 12t10.5 12q4 4 10 13t9 12q1 6 4.5 15t4.5 13 q2 4 5 14.5t5 14.5q-2 6 -1.5 20t-0.5 19q-62 4 -98 -5q-12 3 -39.5 2t-38.5 2q-15 -6 -35.5 -5t-31.5 9q-4 7 2 41q3 3 12 5.5t12 4.5q15 -3 48 -1.5t46 -3.5q4 0 9 2.5t8 2.5q9 -2 27 -2.5t27 -2.5q12 2 50 0q31 4 41 2q7 -8 7 -32.5t1 -37.5q-2 -43 -8 -69 q-17 -32 -22 -46q-3 -1 -3 -5q-17 -20 -20 -22q-2 -4 -9 -11t-9 -12q-2 -3 -9 -10t-9 -12q-1 -3 -6 -5t-6 -5q-1 -1 -4 -5t-7 -4q-7 -7 -25 -17t-25 -16q-6 -2 -16 -7l-12 -6q-26 -10 -29 -13q-15 0 -16 -1q-4 -1 -11 -5t-11 -5q-11 -1 -47 -1t-50 -2q-14 3 -42.5 8t-42.5 8 q-16 9 -41 16q-2 3 -7.5 5t-7.5 4q-8 5 -17 6q-15 15 -58 43q-2 3 -7 7.5t-6 6.5q-3 9 -11 16q-3 2 -13 14q-11 8 -26 38q-4 4 -8.5 12.5t-7.5 11.5q-1 7 -5.5 19.5t-5.5 21.5q-4 4 -7.5 18t-8.5 18q2 9 -1.5 26t-3.5 23q0 9 2 26t2 23q0 8 0.5 23t0.5 22q2 4 3 12.5t2 11.5 q13 38 19 63q4 2 7.5 11t6.5 11q3 4 7 12l6 12q32 39 39 50q7 5 19.5 17.5t18.5 17.5q3 3 18.5 13t22.5 17q6 2 18.5 8t19.5 9q6 4 20 8.5t19 7.5q8 0 24 4t22 5l25 2q40 4 66 2q6 -1 19 -3t19 -4q4 -1 15 -4.5t20 -3.5q26 -14 38 -15q2 -3 10.5 -7t11.5 -8q4 -1 11 -5 t12 -6q33 -26 46 -34q8 -15 25 -27q4 -8 14 -24q2 -3 8 -8t9.5 -10t4.5 -12z" />
<glyph unicode="H" horiz-adv-x="595" d="M544 17q-4 -3 -26 -3q-11 -5 -21 5q-2 7 -2 10.5t2 12t2 12.5v18.5t1 17.5q0 3 -2 7.5t-1 8.5q1 9 0.5 27t2.5 25q-3 10 -1 38q0 2 1 9.5t0 10.5q0 6 -3 14t-3 11q1 5 2 19t3 19v24q0 3 -1 9t-1 8q0 3 0.5 9.5t0.5 10t-1 9t-3 9.5q-2 0 -7 2t-7 3q-3 0 -9 -1t-9 -1 q-27 0 -34 -3q-5 1 -43 1q-7 0 -22 1t-22 1q-4 0 -10 -1.5t-9 -1.5t-9 1t-10 0h-123q-8 1 -25 0t-25 -1q-3 0 -9.5 1t-11.5 1.5t-9 0.5q-5 -4 -6.5 -9t-0.5 -15.5t1 -11.5q0 -3 -2 -19t-2 -24q0 -9 1.5 -34t0.5 -38v-5t0.5 -3.5t1.5 -3.5t1 -4q-2 -5 -1 -21.5t1 -22.5 q0 -8 -2.5 -25t-2 -29.5t4.5 -22.5q-1 -8 0.5 -30.5t-1.5 -26.5q-10 -10 -41 -3q-1 1 -4 5t-4 7q-2 8 -1.5 12.5t2.5 13.5t2 14v23q0 59 -2 74l3 18q-2 9 -0.5 39.5t0.5 43.5q0 5 -1.5 15t-1.5 11q0 8 2 50q0 5 -1 19.5t-1 21.5l2 6q0 3 -1 8.5t-1 7.5v103q0 56 -3 69 q0 4 1.5 9t1.5 8q-5 72 2 103q6 4 18.5 3.5t19.5 -3.5q6 -6 7 -14t-1 -22.5t-2 -17.5q0 -2 1 -6.5t1 -6.5v-34q0 -3 -0.5 -24t2.5 -22q-2 -4 -2 -28q0 -5 -1 -16t-0.5 -19t3.5 -16q-9 -42 4 -61q3 -2 9 -0.5t7 0.5q10 -3 51 5q3 0 7 -3t8 -2q23 2 32 5q27 -4 58 1q3 0 24 -5 q26 9 41 2q15 5 27 0q3 -1 7.5 2t6.5 3q4 -1 9.5 -4t9.5 -3q8 0 29.5 -1t37.5 -0.5t29 3.5q6 9 6 54q0 4 -0.5 13.5t-0.5 14.5q0 60 -2 68v96q0 30 6 39q19 11 37 -1q6 -14 5 -42.5t2 -42.5q-2 -100 -1 -128q0 -5 -1 -25t2 -24q1 -5 -1 -10t-2 -9q6 -8 8 -13q0 -7 -1 -12.5 t-3.5 -12t-3.5 -9.5q0 -8 1 -22t1.5 -25t0.5 -21q0 -3 -1 -13.5t0 -16.5q0 -6 1.5 -19t1.5 -20q0 -8 -1.5 -25t-1.5 -23q0 -4 0.5 -14t0.5 -16q0 -10 -1 -40t1 -40q8 -43 0 -54z" />
<glyph unicode="I" horiz-adv-x="206" d="M120 24q-11 -16 -38 -8q-1 2 -4.5 5.5t-4.5 6.5q-2 5 0.5 14.5t2.5 11.5q-4 23 1 34q-2 6 -2.5 13t0.5 16t1 14v47q0 5 1 22t0 27q0 7 -1.5 23t-1.5 23q0 4 1 12t1 11q0 5 -1 15t-1 14q0 7 1 22t1 22q-2 37 -2 43q3 41 3 42q0 5 -2 14.5t-2 12.5q2 4 1 15.5t-1 15.5l3 21 q0 7 -2 42q0 2 1 5.5t1 4.5t-1.5 3.5t-1.5 4.5q0 1 0.5 4t0.5 5q0 4 -1 15t0 17v19q0 25 6 36q11 6 30 2q13 -13 5 -71q0 -2 3 -78v-118q0 -17 2 -56.5t1 -60.5q0 -8 -2 -20q0 -4 1 -12t1 -14.5t-3 -11.5q4 -8 2 -45t-2 -46q0 -7 2.5 -19t2.5 -18t-2 -15.5t-2 -13.5 q0 -6 2.5 -34.5t-0.5 -33.5z" />
<glyph unicode="J" horiz-adv-x="289" d="M156 691q5 5 21 5t21 -5q6 -15 4 -59q-2 -41 1 -52q-3 -4 -3 -19q1 -10 1.5 -28.5t0.5 -24.5t0.5 -17t0.5 -16q0 -4 -1 -16t0 -19q0 -11 1.5 -32.5t1.5 -32.5q0 -6 -1.5 -18.5t-1.5 -19.5q0 -11 0.5 -32.5t0.5 -33.5q0 -22 2 -66q1 -18 -0.5 -50.5t-1.5 -45.5 q0 -3 1 -8.5t1 -7.5q0 -3 -1 -7t-1 -7q0 -5 1.5 -16t1.5 -17l3 -33v-5q0 -25 2 -35l-6 -31q-3 -6 -12.5 -16.5t-12.5 -18.5q-18 -22 -27 -31q-6 -1 -18 -8q-7 1 -20.5 -2t-20.5 -3q-17 -1 -64 9q-6 3 -15 10t-14 9q-19 12 -25 22q0 16 -3 18q2 5 7 12.5t6 10.5q1 4 9 8t14 3 q10 -1 13 -15q3 -2 7 -7.5t6 -7.5q22 -11 26 -14q9 2 27.5 1t26.5 2q21 12 39 35q2 5 4.5 15t3.5 13q0 8 0.5 23t-0.5 25v2q-1 2 -1 4t0.5 3.5t0.5 2.5q0 5 -2 43t1 42q0 15 -4 19q4 11 4.5 23.5t-2 30t-2.5 24.5q0 3 1 10.5t1 11.5q0 1 -1 4t-1 5q2 6 2 10q0 3 -1.5 10.5 t-1.5 11.5t0.5 13t0.5 14l2 77q0 1 -1 4l-1.5 4.5t0.5 2.5v90q2 31 0 66l-3 30q0 4 1 12t1 11q0 8 -1.5 24.5t-1.5 24.5q0 18 3 26z" />
<glyph unicode="K" horiz-adv-x="556" d="M527 17q-7 -9 -24 -9.5t-32 2.5q-6 6 -22 14q-21 23 -32 30q-2 3 -9.5 11.5t-10.5 14.5l-13 12q-12 11 -20 15q-4 7 -15 18t-15 19q-5 3 -18.5 15.5t-22.5 17.5q-3 7 -19 23q-4 4 -10 12l-9 12q-11 4 -19 11t-16.5 18.5t-13.5 16.5q-3 2 -9 4t-7 2q0 1 -2 7t-4 9 q-14 12 -19 20q-2 2 -5.5 6.5t-7 7.5t-8.5 4q-4 0 -9 -7q-2 0 -4 -3t-4 -3q0 -10 -1.5 -32t-1 -37.5t4.5 -28.5q-9 -23 0 -58q-4 -9 -3 -21q0 -4 0.5 -7.5t1.5 -7.5t1 -7q-2 -11 -2 -32.5v-25.5q1 -5 4.5 -15.5l5.5 -16.5q-4 -16 -23 -25q-33 10 -39 25q-1 12 6 30 q-2 5 0 24.5t2 23.5t-1.5 18t-0.5 23q1 3 -1 7.5t-2 6.5q0 5 -0.5 17t0.5 18l3 15q1 14 -0.5 49t2.5 46q-6 27 0 47q-3 17 -3 34.5t1.5 44t1.5 36.5v14q0 3 -1 10.5t-1 12.5q0 1 1 5t1 6q0 7 -1.5 20t-2 19.5t0.5 19.5q1 17 1.5 59.5t1.5 59.5q18 11 27 11q7 -1 19 -13 q-2 -40 -3 -121t-2 -122q0 -10 2 -30q0 -25 3 -30q3 -2 9 3t8 5q2 7 14 15q0 3 3.5 7t4.5 8q9 3 17 19q5 3 11 9.5t10 8.5q4 6 20 15q4 4 10.5 13t10.5 13l11 11q3 1 7 4.5t6 4.5q1 2 3.5 6.5t3.5 7.5q9 4 21 15.5t20 14.5q7 15 8 19q2 2 7.5 5t6.5 6q7 9 15 11q4 11 25 25 q4 9 24 32q16 19 26 27q29 10 51 3q7 -8 4 -27q-13 -17 -31 -28q-2 -4 -8 -10.5t-8 -10.5q-12 -7 -16 -19l-18 -12q-6 -8 -5 -15l-21 -12q-1 -2 -4.5 -8.5t-6.5 -9.5q-35 -26 -44 -44q-22 -17 -27 -25q-7 -3 -14.5 -12t-11.5 -12q-2 -4 -38 -37q-4 -4 -17 -13.5t-18 -16.5 q-15 -6 -20 -13q1 -8 9 -15.5t9 -9.5q3 -2 11.5 -8.5t14.5 -8.5q6 -8 8 -13q9 -4 22 -17.5t22 -17.5q3 -7 12.5 -16.5t12.5 -13.5q2 -2 8 -5.5t8 -6.5q1 -3 3 -5t6 -4.5t5 -3.5q0 -2 2 -5t3 -6q12 -7 30 -26t29 -26q3 -6 11.5 -15t11.5 -13q7 -4 18 -13.5t18 -13.5 q5 -11 14 -17q3 -1 5 -4t3 -4q4 -5 14.5 -14.5t15.5 -14.5q15 -15 20 -23q3 -2 3 -15z" />
<glyph unicode="L" horiz-adv-x="305" d="M271 17q-15 -6 -16 -7q-36 0 -39 1q-4 0 -8.5 -3t-9.5 -2q-12 3 -43 1.5t-43 3.5q-41 0 -51 6q-4 9 -4 19.5t1.5 24.5t1.5 21q0 8 -1 23.5t-1 23.5q0 4 1 11.5t1 10.5q0 8 -1.5 23.5t-1.5 22.5v65q-1 6 0 16.5t1 13.5q0 7 -2.5 20t-2.5 19l4 21q-2 23 1 121q0 1 -1.5 6.5 t-1.5 9.5q-1 5 0.5 12.5t1.5 10.5q-1 4 -3 13t-2 13v34q-2 34 3 44q0 2 -1.5 13.5t-3.5 16.5q3 5 5 23.5t8 24.5q5 3 17.5 3t17.5 -3q4 -7 4.5 -15t-0.5 -19t-1 -15q0 -5 1.5 -15.5t1.5 -16.5q0 -7 -1 -21t-1 -21q0 -3 1 -10t1 -11t-1 -10t-1 -10q0 -2 1 -5.5t1.5 -6.5 t0.5 -6q1 -2 0 -4.5t-1 -4.5v-27v-38t-2 -38q0 -3 2 -8.5t1 -9.5q0 -65 4 -82q0 -4 -2 -8.5t-2 -7.5q1 -10 -0.5 -45.5t2.5 -44.5q-1 -5 -1.5 -21.5t-3.5 -22.5q4 -11 2.5 -44.5t8.5 -37.5q2 -3 10.5 -1t10.5 2t7 -1.5t9 -1.5q5 2 15.5 4t15.5 3q4 -3 12.5 -5.5t11.5 -4.5 q33 6 58 -1q4 -1 6.5 -4t4.5 -9t3 -8q-1 -3 -2 -8t-2 -9t-2 -7z" />
<glyph unicode="M" horiz-adv-x="813" d="M765 22q-4 -6 -17.5 -7.5t-21.5 2.5q-7 6 -8.5 30.5t-6.5 31.5q2 6 0.5 17t1.5 16l-6 19q-1 19 -5 72q-5 40 -8 48q5 16 -3 36q-1 3 0.5 7t1.5 7q-5 19 -5 41q-3 21 -3 44q-1 4 -3.5 11t-3.5 11q5 34 -6 87q-1 6 -2.5 29t-6.5 33q-5 -7 -12.5 -24t-13.5 -24 q0 -5 -3.5 -12.5t-3.5 -12.5q-5 -5 -8 -10.5t-7 -17.5l-4 -13q-3 -6 -9 -20t-10 -21q-6 -24 -10 -30l-6 -9l-6 -8q-1 -6 -8.5 -21.5t-7.5 -27.5l-13 -14q-1 -12 -9.5 -27.5t-9.5 -18.5q-10 -25 -22 -41q1 -4 0 -9t-1 -7q-11 -19 -11 -20q-1 -2 -4.5 -10t-6.5 -11 q1 -5 -2 -11t-3 -11q-6 -7 -13.5 -26.5t-14.5 -26.5q-1 -5 -5 -17.5t-5 -19.5q-3 -3 -7 -9.5t-6 -9.5q-10 -12 -17 -12q-3 0 -6.5 2t-6.5 6t-5 7t-5 8.5t-4 7.5l-3 3v5q-9 25 -17 33q0 4 -1.5 8.5t-1.5 7.5q-2 3 -6.5 12t-8.5 12q-11 21 -11 25q-1 2 -3 4t-3 4t-1.5 5 t-1.5 4q-1 2 -4.5 7t-5.5 8.5t-4 9.5t-2 12q-3 5 -7.5 16.5t-6.5 14.5q-7 13 -17 27q-1 2 -2.5 8t-2.5 9q-1 4 -5.5 10t-5.5 9q-1 2 -3.5 11t-6.5 13q0 4 -4 10.5t-5 11.5l-11 22q-6 11 -13 19q-2 8 -1 14q-4 4 -8.5 14.5t-9.5 13.5v13q-6 5 -11.5 20.5t-11.5 20.5 q-4 16 -19 47q-2 6 -7 15.5t-6 13.5q-3 13 -9 14q-6 -1 -6 -14q0 -14 -3 -46.5t-2 -51.5q0 -3 -1.5 -7t-1.5 -6q0 -19 -5 -56t-3 -57q-4 -15 -5.5 -48.5t-2.5 -44.5q0 -2 -1.5 -9t-1.5 -10v-22q0 -1 -1.5 -4t-1.5 -4q-1 -2 0 -5t1 -5q-3 -40 -3 -41q0 -2 -1.5 -6t-1.5 -6 q0 -17 -3.5 -46.5t-2.5 -48.5q-2 -3 -5.5 -8t-4.5 -7q-36 -7 -44 9q-1 6 -0.5 9t3 9t3.5 9q1 12 4 51.5t6 58.5q0 22 4.5 58t3.5 59q1 4 3.5 11.5t2.5 8.5q1 3 -2 16q3 10 4.5 33.5t3.5 32.5q1 4 0 10t-1 8q6 21 10 66t7 60q1 4 -0.5 8t-1.5 7q1 8 4.5 28.5t4.5 36t1 32.5 q3 11 4.5 35.5t3.5 35.5q1 2 1 6.5t1 7.5t4 4q6 0 9 -4t5 -12t3 -10q3 -4 8 -14t8 -15q1 -7 7 -16.5t7 -13.5q10 -18 13 -30q13 -16 19 -42q18 -39 25 -49q1 -5 5.5 -13t5.5 -12q10 -20 11 -25q2 -3 30 -59q3 -7 9 -18.5t10.5 -21.5t7.5 -20q2 -3 8.5 -16t11.5 -18 q6 -25 24 -54q1 -3 2.5 -9t2.5 -8q20 -39 25 -51q3 -3 13 -25q8 -19 9 -27q4 -4 10 -16.5t11 -17.5q9 2 14 19.5t11 21.5v12q8 10 18 33t18 33q0 8 6 20t7 21q5 5 9.5 14t8.5 21t7 17q14 29 19 33q2 15 11.5 35t11.5 30q11 12 18 38q10 13 14 28q3 1 4 3.5t1 6.5t1 6 t3.5 6.5t3.5 7.5q2 7 12.5 26.5t12.5 33.5q22 45 25 51l3 9l3 3v5l8 17l6 18l5 7q1 3 1.5 8t1.5 8q0 1 3 4.5t4 6.5q1 0 5 6t10 5q5 0 7 -11q0 -9 8 -86q4 -46 9 -68v-19q4 -16 6 -52q5 -48 5 -51q1 -2 2 -7.5t3 -7.5q0 -11 1 -23t2.5 -26.5t2.5 -23.5q6 -70 6 -74 q4 -10 5.5 -36t5.5 -35q-1 -8 5 -58q-1 -21 5 -59q0 -3 -0.5 -11.5t-1.5 -14.5q1 -4 2.5 -12t2.5 -12v-8z" />
<glyph unicode="N" horiz-adv-x="717" d="M655 24q-5 -1 -10.5 0.5t-8.5 3t-9.5 5.5t-7.5 5q-2 1 -5.5 7t-7.5 7l-5.5 5.5t-8.5 5.5q-2 2 -3.5 7.5t-2.5 6.5q-3 3 -9.5 8t-9.5 8q-2 4 -7.5 10t-7.5 9q-3 1 -7.5 7.5t-9.5 8.5q-1 3 -2.5 5.5t-3.5 4t-5 3.5t-5 4q-9 13 -33 33q-1 5 -7.5 9.5t-8.5 8.5l-15 17 q-6 8 -18 16q-2 7 -15 17q-4 4 -11 10.5t-12.5 12t-9.5 10.5q-1 4 -7 9.5t-8 9.5q-3 2 -8 8t-9 8q-23 25 -35 31q-5 13 -14 18q-8 12 -14 15q-11 9 -14 18q-10 8 -13 11l-3 5q-13 13 -14 15q-3 1 -7.5 7t-8.5 7q-3 2 -7.5 8t-6.5 8q-6 4 -14 16q-3 5 -16 16q-3 7 -13 17 q-5 4 -10 9t-11 12.5t-9 10.5q-7 4 -16 15.5t-14 15.5q-4 4 -12.5 16t-15.5 16q-2 -1 -3 -4t-1 -7.5t-1 -6.5q0 -2 3 -17q-2 -51 -1 -87q0 -1 1 -6t0 -8q0 -48 4 -60q-3 -6 -3.5 -13t0.5 -17.5t1 -15.5q0 -9 -1.5 -31.5t-0.5 -35.5l4 -26q0 -4 -1 -12t-1 -11q-2 -58 3 -93 q-2 -7 -2 -14.5t1 -17t1 -14.5q0 -4 -0.5 -12t-0.5 -12q0 -6 3.5 -28.5t-0.5 -26.5q-5 -7 -21 -8t-25 4q-6 10 -6.5 27t2 41t2.5 34q0 5 -0.5 14.5t-0.5 13.5q1 40 1 119q1 3 0 10t-1 9v67q0 7 1 24t0.5 28.5t-3.5 21.5q2 5 2 10.5t-1 12.5t-1 11q0 2 1 8t1 9q0 7 -1 23 t-1 24q2 29 -1 43q0 1 1 8.5t2 11.5q0 3 -2 8t-1 10l3 18q1 8 -1 22t-2 19q0 20 1 21t1.5 5t1.5 6.5t4 2.5q5 0 8 -2t6 -5.5t5 -4.5q2 -4 7 -9l7 -7q1 -1 11 -13q14 -18 33 -36q2 -5 16 -14q3 -5 13 -15.5t13 -17.5q20 -15 30 -27q2 -3 6.5 -8t6.5 -8q2 -2 8 -6t8 -7 q9 -12 28 -31.5t25 -27.5q6 -3 14.5 -13.5t15.5 -13.5q3 -6 7 -11t11 -11t9 -8l28 -29l13 -15q2 -3 7 -7t7 -6q6 -11 27 -30q6 -4 14 -15t13 -15l27 -30q11 -14 12 -16q4 -1 9 -5.5t7 -5.5q3 -6 21 -22q2 -2 7 -8t8 -9q1 -1 4 -2l3 -1q1 -2 3 -7t4 -7q5 -6 16.5 -16.5 t15.5 -15.5q1 -1 4 -6t5 -7q11 -6 13 -7q1 -1 1.5 -3t1.5 -3t3 -1q3 3 3.5 7t-0.5 10.5t-1 9.5q0 7 2 17q0 6 -1 19t-1 19q0 45 -3 54q3 18 0 24q1 3 2.5 8.5t2.5 8.5q-5 59 -4 71q1 4 -1 8.5t-2 7.5q1 20 0 72.5t2 70.5q-2 33 0 39q-1 4 -2 15.5t-3 16.5q3 9 2 26.5t1 27.5 l-3 33q1 2 3.5 8t4.5 9q19 10 35 -2q7 -10 5.5 -35.5t0.5 -39.5q-2 -6 -2 -57q0 -31 1 -96t1 -99v-119q0 -11 3 -20q1 -4 -1 -8.5t-2 -7.5q1 -18 0.5 -65.5t2.5 -62.5q1 -5 0 -16t-1 -14q0 -4 0.5 -11.5t0.5 -13t-3 -9.5z" />
<glyph unicode="O" horiz-adv-x="787" d="M743 373q0 -6 1 -35.5t0 -45.5q-1 -8 -6 -24t-6 -26q-18 -32 -26 -57q-2 -1 -4 -6t-5 -6q-1 -1 -3.5 -7t-4.5 -8q-2 -5 -8 -13t-8 -13l-6 -6q-6 -5 -9 -9q-1 -1 -2 -3t-2 -3t-8 -9t-9 -13q-7 -2 -16 -11t-17 -11q-1 -1 -7.5 -8t-11.5 -9q-13 -8 -21 -16q-36 -8 -48 -18 q-26 -5 -40 -14q-18 -1 -132 -4q-35 7 -47 7q-25 10 -30 11q-4 1 -9.5 4t-10 5t-10.5 2q-2 4 -8.5 9t-7.5 6q-2 1 -5 3.5t-6.5 4t-7.5 1.5q-6 9 -33 25q-3 2 -13.5 14.5t-19.5 15.5q-7 12 -21 24q-2 4 -19 24q-1 10 -10.5 25t-11.5 27q-1 4 -6 10t-6 10q-1 2 -2 6.5t-2 6.5 q-7 30 -7 31q-3 9 -6.5 29.5t-4.5 25.5q0 33 3 73q2 9 4.5 26.5t4.5 25.5q13 43 14 46q6 8 15.5 25t14.5 24q2 5 8 12.5t8 10.5t8 10.5t8 11.5q5 2 13 11.5t14 12.5l26 24q33 17 70 39h16q6 2 18 9t19 10q8 2 26.5 4t27.5 5q28 3 84 -1q20 -5 23 -5q19 -5 22 -5q3 -1 8.5 -5 t9.5 -6q34 -10 39 -17q4 0 9.5 -3t7.5 -3q4 -1 13.5 -7.5t18.5 -7.5q14 -15 35 -23q5 -7 17 -19t17 -19q4 -3 8.5 -10.5t7.5 -10.5q9 -11 13 -22q5 -5 9.5 -12.5t9 -17.5t6.5 -15l9 -27q7 -21 10 -25q5 -40 8 -49v-22zM681 464q-7 12 -12 27q-4 4 -12 17t-15 18q-4 8 -14 19 t-13 17q-20 14 -28 22q-8 2 -16 11t-13 11q-6 5 -22 11q-1 0 -9 5.5t-13 7.5q-25 7 -50 22q-10 -1 -27.5 3.5t-24.5 4.5q-6 0 -17 -2t-15 -2h-36q-1 0 -13 -3q-3 -1 -8 -1h-8q-22 -15 -44 -16q-13 -11 -25 -13q-2 -2 -5 -5.5t-5 -5.5t-6 -4.5t-8 -3.5q-5 -6 -25 -17 q-2 -2 -7.5 -9t-9.5 -10q-2 -3 -19 -17q-3 -8 -11.5 -18.5t-10.5 -13.5l-6 -12q-1 -1 -4 -4.5t-4 -5.5l-3 -6q-3 -5 -7 -15.5t-8 -16.5q1 -4 -1 -10t-2 -10q-9 -14 -12 -36v-11q-1 -2 -2.5 -5.5t-1.5 -4.5q-3 -21 -3 -22q0 -4 1.5 -12t1.5 -12q1 -12 0 -25q8 -24 8 -38 q2 -1 4 -6t4 -6q-1 -11 5 -16q1 -5 4.5 -15t4.5 -17q18 -25 22 -39q6 -5 16.5 -17.5t17.5 -17.5q7 -12 17 -17q4 -3 9 -9t8 -8q22 -10 44 -29q8 -2 46 -17q11 1 26.5 -2.5t17.5 -3.5q40 -5 46 -8q8 1 37 3t42 6q15 2 36 11t30 11q6 2 18.5 11t20.5 11q8 11 21 19q3 2 10 9 t12 10q11 18 28 38l5 4q4 5 5 9q3 3 9.5 17t12.5 19q1 8 7.5 21.5t8.5 17.5q4 12 6.5 37t5.5 37v34q0 1 -1 1q-2 21 -21 93zM278 664v2l1 1q-1 2 -2 2q-1 -3 1 -5z" />
<glyph unicode="P" horiz-adv-x="422" d="M114 343q-3 -2 -4.5 -5t-1.5 -8t-1 -7q-3 -21 -3 -24q0 -6 2.5 -21.5t2.5 -23.5q0 -4 -1 -12t-1 -12q0 -5 2 -14.5t2 -12.5v-30q0 -35 -4 -50q5 -15 0 -36q3 -12 5 -60q-6 -4 -10 -10q-26 -6 -41 11q7 149 4 196q3 25 3 77q0 9 -1.5 27t-1.5 26q-1 29 0.5 79.5t1.5 70.5 q0 15 -1.5 63.5t-0.5 75.5q1 5 -1.5 10t-2.5 7q1 4 2 14t3 16t6 10q14 3 42 -2q111 5 115 6q7 -3 26.5 -8.5t28.5 -10.5l48 -24q0 -3 4 -3l24 -30q4 -5 10 -16.5t9 -16.5q5 -28 13 -49q1 -13 -0.5 -27.5t-3.5 -24t-5.5 -26t-5.5 -23.5q-17 -26 -19 -31q-2 -1 -6 -5t-7 -6 q-2 -2 -5 -6.5t-6 -6.5q-16 -14 -25 -20q-4 -2 -17 -7t-19 -9q-9 1 -23.5 -2.5t-20.5 -3.5q-7 0 -23 2t-25 1q-6 0 -14.5 -2t-11.5 -2q-8 -1 -15 -0.5t-14.5 0t-11.5 -3.5zM134 389q32 -2 104 5l15 3t14 3q2 1 10.5 6.5t14.5 7.5q3 5 7.5 10t10.5 9.5t9 7.5l10 9q0 12 7 19 q-1 7 3.5 17.5t4.5 15.5q0 1 -0.5 2.5t-0.5 2.5v39q-2 3 -4 10.5t-3 10.5q-1 2 -2 6t-2 9t-2 7q-5 8 -11.5 15.5t-16.5 17.5l-14 14q-4 1 -10 4t-9 4q-2 0 -10.5 1.5t-13.5 3.5q-1 1 -4 3t-4 2h-30q-5 0 -15 1.5t-15 1.5q-3 0 -8.5 -0.5t-8.5 -0.5q-5 0 -22 1.5t-22 -1.5 q-6 -11 -2 -51q-5 -18 -1.5 -56.5t-1.5 -55.5q-1 -3 1 -7t2 -7q-3 -10 -2.5 -31.5t-2.5 -29.5q1 -3 2.5 -13t3.5 -13z" />
<glyph unicode="Q" horiz-adv-x="754" d="M627 115q1 -5 6.5 -10.5l6.5 -6.5q1 0 8 -10q1 -2 1 -3q1 -1 3 -1h2l8 -8l21 -22q3 -2 8 -7.5t7 -7.5q1 -2 4.5 -5t5.5 -5.5t0 -5.5q-1 -4 -4 -6.5t-6.5 -3.5t-9 -1.5t-7.5 -1.5q-21 0 -24 1q-7 2 -17 10.5t-16 10.5q-2 7 -13 15.5t-12 10.5q-1 1 -2 4t-2 4.5t-4 1.5 q-7 1 -11.5 -4.5t-7.5 -6.5t-10 -3.5t-10 -4.5q-10 -8 -31 -18.5t-29 -16.5q-8 0 -22 -4l-22 -5l-5 -3h-6q-26 -6 -32 -7q-35 4 -47 2q-34 6 -52 7q-6 2 -16 5t-18.5 5.5t-16.5 4.5q-3 3 -25 13q-1 0 -11 4.5t-17 5.5q-3 1 -8 4.5t-10 5.5t-11 2q-15 15 -23 21l-8 3 q-2 1 -8 7.5t-10 8.5l-11 17q-4 4 -14 10q-2 4 -6 11t-7.5 12.5t-7.5 9.5q-4 10 -14 30t-15 31l-3 7q-6 19 -13 30l-1 10q0 10 -2 15q-1 3 -4 8t-4 8q-1 4 -1 36q0 39 5 49q-2 16 2.5 36.5t5.5 30.5q3 6 7.5 23.5t9.5 24.5q-1 3 1 7t1 7q5 7 13 21t12 20q14 19 25 39 q26 23 30 33q3 1 7.5 4.5t5.5 4.5t4 2t4 2q1 0 2 2t2 2l19 19q10 4 27 14t25 13q1 1 8 2.5t10 5.5q7 1 21 6t24 5q30 8 48 8q1 0 10.5 3t14.5 6q10 -10 32 -3q3 -6 9 -8q14 0 38 -2q4 0 9.5 -3t6.5 -3q9 0 27 -6t32 -5q11 -9 22 -9q7 -12 8 -13l15 -6q20 -12 25 -21 q11 -2 25 -14.5t16 -13.5q0 -1 2 -7.5t4 -8.5q2 -3 7 -5t7 -4q1 -7 9.5 -16.5t9.5 -17.5q2 -2 7 -6.5t7 -7.5q6 -23 19 -43q-1 -6 3 -13.5t4 -9.5q0 -7 7 -21q0 -12 3.5 -32.5t2.5 -35.5q2 -5 3.5 -17t3.5 -17q0 -36 -5 -49q0 -13 -10 -60q-3 -7 -12 -19.5t-11 -16.5 q-1 -1 -0.5 -8t-1.5 -11q-9 -18 -20 -25q-2 -7 -11 -17t-12 -15q-15 -9 -19 -14zM637 200q7 11 17 33.5t12 26.5q1 2 1 14q6 8 7.5 21t2 30.5t1.5 26.5q-3 16 -3 37q-2 6 -4 22t-5 23q0 10 -2 14q-12 24 -12 34q-2 1 -3 3t-1.5 5t-1.5 4q-4 4 -10.5 16t-12.5 17 q-4 8 -15.5 21t-15.5 21q-14 8 -25 21q-18 14 -30 17q-6 7 -23 14.5t-23 13.5q-91 22 -115 24l-13 -3q-3 2 -16.5 1t-19.5 -1q-9 -3 -20 -8q-7 1 -16 -1q-5 -1 -10 -5t-7 -5q-4 1 -8 0t-7 -1q-28 -16 -39 -19q-5 -9 -22 -17q-3 -5 -11.5 -10.5t-10.5 -8.5q-9 -7 -23 -21.5 t-18 -18.5q-9 -19 -25 -36q-8 -24 -16 -33q-1 -10 -15 -44l-6 -22v-6l-1 -2q-2 -2 -2 -3q-2 -7 -2 -30v-4l-1 -2q0 -2 1.5 -13t-0.5 -14q6 -11 5 -27q3 -5 5 -18t4 -18l10 -17q1 -7 5 -18.5t4 -13.5l5.5 -5.5t5.5 -8.5q6 -11 7 -21q2 -3 6 -7t6.5 -8.5t2.5 -9.5q8 -6 17 -22 q2 -1 8 -4.5t10 -5.5q2 -1 4.5 -7t7.5 -7q7 -4 18 -6q5 -6 18 -15t19 -14q29 -5 45 -17q32 -6 53 -5q4 -2 13 -2.5t12 -1.5q3 3 42.5 2.5t44.5 -0.5q2 1 13 5.5t19 4.5q6 5 21 12t20 10q2 1 8 3.5t9 4.5t7 5t6.5 6.5t3.5 8.5q-1 3 -3 5.5t-4 4t-5 3.5t-5 3q-3 4 -8 9.5 t-7 7.5q-3 1 -5.5 4.5t-4.5 3.5t-4 4.5t-5 3.5q-14 14 -16 19q-5 1 -11 7t-10 7q-1 3 -4 7.5t-3 5.5q-4 1 -7.5 3.5t-7.5 6.5l-6 6q-14 10 -17 20q-11 4 -15 5q0 7 -8.5 17t-8.5 19q5 9 16 5q3 0 7.5 2.5t8.5 3.5q3 -3 7 -3.5t10 0t11 0.5q15 -15 22 -19q1 -4 5.5 -9.5 t5.5 -9.5q12 -7 22 -24q7 -3 24 -23q12 -6 17 -10q2 -2 4 -7t3 -7q2 -1 18 -16.5t30 -18.5q9 5 15 11t14 21.5t9 16.5z" />
<glyph unicode="R" horiz-adv-x="438" d="M406 31q-3 -19 -20 -19q-7 -1 -16.5 5.5t-13.5 6.5q-10 14 -14 21q-1 2 -3.5 4.5l-4.5 4.5t-3.5 5t-2.5 6q-4 2 -8.5 9.5t-7.5 9.5q-2 2 -6 10t-7 11q-23 33 -26 39q-5 10 -14 21q-1 1 -2 3l-1 3l-5 3q-5 5 -14 21q-7 9 -11 19q-2 2 -6 8t-7 9q-2 2 -5 8t-6 8 q-3 3 -9.5 16t-14.5 16q-1 9 -8.5 18.5t-8.5 12.5q-1 1 -4.5 6t-6.5 7q-6 10 -11 12q-10 0 -14 -20q-4 -13 -3 -32q0 -2 -2.5 -7.5t-2.5 -9.5q1 -10 0 -31.5t1 -29.5q3 -5 1.5 -36.5t-1.5 -39.5q0 -4 -2 -10t-1 -11q1 -12 6 -23q-2 -8 0.5 -32.5t-3.5 -29.5l-8 -5 q-8 -4 -13 -4q-17 0 -28 22q-1 5 1 13t2 12q0 6 -1 20.5t-0.5 25t3.5 19.5q-2 43 3 66q-2 8 -0.5 29.5t0.5 30.5q1 4 -1 9.5t-2 9.5q0 18 3 30l-4 20q0 2 -3 52q-1 11 3.5 31t5.5 28q1 13 -1 42q-2 22 -6 38q1 9 -2 24q3 7 3 47q0 3 2 9q1 6 -0.5 49t6.5 48q6 4 17.5 5.5 t22 0.5t20.5 0q3 0 9 -1.5t10 -1.5q6 4 49.5 1t51.5 -3q14 -8 23 -10q17 -14 40 -25q3 -4 11 -11.5t11 -10.5t8.5 -12t10.5 -12q2 -6 15 -38q4 -26 8 -37q2 -41 0 -60q-6 -21 -18 -48q-3 -2 -7.5 -8t-7.5 -9q-1 -5 -6.5 -10t-6.5 -9q-3 -2 -15.5 -13t-18.5 -17 q-12 -4 -32 -16q-5 -1 -15 -2t-18.5 -2t-15.5 -2l-11 -14q0 -14 8 -19q0 -4 1.5 -6.5t4 -5t3.5 -4.5q8 -24 23 -36q4 -9 10 -18t14 -19.5t12 -16.5q3 -6 11.5 -17.5t11.5 -18.5q19 -19 22 -34q19 -22 21 -23q-1 -4 2.5 -9t3.5 -8q14 -14 20 -27l21 -26q-1 -2 0 -3t1 -2z M145 386q3 -7 41 -5.5t46 0.5q1 1 8 3t8 6q5 0 19 7q12 2 18 4q3 1 6 5t6 6q0 4 5 6.5t6 4.5q17 15 20 27q0 4 -1 10t0 11q0 5 5.5 17t6.5 19q2 13 -7 33l-5 35q-5 5 -12 17t-12 17q-5 6 -11.5 10.5t-16 10t-13.5 8.5q-9 -1 -13 -0.5t-11 3t-12 3.5q-7 0 -23 2.5t-23 -0.5 q-4 2 -14 2l-11 1q-19 4 -28 -1q-7 -33 -7 -40q0 -3 2 -11l3 -12l-1 -2v-2.5t0.5 -4t0.5 -3.5q0 -7 1.5 -16.5t1.5 -14.5t-2.5 -29t2.5 -29q-3 -14 0 -27q-2 -5 -4 -15l-3 -15q1 -3 1 -19t3 -21q4 -3 20 -1z" />
<glyph unicode="S" horiz-adv-x="464" d="M58 166q9 -3 15 -21q0 -4 4 -10.5t5 -11.5q11 -11 16 -22q14 -9 25 -19q8 -1 26 -17q15 -3 31 -13q4 -1 7.5 0.5t6.5 1.5t6 -3t7 -2q16 3 31 0q2 0 11.5 4t17.5 3q22 10 30 11q12 6 14 6q16 14 24 16q2 2 4.5 6t4.5 6q4 5 17 16q2 7 9 16t9 15q3 5 13 35q0 7 -1.5 21 t-0.5 23q-2 9 -10 22t-10 17q-12 13 -26 26q-13 8 -28 21q-33 11 -41 20q-23 7 -38 16q-3 1 -44 17l-12 6q-3 2 -8.5 3t-7.5 2q-1 0 -3 2t-4 3h-4t-3 1t-5.5 4t-7.5 4q-11 5 -13 7q-5 1 -11 9q-3 0 -6.5 3.5l-4.5 4.5q-1 5 -8 10t-9 10q-7 7 -15 28t-11 27q0 4 -4 14 q0 50 -1 55q16 52 22 64q4 5 16.5 17.5t18.5 20.5q3 1 26 19l27 12q3 1 13.5 4t15.5 6q15 -1 37 5q12 -2 38 -4q3 -1 13.5 -4t18.5 -3q6 -7 28 -18q20 -19 41 -35q10 -17 11 -20q10 -15 10 -21q1 -6 -4 -11l-6 -6q-10 -8 -17 -10q-6 3 -12.5 12t-11.5 11q-2 6 -9.5 13.5 t-9.5 11.5q-8 5 -21 13.5t-18 11.5q-49 13 -70 8t-45 -17q-9 -5 -22 -18.5t-18 -17.5q-3 -13 -12 -22q-7 -21 -10 -26q2 -4 2 -15.5v-14.5q7 -29 6 -41q6 -10 21 -23t19 -18q10 -4 59 -34q14 -2 34.5 -10.5t28.5 -10.5q9 -6 17 -14q21 0 44 -17t31 -20q33 -31 47 -49l14 -37 q-1 -10 3 -26q1 -2 1.5 -11.5t3.5 -11.5q0 -21 -5 -41q-1 -6 -5 -17.5t-5 -17.5q-4 -3 -6.5 -7.5t-4.5 -10.5t-4 -9q-9 -10 -16 -26q-17 -11 -37 -37q-4 1 -6.5 0t-5 -3t-5.5 -3q-1 -2 -7 -4t-7 -5q-15 -5 -33 -14q-4 0 -12.5 -2.5t-12.5 -2.5q-2 0 -4 1t-3 1q-8 -4 -17 -4 q-44 0 -98 13q-19 13 -47 25q-3 3 -20.5 22t-28.5 28q-3 10 -16 25q1 6 0 14.5t-1 13.5q1 5 5.5 9.5t5.5 6.5l6 5q7 4 12 4z" />
<glyph unicode="T" horiz-adv-x="460" d="M422 655q-11 -11 -25 -12q-2 -1 -4 0t-4 1q-3 1 -13.5 0t-13.5 -1h-47q-7 0 -21 0.5t-24.5 0t-19.5 -3.5q-1 -13 0.5 -38.5t1.5 -39.5q0 -4 -1 -12.5t-1 -12.5t1.5 -11.5t1.5 -10.5t-0.5 -9t-0.5 -8q0 -7 0.5 -19.5t0 -22.5t-3.5 -18q2 -3 0.5 -22.5t-1.5 -21.5 q0 -4 1.5 -10t1.5 -9q1 -2 0 -3t-1 -2q0 -3 0.5 -14.5t0.5 -15.5v-8q1 -6 0 -20.5t-1 -20.5q0 -3 1 -13.5t0 -16.5q0 -5 -2 -12t-2 -10q-1 -6 3 -16q-4 -1 -3 -25.5t1 -27.5t-0.5 -9.5t-0.5 -9.5q-1 -5 0 -27t1 -27q0 -3 -1 -10.5t-1 -11.5q0 -1 1 -4t1 -5t-1 -5t-1 -5 q0 -4 2 -20t0 -19q-1 -1 -4.5 -4t-6.5 -4t-8 0q-14 -4 -22 -3q-5 3 -13 11q-2 31 3 49q0 3 -1 6.5t0 7.5q5 30 5 98q0 3 0.5 8t1 8.5t-0.5 8t-3 8.5q0 3 1.5 7t1.5 7q-1 3 -1 32q0 3 -1 9t-1 8q0 4 1 11.5t1 12.5q0 4 -2 13.5t-3 14.5q-1 12 1.5 37.5t1.5 39.5q0 14 -3 16 q7 12 7 16q-8 49 0 88q-3 13 -0.5 46t-2.5 44q-1 5 1 10.5t2 9.5q-2 4 -7 6.5t-8.5 3.5t-12 2t-10.5 1h-24q-3 0 -11 1t-11 1t-10 -1.5t-10 -1.5q-5 -1 -14 0t-13 1q-1 0 -22 -3q-3 0 -19 5q-6 12 -2.5 23.5t12.5 18.5q9 2 46.5 1t50.5 -1l30 4q36 -5 41 -6q9 2 38 2 q6 0 17.5 1t17.5 1l36 -4q31 0 35 -1q2 -1 7.5 1t6.5 2l1 -1q1 -1 2 -1q36 2 50 -3q2 0 2 -13.5v-16.5z" />
<glyph unicode="U" horiz-adv-x="567" d="M57 693q24 8 36 -3q8 -14 2 -30q9 -19 0 -45q0 -2 1 -14.5t4 -18.5q-2 -13 -2 -40.5v-33.5q0 -50 2 -60q-4 -12 -4.5 -37.5t-0.5 -29.5q0 -5 2 -11.5t2 -7.5q-1 -16 0 -32q-7 -31 -4 -61q0 -2 1.5 -17t-0.5 -18q6 -20 3 -35q1 -3 3.5 -7.5t4 -9.5t0.5 -11l15 -36 q1 -2 15.5 -15t19.5 -22q5 -1 9.5 -4.5t9.5 -8.5t8 -7q4 -3 17 -9t19 -12q9 3 36 -4q8 3 30 0.5t30 -2.5q3 0 10 2t11 2q14 9 25 12q7 4 19 12t17 11l4 2l4 3l10 8q13 13 15 14q1 4 6.5 11.5t6.5 13.5q1 1 13 22q12 36 14 57q-3 10 -1.5 36t0.5 35q5 4 2.5 29.5t-2.5 30.5 q0 3 2 17t-1 16q9 34 2 63q2 29 2 205q0 3 -2 10.5t-1 13.5q8 16 11 17q19 6 38 -6q3 -12 3 -26t-1.5 -32t-1.5 -28v-34q-1 -4 2.5 -9.5t3.5 -8.5q-10 -19 -6 -45q0 -3 2 -9.5t2 -8.5l2 -19q0 -16 1 -18q0 -2 1 -3t1 -2q-1 -4 -3.5 -8.5t-2.5 -7.5q0 -5 -2 -15t-2 -15 q0 -4 1.5 -12t1.5 -12q0 -2 -0.5 -7t-0.5 -8q0 -2 0.5 -8t0.5 -8q0 -4 -2 -14t-1 -16q7 -53 2 -82q2 -5 0 -24.5t-2 -25.5q-8 -20 -9 -34q-1 -3 -6.5 -12t-5.5 -17q-3 -6 -10.5 -14t-9.5 -10q-4 -11 -5 -14q-9 -6 -22 -21.5t-16 -18.5q-19 -6 -33 -20q-6 1 -11.5 -3t-8.5 -4 q-4 -1 -9 -5.5t-7 -5.5q-18 1 -36 -4q-30 0 -37 -3q-6 3 -13 3.5t-16.5 0t-14.5 -0.5q-4 0 -13.5 1.5t-13.5 2t-14 -1.5q-4 -1 -9 4q-2 0 -5 0.5t-5 0.5t-3 1q-13 5 -19 13q-3 1 -8.5 1t-8.5 2q-9 12 -10 16q-2 1 -15 11q-10 5 -15 11q-6 4 -25 25q-2 2 -4 8.5t-2 7.5 q-1 3 -5.5 8t-5.5 9q-3 3 -5.5 9t-4.5 8q2 13 -9 32q1 9 -2.5 22.5t-3.5 18.5v27l3 20q1 2 0 12t-1 12q0 6 0.5 18.5t0.5 19.5q0 4 -1 16.5t0 19.5q0 2 0.5 7t0.5 7q0 48 2 158v26.5t2 25.5q-3 14 -2 47t-1 50q2 2 4 8.5t5 9.5z" />
<glyph unicode="V" horiz-adv-x="574" d="M296 -16q-5 1 -7.5 5.5t-4.5 11.5t-4 10q0 11 -11 31q1 12 -6 21q0 5 -3 12t-3 8q-2 5 -7.5 18.5t-8.5 19.5q1 7 -2.5 17.5t-3.5 15.5q-3 7 -11 19q1 7 -2 14.5t-3 12.5q-6 10 -6 25q-2 9 -10 18q0 8 -2.5 16t-6 18.5l-5.5 16.5q-15 45 -16 47q-1 5 -4.5 14.5t-4.5 16.5 q-1 3 -4.5 8.5t-4.5 9.5q-2 1 -4.5 7.5t-5.5 7.5q1 16 -7.5 35.5t-9.5 29.5q-2 2 -5 8.5t-6 8.5q0 10 2 11q0 2 -5 7.5t-3 11.5q-6 12 -10 18l-3 15t-3 16q-1 2 -5.5 12.5t-8.5 14.5q1 6 -2.5 12.5t-3.5 9.5q-1 2 -2.5 6.5l-2.5 7.5t-3 5q-1 8 -8 19t-8 19q-1 19 17 23.5 t32 -3.5q13 -21 19 -53q3 -5 6.5 -14.5t4.5 -12.5l9 -27q1 -3 4 -8t4 -8l4.5 -13.5l5.5 -16.5l7 -23q3 -8 7 -24q7 -15 14 -35l3 -6l6 -26q3 -6 3 -14l3 -6q10 -26 11 -27q5 -9 11 -30.5t8 -27.5q2 -5 9 -26t13 -29q0 -8 2.5 -15.5t6 -15t4.5 -12.5q0 -9 5.5 -22t5.5 -20 q12 -41 12 -43q2 -4 3 -11t2 -9t2 -6.5t2.5 -7.5t4.5 -4q5 6 16 40q4 14 8 44q8 19 8 22q8 17 8 22q2 2 5 7t5 7q7 29 12 36q0 8 5 21.5t5 15.5q1 3 2 10.5t3 13t6 9.5q2 8 11 30t11 37q9 19 8 27q7 10 16 41l17 40q0 9 2 18.5t4 14.5t7 15t6 13q1 18 24 69q-3 28 15 39 q32 0 35 -1q5 -6 6 -14q0 -9 -5 -21t-6 -16q-9 -23 -9 -36q-2 -1 -3 -3.5t-2.5 -5.5l-2.5 -5q-2 -4 -2 -16l-6 -9q-1 -2 -1 -6.5v-6.5l-10 -20q-1 -3 -2 -7.5t-2 -8.5l-2 -8q-7 -17 -6 -22q-3 -3 -6.5 -10t-5.5 -9q0 -6 -3.5 -16.5t-2.5 -17.5q-1 0 -11 -21q-7 -16 -7 -23 q-10 -11 -18 -43.5t-15 -43.5q0 -10 -6 -25t-6 -25q-6 -8 -12 -27t-10 -26q1 -4 -0.5 -10t-1.5 -8q-12 -26 -14 -45q-4 -5 -7 -12t-6.5 -16t-5.5 -13q0 -6 -2.5 -15t-2.5 -13q-12 -20 -21 -60q-2 -2 -6 -9t-8.5 -10.5t-13.5 -2.5z" />
<glyph unicode="W" horiz-adv-x="1005" d="M730 -1l-12 45q-8 15 -19 29q0 19 -17 53q0 7 -3.5 15.5t-2.5 16.5l-15 23q-1 15 -6 27q-6 14 -20 40q-1 8 -10 31q-3 10 -8 22q-1 1 -1 4v4q-1 2 -3 3.5t-2 2.5q-2 4 -4.5 12t-3.5 11l-6 14q-14 30 -16 33q1 4 -2 12q-6 10 -14 38.5t-17 40.5q2 17 -9 30q0 3 -2 18 q-1 2 -4.5 12t-7.5 14v10q-1 2 -3.5 6t-4.5 6q-5 20 -8 22q-3 0 -4.5 -1.5t-2 -5t-1.5 -4.5v-17q-3 -4 -7.5 -16.5t-8.5 -16.5q-3 -45 -19 -66q0 -2 -1 -8t0 -11q-1 -2 -6.5 -7t-7.5 -10q-2 -2 -2 -14l-10 -10q1 -7 -3 -15t-3 -15q-1 -1 -13 -28l-12 -27q-9 -18 -21 -60 q-13 -31 -14 -39q-11 -14 -13 -29q-3 -2 -6.5 -10t-5.5 -10q-1 -10 -6.5 -25.5t-5.5 -23.5q-4 -5 -9 -16t-8 -15q-1 -11 -6.5 -26t-6.5 -23q0 -5 -4 -8.5t-5 -5.5q0 -4 -3 -9t-3 -9q-5 -2 -10.5 -11t-11.5 -11q-20 4 -23 29q0 2 -2 5t-2 4l-3 9q-1 1 -3.5 8.5t-4.5 10.5 l-8 19q-3 2 -5 8t-5 8q1 7 -1 19q0 2 -5 11q0 3 -3 9v7.5t-1 7.5q-1 1 -1.5 3t-0.5 3q-7 24 -16 35q1 7 -1.5 15.5t-2.5 12.5q-5 7 -10.5 21.5t-8.5 19.5q0 4 -2 11.5t-1 12.5q-2 5 -8 22.5t-11 24.5q0 5 -2 13q-15 38 -22 63l-11 22q0 30 -14 43q0 9 -9 34q-4 21 -13 35 q0 16 -9 30q-2 9 -13 27q-1 10 0 19q-2 5 -6.5 15.5t-6.5 17.5q-5 10 -7 16q-7 11 -7 15q1 6 4.5 9.5t12.5 6.5t12 5q13 1 33 -3q1 -2 0 -9t1 -10q2 -6 9 -15t9 -14q-4 -18 6 -38l3 -4q1 -1 5.5 -12t7.5 -15q-1 -5 0 -12t1 -12q1 -3 3.5 -7.5t3.5 -6.5q0 -22 11 -44l4 -8 l7 -6v-11l9 -18q0 -7 2.5 -16t2.5 -14q3 -4 6.5 -15t7.5 -16q1 -9 6 -24t6 -24q6 -12 10 -17q0 -15 1 -16q4 -8 11 -24.5t11 -24.5q8 -16 10 -56q1 -3 8 -21t8 -30q1 -5 7 -11q0 -12 4 -20q0 -15 6 -19q7 1 10.5 12t5.5 14q1 3 2.5 10t3 12t3.5 8q1 9 10 32q7 24 11 28 q-1 3 0 8t1 8q7 8 15 29t14 29q1 8 7.5 29.5t7.5 35.5q0 1 7 9t9 13l2 8q1 3 4.5 9.5t4.5 9.5q0 3 2.5 8t1.5 9q0 3 1.5 5t3.5 4t3 4q2 11 13 32.5t10 39.5q4 3 8 13t8 13q2 15 11.5 38t12.5 34q3 4 6.5 15.5t7.5 15.5q2 5 6 17.5t6 17.5q0 12 6 24q1 0 5.5 3.5t9.5 2.5 q7 0 10.5 -6.5t6.5 -7.5q6 -18 11 -24q7 -32 18 -49q1 -14 9.5 -32.5t10.5 -28.5q1 -2 5.5 -9t4.5 -13q17 -28 20 -57q1 -4 7 -12.5t7 -14.5q2 -3 8 -7t8 -7q0 -26 12 -68q4 -5 6.5 -16.5t3.5 -14.5t5.5 -13.5t5.5 -16.5q20 -33 23 -38q-2 -16 9 -38t12 -33q1 -2 4 -6 t5 -7.5t3 -7.5q0 -33 16 -60q0 -2 -0.5 -7t0 -8t3.5 -4q3 0 5 2t2 4.5t0.5 6t1.5 5.5q4 9 6 23q7 13 9 36q5 8 11 29.5t11 29.5v12q5 6 9.5 22t7.5 21v14q0 1 2.5 5t1.5 8q1 3 4.5 7.5t4.5 7.5t2.5 9.5t3.5 9.5q1 5 5.5 17.5t5.5 20.5q6 10 10 14q6 25 10 30q0 5 1 12.5 t0 12.5q3 6 9 17t9 17v18l12 18q-1 7 3 15.5t4 15.5q6 8 12 32q1 4 5 9.5t5 7.5q-2 14 11 35q1 6 1.5 14.5t2 15t4.5 12.5q16 16 48 8q8 -5 13 -15q0 -5 -2 -15.5t-1 -18.5q-3 -6 -9 -17.5t-8 -15.5q-5 -22 -8 -25q-4 -18 -8 -25q-14 -49 -14 -52q-2 -2 -5 -8.5t-6 -8.5 q1 -8 -3 -16l-5 -10q-1 -7 -10 -23q0 -3 -2 -11t-1 -15q-8 -12 -17.5 -38t-15.5 -36q0 -7 -3.5 -16.5t-3.5 -14.5q-1 -3 -4.5 -7.5t-4.5 -6.5q-1 -5 -4.5 -15t-5 -18.5t-1.5 -17.5q-12 -23 -14 -33q-1 -1 -2.5 -9t-5.5 -10q1 -6 -0.5 -10.5t-4 -9.5l-3.5 -7q-6 -16 -11 -22 q1 -11 -13 -34q-2 -11 0 -15q-5 -7 -12.5 -28.5t-14.5 -29.5q0 -36 -19 -44q-16 0 -24 4z" />
<glyph unicode="X" horiz-adv-x="478" d="M236 285q-15 -4 -17 -26q-3 -3 -5 -7l-4.5 -9l-3.5 -7t-4.5 -6.5t-5 -9t-1.5 -9.5q-9 -11 -13 -13q0 -12 -1 -14q-1 -1 -3 -2l-2 -1q-1 -1 -3 -7.5t-5 -8.5q-1 -7 -5.5 -18.5t-5.5 -19.5q-1 -4 -6.5 -6t-6.5 -5t-3 -7t-3 -8.5t0 -9.5q-6 -3 -12.5 -14.5t-11.5 -14.5 q1 -3 -1 -6.5t-2 -5.5q-4 -4 -9.5 -13.5t-9.5 -13.5q-15 -22 -19 -27q-12 -4 -27.5 -1.5t-21.5 11.5q0 4 5 17t6 14v18q7 8 21 17q2 4 7 13t7 15q1 5 6 14.5t7 15.5q5 5 13 19q1 3 -0.5 6t-1.5 5q2 5 13.5 14t10.5 21q3 -1 5.5 0t3.5 1q1 2 1 8t2 7q2 4 13 24.5t17 30.5 q0 3 -0.5 7.5t0.5 6.5q3 6 12.5 12.5t11.5 9.5q2 8 12.5 25.5t8.5 29.5q-1 4 -4 9t-8 10t-7 8q-1 1 -2 4t-2 4q0 1 -2.5 2t-3.5 3v2t-1 2t-4 3t-5 4q0 5 -2 9.5t-6 9t-5 6.5q1 3 -0.5 7.5t-1.5 6.5q-11 19 -12 24q-11 15 -16 26q-14 27 -14 29q-3 3 -7 9.5t-6 9.5q0 8 -3 14 q-2 5 -14 17q-1 2 -4.5 11t-6.5 13q-1 4 -5.5 10t-5.5 12q-1 2 -11 9q2 11 -6 20t-8 17q0 5 12 17q35 4 47 -8q11 -22 21 -31v-11q0 -4 5 -9t4 -10q4 -4 10 -18q6 -9 14 -17q1 -6 7 -14.5t7 -10.5t6 -11t8 -13q0 -5 3 -11.5t2 -12.5q9 -15 25 -45l13 -22q1 -2 3 -7.5t4 -9 t6 -5.5h14q7 2 13 14.5t7 13.5q1 8 6.5 20t6.5 15q13 13 17 28q5 4 13 14q1 5 6.5 19t7.5 23q12 13 28 42.5t19 33.5q-1 4 1 8t2 8q3 2 18 25q32 9 50 -3q0 -4 3 -6q2 -14 -14 -30q-1 -9 -12 -22q-1 -6 -6.5 -16t-6.5 -18q-6 -6 -9 -14q-1 -5 -4.5 -12t-3.5 -11 q-2 -3 -8 -8.5t-8 -9.5l-1 -1q0 -1 -1 -2t-2.5 -4.5t-3.5 -8.5t-3 -7q-6 -12 -11 -16q0 -3 -2 -7.5t-1 -8.5q-3 -2 -8 -8.5t-8 -8.5q-2 -8 -10.5 -20.5t-10.5 -21.5q-4 -4 -8 -9.5t-8 -12.5t-6 -10q-15 -21 -19 -31q2 -13 12 -32.5t12 -26.5q1 -2 12 -20t18 -26q3 -9 3 -11 q4 -4 9.5 -14t9.5 -14q1 -8 7 -17.5t8 -14.5q1 -2 9.5 -10t11.5 -13q1 -3 1.5 -12t1.5 -12q3 -9 13 -24.5t12 -19.5q4 -3 9.5 -12t7.5 -12q0 -1 1 -7t2 -9q2 -4 7.5 -8t7.5 -7q-1 -7 0 -17t1 -15q-4 -2 -9 -9q-8 -1 -38 4q-6 7 -13 13q0 4 -1 7t-2.5 7t-2.5 6q-7 12 -19 23 q-1 9 -9.5 20t-9.5 19q-2 3 -7 10t-7 10q1 6 -1.5 12.5t-2.5 11.5q-1 3 -6 8t-5 11q-10 14 -15 18q2 5 0 9q-7 13 -11 24q-7 10 -11 20q-1 3 -5.5 6t-5.5 5q-2 14 -4 18q-1 2 -4 7.5t-4 9.5q-1 1 -5 6.5t-8 6.5z" />
<glyph unicode="Y" horiz-adv-x="537" d="M306 5q-2 -1 -12.5 -6.5t-17.5 -6.5q-19 0 -27 8q-5 10 -6 11q1 7 5 24q0 3 -2.5 12.5t-3 14.5t0 12.5t3.5 12.5q0 1 -2 11t-4 14q2 4 3 16t4 16q-2 10 1 25q-1 5 -2 21.5t-3 25.5q1 3 3 8t2 8q0 10 -1.5 28t-1.5 24q-3 4 -5 15t-4 15q-1 4 -6.5 8.5t-6.5 5.5l-11 16 q-1 2 -2 8t-1 7q-1 5 -7 9t-7 7q-2 12 -2 14q-1 3 -6 8.5t-6 9.5q-7 14 -11 17q-13 24 -25 35q1 4 -1.5 8.5t-2.5 7.5q-1 3 -8 12t-9 17q-2 3 -7 7t-6 6q-2 6 -17 34q-1 2 -4.5 6.5t-4.5 7.5q-2 5 -11 12q-2 9 -9.5 21t-8.5 20q-3 3 -10 14t-12 16q0 5 -5 13.5t-3 13.5 q1 5 4.5 8t12 6t10.5 4q23 -5 36 -13l16 -36q2 -4 7.5 -8.5t6.5 -6.5q0 -3 5 -6l6 -18q10 -13 16 -30q1 -2 9 -13.5t10 -19.5q5 -5 9 -15q3 -2 4.5 -9t3.5 -9q3 -3 6 -9l4 -8q4 -8 11 -14q2 -3 8.5 -14t11.5 -16q0 -8 2 -10q1 -3 5 -8t6 -9q1 -2 4 -5l4.5 -4.5t3.5 -5 t2 -6.5q2 -2 0.5 -8t-0.5 -10t4.5 -8t4.5 -7q6 -8 13 -9q7 0 11 11q12 15 22 41q4 5 12.5 20t14.5 21q3 9 12 24t10 18q2 4 6 11.5t5 11.5q4 6 10 22l14 15q4 14 14 24q0 4 5 14q0 4 2.5 6t6 4t5.5 4q1 9 8 23t8 24q24 36 48 43q24 -5 32 -21q0 -5 -1 -9t-3.5 -8.5 t-3.5 -7.5q0 -1 -4.5 -7.5t-4.5 -12.5q-1 -1 -3 -2t-3.5 -2t-2.5 -2l-2 -2q-5 -21 -16 -27q0 -4 -2 -8t-1 -8l-14 -16q-1 -4 -3.5 -10t-3.5 -9q-14 -19 -26 -41q-3 -8 -11.5 -22.5t-11.5 -22.5q-5 -4 -13 -16.5t-15 -16.5q0 -4 -1 -6.5t-2.5 -5.5l-2.5 -5q-12 -12 -15 -21 q-9 -10 -11 -22q-3 -2 -7 -8.5t-5 -7.5q-1 -2 -0.5 -4.5t0.5 -5t-2 -2.5q-3 -6 -15 -15.5t-15 -17.5q-2 -49 3 -79q-3 -10 -3 -21t1.5 -25t1.5 -22q0 -10 -5 -42q0 -13 0.5 -27t1.5 -31.5t1 -27.5q7 -19 8 -23z" />
<glyph unicode="Z" horiz-adv-x="550" d="M495 8q-15 -13 -48.5 -14.5t-58.5 2.5q-3 -1 -7.5 -3t-6.5 -2q-9 3 -26.5 3t-24.5 2q-15 -1 -52.5 0.5t-56.5 0.5h-66q-1 0 -5 -0.5t-6 -0.5t-5 1t-4 1q-9 0 -30 -2t-35 -1q-2 0 -5 0.5t-4 0.5q-2 0 -4.5 -1t-3.5 0q-19 2 -26 15q1 5 5 18q2 5 9.5 9t9.5 8q3 4 4.5 11.5 t3.5 10.5q1 2 5 7.5t6 8.5l4 8t5 9q1 2 4.5 5t5.5 6q8 16 15 21q20 39 42 62l6 18q4 10 10 12q2 1 3.5 6.5t4.5 6.5q3 9 11 17l6 13l6 9l4 2q4 9 9 17q4 6 14 18q0 4 4 11t4 12q6 4 13.5 16.5t10.5 15.5q9 18 9 19q8 7 11 15q1 2 9.5 15.5t13.5 19.5q2 3 9.5 15t13.5 17 q3 11 15 30t15 30q21 17 30 45q1 2 5 5t5 5l6 12q1 2 10.5 15t11.5 22q-2 6 -27 6q-20 -2 -31 -2q-4 0 -10 -1.5t-8 -1.5h-74q-4 0 -13.5 -3t-14.5 -3q-2 0 -6 0.5t-7 0.5q-4 2 -6 2q-24 0 -28 2q-13 -4 -41 -2q-25 -5 -51 4q-3 1 -14.5 1.5t-15.5 2.5q-9 17 -8 26 q2 17 8 23q9 3 44 1.5t46 -1.5q27 3 134 5q6 0 19.5 -1.5t21.5 -0.5q6 0 16 1.5t15 1.5q3 0 9.5 -0.5t9.5 -0.5q8 -1 25 0t25 1q4 -1 9 -3t8 -2h23t21 -2q12 -12 13 -19q-1 -10 -11.5 -20t-12.5 -13q-1 -5 -5 -13t-5 -13q-17 -15 -22 -34q-6 -4 -15 -15l-4 -16 q-2 -1 -5.5 -6.5t-6.5 -5.5q-6 -8 -8 -19q-5 -3 -11 -11t-8 -10l-6 -17q-2 -5 -9 -12t-9 -10q-2 -5 -7 -13t-7 -12l-5 -7l-3 -6q-1 -1 -5 -4t-5 -5q-2 -2 -7 -15q-5 -10 -5 -14l-16 -17q-1 -10 -11 -21t-11 -20q-6 -3 -13 -13.5t-11 -13.5q-1 -2 -2 -8t-2 -8q-1 0 -2 -0.5 t-2 -0.5q-1 -4 -6 -10l-5 -9l-4 -8q-1 -1 -1 -2q-1 -2 -1 -3q-2 -3 -7 -8t-7 -8q-1 -1 -6 -14q-10 -17 -11 -22q-3 -2 -8 -7t-8 -7q-2 -7 -9.5 -17t-9.5 -18q-1 -1 -3.5 -4t-5 -5.5t-5.5 -4.5q-1 -10 -13 -12q-2 -6 -9 -14t-9 -13q-1 -2 -6 -7t-7.5 -9.5t-3.5 -10.5 q0 -4 11 -14q3 0 9 1t10 0q8 1 26 1t26 1q2 0 4.5 1.5t3.5 1.5q3 1 12 1t13 2q5 -1 16 -2t16 -2q4 -1 8.5 1t8.5 2q25 -5 44 3q27 -2 77.5 -3.5t61.5 -1.5q4 0 12 3.5t15 2.5q15 -1 20 -18.5t-3 -33.5z" />
<glyph unicode="[" horiz-adv-x="307" d="M223 7q-5 -1 -14 -2t-14 -3q-8 3 -27 3h-4q-14 0 -19 -1q-6 -1 -15.5 0t-11.5 1q-15 0 -20 11q-2 3 2 7t2 9q1 6 -3 17q2 27 -1 41q3 9 3 11q0 91 1 134q0 1 -0.5 3t-0.5 3v31v34.5t-2 34.5q2 0 2 26v30q0 41 -2 49q1 2 1.5 6.5t1.5 6.5q0 1 -3 28q0 2 1 4.5t1 4.5 q0 1 -1 3t-1 3l2 78q-2 10 -2 62q6 6 30 6q29 2 62 0q23 6 35 -3l2 -19q0 -15 1 -22q-5 -11 -34 -13q-24 6 -41 6q-4 -6 -4 -25v-108q0 -6 1 -19.5t1 -20.5q-1 -49 0 -107v-59q0 -8 0.5 -23t0.5 -22q0 -3 -0.5 -10t-0.5 -11v-27v-10v-24q0 -4 0.5 -10t0.5 -9l-1 -27 q-2 -27 1 -27q7 -3 17 3q5 -2 16 -2h13q20 5 28 -3q2 -2 2 -21q2 -24 -6 -28z" />
<glyph unicode="\" horiz-adv-x="390" d="M257 202q-1 -1 -0.5 -2.5t2 -3.5t2.5 -3.5t1 -2.5q7 -22 16 -43.5t24 -53t21 -45.5q1 -4 6 -9t7 -10q4 -16 25 -69q23 -30 14 -42q-13 -4 -22 -5t-14.5 4.5t-7.5 9t-6.5 17.5t-6.5 20q-1 5 -20 50q-20 54 -37 88l-6 15q-2 5 -7.5 17t-8.5 19q-1 1 -11.5 27.5t-20.5 47.5 t-15 25l-3 15q-2 8 -10 24t-9 25q-7 9 -13.5 25.5t-10.5 23.5q-4 17 -13 37.5t-22 47t-17 36.5q-7 20 -28.5 64.5t-25.5 56.5q-12 18 -16 34l-6 10q-7 9 -9 14v8v5t1.5 2.5t4.5 1.5h9q21 -1 27 -7q2 -3 7 -9q5 -4 6 -11.5t2 -8.5q3 -3 4 -10.5t2 -10.5q21 -49 23 -54 q1 -4 5 -9t6 -8q3 -12 17 -43q1 -1 0 -2t0 -2q15 -28 16 -35q4 -9 9 -19.5t10 -24t9 -21.5l8 -22q1 -3 6 -10t6 -10q5 -10 11.5 -27t7.5 -20q15 -38 23 -50z" />
<glyph unicode="]" horiz-adv-x="265" d="M171 18q-6 -7 -12 -10q-6 -1 -16 -5q-13 2 -85 -3q-2 1 -9 4t-9 6q-2 2 -2 11v36q1 3 11 10q6 2 20 0.5t20 -0.5q2 0 9 -2.5t13 -1.5q7 3 5 13q-1 12 -0.5 46t-2.5 45q0 4 0.5 6.5t1.5 5.5t1 5q-1 7 -1 71q0 4 -0.5 12.5t-0.5 12.5q0 39 1 56q0 6 0.5 17t0.5 16t-1 15 t-1 15t0.5 13t0.5 13q0 4 -0.5 11.5t-0.5 12.5q0 6 0.5 19.5t0.5 20.5q0 3 -0.5 10t-0.5 10q0 4 0.5 10.5t0.5 9.5q-2 10 -2 14q-1 5 0 11.5t1 9.5v36q-26 0 -31 -2h-10t-11 -1q-7 -1 -19 5q-3 2 -5 9.5t-3 8.5q5 31 6 32q5 4 18 4.5t15 0.5q6 -3 15 -3q4 0 22 3q6 0 16 -2 q2 -1 10 2q10 -3 14 -2q3 0 13 -3q4 -4 4 -29q-3 -32 -1 -123q0 -8 -1 -25.5t-1 -26.5q0 -25 2 -55v-6v-193q0 -4 0.5 -13t0.5 -14q0 -4 -0.5 -12t-0.5 -13q0 -8 0.5 -24.5t0.5 -24.5q0 -53 3 -64v-11z" />
<glyph unicode="^" horiz-adv-x="498" d="M275 611q-14 -1 -23 -16q-2 -4 -8.5 -11t-7.5 -12q-6 -2 -16 -10t-16 -11q-18 -29 -31 -33q-5 0 -9.5 4t-6.5 4q-10 8 -11 13q-1 6 1 11t7 11.5t6 7.5l11 11l13 9q19 19 23 21q2 3 10.5 10t10.5 13q10 5 11 5q1 2 6 9t7 12q2 1 8.5 3.5t11.5 3.5q2 0 3 -1t3 0 q4 0 6.5 -1.5t5.5 -5t4 -4.5l17 -18l4 -3q6 -8 9 -11q8 -5 10 -9q3 0 7 -3t7 -3q3 -7 12.5 -16t12.5 -14q16 -11 17 -11q1 -4 3.5 -7t5.5 -6.5t4 -5.5q-2 -18 -32 -24q-9 1 -15.5 6.5t-13 13.5t-10.5 11q-5 7 -38 32q-2 3 -5 9.5t-6 10.5t-8 5z" />
<glyph unicode="_" horiz-adv-x="576" d="M559 -4q-17 -9 -42 -5q-8 2 -40.5 2t-66.5 -1t-65 -2t-33 -1q-1 0 -55 1t-67 0q-11 -1 -33 -1h-8q-2 -1 -12 -2q-7 0 -37.5 0.5t-34.5 -0.5q-58 -9 -59 8q-1 5 2 13.5t3 9.5q1 3 0 5t0 3t2.5 1.5l7.5 2.5q2 2 11 2t17.5 -0.5t15.5 0.5q6 0 36.5 -0.5t43.5 0.5 q45 3 97.5 0.5t77.5 -1.5q26 2 109 2q7 0 20.5 -0.5t18.5 -0.5q13 0 43.5 0.5t41.5 -0.5q9 -2 9 -3q0 -2 2 -4q1 -2 4 -7.5t3 -8t-4 -7.5q-2 -5 -8 -6z" />
<glyph unicode="`" horiz-adv-x="498" d="M147 633q-1 9 3.5 19.5t4.5 12.5q2 1 14 8q13 5 16 4q5 -1 11 -6.5t10 -7.5q2 -6 10 -16.5t10 -17.5q3 -4 9.5 -11.5t9.5 -12.5q2 -2 6.5 -7t7 -9t3.5 -9q3 -3 11.5 -10t13 -13t5.5 -15q0 -11 -17 -16q-2 -1 -3 -1q-2 1 -9.5 4t-12.5 3q-3 6 -15.5 16t-14.5 19 q-4 3 -10.5 8t-10.5 8q0 1 -2 4.5t-2 6.5q-21 18 -22 20q-12 3 -26 19z" />
<glyph unicode="a" horiz-adv-x="486" d="M401 8q0 5 2.5 27.5t-0.5 28.5q-8 -1 -13 -5.5t-10 -12l-7 -10.5q-5 -3 -13 -9.5t-12 -9.5q-2 -1 -8 -1.5t-8 -1.5q-18 -12 -24 -14q-9 -3 -31.5 -5t-31.5 -5q-16 4 -23 0q-14 6 -32 5q-24 5 -30 5q-1 2 -8 3.5t-9 4.5q-2 0 -7.5 3t-9.5 3q-2 1 -5 4.5t-5 4.5 q-1 3 -6 4.5t-6 2.5q-2 4 -10 11t-11 11q-1 1 -8 9t-11 13q-2 8 -9 23t-8 26q-1 5 -6.5 10t-6.5 10q2 9 0 40q0 31 -1 34q1 3 2 10.5t2 10.5q0 15 2.5 29t6.5 29.5t6 24.5q4 5 10.5 16.5t11.5 16.5q5 9 23 30q13 8 46 37q23 6 25 6q39 17 112 9q24 -5 33 -4q4 -4 13.5 -8.5 t13.5 -7.5q19 -12 27 -14q3 -3 7.5 -12t9 -14t11.5 -7q6 5 6 31q0 4 -0.5 14.5t0.5 12.5q7 7 20 6.5t20 -6.5q3 -7 4 -27t2 -25q0 -2 -0.5 -5.5t-1 -6t-1.5 -4.5q6 -29 -2 -53q2 -21 2.5 -75.5t4.5 -84.5q0 -3 -2 -8t-1 -9q0 -39 -2 -46q1 -3 1.5 -9t1.5 -11t3 -8 q-1 -3 0 -20t-3 -21q-1 -4 -19 -14q-24 5 -27 8zM406 254q-7 25 -8 33q-8 9 -12 26q-2 3 -5 7t-5 6q0 4 -4 7.5t-4 6.5l-25 24q-13 5 -14 6q-3 0 -6 3.5t-7 4.5q-12 4 -20 3q-5 7 -19 9t-27.5 1t-26.5 1q-5 -1 -11 -5.5t-11 -5.5q-4 1 -10 0t-7 -1q-30 -20 -36 -22 q-13 -16 -24 -22q-1 -6 -16 -21q-2 -13 -17 -38q-1 -5 -7.5 -35t-3.5 -45q4 -31 5 -40q4 -7 8 -23q7 -9 14 -27q5 -4 13 -12.5t12 -11.5l6 -3l11 -9q21 -16 54 -26q6 -1 71 -1q14 4 22 3q6 6 17 6q12 11 24 13q7 7 21 19.5t21 19.5q5 15 13 22q1 7 5.5 18t5.5 17q4 45 3 92z " />
<glyph unicode="b" horiz-adv-x="510" d="M112 64q-3 -4 -1.5 -14t-0.5 -14q3 -23 0 -25q1 -3 -3.5 -4.5t-5.5 -2.5q-7 -3 -19 -2.5t-16 6.5q-3 7 2 30q0 4 -4 9t-4 10q2 20 6 28q-1 8 -1.5 36t-3.5 41q3 13 2.5 41.5t2.5 42.5q0 4 -2.5 10.5t-2.5 9.5q1 13 1 44.5t2 47.5q-3 16 -4 20q0 3 2 10t2 11t-0.5 9 t-1.5 11.5t-1 10.5q0 7 1 19.5t0.5 21.5t-4.5 16q0 4 2 8t1 8q-2 14 -1 47.5t-2 45.5q4 3 2.5 29.5t-0.5 34.5q0 3 0.5 9t0.5 9q0 2 -2.5 22t1.5 22q-4 11 -4 29.5t5 28.5q23 14 43 8q4 -4 4.5 -8.5t-0.5 -11t-1 -8.5q0 -99 2 -150q0 -2 -1 -6t-1 -7q0 -36 -3 -44 q4 -10 3 -29.5t2 -28.5q-1 -12 -5 -27q2 -12 0 -51.5t6 -44.5q4 0 7 1.5t6 5.5t4 5q4 1 9 6.5t7 6.5l16 14q4 1 6 3t4.5 6t3.5 5q6 0 10.5 1.5t9.5 5t7 4.5q5 1 21 4.5t25 3.5q3 1 10.5 0t9.5 -1q3 0 10.5 1t11.5 0q8 0 22 -3t21 -3l45 -22q2 -3 29 -22q8 -11 20 -21 q8 -12 13 -17q1 -2 4.5 -9.5t6.5 -9.5q4 -8 8.5 -25.5t5.5 -20.5q0 -22 5 -41q0 -38 3 -44q2 -35 -8 -53q2 -4 0.5 -12.5t-1.5 -13.5q-1 -3 -3.5 -7.5t-4 -8.5t-0.5 -10q-7 -5 -11 -19q-7 -4 -10 -13q-3 -1 -5 -2.5t-3.5 -3l-3.5 -3.5t-4 -3q-10 -8 -14 -13q-5 -3 -14.5 -12 t-15.5 -12q-4 -2 -16 -4.5t-18 -7.5q-16 1 -29 -5q-13 -3 -53.5 -2t-53.5 0q-4 -1 -6 2t-3 3q-2 3 -5.5 1t-4.5 1q-3 1 -10.5 5.5t-12.5 5.5q-21 21 -29 25q-1 1 -2.5 4t-2.5 4.5t-2.5 3.5t-3.5 3.5l-4 3t-5 1.5zM416 287l-24 45q-3 3 -9 6t-8 5q-1 5 -5.5 10.5t-5.5 7.5 l-51 27q-11 2 -41 4q-3 0 -7 -2.5t-8 -1.5h-32l-15 -6t-17 -7.5t-12 -7.5l-39 -27q-3 -6 -7 -12t-9.5 -12.5t-7.5 -9.5q0 -6 -4 -18t-4 -20q-8 -30 -6 -68l6 -39q12 -27 13 -35q9 -9 12 -22q3 -3 9 -5t7 -3q3 -2 9 -9.5t12 -9.5q8 -8 12 -9t15.5 -6t20.5 -8t18 -4q4 0 12 1 t13 1q4 0 12 -1t12 -1q8 0 23 5t22 5q1 1 26 12q2 2 5 8t6 8q6 4 15.5 12.5t14.5 12.5q1 9 15 32q12 65 13 86q0 2 -2 2q0 8 -5.5 24.5t-3.5 29.5z" />
<glyph unicode="c" horiz-adv-x="438" d="M390 356q-12 0 -20.5 4.5t-17 12t-14.5 10.5q-35 3 -52 12q-9 -2 -22.5 2.5t-17.5 4.5q-13 -3 -23 -11q-7 0 -17 -3.5t-16 -3.5q-3 -2 -9 -5.5t-11 -6t-10 -3.5q-5 -4 -17 -15.5t-20 -16.5q-5 -7 -14 -23t-14 -23q0 -3 -8 -26q-7 -25 -5 -45l4 -12l-2 -6q0 -1 2 -7 q3 -26 20 -53q4 -8 13 -19t12 -16q8 -4 18 -13q0 -1 1.5 -1.5t3.5 -1t3 -1.5q1 -2 11 -7l1 -3q16 -6 17 -8q3 -2 10.5 -4.5t10.5 -4.5q2 0 13.5 -1.5t16.5 -3.5q10 3 28 -1q15 3 33 3q2 1 26 9q9 5 20 16q4 0 17 5q5 2 13 10.5t16 9.5q8 -3 11 -15.5t1 -25.5q0 -3 -3.5 -8.5 t-2.5 -8.5q-7 -8 -25 -18t-24 -15q-16 -5 -19 -7q-67 -7 -126 -1q-17 4 -25 5q-2 2 -11.5 5t-12.5 7q-5 1 -13 5t-12 5q-12 17 -12 19q-12 6 -16 11q-17 30 -22 34q-2 9 -13 16q-7 14 -11 16q1 6 -0.5 10t-4.5 8t-4 7q0 9 -3 27.5t-3 31.5t6 25q0 17 15 85q1 3 6.5 8.5 t6.5 10.5q1 3 5.5 9.5t5.5 10.5q6 4 14.5 14t13.5 14q6 4 13.5 13.5t15.5 15t20 6.5q14 8 22 11q30 6 100 10q7 -2 27 -6t29 -7q38 -17 46 -24q1 -1 8 -14l3 -8q1 -1 3 -2l2 -2q5 -23 -11 -32z" />
<glyph unicode="d" horiz-adv-x="511" d="M440 22q-8 -6 -23 -6t-19 9q-1 4 -0.5 6.5t2 7.5t1.5 8q0 15 -3 25q-5 0 -7.5 -6.5t-3.5 -7.5q-7 -2 -14 -12t-13 -12l-6 -6t-7 -6q-27 -6 -35 -11q-6 1 -17 -1t-17 -1q-23 -8 -51 -5q-4 1 -6 0.5t-4.5 -2t-4.5 -1.5q-5 3 -18.5 4.5t-16.5 2.5q-5 1 -14.5 4t-15.5 4 q-18 10 -28 14q-2 0 -4 4t-4 5q-1 2 -4 4.5t-4 5.5q-4 1 -7 3.5t-6 6t-5 5.5t-13.5 16t-19.5 19q-17 7 -18.5 104t7.5 109q1 5 5.5 13.5t5.5 13.5q2 5 7 12.5t6 12.5q12 9 33 41q9 6 24.5 18.5t22.5 17.5q30 9 37 13q18 -1 53 -0.5t51 0.5q3 -1 10.5 -5t13.5 -6t13 -2 q1 -3 8 -7t8 -7q2 -3 9 -7t9 -6q2 -3 8.5 -9.5t9.5 -10.5q2 -1 5 -5t5 -5q7 -8 9 -6q5 9 6 21.5t-0.5 32t-1.5 26.5q0 4 0.5 13t0.5 14t-0.5 13t-0.5 13q0 37 -2 48q-1 6 1 12.5t2 9.5q1 5 -1 12t-2 11q2 27 2 81q-2 16 -2 23q0 6 1.5 20t0.5 22q0 6 -3.5 18.5t-3.5 19.5 q5 5 5 8q5 6 20 6q13 2 19 -3q15 -13 5 -47v-32q0 -8 1.5 -24t1.5 -25v-11q2 -17 0 -38q0 -8 -1.5 -23t-1.5 -22q0 -9 2.5 -24t2.5 -22q0 -3 -1 -9t-1 -10q0 -8 1 -23t1 -23q0 -7 -1.5 -23t-1.5 -24q0 -9 1 -24.5t0.5 -27t-4.5 -20.5q0 -1 1.5 -24.5t1.5 -34.5q0 -4 -1 -10 t-1 -9q0 -6 1 -18.5t1 -19.5q-1 -28 0 -56v-59t4 -72q-1 -2 -2 -11t-4 -11zM394 291q-7 14 -7 19q-9 14 -10 19q-5 4 -13 14q-2 1 -8.5 5t-11.5 5q-3 7 -8 12q-9 4 -23.5 13.5t-18.5 12.5q-6 1 -25.5 2t-28.5 6q-4 -2 -32 -2q-4 -1 -11.5 -4t-11.5 -4q-9 -5 -24 -9 q-8 -12 -17 -13q-1 -4 -4.5 -7.5t-9 -6.5t-7.5 -5q-1 -1 -2 -3t-2 -3q-5 -5 -11 -13q-5 -5 -5 -8q-16 -30 -22 -63q1 -12 -3 -30q3 -42 3 -44q0 -1 2.5 -9.5t1.5 -15.5q8 -9 13 -27q7 -8 21.5 -23t21.5 -23q8 -1 28 -17q7 -1 17 -4.5t15 -4.5q51 -4 75 -2q11 5 19 10 q8 1 14.5 2.5t13.5 5t10.5 6t11 7.5l10.5 7q1 2 4.5 8t4.5 9q9 4 16 13q2 8 8 20t8 18q4 32 8 44v17.5t-2 15.5q0 6 -8 50z" />
<glyph unicode="e" horiz-adv-x="472" d="M428 225q-26 -1 -79 -1q-24 0 -27 -2q-13 2 -19.5 2t-20.5 -2t-20 -2t-18 1t-18 1q-3 0 -8.5 -1t-7.5 -1q-5 0 -17 2t-18 2q-5 0 -14 -2t-11 -2q-9 0 -29.5 2.5t-31.5 1.5q-10 -7 -1 -32.5t9 -34.5q1 -4 6.5 -10t7.5 -9q2 -4 4 -15q16 -15 26 -30q24 -17 42 -25 q15 0 30 -5q26 0 36 -3q25 0 43 6q14 5 38 19q3 1 9.5 6t10.5 7q16 23 22 29q6 23 19 37q24 -3 37 -16q2 -11 -11 -44q-3 -4 -14.5 -14.5t-14.5 -18.5q0 -8 -11.5 -21t-18.5 -14q-4 -2 -14.5 -7t-16.5 -7.5t-16.5 -4.5t-21.5 -1q-3 0 -8.5 -2.5t-9.5 -2.5q-9 1 -48.5 1.5 t-55.5 6.5q-3 0 -6.5 4t-5.5 5l-7 3.5t-7 4.5q-6 2 -15.5 7.5t-14.5 6.5q-2 2 -8.5 8t-8.5 8.5t-7 8.5t-7.5 10.5t-5.5 10.5t-4 13q-1 1 -11 14q-1 9 -16 41q0 7 -2.5 22t-2.5 23l3 30l2 33q0 2 1.5 4.5t1.5 3.5q1 5 1.5 17t1.5 16q2 8 7.5 20t6.5 15q1 2 8 13.5t10 18.5 q8 7 45 47q24 12 27 16q55 12 59 12q50 0 100 -11q3 -3 8 -5.5t11 -4.5t10 -4q26 -26 35 -31q14 -20 23 -27q2 -8 14 -24q1 -7 6.5 -23.5t6.5 -26.5v-13q0 -2 1 -7.5t0 -8.5t-4 -6q0 -3 3 -5t3 -4q2 -1 2 -5.5t1 -5.5q1 -11 -4 -18zM374 282q7 9 6 14.5t-5.5 16.5t-3.5 18 q-1 2 -5 5l-5 3q-1 1 -1 2v2q-14 16 -16 26q-9 8 -17 17q-3 1 -19.5 8t-24.5 12q-39 5 -45 7q-18 -5 -44 -7q-32 -13 -38 -15q-4 -2 -10 -10t-9 -9q-1 -1 -3 -1t-3 -1q-2 -2 -9 -12q-2 -2 -4 -6.5t-3 -6.5q-1 -1 -5 -6.5t-4 -9.5q-3 -2 -17 -34q-2 -11 1 -18q0 -1 -2 -7.5 t1 -6.5q9 -1 35.5 2.5t38.5 -0.5q7 2 23 3t22 3q3 0 7.5 -3t8.5 -2q9 4 43 6q2 0 5.5 -2t6.5 -1q6 1 18.5 1t19.5 2q2 -1 29 -1q2 0 9 -3t13 -2q4 3 6 16z" />
<glyph unicode="f" horiz-adv-x="228" d="M204 752q-1 -2 -20.5 -2h-22.5q-7 -2 -28 -19q-1 -5 -5.5 -14t-5.5 -16q0 -4 1 -14.5t0.5 -17.5t-3.5 -12q4 -8 3.5 -33.5t3.5 -34.5q-3 -4 -3 -7.5t1.5 -9t1.5 -8.5q-1 -4 -3 -10t-2 -10v-30q0 -3 1 -11t0 -13q0 -4 -1 -16t0 -19.5t5 -14.5q3 -2 11 -2.5t11 -2.5 q2 0 7.5 2t9.5 3h19q1 -2 9 -7q4 -6 4 -17t-4 -17q-1 -1 -3 -2t-3 -2t-3.5 -1.5t-5.5 0.5q-5 0 -15.5 0.5t-16 0.5t-12.5 -1.5t-12 -5.5q-2 -13 -0.5 -41t-2.5 -38q2 -77 0 -249q0 -2 4.5 -16.5t2.5 -23.5q-5 -7 -20 -8.5t-25 2.5q-10 14 2 50v26q0 9 -1.5 28.5t-1.5 29.5 t1.5 78.5t-0.5 77.5v47q2 31 -9 41q-5 0 -17.5 -1.5t-15.5 1.5q-9 6 -7.5 20.5t9.5 20.5q6 4 15 0.5t13 -0.5q11 2 9 27q1 17 0 66t2 66q-8 29 -2 46q0 7 0.5 20.5t0 24t-3.5 17.5q6 24 6 39q2 4 6 10.5t7 12t5 10.5q5 7 12.5 12t20 11.5t16.5 8.5q33 2 52 1q9 -6 10.5 -26 t-7.5 -27z" />
<glyph unicode="g" horiz-adv-x="497" d="M428 -167q-23 -6 -64.5 -6t-62.5 -1q-4 1 -9.5 3t-8.5 2h-74q-17 0 -20 2q-5 0 -38 -3.5t-38 0.5h-10.5t-11.5 1q-1 0 -3 2.5t-3 2.5h-4t-4 1q-3 2 -4.5 9.5t0.5 8.5q2 2 2 3q-1 6 1.5 8.5t3.5 4.5q1 1 11 8q9 3 34.5 0.5t36.5 1.5q32 -5 150 -3q15 -5 70 4q2 0 1 9t1 9 q9 115 3 130q-1 5 -0.5 18t0 26t-1.5 12q-2 -1 -10 -10t-10 -12t-7 -7.5t-7 -6.5q-23 -13 -41 -26q-21 -7 -69 -15q-13 1 -49 1q-11 2 -30 7t-28 7q-25 15 -30 16q-16 17 -49 40q-4 22 -18 33q0 8 -3.5 17.5t-4.5 12.5q-5 26 -8 29q1 3 1 12.5t2 12.5q-3 6 -1.5 27t0.5 28 q2 6 12 26q0 42 7 52q6 29 11 37q3 5 11.5 12t10.5 10q1 1 1 2q1 2 1 3q2 3 9 8.5t10 8.5q13 10 26 17q4 1 14 6t18 5q23 19 46 8q42 12 118 -11q15 -10 19 -11q9 -11 20 -20q2 -2 6.5 -10.5t9.5 -10.5q7 1 10 35v8t0.5 8.5t1 7.5t2.5 6q16 7 22 6q4 0 6.5 -2t4 -6t3.5 -6 q5 -68 3 -165q0 -13 2 -37t2 -31v-101q4 -43 0 -71q3 -10 2.5 -26.5t-2.5 -41t-2 -25.5q0 -4 1 -12t1 -12l-4 -20q1 -5 1 -55q-1 -2 0.5 -5t0.5 -6zM386 271q-18 54 -19 63q-6 5 -15 17t-13 16q-24 16 -26 18q-3 0 -8 2t-9 1q-12 10 -20 12q-5 1 -17.5 1t-19.5 3 q-4 0 -8 -2.5t-7 -2.5q-4 3 -24 3q-26 -8 -40 -11q-6 -6 -33 -19q-2 -2 -11 -13t-15 -15q-1 -14 -4 -23.5t-8 -18.5t-6 -11q-1 -4 -4 -9t-4 -8q-6 -39 -6 -66q5 -29 5 -33q5 -5 11 -29q13 -20 14 -25q3 -2 15 -25q20 -9 22 -12q5 1 8.5 -1t7 -5.5t6.5 -4.5q5 0 13.5 -6.5 t15.5 -5.5q3 -2 7.5 0t7.5 1q31 -2 49 -1q7 3 24 3t23 3q17 13 25 16q9 13 17 13q2 4 6.5 12.5t9.5 15.5q2 2 6 7.5t6 8.5q2 4 6 10t5 9q4 10 6 22.5t3 28.5t2 23q0 2 -1 2l-2 13q-2 14 -1 23z" />
<glyph unicode="h" horiz-adv-x="463" d="M398 23q-11 -5 -25 -4q-22 0 -25 4q-4 2 -0.5 13t3.5 13q0 6 1.5 33t-2.5 30q0 3 0.5 5.5t1.5 6t1 5.5q-12 27 -2 62q-2 89 -5 141l-3 9t-4 9q-1 2 -8.5 9t-9.5 13q-13 1 -27 12.5t-22 14.5q-6 1 -12.5 -2t-9.5 -3q-9 1 -20 -6q-10 2 -35 -7q-7 -4 -17 -14.5t-14 -13.5 q-3 -6 -17.5 -29.5t-17.5 -39.5q0 -12 -1 -49t0 -60.5t4 -45.5q0 -13 -3 -27q5 -38 5 -47q0 -2 1.5 -8t2 -9t0 -7.5t-3.5 -7.5q-9 -4 -24 -2.5t-24 6.5q-1 5 -0.5 7.5t2 8t1.5 7.5v82q0 5 -0.5 15t-0.5 15q0 44 -2 51q2 21 2 94q0 3 -1 7t-1 7v65q0 8 -0.5 24.5t-0.5 24.5 q0 33 -2 38q3 30 2 50q0 1 -1.5 7.5t-1.5 9.5l3 34q0 6 -1 16.5t-1 19.5t2 17q1 3 -1 8t-2 8q2 97 -5 139q1 3 3.5 6t5.5 6.5t5 6.5q5 -1 11 1t10 2q2 -1 5.5 -3.5t6.5 -3.5q1 -2 3.5 -7.5t4.5 -7.5q-9 -57 -3 -131q-5 -17 -3 -44q0 -9 1 -24.5t1.5 -28.5t0.5 -25 q0 -5 -1.5 -15.5t-1.5 -15.5q0 -4 1.5 -12t1.5 -12q0 -6 -1.5 -18.5t-1.5 -19.5q0 -1 0.5 -4t0.5 -5q0 -42 2 -49q6 1 11 8.5t6 8.5q2 3 7 9t7 10q19 10 24 18q6 1 13.5 7.5t10.5 7.5q9 2 24 2.5t21 1.5q1 0 11 2t15 1q8 -1 20 -7q1 0 1 -1l1 -2q9 -3 11 -4q0 -1 3 -4 q2 0 8.5 0.5t8.5 -1.5t16 -12t20 -17l13 -26q5 -32 10 -37q-1 -10 6 -36q0 -13 -3 -20q0 -2 2 -8t2 -10q-1 -8 -1 -74q0 -11 -1 -47.5t0 -59.5t6 -44q2 -14 -4 -21z" />
<glyph unicode="i" horiz-adv-x="180" d="M61 22q-1 9 3.5 24.5t4.5 22.5q1 5 0 13t-1 11t0.5 11t0.5 11q0 7 -2.5 20t-2.5 18q0 9 2 33v91q2 8 4 13q-3 7 -2 25t-3 25l3 18q1 8 0 24t0 27.5t6 17.5q13 7 35 -8l-2 -175q0 -61 2 -71q-1 -3 -2 -10t-3 -10q3 -12 1.5 -48t-0.5 -50l8 -36q2 -9 -6 -12t-22 -3 q-15 3 -24 18zM116 537q-19 -8 -39 -8q-3 1 -8 4t-8 3q-12 19 -13 25q0 5 1 9.5t3.5 9t3.5 6.5q11 16 14 19q16 7 30 2t27 -29q4 -8 -3 -23t-8 -18z" />
<glyph unicode="j" horiz-adv-x="195" d="M116 -182q-28 3 -38 15q-2 14 2 58t-2 58q3 15 4.5 34t1.5 32t-0.5 36t-0.5 34q0 4 1 10.5t1 9.5l-4 22q0 5 1 15t1 15q0 6 -1 15.5t-1 14.5l4 24q0 10 -2 28q0 2 -1 25t3 26q-2 12 -1.5 40t-1.5 40q0 4 1.5 9t1.5 8q-5 36 5 43q22 5 36 -9q-1 -56 -2 -173.5t-3 -186.5 q1 -2 1.5 -5.5t1 -7.5t0.5 -6q-1 -11 -1.5 -49.5t-2.5 -59.5q0 -1 1 -4t1 -5q0 -25 3 -30q0 -3 0.5 -22t4.5 -28q-3 -18 -14 -26zM63 548q0 3 -0.5 20.5t2.5 17.5q0 1 1.5 2.5t1.5 2.5q8 19 16 23q21 8 38 0q1 0 3.5 -2.5t4.5 -1.5q18 -24 20 -37q0 -9 -3 -15q-2 -4 -7 -10 t-6 -9q-23 -9 -41 -8q-7 2 -16.5 8.5t-13.5 8.5z" />
<glyph unicode="k" horiz-adv-x="416" d="M383 15q0 -16 -16 -26q-5 0 -13 3.5t-16 1.5q-4 -1 -5.5 4.5t-3.5 5.5q0 1 -10 7q-5 2 -10.5 8t-9.5 7l-52 57q-3 2 -8 8t-10 8q-1 1 -2 6t-2 6q-9 8 -24 25t-22 24q-7 12 -22 25q-1 4 -4.5 8t-4.5 6q-2 1 -5.5 6t-7.5 5q-5 0 -8.5 -2t-7 -6t-5.5 -6q0 -16 1 -46t1 -44 q0 -20 -5 -45q-1 -4 2 -7t3 -6q6 -34 5 -39q0 -3 -11 -8q-2 -5 -15 -5q-13 2 -23 16q-1 1 -1.5 4.5t-1.5 4.5q-1 5 1 15t2 14q0 2 -1 7t-1 7q0 4 2.5 13.5t2.5 14.5q0 9 -1.5 26.5t-1.5 25.5t1.5 23.5t1.5 24.5v48q1 12 0.5 43.5t-0.5 43.5q1 9 0 25t-1 21q0 3 1.5 10.5 t1.5 11.5q0 3 -1 7t-1 7q2 27 0 60l-3 39q0 8 3 25.5t2 26.5q0 92 -1 136v28q0 6 -2.5 21.5t-2.5 23.5q2 3 5 9t5 9q3 0 9 2t9 2q11 -2 23 -19q1 -6 -1.5 -14t-2.5 -10q6 -43 0 -63q2 -48 0 -138t0 -136q-6 -16 0 -43q-3 -65 -3 -76q0 -24 6 -31q12 9 19 17q4 2 10 8t9 8 q28 38 47 52q2 4 7 10.5t7 10.5l16 11q4 9 16.5 21.5t16.5 20.5q4 1 13 5.5t13.5 5.5t17.5 0q23 -7 24 -18q0 -6 -3.5 -11t-12 -10.5t-9.5 -6.5q-2 -2 -4 -7t-4 -7q-5 -2 -9 -6t-8.5 -9t-7.5 -7l-21 -25q-8 -6 -20 -11q-2 -2 -6 -8t-7 -9q-3 -1 -30 -26q-1 -1 -13 -9.5 t-17 -15.5q-1 -6 3.5 -9.5t5.5 -6.5q2 -1 13 -12l25 -24q8 -3 34 -33t32 -41q11 -4 27 -22q2 -2 12 -13t12 -13q2 -4 12.5 -10.5t12.5 -14.5q1 -1 7.5 -4t8.5 -5q2 -3 5 -9t5 -9z" />
<glyph unicode="l" horiz-adv-x="160" d="M58 778q18 9 34 4q6 -8 7 -12v-49v-33q-2 -44 1 -55q-1 -13 -0.5 -44t-0.5 -45q0 -1 -1 -5t-2 -6q1 -21 0 -65.5t1 -63.5q0 -14 -3 -24q0 -3 2 -9t2 -8q-3 -11 -3 -21q0 -3 1 -9.5t1 -10.5q0 -11 -1.5 -35t-1.5 -36q-2 -6 -2 -28q-1 -14 0 -27q1 -18 0 -79t4 -87 q0 -1 1 -2t1 -2q1 -20 -16 -28t-31 2q-5 4 -5 30q2 4 3 14.5t2 14.5q0 18 -0.5 76t-1.5 86q0 3 -1 11t-1 11l6 27q2 33 0 60q-2 3 0 8v64q-3 54 0 98q2 58 2 93q0 10 0.5 29.5t0.5 28.5q0 2 -3 26q-1 5 2 64v19z" />
<glyph unicode="m" horiz-adv-x="648" d="M533 17q0 8 -0.5 9.5t2 8.5t3.5 9q0 18 0.5 62t-0.5 62q-3 21 -3 22q-1 4 0 11.5t1 9.5q2 31 -1 49q-1 4 1.5 8.5t2.5 6.5q-4 13 -3 47t-3 49q-5 4 -11 4.5t-18 -1t-14 -1.5q-9 0 -31 0.5t-28 -0.5q-4 -1 -8.5 1t-7.5 2q-6 -1 -18 -1t-17 -2q-4 0 -9 3.5t-10 2.5 q-19 -3 -20 -3q-2 -3 -2 -13t-1 -14q0 -3 1.5 -7.5t1.5 -7.5q1 -26 1 -69.5v-66.5v-13v-9q0 -40 3 -50q-8 -14 -3.5 -58.5t2.5 -58.5q-7 -13 -23.5 -11.5t-23.5 12.5q0 6 2 16t2 13q2 20 2 30v80q0 1 1 4.5t0 5.5v25q0 4 -1.5 13.5t-1.5 14.5q0 4 1 12t1 14.5t-3 11.5 q0 3 0.5 5t1.5 4.5t1 4.5q-2 6 -1 31.5t1 34.5v12.5t-1 19t-5 13.5q-5 1 -11.5 -2t-11.5 -2q-36 7 -53 0q-5 2 -27.5 1t-30.5 -1q-1 1 -26 4q-4 -1 -14.5 0.5t-13.5 -0.5q-3 -5 -3 -29q0 -5 0.5 -15.5t0.5 -15.5q0 -4 -1.5 -11.5t-1.5 -10.5q0 -4 1 -12.5t1 -11.5 q0 -21 -0.5 -90.5t1.5 -93.5q0 -2 1 -3t1 -2q0 -4 0.5 -19.5t-0.5 -21.5q3 -19 0 -32q-8 -8 -24 -5t-20 13q0 5 0.5 10t1.5 10.5t1 8.5q-3 8 -1.5 46t1.5 48q-3 54 0 76q2 13 5 16q-11 19 -3 47q0 4 -2 9.5t-2 7.5q0 10 0.5 32t-0.5 33q0 43 7 57q68 5 195 1q2 1 10 3.5 t11 4.5q17 -7 22 -8q14 2 51 1t51 2q32 -4 47 -4q5 0 14.5 1.5t14.5 1.5q3 0 11 -1t11 -1q7 0 19 1t19 1q16 -5 28 -19q0 -5 -3 -11.5t-2 -12.5q4 -23 4 -63q0 -55 1 -60q-3 -13 -1 -61q0 -13 -1 -39.5t-1 -41.5q-1 -4 1 -8.5t2 -8.5q-6 -39 5 -63q-3 -15 -14 -21 q-23 -5 -35 7z" />
<glyph unicode="n" horiz-adv-x="434" d="M357 3q-23 4 -32 9q-2 7 -1.5 10.5t2.5 11t2 10.5q0 17 -1 23l4 19v167q-4 5 -2.5 46t1.5 49q2 23 -5 30q-7 2 -18.5 -1t-19.5 -2q-4 2 -40.5 1.5t-49.5 -6.5q-4 1 -10.5 3.5t-9.5 2.5l-36 2q-4 0 -11 1t-12 1.5t-9 0.5q-3 -3 -3 -7t1.5 -9t1.5 -8q-5 -23 2 -33 q-5 -19 -3 -83q0 -5 -1 -16t-1 -16q0 -17 1 -51.5t1 -52.5v-63q5 -27 4 -33q-7 -6 -22.5 -7.5t-24.5 4.5q-2 7 -1.5 10t2 10t1.5 10q1 4 -0.5 12t-1.5 11q0 5 1.5 13t1.5 13q0 6 -1 17t-1 20.5t2 17.5q1 4 -2 9.5t-3 9.5q4 24 7 36q-1 5 -3.5 11.5t-3.5 8.5q-1 17 0.5 48 t1.5 42q0 4 -1 12t-1 12q0 5 2 18t2 20q0 2 -1.5 7.5t-2.5 9.5q-2 31 8 43q8 2 27 -2q26 -1 78.5 0t76.5 0l20 5q39 -3 44 -3q6 0 17 0.5t19.5 -0.5t14.5 -4q3 -5 3 -45t-2 -49q0 -4 2 -8t1 -8q-4 -164 -3 -243q2 -4 4 -15t4 -15q0 -15 -1 -22q-14 -14 -19 -15zM287 362 q1 0 1 -2l1 -1q-1 0 -1 2z" />
<glyph unicode="o" horiz-adv-x="511" d="M475 209q2 0 2 -2l-5 -36l-9 -27l-5 -28q-14 -18 -20 -28q-1 -4 -5.5 -7.5t-4.5 -6.5l-8 -16q-10 -5 -26 -16.5t-23 -15.5q-21 -11 -60 -20q-10 1 -28.5 -2t-23.5 -3q-6 0 -20 2h-22q-7 1 -25 7t-29 5q-10 6 -30 11q-1 2 -6.5 6.5t-5.5 9.5q-6 3 -16 11q-5 5 -15 13 l-15 12q-1 4 -11 22q-2 2 -2 8t-1 8q-9 16 -22 58q0 22 -2 30q3 10 4 33t1 27q2 4 8 27.5t14 31.5q0 7 9 18q3 3 18 26q2 2 13.5 12.5t19.5 15.5l36 25q9 0 17.5 1.5t18.5 5t15 4.5q6 -2 23.5 1t23.5 -2q4 -1 6.5 1.5t5.5 2.5q17 -2 27 2q9 -2 49 -14q6 -3 18.5 -12 t21.5 -12q5 -8 20 -19.5t21 -18.5q3 -6 4 -6q11 -22 21 -31q1 -10 8.5 -26t8.5 -26q5 -30 6 -62zM430 241v31q-14 12 -15 27q-5 5 -23.5 27t-29.5 33q-4 0 -18 7t-20 12q-29 2 -44 8q-6 0 -21.5 -1t-19.5 1q-27 -10 -54 -10q-18 -12 -38 -22q-11 -17 -28 -28q0 -3 -2.5 -7.5 t-2.5 -6.5q-5 -5 -17 -13q1 -8 -4.5 -16.5t-6.5 -10.5l-1 -5q-1 -5 -2 -7q3 -7 0 -54q0 -4 3 -7.5t3 -6.5q-1 -10 2.5 -23.5t3.5 -17.5q10 -15 15 -29q4 -6 16.5 -17.5t17.5 -19.5l19 -8q5 -8 14 -13q33 -4 43 -13q7 1 17.5 -1.5t17.5 -2.5q37 5 47 4q16 10 39 16 q10 10 22 11q7 9 13 11q6 11 24 27q7 20 19 28q2 9 7 23t7 20q-1 8 0 15.5t3 15.5t3 13q0 2 -1 2q-1 2 -4.5 3.5t-3.5 4.5z" />
<glyph unicode="p" horiz-adv-x="511" d="M111 62q-6 -12 0 -31q-2 -8 -2 -38v-16q0 -27 4 -77q0 -5 -1 -15t-1 -15t1.5 -14.5t1 -17t-4.5 -12.5q-6 -4 -19 -4t-20 4q-6 5 -7 15t1.5 27t2.5 21t-0.5 6.5t-1.5 5.5t-1 5q1 7 1 17.5v17.5q0 2 1 6.5t1.5 8t0.5 6.5q1 4 0 13t-1 12v49q0 2 -1 5.5t-1 5.5t1 5.5t1 5.5 t-1 7.5t-1 8.5q0 2 1 8t1 9t-1.5 10t-1.5 10t0.5 8t0.5 8l3 38q-2 9 -1.5 29t-2.5 29q0 18 -0.5 55t0.5 57q0 9 -3 13q2 8 2 37.5t7 39.5q22 7 38 -5q2 -10 1 -29t0 -27q2 -2 3.5 -1t4 4t3.5 3q1 3 4 6t4 5q2 4 9.5 10t9.5 10q22 14 30 21q38 10 57 16q3 -2 11.5 -3t10.5 -2 q4 0 9.5 1.5t6.5 1.5q4 -2 18 -2t20 -3q15 4 25 0q5 -1 14 -5.5t16 -5.5q7 -6 22.5 -14.5t21.5 -12.5q33 -41 39 -50l5 -9q1 -1 3 -3.5t3 -4.5q4 -12 10 -34t9 -31q0 -3 -1 -8t0 -8q3 -9 4 -31.5t2 -28.5q0 -4 -3 -13t-2 -17q-3 -7 -9.5 -31t-15.5 -33q-1 -1 -1.5 -3.5t0 -5 t-0.5 -5.5q-16 -16 -17 -18q-1 -4 -7 -9t-7 -10q-7 -3 -13 -7.5t-14.5 -13l-10.5 -10.5q-5 -2 -19.5 -7t-21.5 -9q-5 2 -12.5 -0.5t-12.5 -2.5q-3 -2 -11 -4t-11 -4q-4 0 -11 1.5t-10 1.5q-2 0 -7 -1t-8 0q-3 0 -30 6l-16 3q-1 0 -6 1.5t-8 1.5l-59 37l-14 15q-6 14 -14 14z M433 253q-1 3 -7 18t-8 23q-16 22 -20 36q-15 12 -43 38q-3 1 -12 4.5t-13 6.5q-7 0 -16 3.5t-12 4.5q-23 3 -40 0q-23 -4 -34 -1q-1 -1 -22 -7q-15 -7 -21 -8q-9 -9 -20 -12q-2 -3 -24 -22q-1 -4 -8 -11l-24 -48q2 -7 -1 -20t-3 -16q0 -26 -2 -31l3 -33q0 -4 2.5 -16 t2.5 -19q4 -7 9.5 -21.5t7.5 -18.5q8 -9 25 -23.5t24 -21.5l57 -21l30 -3q11 0 27 2.5t25 2.5q22 10 30 11q2 2 6.5 4.5t5.5 3.5l5 4q1 1 4 2t4 2q3 2 7 6l6 6l14 13q2 6 10 17.5t10 17.5q2 5 5 17.5t6 18.5q6 44 5 69q0 2 -1 2v20z" />
<glyph unicode="q" horiz-adv-x="500" d="M443 -171q-20 -10 -41 -5q-4 16 0 40q0 4 1.5 11.5t1.5 8.5q0 8 -2 27t-1 29v56v36t-2 35q-6 -1 -9.5 -4.5t-6 -10t-4.5 -8.5q-22 -15 -30 -29q-13 -3 -19 -8q-3 -1 -8 -5t-8 -6q-2 -1 -12 -2.5t-13 -5.5q-14 2 -19 2t-19 -3t-18 -3q-22 1 -83 15q-5 5 -11.5 9t-16 8 t-13.5 7q-2 3 -7 9t-9 10.5t-9 7.5q-4 10 -22 30q1 9 -8 21.5t-10 16.5t-1.5 13.5t-1.5 14.5q-1 4 -3 10t-2 9q0 6 2.5 16t2.5 14l3 30q0 5 -3 13.5t-3 13.5q0 3 1.5 7.5t1.5 6.5l8 41q3 7 24 28q1 3 6 13.5t5 18.5q2 2 6.5 8.5t9.5 8.5q1 1 7.5 6.5t9.5 9.5q12 6 50 27 q7 -1 26 6q8 -1 21 2t18 3q4 0 18.5 -1.5t23.5 -0.5l15 -6h17q34 -16 43 -22q6 -4 16.5 -15t17.5 -15q1 -6 5 -11q1 -1 1 -4q2 -5 5 -6q2 0 2 10v42q2 2 3 9t3 9q26 -3 38 -2q4 -3 4.5 -15t3.5 -15q1 -9 -2 -25t-3 -21t1 -34.5t-2 -36.5q2 -3 2.5 -8.5t0.5 -13.5v-12 t-4 -9.5t-4 -9.5q0 -7 3 -22.5t3 -24.5q0 -6 -0.5 -16t0 -18t3.5 -15q-3 -20 -3 -70q0 -12 2 -45.5t1 -53.5q0 -5 -1 -15t-1.5 -15.5t0.5 -13.5t4 -14q-3 -11 -2 -38t-4 -35zM205 34q17 -5 25 -5q5 0 16 2.5t18 1.5q38 9 49 14h5q4 2 5 4q2 1 5.5 3.5t6.5 3.5q15 17 29 27 q1 3 9.5 14t10.5 19q5 5 9.5 19t6.5 18q2 33 8 52q-1 3 -1.5 9.5t-1.5 11.5t-3 8q3 6 1.5 17t-2.5 15.5t-4.5 14.5t-4.5 13q1 4 -3 13t-8 10q-5 9 -18.5 20.5t-17.5 17.5q-6 0 -16 10q-1 1 -2 1h-3q-5 5 -6 5q-2 1 -8 2.5t-8 2.5l-6 2q-7 3 -11 2q-2 3 -7.5 5t-6.5 3 q-50 2 -66 -1q-3 -2 -30 -10q-19 -11 -27 -22q-6 -3 -15.5 -11.5t-13.5 -11.5q-5 -14 -14 -19q-1 -10 -9 -26q-1 -3 -13 -22q1 -8 0.5 -12t-2 -12.5t-1.5 -12.5v-26v-26q3 -9 7 -28t6 -26q8 -16 11 -25q3 -5 12.5 -13.5t13.5 -15.5q20 -8 35 -26q-3 -3 3 -4q9 -1 11 -1 q7 -1 26 -5z" />
<glyph unicode="r" horiz-adv-x="246" d="M72 12q-1 9 6 27q-1 7 0 31.5t-1 32.5q-1 4 1 9t2 7q-2 6 -1.5 24t-3.5 22q4 13 2 42.5t0 44.5l-4 19q0 3 3 8t2 9q-1 8 -1 22v22l-4 14q0 2 1 5t1 5t-1 5t-1 4t1 4.5t1 5.5q-3 33 2 45q4 0 12.5 2t12.5 2.5t12 -1.5q4 -7 5 -14.5t0 -20t-1 -15.5v-27v-28v-90 q-1 -23 0 -65t1 -53q0 -2 -1 -10t0 -12q0 -6 1 -24t0 -28q1 -3 3 -7.5t2 -7.5v-4q0 -5 -2.5 -8t-10 -6t-8.5 -4q-20 0 -31 13zM232 385q-1 -6 -4 -13.5t-6 -11.5l-3 -5q-2 -1 -5 -3.5t-11.5 -5.5t-15.5 -3q-21 1 -36 22q-13 16 -11 33q1 7 8 17.5t9 14.5q3 0 8 3t8 3 q4 1 31 -5l8 -9q8 -8 11 -13q0 -3 5 -10t4 -14z" />
<glyph unicode="s" horiz-adv-x="316" d="M11 110q1 1 7 6t8 6t9 4t11 0q5 -5 9 -17t6 -15q5 -8 16.5 -19t13.5 -13q11 -2 25 -12q18 -3 37 -8q9 1 24 5t17 4q2 1 10 7t13 8q13 12 24 39q-1 6 0.5 17t1.5 16q-1 5 -5 13.5t-5 11.5q-1 4 -7 10t-7 11q-18 10 -28 14q-25 10 -29 13q-6 0 -15.5 3t-15.5 3q-3 2 -9 5.5 t-9.5 5.5t-9.5 4t-12 2q-14 12 -20 14q0 3 -5 8q-1 1 -2.5 4t-2.5 4q-1 2 -5 7t-6 7q-1 1 -1.5 5.5t-2.5 5.5q-2 22 -4 30q2 9 2 11q6 17 13 43q2 3 8.5 12t9.5 13l24 21l29 9q6 0 15.5 0.5t16.5 0t12 -3.5q3 0 7 2t8 1q3 -1 11 -5.5t15 -5.5q7 -9 20 -16q2 -2 6.5 -9 t7.5 -10l5 -4q5 -5 6 -8.5t0 -9.5q0 -16 -23 -20q-12 4 -21 16q-1 1 -8 7.5t-9 11.5q-5 1 -13 6t-12 6q-37 0 -46 -3q-7 -2 -21 -16q-15 -15 -17 -19q-4 -20 -3 -34l9 -21q1 -1 5 -4.5t5 -6.5q6 -3 19 -10t19 -10q10 -1 25.5 -6.5t23.5 -6.5q14 -12 31 -16q5 -7 21 -17 q5 -7 19 -17q0 -7 6 -10q3 -15 11 -28q1 -19 6 -36v-5q0 -7 -1.5 -19.5t-1.5 -16.5q-14 -19 -20 -35q-1 -3 -5 -5.5t-5 -4.5l-6 -12q-7 -1 -10 -7q-7 -2 -22 -8.5t-25 -8.5h-79q-10 3 -27.5 12t-27.5 12q-8 8 -21.5 25t-17.5 22q0 5 -3 16t-2 19z" />
<glyph unicode="t" horiz-adv-x="217" d="M180 379q-3 -1 -12.5 -1.5t-12.5 -2.5q-16 7 -33 4q-5 -6 -7 -13t-1 -22l1 -15q1 -6 0 -18.5t-1 -16.5v-238q0 -1 3 -17.5t1 -24.5q-2 -11 -18.5 -11.5t-23.5 6.5q-4 7 -3.5 19.5t3.5 19.5q-2 9 0 46q0 2 1 9t0 10q0 4 -1.5 11.5t-1.5 8.5q0 5 1 15t1 14q0 10 -2 30 q0 13 1 39.5t1 40.5q0 9 -2 31.5t-1 34.5q3 33 0 38q-5 3 -17 1t-16 -1q0 1 -7 3q-9 7 -7.5 21t9.5 20q4 1 16.5 0.5t16.5 1.5q4 5 5 12t0.5 18t-0.5 16q2 38 1 56q-3 32 2 37q8 4 20.5 2t17.5 -7q3 -11 3 -24t-1.5 -29.5t-1.5 -25.5q0 -20 4 -54q9 -3 35.5 -2t32.5 -5 q10 -21 -6 -37z" />
<glyph unicode="u" horiz-adv-x="379" d="M42 423q24 11 35 7q5 -8 3 -35q-1 -21 -1.5 -63.5t-1.5 -64.5q0 -3 2 -8t1 -9q-2 -19 -1.5 -59t-0.5 -58q1 -4 5 -13t5 -15q3 -5 24 -31q37 -22 55 -27q39 0 53 3l32 12q1 4 5 5q4 2 8.5 9.5t5.5 9.5q5 1 9.5 8t6.5 8q1 7 4.5 19.5t5.5 24t1 24.5q-1 4 1 8t2 7 q1 3 -1 8.5t-2 7.5q-1 3 0 9.5t1 8.5v33v21.5t2 19.5q-3 16 -2.5 47.5t-0.5 51.5q-5 25 0 33q4 3 36 3q3 -3 5 -12.5t4 -12.5q-1 -16 -1 -51t-2 -50q5 -19 1 -63t2 -61q1 -49 -8 -93q-2 -4 -8 -11t-9.5 -13t-5.5 -13q-4 -2 -9 -7.5t-9 -7.5q-1 -3 -7.5 -7.5t-7.5 -8.5 q-9 -1 -21.5 -6.5t-15.5 -6.5q-13 2 -36.5 -0.5t-30.5 -2.5q-11 0 -31 3.5t-26 4.5q-8 7 -19 8q-6 8 -13 9q-5 11 -17 19q-1 6 -8.5 11.5t-8.5 7.5q1 3 -5 14q-15 40 -16 41q0 3 1.5 9t0.5 10q1 4 3 9.5t3 9.5t-1 12.5t-2 11.5t2 8.5t1 8.5q-2 23 -5 30q3 25 -1 60 q1 3 2 9.5t2 9.5q-1 12 -1 44t-2 47q1 2 3.5 12t4.5 13z" />
<glyph unicode="v" horiz-adv-x="430" d="M226 1q-4 0 -6.5 1t-4.5 4.5t-3 4.5t-3 7l-2 5q-3 6 -13 16q0 9 -3 16t-9.5 16t-7.5 12v13q-2 4 -6.5 15.5t-7.5 17.5q-2 4 -7 15t-9 15q-2 2 -2 11q-5 2 -4 6q-3 2 -4.5 8.5t-3.5 7.5q0 6 -2 14q-16 31 -20 47q-2 4 -7.5 12t-8.5 15t-3 16q-1 3 -5 7l-5 5q1 5 -1 13 q-4 4 -8.5 16.5t-9.5 16.5q0 3 -8 27q-1 4 -7 10t-8 9q-5 24 -5 28q8 10 22 6q8 7 27 2q3 -4 11 -31q16 -35 20 -52q6 -9 11 -23q2 -2 4 -6l3 -3q0 -1 1 -6t2 -7q2 -4 8 -12q3 -16 16 -40q0 -1 1 -5t2 -6q0 -1 2.5 -3.5t3.5 -4.5v-3.5v-3.5l4 -4q3 -5 2 -9q2 -4 6.5 -18.5 t9.5 -20.5q11 -30 17 -38q0 -5 2 -13q4 -7 9.5 -21.5t7.5 -19.5q4 0 5 2t1.5 6t1.5 5l7 14q1 3 5.5 20t8.5 26q1 3 5 11.5t7 16t3 14.5q11 17 25 56.5t24 55.5q0 3 2 8t1 9q7 8 15.5 26.5t11.5 24.5q6 20 10 28q4 18 11 27q15 4 36 -2q3 0 5 -4q2 -10 -2.5 -21.5t-4.5 -16.5 q-13 -15 -17 -28q-6 -21 -11 -26q1 -9 -5 -20.5t-6 -20.5q-4 -3 -8 -11.5t-5 -10.5q0 -6 -4 -12q-1 -1 -2 -5.5t-3 -5.5q-16 -43 -17 -49q-9 -11 -11 -19q-3 -1 -6 -8.5t-7 -8.5q1 -4 -0.5 -9t-1.5 -7q-5 -7 -11 -24.5t-11 -24.5v-16q-1 0 -11 -24q-1 -4 -6 -10t-6 -10 q-3 -3 -9.5 -21t-17.5 -20z" />
<glyph unicode="w" horiz-adv-x="710" d="M500 7q-7 1 -11 5.5t-7 12.5t-6 11q-3 4 -8 16t-9 17q0 3 -1.5 7t-1.5 7q0 1 -5 11.5t-10 13.5q1 6 -1 18q-1 3 -7 16t-7 23q-9 21 -10 28q-8 10 -17.5 35.5t-16.5 34.5q-1 2 -1.5 8t-2.5 9q-8 22 -14 32q-6 27 -16 34q-3 0 -4 -3.5t-1.5 -7.5t-1.5 -6q-13 -23 -21 -55 q-18 -49 -19 -57l-8 -10q0 -6 -5.5 -17t-5.5 -20q-5 -5 -10 -19t-10 -19q0 -7 -4 -19t-4 -21q-2 -3 -6.5 -13t-9.5 -13q0 -4 -5 -19q-12 -20 -14 -26q-1 -1 -4.5 -7t-7 -8t-10.5 -2q-2 0 -4 1t-3 2.5t-2 4t-2 3.5q-1 3 -4 7t-4 7q-3 4 -8 13.5t-9 13.5v11q-1 5 -6.5 9.5 t-6.5 6.5q0 1 -5.5 18.5t-6.5 28.5q-22 43 -30 71l-11 19q0 6 -10 19q0 10 -4 22t-5 17q-1 4 -5.5 9t-5.5 6q1 9 -11 25v9q-12 20 -14 32q-7 8 -13 31q-1 3 -4 8.5t-4 7.5q0 20 5 30q3 2 5.5 2t5.5 -0.5t8 0.5q1 1 17 -2q14 -30 19 -47q2 -5 8 -13q0 -1 23 -58q1 -2 2 -6 t2 -5l3 -10q4 -6 22 -50t19 -52q6 -9 14.5 -31t15.5 -31v-11q2 -3 4.5 -9t3.5 -8q0 -15 7 -16q4 -1 4.5 2t0.5 6.5t2 4.5q0 3 1 7.5t0 8.5q6 9 13 33t14 33q0 3 1 7t1 7q4 2 6.5 11t4.5 11q1 4 4 11.5t4 12.5q3 2 6 10t5 10q1 10 9 22q0 1 2 6.5t1 9.5q9 13 22 51q5 7 11 25 t10 25q4 31 14 44q1 0 4 2t5.5 3t3.5 0q4 -1 6 -4t4 -10t2 -8q1 -2 5 -10.5t5 -13.5q1 -4 4.5 -12t4.5 -13q1 -4 4 -12t4 -13q36 -80 38 -87q16 -35 19 -47q14 -25 19 -48q2 -2 5 -9.5t6 -10.5q2 -9 10.5 -30.5t8.5 -34.5q4 0 5.5 3.5t1.5 8t2 6.5q3 10 9.5 28.5t9.5 27.5 q3 8 15 32.5t15 40.5l9 17q0 3 1 8t1 8q5 6 11 21.5t11 21.5q5 24 19 50q7 26 21 49q0 14 11 27q10 4 25 1q1 -1 9 -20q-1 -7 -5 -17t-4 -16q-2 -2 -5 -6.5t-5 -6.5q-1 -8 -7 -25.5t-7 -29.5q-2 -2 -5 -7t-6 -7q0 -1 -3 -16q-11 -17 -16 -30q-3 -4 -6.5 -15t-7.5 -15 q1 -4 -1 -9t-2 -8q-6 -10 -10 -15q-1 -2 -0.5 -4.5t0.5 -5t-1 -2.5q-1 -5 -6.5 -11.5t-6.5 -9.5q-5 -35 -25 -66q0 -2 -1.5 -7t-0.5 -9q-3 -5 -9.5 -18t-10.5 -19q-1 -5 -5 -11t-5 -10q-4 -14 -12 -16z" />
<glyph unicode="x" horiz-adv-x="412" d="M385 10q-4 0 -12.5 1.5t-13.5 2.5q-6 4 -18 16.5t-21 17.5q-1 2 -2.5 7t-2.5 7q-2 2 -6 7.5t-6 8.5q-1 2 -3 8t-4 8q-5 8 -12 11q-3 9 -10 13q-13 19 -20 23q-1 3 -3.5 7.5t-3.5 5.5q-3 4 -9 10t-8 9q-1 2 -3 5t-3.5 5.5t-4 5t-5.5 3.5q-7 -2 -12.5 -13t-9.5 -14 q-5 -11 -30 -41q-24 -31 -28 -43q-10 -9 -17 -20q-1 -3 -7.5 -10t-7.5 -14q-4 -2 -10 -8t-9 -8q-2 -2 -22 -12q-3 1 -9 0.5t-8 -0.5q-3 1 -11 6q-9 6 -9 8q-1 4 9 14q5 7 8 14q1 1 6 3t6 4q4 7 20.5 26t19.5 34q4 2 10.5 9.5t11.5 10.5q1 4 3 8t3 8q7 6 18 20t17 19 q3 3 7.5 8.5t5.5 7.5q0 1 1 1l2 1q-1 2 0 3q13 16 15 20q0 4 -1.5 7t-3 4.5t-5 4t-4.5 3.5q-4 7 -10 13t-15 12.5t-13 10.5q-12 28 -31 40q-2 10 -16 22q-4 8 -16 20q-2 4 -15 19.5t-13 25.5t13 20q24 5 39 -8l4 -6t4 -7t3 -7l27 -38q2 -2 6 -5t5 -5l16 -23q1 -4 7.5 -10.5 t7.5 -11.5q4 -3 9 -10.5t9 -10.5q2 -2 7.5 -9.5t11.5 -9.5q12 7 14 10q1 1 1 2v2q32 39 38 51q6 3 11 8q3 7 12 18t12 18q18 22 24 36q3 2 9 9t11 9q34 -2 40 -7q3 -22 -24 -47q-2 -9 -2 -11q-9 -5 -21.5 -19.5t-19.5 -19.5q-2 -12 -4 -16q-3 -2 -8 -6.5t-8 -6.5 q-1 -3 -29 -33q-4 -2 -9 -9t-5 -8q-13 -13 -14 -16q1 -7 7.5 -14t8.5 -11q3 -3 9 -11t10 -11q25 -34 38 -43q1 -4 5.5 -9.5t5.5 -6.5q0 -1 11 -17q0 -1 8.5 -11t10.5 -17q11 -8 25.5 -27.5t21.5 -26.5q0 -5 1.5 -7.5t-2 -6l-4.5 -4.5t-6 -3t-6 -3z" />
<glyph unicode="y" horiz-adv-x="482" d="M192 -155q-9 -6 -19 -8q-7 1 -13 0.5t-12 0.5t-8 4q-5 17 14 36q1 7 16 39q2 4 7.5 17.5t9.5 19.5q9 16 24 58q7 9 6 21q-4 16 -19 28q-1 6 -7 14.5t-7 13.5q-4 3 -8 12.5t-8 12.5q0 1 -1 6t-2.5 7.5t-4.5 2.5q0 7 -7 16v11q-4 6 -13.5 28t-18.5 30q-5 28 -17 41 q-1 2 -2.5 8t-2.5 8q-3 7 -13 17q0 8 -8 16q0 3 -1 8.5t0 9.5q-14 20 -16 22q-1 2 -1 6v6q-1 4 -9 16t-9 22q-1 4 -8 13.5t-8 14.5q0 7 7 18q27 2 41 0q7 -3 19 -30q2 -6 9.5 -19t9.5 -22q1 -4 9 -14q0 -2 1.5 -7t1.5 -9q3 -7 11 -17q1 -7 6.5 -17.5t6.5 -16.5q8 -13 9 -14 q1 -6 5.5 -15.5t5.5 -12.5q1 -2 2.5 -7t2.5 -7q3 -6 8 -11q0 -1 3 -13q5 -7 12 -24.5t13 -24.5q3 -9 8 -20q2 -3 3.5 -10.5t4.5 -10.5q1 -3 4 -10t4 -10q7 -15 11 -16q7 1 9 19q7 14 7 20q3 4 28 63q20 43 25 65q3 3 6 9t5 8q-1 3 0.5 7t1.5 6q5 6 9.5 19.5t6.5 16.5 q1 2 5.5 10t6.5 14t2 13q3 2 6 8.5t5 8.5q6 23 13 31q0 5 14 41q26 6 49 -3q10 -13 -8 -38q0 -3 -1.5 -8t-1.5 -9q-11 -9 -11 -20q-4 -2 -8 -10t-4 -9q-1 -3 -11 -16q-2 -9 -9.5 -28.5t-10.5 -31.5q-3 -3 -7 -11t-7 -11q-3 -21 -16 -38q-3 -10 -11 -28t-11 -26 q-5 -11 -10 -28q-1 -3 -5.5 -12t-5.5 -15q-4 -4 -10.5 -16t-11.5 -17q0 -4 -0.5 -7t-1.5 -7t-1 -6q-2 -3 -4.5 -8t-5.5 -9.5t-6 -8.5q-6 -29 -15 -42v-14q-5 -5 -10 -13q1 -12 -7 -26t-9 -23q-5 -5 -13 -18t-10 -16q-2 -11 -8 -24z" />
<glyph unicode="z" horiz-adv-x="467" d="M430 14q-37 -6 -90 -2q-3 1 -8 -1t-6 -2q-3 -1 -22 0t-22 1t-9.5 -0.5t-9.5 -0.5t-11 1t-13.5 0.5t-10.5 -3.5q-6 3 -13.5 3.5t-17 0t-14.5 -0.5q-11 0 -15 -4q-11 6 -45 6q-6 1 -15 -3q-31 9 -56 0q-6 2 -16 2.5t-16 2.5q-11 20 11 39q7 3 15 13.5t15 13.5q3 7 12.5 18 t12.5 15q3 1 13 16q9 3 13 15q13 8 15 13q1 3 6.5 6.5t6.5 7.5q4 5 13.5 13.5t13.5 13.5q16 20 25 30q2 3 6.5 7t6.5 7q5 10 14 13q4 8 14 20q8 8 17 11q2 6 9.5 15t9.5 14q13 6 22 25q6 4 15 13.5t11 11.5q3 3 17 21q6 6 5 7q-8 6 -24 -1q-6 1 -20 -1t-18 1q-1 0 -14 -3 h-35q-4 0 -16 -5q-22 7 -67 2q-3 0 -7 2.5t-7 1.5q-7 0 -29 -2t-28 1q-2 3 -6 7t-5 7q5 28 9 33q8 4 22 4t21 -4q3 2 6.5 2t8 -1t7.5 -1q6 0 20.5 1.5t21.5 1.5q8 0 21.5 -1t24.5 -1t21 2q4 -1 33 -1l15 3q14 -4 30.5 -5t39.5 -0.5t34 0.5q20 5 32 -3q2 -3 2 -12.5v-11.5 q0 -3 -4 -5t-4 -4q-4 0 -6 -3.5t-5 -3.5q-3 -4 -9 -11t-9 -11q-4 -2 -10 -8.5t-10 -8.5q-4 -9 -10.5 -17t-16.5 -18.5t-14 -14.5q-3 -1 -8 -5t-9 -5q-3 -9 -13.5 -19.5t-13.5 -14.5q-12 -14 -13 -19q-6 -5 -15 -16t-15 -16q-2 -1 -5.5 -8t-8.5 -8q-3 -5 -13 -15.5t-14 -17.5 q-23 -12 -44 -44q-5 -3 -14 -13t-17 -12q-2 -3 -6.5 -7.5l-6.5 -6.5q-1 -2 -5.5 -6t-5.5 -9q8 -2 12 -2t13 2t14 2q5 1 15 -0.5t14 -1.5l23 4q7 0 41.5 -1.5t36.5 4.5q38 -3 67 -2l54 2q1 0 3.5 -1t4.5 -1l2 1q2 1 4 1q11 -1 25 -8q9 -37 -6 -47z" />
<glyph unicode="{" />
<glyph unicode="|" horiz-adv-x="130" d="M89 -40q-3 -4 -25 -6q-3 0 -7 -0.5t-6.5 -1t-5.5 0.5t-5 3q-5 19 -3 54q0 7 0.5 23.5t0.5 25.5t0.5 29t0.5 29q0 6 -1.5 41.5t0.5 43.5q0 19 -2 24q1 6 1 30q-2 63 0 93q-1 12 -1 118q-1 91 0 184q-2 15 -2 39t-3 40q1 5 1.5 24.5t3.5 25.5q4 5 25 5q21 -3 24 -8 q2 -5 2 -22q1 -13 -1 -25q0 -5 0.5 -5t0.5 -5v-9q0 -6 1 -19t1 -20q0 -4 -1 -15t-1 -15q0 -139 3 -201q0 -2 -1.5 -8t-1.5 -10v-62q2 -20 2 -31q0 -49 1 -53q-1 -10 -1 -61q0 -118 -2 -178q2 -3 2.5 -11t1.5 -11q-1 -10 -0.5 -20t0.5 -20.5t-2 -15.5z" />
<glyph unicode="}" />
<glyph unicode="~" />
<glyph unicode="&#xa1;" horiz-adv-x="189" d="M107 44v-14q-4 -9 -19.5 -11t-25.5 3q-4 8 -5 17t0 23.5t1 17.5q1 13 0 35.5t-1 29.5q0 5 1.5 17t1.5 18q0 18 -2 58q0 5 1 15t1 15q0 4 -1 11t-1 11l4 50q0 34 1 37q-5 14 -3 47q7 74 -2 123q-7 26 10 36q10 1 22 -5q1 -2 7.5 -4.5t6.5 -7.5q0 -11 -1.5 -32.5 t-1.5 -32.5q0 -5 1.5 -15.5t1.5 -15.5q2 -38 0 -68q0 -6 -0.5 -16t-0.5 -16q-1 -29 1 -137q-1 -3 -1 -39q-2 -114 4 -150zM118 698q0 -5 5 -30q-1 -3 -6 -7.5t-7 -8.5v-11q-6 -11 -30 -6.5t-25 21.5q-11 14 -8 33q2 1 6.5 7t8.5 8q9 7 29 7q10 -1 27 -13z" />
<glyph unicode="&#xa2;" horiz-adv-x="415" d="M390 356q-12 0 -20.5 4.5t-17 12t-14.5 10.5q-35 3 -52 12q-10 -2 -20 1q0 -6 -0.5 -16.5t-0.5 -15.5q2 -20 2 -31q0 -49 1 -53q-1 -10 -1 -61q0 -107 -2 -162q15 3 33 3q2 1 26 9q9 5 20 16q4 0 17 5q5 2 13 10.5t16 9.5q8 -3 11 -15.5t1 -25.5q0 -3 -3.5 -8.5 t-2.5 -8.5q-7 -8 -25 -18t-24 -15q-16 -5 -19 -7q-21 -2 -59 -4q0 -38 -2 -45q-3 -4 -25 -6q-3 0 -7 -0.5t-6.5 -1t-5.5 0.5t-5 3q-6 21 -4 51q-8 0 -12 1q-17 4 -25 5q-2 2 -11.5 5t-12.5 7q-5 1 -13 5t-12 5q-12 17 -12 19q-12 6 -16 11q-17 30 -22 34q-2 9 -13 16 q-7 14 -11 16q1 6 -0.5 10t-4.5 8t-4 7q0 9 -3 27.5t-3 31.5t6 25q0 17 15 85q1 3 6.5 8.5t6.5 10.5q1 3 5.5 9.5t5.5 10.5q6 4 14.5 14t13.5 14q6 4 13.5 13.5t15.5 15t20 6.5q14 8 22 11l31 5q-2 12 3 33q4 5 25 5q21 -3 24 -8q2 -6 0 -26h8.5t8.5 1q7 -2 27 -6t29 -7 q38 -17 46 -24q1 -1 8 -14l3 -8q1 -1 3 -2l2 -2q5 -23 -11 -32zM215 352q-3 15 -0.5 20t2.5 18q-4 0 -12.5 -3t-14.5 -3q-3 -2 -9 -5.5t-11 -6t-10 -3.5q-5 -4 -17 -15.5t-20 -16.5q-5 -7 -14 -23t-14 -23q0 -3 -8 -26q-7 -25 -5 -45l4 -12l-2 -6q0 -1 2 -7q3 -26 20 -53 q4 -8 13 -19t12 -16q8 -4 18 -13q0 -1 1.5 -1.5t3.5 -1t3 -1.5q1 -2 11 -7l1 -3q16 -6 17 -8q3 -2 10.5 -4.5t10.5 -4.5l9 -2v1q0 10 0.5 29t0.5 29q0 6 -1.5 41.5t0.5 43.5q0 19 -2 24q1 6 1 30q-2 63 0 93z" />
<glyph unicode="&#xa3;" horiz-adv-x="394" d="M304 17q-15 -6 -16 -7q-36 0 -39 1q-4 0 -8.5 -3t-9.5 -2q-12 3 -43 1.5t-43 3.5q-41 0 -51 6q-4 9 -4 19.5t1.5 24.5t1.5 21q0 8 -1 23.5t-1 23.5q0 4 1 11.5t1 10.5q0 8 -1.5 23.5t-1.5 22.5v65q-1 6 0 16.5t1 13.5q0 4 -2 13.5t-2 12.5q-3 0 -14.5 -2t-16.5 -2t-13 2 t-14 7q-5 15 -3.5 23.5t11.5 17.5h35h6q6 -1 11 -1q-1 16 2 110q0 1 -1.5 6.5t-1.5 9.5q-1 5 0.5 12.5t1.5 10.5q0 4 -2 13t-3 13v34q-2 34 3 44q0 2 -1.5 13.5t-3.5 16.5q3 5 5 23.5t8 24.5q5 3 17.5 3t17.5 -3q4 -7 4.5 -15t-0.5 -19t-1 -15q0 -5 1.5 -15.5t1.5 -16.5 q0 -7 -1 -21t-1 -21q0 -3 1 -10t1 -11t-1 -10t-1 -10q0 -2 1 -5.5t1.5 -6.5t0.5 -6q1 -2 0 -4.5t-1 -4.5v-27v-38t-2 -38q0 -3 2 -8.5t1 -9.5v-15h5q4 0 10.5 -0.5t9.5 -0.5q7 0 23.5 0.5t22.5 -0.5q13 -6 14 -10q1 -11 -6 -24l-2 -3q-2 -3 -3 -5q-48 -9 -50 -9t-23 3 q0 -9 3 -18q0 -4 -2 -8.5t-2 -7.5q1 -10 -0.5 -45.5t2.5 -44.5q-1 -5 -1.5 -21.5t-3.5 -22.5q4 -11 2.5 -44.5t8.5 -37.5q2 -3 10.5 -1t10.5 2t7 -1.5t9 -1.5q5 2 15.5 4t15.5 3q4 -3 12.5 -5.5t11.5 -4.5q33 6 58 -1q4 -1 6.5 -4t4.5 -9t3 -8q-1 -3 -2 -8t-2 -9t-2 -7z" />
<glyph unicode="&#xa4;" />
<glyph unicode="&#xa5;" horiz-adv-x="549" d="M427 280q-10 -10 -22 -5q-5 2 -109 -4q0 -26 4 -47q-4 -15 -3 -30h1q4 0 11 1.5t10 1.5q4 0 30 0.5t29 0.5q7 0 23.5 0.5t22.5 -0.5q8 -4 14 -21q1 -11 -4.5 -16.5t-11.5 -6.5t-17 -2q-12 5 -105 -4l-3 -18t-2 -16q0 -13 0.5 -27t1.5 -31.5t1 -27.5q7 -19 8 -23 q-2 -1 -12.5 -6.5t-17.5 -6.5q-19 0 -27 8q-5 10 -6 11q1 7 5 24q0 3 -2.5 12.5t-3 14.5t0 12.5t3.5 12.5q0 1 -2 11t-4 14q2 4 3 16t4 16q-1 3 -1 7h-18l-18 -3q-12 4 -33 2q-16 -2 -23 -4q-10 0 -12 -0.5t-7.5 4.5t-6.5 6q-1 5 -3 6q-1 1 0 7q2 19 11 27q6 0 18 2 q3 0 40 -1t44 0q5 0 7 1q0 6 -2 18q1 3 3 8t2 8q0 8 -1.5 22.5t-1.5 19.5h-17l-18 -3q-4 1 -5 -0.5t-6 -1.5q-3 0 -19.5 0.5t-19.5 -0.5q-31 -10 -32 10v5.5t0.5 2t1.5 2t1 5.5q1 6 0.5 11t0.5 10t4 8q1 2 6 2t9.5 -0.5t8.5 0.5q3 0 19.5 -0.5t23.5 0.5l20 2v1l-11 16 q-1 2 -2 8t-1 7q-1 5 -7 9t-7 7q-2 12 -2 14q-1 3 -6 8.5t-6 9.5q-7 14 -11 17q-13 24 -25 35q1 4 -1.5 8.5t-2.5 7.5q-1 3 -8 12t-9 17q-2 3 -7 7t-6 6q-2 6 -17 34q-1 2 -4.5 6.5t-4.5 7.5q-2 5 -11 12q-2 9 -9.5 21t-8.5 20q-3 3 -10 14t-12 16q0 5 -5 13.5t-3 13.5 q1 5 4.5 8t12 6t10.5 4q23 -5 36 -13l16 -36q2 -4 7.5 -8.5t6.5 -6.5q0 -3 5 -6l6 -18q10 -13 16 -30q1 -2 9 -13.5t10 -19.5q5 -5 9 -15q3 -2 4.5 -9t3.5 -9q3 -3 6 -9l4 -8q4 -8 11 -14q2 -3 8.5 -14t11.5 -16q0 -8 2 -10q1 -3 5 -8t6 -9q1 -2 4 -5l4.5 -4.5t3.5 -5 t2 -6.5q2 -2 0.5 -8t-0.5 -10t4.5 -8t4.5 -7q6 -8 13 -9q7 0 11 11q12 15 22 41q4 5 12.5 20t14.5 21q3 9 12 24t10 18q2 4 6 11.5t5 11.5q4 6 10 22l14 15q4 14 14 24q0 4 5 14q0 4 2.5 6t6 4t5.5 4q1 9 8 23t8 24q24 36 48 43q24 -5 32 -21q0 -5 -1 -9t-3.5 -8.5 t-3.5 -7.5q0 -1 -4.5 -7.5t-4.5 -12.5q-1 -1 -3 -2t-3.5 -2t-2.5 -2l-2 -2q-5 -21 -16 -27q0 -4 -2 -8t-1 -8l-14 -16q-1 -4 -3.5 -10t-3.5 -9q-14 -19 -26 -41q-3 -8 -11.5 -22.5t-11.5 -22.5q-5 -4 -13 -16.5t-15 -16.5q0 -4 -1 -6.5t-2.5 -5.5l-2.5 -5q-12 -12 -15 -21 q-9 -10 -11 -22q-3 -2 -7 -8.5t-5 -7.5q-1 -2 -0.5 -4.5t0.5 -5t-2 -2.5q-3 -7 -9 -11q16 1 39 1q4 0 11 -0.5t10 -0.5q7 0 23.5 0.5t22.5 -0.5q5 -2 5 -11.5t1 -11.5q0 -4 3 -7.5t-1 -6.5q-3 -6 -5 -8z" />
<glyph unicode="&#xa6;" />
<glyph unicode="&#xa7;" horiz-adv-x="481" d="M100 299q0 2 2.5 6t1.5 7q-1 6 -1 16t-1 16q0 14 2 22q0 5 4.5 13.5t4.5 14.5q10 12 14 19q5 4 18 12.5t19 14.5q-3 7 -19 13l-22 20q-10 16 -15 21q-2 13 -6 23q2 2 0.5 13.5t-1.5 13.5q2 14 4 16q0 5 1.5 13t1.5 12q8 10 13 28q5 6 14 17t14 17q7 5 21.5 12t19.5 10 q9 0 17 1t17.5 3.5t14.5 3.5q3 -1 6 -3.5t5 -3.5q14 -1 34.5 -9.5t22.5 -9.5q2 -2 4.5 -5t4 -5.5t4.5 -5t6 -3.5q17 -36 19 -39q1 -6 5.5 -28.5t3.5 -34.5q0 -4 -12 -6q-2 -2 -16 -2q-6 3 -14 13v17q-4 12 -14 32q-3 4 -12 11t-12 12q-28 12 -66 11q-4 -2 -7 -1 q-8 -5 -12 -13q-11 -2 -14 -5q-10 -12 -22 -22q-1 -7 -5.5 -17t-4.5 -16q1 -18 16 -50l20 -21q15 -4 30 -12h14q2 -2 5.5 -3t4.5 -2q7 1 15.5 -2t14.5 -3q7 -7 17 -6q2 -3 19 -11q1 0 8 -5t11 -6q2 -4 7.5 -10.5t6.5 -8.5t5 -9t8 -10q0 -10 8 -24q0 -6 -2 -14q0 -3 3 -8 t2 -11l-2 -14q-1 -13 0 -17q-1 -9 -7.5 -22t-7.5 -18q-10 -5 -21 -17q-4 1 -16 -7.5t-11 -13.5q0 -8 -11 -8q27 -9 29 -12q7 -1 12 -4t10.5 -8t8.5 -7q2 -6 7.5 -15.5t6.5 -12.5q0 -10 -1 -11q2 -4 8 -10q0 -8 9 -28q-1 -6 -2.5 -22t-2.5 -21q0 -1 -2.5 -7.5t-1.5 -12.5 q-5 -6 -7 -16q-9 -11 -20 -30q-5 -1 -14 -13q-1 -4 -31 -16t-32 -10q-8 -2 -15 -1q-6 1 -26 8q-13 -2 -28.5 4t-22.5 7l-39 30q-2 5 -6 13.5t-5 12.5q-3 4 -8 13t-8 13q-7 40 -6 56q1 0 1 4q14 14 29 13q4 -1 9.5 -5t7.5 -5q-8 -52 19 -77q14 -6 17 -12q2 -1 18 -11 q11 1 25 -7q17 0 19 -1q8 1 20 6t17 6q15 7 37 29q0 2 12 28q-1 7 4 25q-1 9 -4.5 18t-8 18.5t-6.5 15.5q-4 2 -14.5 9t-17.5 10q-11 2 -36 13q-29 -1 -57 16h-13l-14 9q-23 10 -38 21q-1 4 -4.5 9.5t-6.5 9.5l-3 4q-1 2 -2 5.5t-2.5 12.5t-1.5 15q0 1 0.5 4t0.5 5zM138 279 l8 -14q25 -19 32 -20q2 0 6.5 -3t9.5 -2q1 -1 3 -4.5t4.5 -6.5t4.5 -3q1 -2 9.5 -3.5t16.5 -2.5l9 -1q21 9 22 16q0 3 4 5t5 3q1 3 5 4.5t5 3.5q7 10 19 16q2 6 6 8l14 33l3 20v17q-5 14 -9 23q-2 4 -12.5 12.5t-14.5 13.5q-2 0 -6.5 1.5l-7.5 2.5q-9 12 -32 15.5t-42 -3.5 l-38 -22q-3 -2 -9.5 -8.5t-10.5 -8.5q0 -2 -2.5 -7t-2.5 -6l-5 -16q-1 -2 0 -11.5t2 -19.5t0 -18z" />
<glyph unicode="&#xa8;" horiz-adv-x="572" d="M410 591q-8 -10 -27.5 -12t-32.5 5q-5 5 -13 21q0 5 3 15t2 18q2 2 13 6q14 10 31 8q5 -2 10 -7.5t7 -6.5q1 -4 4.5 -15t3.5 -15.5t-1 -16.5zM213 595q-2 10 3 22.5t5 18.5q6 9 22 11t28 -3q4 -3 7.5 -15t8.5 -15q-5 -23 -30 -37q-2 0 -9.5 1t-12.5 0q-2 2 -10.5 7.5 t-11.5 9.5z" />
<glyph unicode="&#xa9;" />
<glyph unicode="&#xaa;" horiz-adv-x="499" d="M401 8q0 5 2.5 27.5t-0.5 28.5q-8 -1 -13 -5.5t-10 -12l-7 -10.5q-5 -3 -13 -9.5t-12 -9.5q-2 -1 -8 -1.5t-8 -1.5q-18 -12 -24 -14q-9 -3 -31.5 -5t-31.5 -5q-16 4 -23 0q-14 6 -32 5q-24 5 -30 5q-1 2 -8 3.5t-9 4.5q-2 0 -7.5 3t-9.5 3q-2 1 -5 4.5t-5 4.5 q-1 3 -6 4.5t-6 2.5q-2 4 -10 11t-11 11q-1 1 -8 9t-11 13q-2 8 -9 23t-8 26q-1 5 -6.5 10t-6.5 10q2 9 0 40q0 31 -1 34q1 3 2 10.5t2 10.5q0 15 2.5 29t6.5 29.5t6 24.5q4 5 10.5 16.5t11.5 16.5q5 9 23 30q13 8 46 37q23 6 25 6q39 17 112 9q24 -5 33 -4q4 -4 13.5 -8.5 t13.5 -7.5q19 -12 27 -14q3 -3 7.5 -12t9 -14t11.5 -7q6 5 6 31q0 4 -0.5 14.5t0.5 12.5q7 7 20 6.5t20 -6.5q3 -7 4 -27t2 -25q0 -2 -0.5 -5.5t-1 -6t-1.5 -4.5q6 -29 -2 -53q2 -21 2.5 -75.5t4.5 -84.5q0 -3 -2 -8t-1 -9q0 -39 -2 -46q1 -3 1.5 -9t1.5 -11t3 -8 q-1 -3 0 -20t-3 -21q-1 -4 -19 -14q-24 5 -27 8zM406 254q-7 25 -8 33q-8 9 -12 26q-2 3 -5 7t-5 6q0 4 -4 7.5t-4 6.5l-25 24q-13 5 -14 6q-3 0 -6 3.5t-7 4.5q-12 4 -20 3q-5 7 -19 9t-27.5 1t-26.5 1q-5 -1 -11 -5.5t-11 -5.5q-4 1 -10 0t-7 -1q-30 -20 -36 -22 q-13 -16 -24 -22q-1 -6 -16 -21q-2 -13 -17 -38q-1 -5 -7.5 -35t-3.5 -45q4 -31 5 -40q4 -7 8 -23q7 -9 14 -27q5 -4 13 -12.5t12 -11.5l6 -3l11 -9q21 -16 54 -26q6 -1 71 -1q14 4 22 3q6 6 17 6q12 11 24 13q7 7 21 19.5t21 19.5q5 15 13 22q1 7 5.5 18t5.5 17q4 45 3 92z " />
<glyph unicode="&#xab;" horiz-adv-x="365" d="M17 242q1 1 5 2.5t6 2.5q11 10 26.5 35t25.5 34q1 3 2.5 6t1.5 5q16 14 30 41q2 1 5 3.5t6 3.5q4 12 18 29.5t18 28.5q4 1 8.5 5t8.5 5q4 -1 11 -4t10 -4q10 -20 11 -26q-2 -3 -9.5 -11t-9.5 -14q-3 -1 -7.5 -6t-8.5 -6q-1 -5 -13 -19q-1 -3 -11 -14.5t-11 -15.5 q-1 -5 -3.5 -9.5t-6 -8.5t-5.5 -7q-2 -2 -6 -7.5t-7 -8.5t-8 -5q-7 -24 -27 -28q1 -4 -0.5 -12t0.5 -10q1 -1 3 -2t2 -2q1 -1 2.5 -4.5t2.5 -4.5l2 -1q2 -1 2 -2q1 -1 1 -3l1 -2l5 -3v-3t1 -2q3 -3 8 -8.5t7 -7.5l12 -15q15 -19 17 -30q4 -2 7 -5t6.5 -6t5.5 -5 q1 -2 1.5 -6.5t2.5 -6.5q1 -2 14 -12l12 -24q5 -1 17 -17t13 -25q-16 -12 -30 -15q-8 -2 -11 -1q-11 1 -23 14.5t-18 16.5q-3 10 -14 23.5t-14 20.5q-4 4 -13.5 16t-16.5 18l-11 22q-2 3 -8.5 8t-8.5 7q-5 16 -24 41l-6 7q-5 7 -7 12q-2 12 0 22zM329 25q-19 -15 -39 -10 q-22 19 -24 27q-3 4 -12.5 14t-13.5 16q-3 5 -11 15.5t-11 17.5q-31 28 -35 65q-2 2 -5.5 10t-7.5 10q0 2 -4 8.5t-7 7.5q-2 4 -14 14q0 4 -3 8t-3 6q0 8 9 18t10 19q12 9 19 23q2 5 8.5 12.5t8.5 13.5q10 6 13 12q2 3 6.5 7t5.5 6q6 17 16 22q1 11 12 24t12 23 q6 3 13.5 14.5t14.5 14.5q16 -4 24 -17.5t6 -31.5q-3 -5 -7.5 -9.5t-10.5 -9t-9 -7.5q-1 -3 -5 -8.5t-6 -9.5q-11 -16 -11 -19l-16 -16q-1 -1 -4.5 -5t-5 -7.5t-1.5 -8.5q-6 -5 -11.5 -12t-11.5 -16t-10 -14q-3 0 -5 -3.5t-4 -3.5q-7 -2 -8 -7q1 -8 14 -19q1 -1 5.5 -8.5 t8.5 -9.5q11 -21 27 -36q5 -16 14 -22q5 -10 18.5 -26.5t16.5 -23.5l12 -7l7 -10q6 -10 8 -17l9 -12v-5q1 -4 -0.5 -9t-1.5 -8z" />
<glyph unicode="&#xac;" />
<glyph unicode="&#xad;" horiz-adv-x="254" d="M210 194q-48 -9 -50 -9q-5 0 -16 2t-17 1l-18 -3q-12 5 -42.5 1t-39.5 7q-5 15 -3.5 23.5t11.5 17.5h35h10q11 -1 19 -1q3 0 21 2t21 2q4 0 10.5 -0.5t9.5 -0.5q7 0 23.5 0.5t22.5 -0.5q13 -6 14 -10q1 -11 -6 -24l-2 -3q-2 -3 -3 -5z" />
<glyph unicode="&#xae;" />
<glyph unicode="&#xaf;" />
<glyph unicode="&#xb0;" />
<glyph unicode="&#xb1;" />
<glyph unicode="&#xb2;" horiz-adv-x="523" d="M400 375q-14 -3 -23 -3l-27 -4q-1 0 -4.5 0.5t-5.5 0.5q-12 0 -14 2q-3 -2 -10.5 -2.5t-9.5 -1.5q-4 1 -23 1h-17q-12 0 -23 3l-5 -2.5t-4 -1.5t-3 1.5t-5 0.5q-5 -1 -25 -0.5t-28 0.5q-17 0 -20 3q0 4 5 7t7 5q4 2 10 6.5t10 6.5l2 2q2 1 3 2q8 6 16 10q1 2 6.5 5.5 t6.5 7.5q8 4 20 13t15 11q2 4 9 7t8 6q6 2 17 13q25 26 29 36q2 5 4 12.5t3 10.5q-2 24 -4 28q-1 3 -4.5 8.5t-4.5 8.5q-1 1 -16 13q-3 0 -10 3.5l-9 4.5t-26 1q-1 0 -2.5 0.5t-2.5 0.5q-5 -1 -18 -6q-3 -2 -8 -8t-9 -8q-2 -3 -5.5 -7.5t-4.5 -6.5q-1 -4 -6 -15v-16 q0 -3 2.5 -12t4.5 -16l2 -8q0 -6 -10 -8q-3 -2 -17 -5.5t-16 -3.5q0 1 -2 3t-2 3q-1 2 -3 7.5t-4 6.5q0 7 -2 18t-2 17q2 15 2 18q4 7 4 21q4 8 5 14q5 5 14 21q3 4 8.5 9.5t6.5 7.5q3 2 12.5 8t15.5 8l12 6q2 0 14 4q5 0 13 2h17q5 -1 14 -4t15 -4l16 -8q1 -1 6 -4.5 t8 -4.5l5.5 -5.5t6.5 -6t5 -5.5l19 -27q0 -9 5 -19q1 -9 1 -28v-25q0 -2 -2 -6t-2 -8q-3 -3 -6 -11t-5 -10q-1 -2 -4 -4.5t-4 -3.5l-7 -9q-3 -1 -9 -5t-8 -5l-13 -13q-12 -4 -21 -13q-5 0 -10 -7q2 -2 13 -2q22 2 31 -1l7 2q25 0 32 1q6 0 16 2t15 1q7 -11 7 -47z" />
<glyph unicode="&#xb3;" horiz-adv-x="455" d="M121 379q2 1 17 1q24 0 27 -3v-22q1 -4 2.5 -9.5t1.5 -8.5q1 -4 5.5 -9.5t5.5 -9.5l14 -13q6 -2 15.5 -6t14.5 -5q28 1 47 10l5 4q6 4 10 5q1 3 6.5 9.5t7.5 10.5q1 4 2 9.5t1 6.5q2 10 1 16q0 9 -5 20t-5 13q-7 11 -29 25q-3 0 -3 1q-10 0 -17 4q-11 -2 -14 2 q-4 27 0 47q4 4 16 4l16 5q2 0 5.5 3.5t6.5 4.5l15 27l3 18q-2 10 -18 35l-18 12q-12 4 -32 4q-20 -9 -23 -11q-17 -15 -24 -40q0 -5 1 -12t1 -12q-2 -5 -9 -6.5t-14 0t-14 -0.5q-1 1 -5 2.5t-6 3.5q-4 5 -4 23q6 26 6 28q6 12 7 22q4 4 10 16q6 3 14 13q4 1 20 11 q13 7 24 9q2 0 29 3q3 0 11 -1.5t12 -1.5l21 -9q2 -1 14 -8l12 -9q5 -9 11 -13l15 -32q1 -7 7 -26q-1 -4 -1 -13t-2 -14q-7 -12 -9 -22q-3 -4 -21 -22q-4 0 -5 -3q-14 -5 -16 -7q1 -3 3.5 -4.5t6 -2.5t5.5 -2q1 -1 6.5 -3.5t7.5 -4.5q3 -1 5 -5.5t4 -5.5q2 0 4 -4l18 -30 q1 -5 1 -14.5v-13.5q0 -7 5 -17l-2 -21q0 -3 -3 -8t-2 -9q-4 -5 -9 -17q-2 -1 -11 -12q0 -1 -3.5 -5.5t-4.5 -8.5q-5 -1 -12 -6l-7 -4q-1 -1 -7 -5t-10 -6q-4 -1 -10.5 -3t-8.5 -3q-4 2 -12 0.5t-13 -0.5q-3 1 -5 -1t-4 -2l-9 3q-11 -4 -24 3l-7 3q-4 4 -15 6q-7 11 -17 13 q-2 5 -8.5 12t-8.5 9q-2 3 -7 12.5t-9 12.5q-5 21 -6 24q0 2 -1 5t-1 4q1 4 1 11t1 12t3 9z" />
<glyph unicode="&#xb4;" horiz-adv-x="538" d="M233 531q0 7 4 16t5 14q8 8 24 28q12 17 14 24l11 6q3 5 10.5 15t10.5 15q4 3 11 13.5t12 13.5q9 3 27 -2q4 -5 13 -27q0 -7 -3 -12.5t-7 -11t-6 -9.5q-2 -1 -8 -3.5t-9 -3.5q-1 -3 -5 -8.5t-5 -9.5q-1 -1 -5 -2t-6 -3q-12 -20 -28 -26q-1 -4 -4 -8t-6.5 -8t-5.5 -6 q-5 -2 -13 -8q-25 -8 -31 3z" />
<glyph unicode="&#xb5;" />
<glyph unicode="&#x3bc;" />
<glyph unicode="&#xb6;" />
<glyph unicode="&#xb7;" horiz-adv-x="222" d="M175 323l2 -2q-1 -8 -4 -14.5t-7.5 -14.5t-6.5 -12q-30 -15 -62 -15q-17 8 -21 13q-2 2 -8.5 6t-9.5 8q-4 8 -2.5 25t6.5 26l15 21q17 21 36 21q6 0 37 -13q20 -31 25 -49z" />
<glyph unicode="&#xb8;" horiz-adv-x="472" d="M201 -98q0 5 4 15t2 18q4 3 8 10t6 9q2 12 11 33t11 35l10 17q-1 11 6 25t8 18q-2 27 8 33q12 1 20 -2.5t15.5 -10.5t13.5 -9v-22q-8 -20 -19 -32q-1 -5 -5.5 -13.5t-5.5 -11.5v-5l-3 -1q-1 -2 -7 -19q0 -4 -4 -7t-5 -6q1 -7 -2.5 -14.5t-3.5 -12.5l-7 -7l-12 -21 q-1 -2 -4.5 -8.5t-6 -10t-6.5 -7.5t-9 -5q-17 -4 -23 12z" />
<glyph unicode="&#xb9;" horiz-adv-x="299" d="M195 381q-3 -1 -19 -1q-24 0 -28 3q0 4 -3 4q0 4 1.5 19.5t-1.5 20.5q2 10 2 32t1 34q-5 23 -2 42q-1 5 -1 14q1 6 1 15v15q-1 2 -2.5 13t-5.5 14q-9 1 -24.5 -1.5t-24.5 -0.5l-5 7q-2 7 0 22q3 21 3 22q6 2 27 2h27q5 0 13.5 0.5t12.5 0.5h7q17 0 18 -1q4 -6 4 -20v-22 v-87v-25q0 -27 -1 -32q1 -6 1 -41v-3l1 -2q0 -2 -0.5 -3.5t-0.5 -2.5l3 -18l1 -2q0 -4 -5 -18z" />
<glyph unicode="&#xba;" horiz-adv-x="523" d="M399 536h1q1 -7 -2 -23q-1 -3 -1.5 -10.5t-1.5 -10.5l-9 -22l-12 -20q-1 -1 -3.5 -3t-4.5 -4t-3 -4l-11 -10q-12 -5 -19 -11q-5 -2 -8 -6q-7 -2 -9 -4q-5 -1 -10.5 -3.5t-7.5 -3.5q-54 0 -63 2l-3 2h-3q-10 2 -30 11l-11 7q-6 3 -16 11t-13 10l-10 17l-7 14q-2 2 -2 3 l-7 17q1 6 -1 15q-1 4 -0.5 12.5t0.5 11.5q2 21 5 28q1 6 7 25q1 2 3.5 6.5t3.5 7.5q7 7 8 12q9 4 12 10q1 3 5 6t5 3q2 1 5 5.5t5 5.5q14 6 20 6q5 2 40 10h32q8 -2 23 -4q0 -2 3.5 -3t3.5 -2q3 0 6 -1t6 0q3 -5 11 -7q2 -2 6 -5t7 -5q1 -1 3 -4t5 -5l6 -2q1 -3 4.5 -7 t4.5 -7q6 -5 10 -13q1 -2 1 -4q1 -2 1 -3l3 -6l3 -6t4 -6q0 -7 2.5 -17.5t2.5 -15.5zM349 544q-6 16 -16 33q-4 3 -6 8q-10 5 -15 11q-3 1 -9 4.5t-8 4.5q-16 7 -46 5q-7 -1 -21 -5q-16 -12 -32 -26q-2 -4 -6 -9t-5 -8q-8 -30 -6 -46l6 -15q1 -2 2.5 -7t2.5 -7 q3 -5 10.5 -11t9.5 -9l12 -8q3 -5 13 -7q1 0 1 -1q6 -2 32 -4q2 1 21 1q4 4 11 4l20 12q3 4 8 10t8 10.5t7 11.5t6 14q1 9 1 31v1q0 2 -1 2z" />
<glyph unicode="&#xbb;" horiz-adv-x="370" d="M148 33q-1 9 3.5 18.5t5.5 12.5q13 3 27 20t17 28q2 6 16 22l8 8l3 2q2 1 5 1q5 1 9 11.5t5 11.5q4 0 7 4t6 4q0 13 9 22q1 9 10 18t11 14q0 3 -2 4.5t-6 3.5l-5 1q-1 5 -12 22.5t-13 17.5q-5 9 -13 12l-12 18q-1 6 0 9q-4 4 -13.5 10t-12.5 9q0 1 -1.5 3.5t-1.5 4.5 q-18 11 -38 49q-1 1 -5 4t-6.5 5.5t-3.5 6.5q1 10 9 22q3 1 12 5.5t16 5.5l18 -24q9 -9 22.5 -30t22.5 -30q1 -3 3 -6t2 -5q27 -36 38 -47q2 -13 16 -28t16 -19q13 -9 25 -26q0 -1 -3 -31q-2 -2 -6 -7.5t-6.5 -10t-3.5 -9.5q-1 -1 -5 -3l-6 -3q-7 -15 -24 -37t-25 -23 q-2 -4 -8.5 -12t-7.5 -15q-2 0 -4.5 -1.5t-3.5 -1.5q-5 -12 -22.5 -27t-22.5 -27q-3 0 -5.5 -2.5t-4.5 -2.5q-28 3 -39 18zM204 203q0 -4 -3.5 -9.5t-3.5 -7.5q-1 -4 -4 -9t-4 -9q-5 -4 -11 -14t-10 -14q0 -12 -8 -26t-9 -18q-27 -22 -36 -47q-2 -1 -5 -4t-5.5 -4.5 t-5.5 -2.5q-16 -18 -21 -21q-42 5 -42 22q0 8 11 16q-2 7 19 24q0 4 3 4q4 16 27 35q0 1 23 35q4 6 12 17t12 16l5 4q8 14 9 19q9 7 11 15q-4 15 -12 17q-2 1 -7 6t-9 7q-4 12 -21 25q-2 6 -8.5 16.5t-8.5 17.5q-2 3 -10.5 11.5t-10.5 15.5l-10 10q-10 10 -18 12 q-6 17 -6 19q-2 4 -7.5 7.5t-6.5 6.5v13q1 5 6 11.5t6 8.5q4 1 9 7t10 6q4 0 6 -1.5t4.5 -5t3.5 -4.5l6 -6t7 -5q-1 -5 2 -8q4 -4 14.5 -22t19.5 -24q-1 -2 0.5 -4.5t1.5 -4.5q2 -2 10 -13.5t12 -19.5q4 -6 14 -14q4 -8 9 -16t13 -16.5t11 -13.5q1 -5 5 -13q1 -3 7 -7.5 t7 -7.5l1 -3q0 -3 2 -5q0 -1 -3.5 -5.5t-8 -10t-4.5 -8.5zM204 351v2q-1 -1 0 -2z" />
<glyph unicode="&#xbc;" horiz-adv-x="742" d="M614 67q-2 0 -4 -1t-4 -1.5t-5 -0.5q-8 2 -16 0q-9 1 -31 1q-3 -5 -4 -12t0 -17.5t1 -14.5v-9q0 -2 1 -4v-2v-28q3 -27 2 -30q-1 -2 -11 -1.5t-13 0.5t-7.5 -2t-5.5 -2q-2 1 -7 2.5t-7 2.5l-7 11q1 3 2.5 8.5t2.5 8.5t0 16t-1 15q0 27 -2 32q4 13 2 22q-2 2 -8 3h-6 q-21 2 -32 -2h-19h-18q-4 0 -15 -0.5t-16 -0.5q-4 0 -10.5 1t-9.5 1q-2 0 -6 -1t-6 -1q-1 0 -5 0.5t-6 0.5q-21 0 -24 6q0 6 6 12.5t7 8.5q10 14 16 20q3 5 14 17.5t16 20.5q10 10 15 20q1 0 3 3.5t4 4.5q1 3 4.5 6t3.5 4q4 3 8.5 10t6.5 9q12 14 17 17q0 3 4 7q1 0 1 3 q1 3 3 3q2 2 6 8t7 8q1 2 6 8t7 10l14 16q3 3 4 6l3 3t4 3.5t3 3.5l3 6l6 3q1 3 3.5 7t3.5 6t4 5.5t3 6.5q2 1 7.5 9.5t13.5 9.5q6 -2 6 -21q-1 -3 -1.5 -11.5t-2.5 -11.5l3 -10q-3 -74 0 -122l-3 -9q1 -8 1.5 -25.5t2.5 -25.5q11 -3 30.5 -2.5t29.5 -0.5q3 -5 3 -17.5 t1 -15.5q0 -1 0.5 -1t0.5 -1q0 -6 -3 -12zM353 395l-28 -67q-8 -12 -23 -50q-1 -3 -7.5 -20t-11.5 -27q-1 -3 -6 -10t-6 -10l-8 -22q-2 -4 -12 -28.5t-16 -36.5q-1 -7 -16 -35q-1 -1 0 -2t0 -2q-14 -31 -17 -43q-2 -4 -6 -9t-5 -8q-2 -5 -23 -54q-1 -3 -2 -10.5t-4 -10.5 q-1 -1 -2 -8.5t-6 -11.5q-5 -6 -7 -9t-7 -4.5t-7 -1.5t-13 -1q-8 0 -11 0.5t-3.5 1.5t-0.5 6.5v8.5l15 24q4 15 16 34q4 12 25.5 56.5t28.5 64.5q4 10 17 36.5t22 47t13 37.5q4 7 10.5 23.5t13.5 25.5q1 9 9 25t10 24l3 15q5 4 15 25t20.5 47.5t11.5 27.5q3 7 8.5 19t7.5 17 l6 15q17 34 37 88q19 45 20 50q2 6 5.5 17t5.5 15t5.5 10t8.5 7t13 1t19 -4q9 -12 -14 -42q-21 -53 -25 -69q-2 -5 -7 -10t-6 -9q-6 -14 -21 -45.5t-24 -53t-16 -43.5q0 -1 -2 -3.5t-3 -4.5t0 -4zM230 327q-2 -1 -18 -1q-23 -2 -28 2l-2 2q-1 2 -2 3q0 3 1.5 19t-1.5 21 q2 10 2 32t1 34q-4 27 -1 41q0 5 -2 15q2 5 1.5 14.5t0.5 14.5q-1 3 -3 14t-6 13q-9 1 -24.5 -2t-23.5 0q-1 5 -6 6v24q2 19 4 22q5 1 27 1h27q5 0 13.5 1t12.5 1q1 0 3.5 -1t3.5 0q17 0 19 -1q3 -5 3 -20q0 -4 -0.5 -11t-0.5 -10v-88v-25q0 -29 -1 -31q2 -8 2 -23.5v-18.5 v-2q1 -2 1 -4q0 -1 -0.5 -2t-0.5 -2q0 -3 3 -18v-3q2 -8 -5 -17zM498 147q4 22 0 72q-11 0 -13 -14q-8 -6 -9 -11q-5 -2 -11 -10t-8 -10q-8 -10 -9 -13h-3q-1 -2 -2.5 -3.5t-1.5 -2.5q-10 -13 -11 -14q-3 -3 -5 -3q-1 -4 -6.5 -10t-6.5 -11h25q15 -5 31 0q18 -5 28 0 q7 9 2 30z" />
<glyph unicode="&#xbd;" horiz-adv-x="754" d="M634 85q-14 -3 -22 -3l-27 -3q-2 0 -5 0.5t-5 0.5q-13 0 -15 2q-2 -3 -10 -3t-9 -1q-3 1 -22 1h-18q-13 0 -24 3l-8 -4q-3 -1 -5 0.5t-3 1.5q-5 -1 -25 -0.5t-27 0.5q-2 0 -7 -1t-8 -0.5t-6 3.5q0 4 5.5 7.5t6.5 5.5q3 2 9.5 6.5t9.5 6.5l6 3q9 7 16 9q2 2 7 6t6 8 q8 3 19.5 12t16.5 12q1 4 8 7t8 6l16 13q25 27 29 37q3 5 8 22q-2 22 -4 29q-1 2 -4.5 7t-4.5 9q-2 3 -5 5t-6.5 4.5t-5.5 4.5q-3 0 -9.5 3.5t-9.5 3.5q-2 1 -26 1q-2 1 -4 1q-9 -1 -18 -6q-4 -2 -9.5 -8t-7.5 -8q-5 -8 -11 -13q-1 -8 -6 -16v-16l9 -36q0 -6 -9 -8 q-3 -1 -17.5 -4.5t-15.5 -3.5q-4 5 -5 6t-2.5 6.5t-3.5 7.5q0 5 -2 16.5t-1 18.5v18q3 5 5 21q2 3 4 14q3 2 5.5 5.5t5 8.5t4.5 7q13 16 14 17q23 13 29 15q6 1 12 7q4 -1 15 4q4 -1 12 2h17q4 -1 13.5 -4t16.5 -4q2 -2 7.5 -5t7.5 -4t6.5 -4l7.5 -5q3 -3 9 -8.5t8 -7.5 q2 -4 9 -13t10 -15q0 -10 5 -18q0 -17 1 -28q0 -2 -0.5 -12.5t0.5 -14.5q0 -1 -2 -5t-2 -7q-3 -3 -6.5 -11t-4.5 -10q-1 -4 -9 -8q-1 -4 -6 -9q-4 -1 -9.5 -5.5t-7.5 -5.5q-6 -5 -13 -13q-13 -3 -21 -11q-6 -1 -10 -9q3 -4 14 -2q21 2 30 -1q1 0 3 1.5t4 0.5q25 0 32 1 q6 0 16.5 2t14.5 2q7 -11 6 -48zM336 395l-28 -67q-8 -12 -23 -50q-1 -3 -7.5 -20t-11.5 -27q-2 -3 -6 -10t-6 -10l-8 -22q-2 -4 -12 -28.5t-16 -36.5q-1 -7 -16 -35v-2v-2q-14 -31 -17 -43q-1 -4 -5 -9t-6 -8q-2 -5 -23 -54q-1 -3 -2 -10.5t-4 -10.5q-1 -1 -2 -8.5 t-6 -11.5q-5 -6 -7 -9t-7 -4.5t-7 -1.5t-13 -1q-8 0 -11 0.5t-3.5 1.5t-0.5 6.5v8.5l15 24q4 15 16 34q4 12 25.5 56.5t28.5 64.5q4 10 17 36.5t22 47t13 37.5q4 7 10.5 23.5t13.5 25.5q1 9 9 25t10 24l3 15q5 4 15 25t20.5 47.5t11.5 27.5q3 7 8.5 19t7.5 17l6 15 q17 34 37 88q19 45 20 50q2 6 5.5 17t5.5 15t5.5 10t8.5 7t13 1t19 -4q9 -12 -14 -42q-21 -53 -25 -69q-2 -5 -7 -10t-6 -9q-6 -14 -21 -45.5t-24 -53t-16 -43.5q0 -1 -2 -3.5t-3 -4.5t0 -4zM232 344q-2 -1 -18 -1q-22 -3 -27 2l-4 5q-1 4 0.5 18.5t-0.5 21.5q2 10 2 32 t1 34q-6 25 -2 41q0 2 -0.5 7t-0.5 8q1 6 1 14.5v14.5q-1 3 -1.5 9.5t-2 11t-4.5 6.5q-10 1 -25.5 -2t-23.5 0q-1 4 -5 6q-2 8 0 24q2 20 3 21q6 2 27 2h27q5 0 14 1t13 1l2 -1q3 -1 4 0q18 0 19 -1q3 -5 3 -20q0 -4 -0.5 -11t-0.5 -10v-88v-25q0 -29 -1 -31q2 -8 2 -23v-19 v-2q1 -2 1 -4l-1 -2v-2q0 -3 3 -18q-1 -1 0 -2t1 -2q1 -7 -6 -16z" />
<glyph unicode="&#xbe;" horiz-adv-x="897" d="M762 66q-2 0 -6 -2.5t-7 -1.5q-11 2 -16 0q-9 3 -31 3q-5 -10 -3 -45v-10q0 -1 0.5 -3t0.5 -3v-27q3 -26 2 -29q-3 -2 -7 -2.5t-8 0t-9 -0.5q-3 0 -7 -1.5t-6 -1.5q-11 2 -14 6q-2 1 -4 4.5t-3 4.5q0 2 2 8.5t3 9.5q1 6 -0.5 16.5t-1.5 14.5q0 28 -1 31q3 18 1 22 q-1 1 -3.5 1.5t-5.5 1t-4 0.5q-23 2 -33 -2h-18h-18q-5 0 -15.5 -0.5t-16.5 -0.5q-3 0 -9.5 1t-9.5 1q-2 0 -6 -1t-6 -1t-5.5 0.5t-5.5 0.5q-20 0 -25 7q0 6 6.5 12.5t7.5 8.5q11 15 16 19q3 6 14.5 18.5t15.5 20.5q9 8 15 19q1 1 3 4.5t4 5.5q1 1 3.5 4t3.5 5q4 3 9 9.5 t7 8.5q9 12 17 18q0 3 4 7q1 0 1 3t2 3q3 3 7.5 8.5t6.5 7.5q1 1 6 7t6 10l15 17l4 5l5 5l5 5l3 6q5 3 6 4q0 3 3 7.5t4 6.5l4 4q3 3 3 6q2 1 7.5 10t13.5 10q6 -3 6 -21q-1 -4 -2 -12t-2 -11q2 -8 2 -11q-2 -81 0 -121q0 -6 -2 -8q1 -7 1.5 -25t2.5 -28q9 -2 30 -1t30 -2 q2 -4 2.5 -9.5t0 -11t0.5 -11.5l2 -2q0 -3 -3 -12zM153 335q2 1 16 1q24 0 27 -5q2 -3 2 -6.5t-1 -8t-1 -6.5q0 -3 2 -9l3 -9q1 -4 5.5 -10t5.5 -10q5 -3 14 -12q6 -2 16.5 -6t14.5 -5q25 1 47 10q1 1 5.5 5t8.5 5q1 3 6.5 8.5t6.5 11.5q2 5 4 15q0 2 1 8t1 8q0 7 -2 12.5 t-5.5 11.5t-4.5 9q-8 13 -28 25q-4 0 -4 2l-16 2q-11 0 -15 4q-3 23 0 47q10 5 17 4l16 4q1 1 4.5 4t6.5 4l8 12t8 16q2 14 2 19q-1 6 -3.5 11.5t-7.5 12t-7 9.5q-2 2 -8.5 6t-9.5 7q-24 3 -31 2q-10 -1 -24 -9q-17 -17 -24 -40q0 -5 2 -13t2 -12q-2 -5 -9 -6t-14.5 0 t-15.5 -1q-1 1 -5 2.5t-6 3.5q-3 5 -3 23q4 18 5 29q4 5 8 22q8 10 10 15q9 6 13 13q10 2 20 12l24 9q6 0 15.5 1.5t13.5 1.5t11.5 -1.5t12.5 -1.5q3 -3 22 -9q2 -2 6.5 -4.5t6.5 -3.5q1 -1 12 -10l10 -14q4 -5 9.5 -17t6.5 -13q0 -4 1 -8.5t2.5 -9.5t2.5 -8q-1 -5 -1 -14 t-1 -14q-8 -18 -8 -21q-2 -2 -6.5 -7t-8 -8.5t-7.5 -6.5q-5 -2 -5 -4q-13 -2 -17 -7q1 -3 7.5 -5t7.5 -4q2 -1 7.5 -3t7.5 -4q3 -1 5 -5.5t4 -5.5q2 0 3 -2t2 -2q1 -1 16 -31q2 -2 1.5 -13.5t-0.5 -14.5q1 -4 3 -9.5t2 -7.5q0 -14 -2 -21q0 -2 -2.5 -7.5t-1.5 -9.5 q-6 -6 -9 -16q-1 -1 -11 -13q-1 -1 -4.5 -5t-3.5 -7q-2 0 -19 -12q-3 -1 -8.5 -5t-9.5 -5q-3 -1 -8.5 -3.5t-8.5 -2.5h-26q-2 0 -4.5 -1.5t-5.5 -1.5q-3 -1 -8 3q-10 -3 -25 2q-4 2 -6 4q-6 4 -15 6q-7 9 -17 13q-3 5 -9.5 11.5t-8.5 10.5q-3 3 -7 12t-8 13l-6 22q0 2 -1 5 t-1 4q0 2 1 14.5t4 18.5zM514 395l-28 -67q-8 -12 -23 -50q-1 -3 -7.5 -20t-11.5 -27q-2 -3 -6 -10t-6 -10l-8 -22q-2 -4 -12 -28.5t-16 -36.5q-1 -7 -16 -35v-2v-2q-14 -31 -17 -43q-1 -4 -5 -9t-6 -8q-2 -5 -23 -54q-1 -3 -2 -10.5t-4 -10.5q-1 -1 -2 -8.5t-6 -11.5 q-5 -6 -7 -9t-7 -4.5t-7 -1.5t-13 -1q-8 0 -11 0.5t-3.5 1.5t-0.5 6.5v8.5l15 24q4 15 16 34q4 12 25.5 56.5t28.5 64.5q4 10 17 36.5t22 47t13 37.5q4 7 10.5 23.5t13.5 25.5q1 9 9 25t10 24l3 15q5 4 15 25t20.5 47.5t11.5 27.5q3 7 8.5 19t7.5 17l6 15q17 34 37 88 q19 45 20 50q2 6 5.5 17t5.5 15t5.5 10t8.5 7t13 1t19 -4q9 -12 -14 -42q-21 -53 -25 -69q-2 -5 -7 -10t-6 -9q-6 -14 -21 -45.5t-24 -53t-16 -43.5q0 -1 -2 -3.5t-3 -4.5t0 -4zM646 146q2 13 0 71q-5 1 -8.5 -3t-4.5 -10q-8 -8 -9 -12q-6 -2 -11.5 -10t-7.5 -10 q-3 -2 -10 -13h-2q-1 -1 -4 -5q-10 -12 -11 -14q-1 0 -2 -2t-3 -2q-1 -4 -6.5 -10t-6.5 -11q3 -2 12.5 -1t12.5 1q14 -6 31 0q19 -6 28 2q5 5 2 29z" />
<glyph unicode="&#xbf;" horiz-adv-x="424" d="M33 165q-1 5 4 33q6 23 10 28q11 1 30 -7.5t20 -19.5q-1 -5 -6 -13t-6 -12q-2 -40 3 -54q1 -2 7 -6.5t7 -8.5q2 -2 3 -8t2 -7l5 -4q6 -4 10 -5q7 -12 11 -14q2 -2 7 -4t6 -2q2 -1 6 -4t7 -4q6 0 14 -3t11 -4q22 -1 77 11q2 2 12 10.5t16 10.5q2 3 6.5 7t6.5 7 q0 3 3.5 9.5t2.5 12.5q15 21 16 40q1 8 -1 25t-2 23q-6 15 -6 16q-11 12 -29 40q-11 5 -31 19l-36 12q-4 -1 -9.5 1t-9.5 1q-7 3 -21 5t-19 4q-4 2 -10.5 6.5t-12 7t-11.5 3.5q-3 5 -30 32q-3 5 -9 14t-7 11q-2 30 -11 46q0 8 -2.5 20.5t-2.5 17.5l6 33q11 13 11 19 q9 6 22 28q20 17 21 19q13 5 33 21q31 3 32 3q4 -2 37 -4t45 -1q1 0 9 -4.5t14 -4.5l22 -15q3 -1 7 -4q2 -3 9.5 -10.5t12 -13t1.5 -6.5q1 -15 10 -29q-1 -7 3.5 -19t4.5 -17t-2.5 -14t-2.5 -13q-9 -11 -25.5 -13t-25.5 12q7 25 -1 45q-4 5 -11.5 18.5t-12.5 19.5 q-3 1 -6.5 3.5t-4.5 3.5q-7 1 -21 7t-23 7q-3 0 -13 -1.5t-17 -0.5q-20 -10 -31 -12q-8 -8 -16 -12q-6 -11 -19 -18q-1 -5 -6 -9.5t-5 -8.5q0 -7 -3 -21t-2 -24q0 -2 5 -16q3 -8 11 -22t11 -21q4 -2 10 -8t10 -8q9 -3 29 -7q19 3 34 1q9 -6 31.5 -13t27.5 -9q5 -7 18 -14.5 t16 -10.5t15 -12.5t15 -17.5q3 -5 5 -16q4 -3 7.5 -6.5t8 -9.5t6.5 -8q2 -7 2 -15t-1 -18t-1 -17q-7 -25 -6 -35q-7 -11 -8 -15q-1 -17 -8 -37q-5 -3 -9.5 -13t-6.5 -12q-5 -9 -17 -25q-7 -4 -19.5 -14t-21.5 -14q-10 -2 -26 -5.5t-21 -4.5q-9 1 -25.5 0.5t-23.5 -0.5 q-5 0 -21 3.5t-25 2.5q-33 23 -38 29q-13 5 -22 14q-2 9 -11 20.5t-11 17.5q-4 21 -14 45q0 3 1 6.5t1 6.5q-11 19 -11 21zM258 694q2 -4 2 -12.5v-10.5q-10 -21 -24 -40q-4 -1 -8.5 -1.5t-7.5 0t-7 1.5t-6 2t-6 3.5t-5.5 3.5t-5.5 3.5t-5 3.5q0 5 -3 12.5t-3 12.5 q2 8 10 27q14 9 36.5 8t32.5 -13z" />
<glyph unicode="&#xc0;" horiz-adv-x="615" d="M562 13q-1 -8 -11.5 -12.5t-21.5 -2.5q-2 1 -6 4t-6 3q-4 5 -10 19.5t-11 19.5q-1 8 -5.5 19.5t-5.5 18.5q-8 12 -24 61q-5 12 -11 18q-6 27 -17 36q0 1 -6 28q-2 2 -7 4.5l-7 3.5q-4 1 -8.5 -1t-7.5 -2q-23 -1 -85 -0.5t-87 -1.5q-11 4 -37.5 3.5t-36.5 4.5 q-7 -2 -19 -8q-7 -23 -13 -28q-3 -25 -14 -49q-2 -11 -10 -26t-9 -18q-2 -9 -1 -16q-14 -27 -33 -78q-25 -9 -38 12q4 22 5 33q5 8 13.5 31.5t17.5 31.5q0 12 2 13q10 20 14 42q4 5 9 17.5t10 17.5q1 10 7.5 23.5t7.5 20.5q17 38 16 43q2 1 5.5 7.5t7.5 15t5 10.5q2 2 2 8 l-1 6q0 3 3.5 5t4.5 3q4 6 6 24q9 7 28 72q2 9 15 38t22 41q0 4 2.5 9.5t2.5 9.5q2 2 15 34.5t15 34.5q0 7 11 41q0 2 1.5 8t2 9t2.5 7t4.5 7t6.5 4q8 -1 12 -12t7 -13q9 -44 22 -63q-1 -3 2 -11l12 -27q0 -13 -1 -14q15 -13 19 -33q-1 -6 7 -26q3 -2 8 -11q11 -18 11 -28 q3 -5 8.5 -16.5t9.5 -16.5q0 -2 8 -18q0 -3 1 -5.5t2.5 -6t2.5 -5.5q5 -15 15.5 -39t12.5 -30q15 -26 19 -44q2 -3 7.5 -13.5t9.5 -15.5q0 -4 8 -22q2 -4 2 -10v-7q4 -13 22 -33q0 -3 3.5 -12.5t2.5 -16.5l18 -42q13 -23 17 -43q5 -7 10 -22.5t7 -19.5v-3zM394 309 q-3 7 -9.5 25t-11.5 27q0 1 -1.5 4.5t0.5 4.5q-6 7 -13 23.5t-11 22.5q-1 6 -6 17t-5 19q-4 6 -16 30q-1 12 -8 32q-7 15 -9 36q-1 2 -5.5 5t-5.5 6q-6 30 -18 35q-1 -2 -5 -6t-3 -7q0 -3 -2.5 -9.5t-6 -13t-3.5 -7.5q-21 -32 -17 -52q-7 -7 -8 -14q-8 -16 -8 -24l-6 -12 q0 -4 -3.5 -7t-3.5 -6q1 -4 -1 -10t-2 -10q-20 -46 -20 -48q-5 -15 -5 -17q-6 -4 -14.5 -23.5t-7.5 -26.5q-9 -20 -8 -27q4 -3 16.5 -4t16.5 -3q92 3 115 2q12 4 43.5 2.5t40.5 5.5q4 -2 15 -2q3 4 3.5 9t-1 8.5t-3.5 8.5t-3 6zM229 830q-1 9 3.5 19.5t4.5 12.5q2 1 14 8 q13 4 16 4q5 -1 11 -6.5t10 -7.5q2 -6 10 -16.5t10 -17.5q3 -4 9.5 -11.5t9.5 -12.5q2 -2 6.5 -7t7 -9t3.5 -9q3 -3 11.5 -10t13 -13t5.5 -15q0 -11 -17 -16q-2 -1 -3 -1q-2 1 -9.5 4t-12.5 3q-3 6 -15.5 16t-14.5 19q-4 2 -10.5 8t-10.5 8q0 1 -2 4.5t-2 6.5q-21 18 -22 20 q-12 3 -26 19z" />
<glyph unicode="&#xc1;" horiz-adv-x="615" d="M562 13q-1 -8 -11.5 -12.5t-21.5 -2.5q-2 1 -6 4t-6 3q-4 5 -10 19.5t-11 19.5q-1 8 -5.5 19.5t-5.5 18.5q-8 12 -24 61q-5 12 -11 18q-6 27 -17 36q0 1 -6 28q-2 2 -7 4.5l-7 3.5q-4 1 -8.5 -1t-7.5 -2q-23 -1 -85 -0.5t-87 -1.5q-11 4 -37.5 3.5t-36.5 4.5 q-7 -2 -19 -8q-7 -23 -13 -28q-3 -25 -14 -49q-2 -11 -10 -26t-9 -18q-2 -9 -1 -16q-14 -27 -33 -78q-25 -9 -38 12q4 22 5 33q5 8 13.5 31.5t17.5 31.5q0 12 2 13q10 20 14 42q4 5 9 17.5t10 17.5q1 10 7.5 23.5t7.5 20.5q17 38 16 43q2 1 5.5 7.5t7.5 15t5 10.5q2 2 2 8 l-1 6q0 3 3.5 5t4.5 3q4 6 6 24q9 7 28 72q2 9 15 38t22 41q0 4 2.5 9.5t2.5 9.5q2 2 15 34.5t15 34.5q0 7 11 41q0 2 1.5 8t2 9t2.5 7t4.5 7t6.5 4q8 -1 12 -12t7 -13q9 -44 22 -63q-1 -3 2 -11l12 -27q0 -13 -1 -14q15 -13 19 -33q-1 -6 7 -26q3 -2 8 -11q11 -18 11 -28 q3 -5 8.5 -16.5t9.5 -16.5q0 -2 8 -18q0 -3 1 -5.5t2.5 -6t2.5 -5.5q5 -15 15.5 -39t12.5 -30q15 -26 19 -44q2 -3 7.5 -13.5t9.5 -15.5q0 -4 8 -22q2 -4 2 -10v-7q4 -13 22 -33q0 -3 3.5 -12.5t2.5 -16.5l18 -42q13 -23 17 -43q5 -7 10 -22.5t7 -19.5v-3zM394 309 q-3 7 -9.5 25t-11.5 27q0 1 -1.5 4.5t0.5 4.5q-6 7 -13 23.5t-11 22.5q-1 6 -6 17t-5 19q-4 6 -16 30q-1 12 -8 32q-7 15 -9 36q-1 2 -5.5 5t-5.5 6q-6 30 -18 35q-1 -2 -5 -6t-3 -7q0 -3 -2.5 -9.5t-6 -13t-3.5 -7.5q-21 -32 -17 -52q-7 -7 -8 -14q-8 -16 -8 -24l-6 -12 q0 -4 -3.5 -7t-3.5 -6q1 -4 -1 -10t-2 -10q-20 -46 -20 -48q-5 -15 -5 -17q-6 -4 -14.5 -23.5t-7.5 -26.5q-9 -20 -8 -27q4 -3 16.5 -4t16.5 -3q92 3 115 2q12 4 43.5 2.5t40.5 5.5q4 -2 15 -2q3 4 3.5 9t-1 8.5t-3.5 8.5t-3 6zM218 728q0 7 4 16t5 14q8 8 24 28 q12 17 14 24l11 6q3 6 10.5 15t10.5 15q4 3 11 13.5t12 13.5q9 3 27 -2q4 -5 13 -27q0 -7 -3 -12.5t-7 -11t-6 -9.5q-2 -1 -8 -3.5t-9 -3.5q-1 -3 -5 -8.5t-5 -9.5q-1 -1 -5 -2t-6 -3q-12 -20 -28 -26q-1 -4 -4 -8t-6.5 -8t-5.5 -6q-5 -2 -13 -8q-25 -8 -31 3z" />
<glyph unicode="&#xc2;" horiz-adv-x="615" d="M562 13q-1 -8 -11.5 -12.5t-21.5 -2.5q-2 1 -6 4t-6 3q-4 5 -10 19.5t-11 19.5q-1 8 -5.5 19.5t-5.5 18.5q-8 12 -24 61q-5 12 -11 18q-6 27 -17 36q0 1 -6 28q-2 2 -7 4.5l-7 3.5q-4 1 -8.5 -1t-7.5 -2q-23 -1 -85 -0.5t-87 -1.5q-11 4 -37.5 3.5t-36.5 4.5 q-7 -2 -19 -8q-7 -23 -13 -28q-3 -25 -14 -49q-2 -11 -10 -26t-9 -18q-2 -9 -1 -16q-14 -27 -33 -78q-25 -9 -38 12q4 22 5 33q5 8 13.5 31.5t17.5 31.5q0 12 2 13q10 20 14 42q4 5 9 17.5t10 17.5q1 10 7.5 23.5t7.5 20.5q17 38 16 43q2 1 5.5 7.5t7.5 15t5 10.5q2 2 2 8 l-1 6q0 3 3.5 5t4.5 3q4 6 6 24q9 7 28 72q2 9 15 38t22 41q0 4 2.5 9.5t2.5 9.5q2 2 15 34.5t15 34.5q0 7 11 41q0 2 1.5 8t2 9t2.5 7t4.5 7t6.5 4q8 -1 12 -12t7 -13q9 -44 22 -63q-1 -3 2 -11l12 -27q0 -13 -1 -14q15 -13 19 -33q-1 -6 7 -26q3 -2 8 -11q11 -18 11 -28 q3 -5 8.5 -16.5t9.5 -16.5q0 -2 8 -18q0 -3 1 -5.5t2.5 -6t2.5 -5.5q5 -15 15.5 -39t12.5 -30q15 -26 19 -44q2 -3 7.5 -13.5t9.5 -15.5q0 -4 8 -22q2 -4 2 -10v-7q4 -13 22 -33q0 -3 3.5 -12.5t2.5 -16.5l18 -42q13 -23 17 -43q5 -7 10 -22.5t7 -19.5v-3zM394 309 q-3 7 -9.5 25t-11.5 27q0 1 -1.5 4.5t0.5 4.5q-6 7 -13 23.5t-11 22.5q-1 6 -6 17t-5 19q-4 6 -16 30q-1 12 -8 32q-7 15 -9 36q-1 2 -5.5 5t-5.5 6q-6 30 -18 35q-1 -2 -5 -6t-3 -7q0 -3 -2.5 -9.5t-6 -13t-3.5 -7.5q-21 -32 -17 -52q-7 -7 -8 -14q-8 -16 -8 -24l-6 -12 q0 -4 -3.5 -7t-3.5 -6q1 -4 -1 -10t-2 -10q-20 -46 -20 -48q-5 -15 -5 -17q-6 -4 -14.5 -23.5t-7.5 -26.5q-9 -20 -8 -27q4 -3 16.5 -4t16.5 -3q92 3 115 2q12 4 43.5 2.5t40.5 5.5q4 -2 15 -2q3 4 3.5 9t-1 8.5t-3.5 8.5t-3 6zM309 884q14 -4 16 -13l16 -11q8 -15 22 -22 q0 -1 8 -14q4 -3 11.5 -10t14 -12t13.5 -8q3 -7 12 -20t12 -23q-7 -17 -24 -18q-20 2 -38 30l-10.5 7t-11.5 7q-1 2 -3.5 4.5t-4 5t-1.5 5.5l-15 13q-1 1 -5 6t-9 5q-16 0 -17 -8q-1 -1 -4.5 -3t-5.5 -4t-3 -5q-12 -12 -23 -26q-2 0 -21 -11q-7 -10 -11 -20q-4 -1 -9.5 -4 t-7.5 -4q-30 6 -30 27q3 11 17 22.5t18 19.5q10 6 31 29q1 3 2 3q3 1 6 4t6.5 7t6.5 6q2 2 5.5 5t6 6t3.5 7q6 1 13 8.5t14 8.5z" />
<glyph unicode="&#xc3;" horiz-adv-x="615" d="M562 13q-1 -8 -11.5 -12.5t-21.5 -2.5q-2 1 -6 4t-6 3q-4 5 -10 19.5t-11 19.5q-1 8 -5.5 19.5t-5.5 18.5q-8 12 -24 61q-5 12 -11 18q-6 27 -17 36q0 1 -6 28q-2 2 -7 4.5l-7 3.5q-4 1 -8.5 -1t-7.5 -2q-23 -1 -85 -0.5t-87 -1.5q-11 4 -37.5 3.5t-36.5 4.5 q-7 -2 -19 -8q-7 -23 -13 -28q-3 -25 -14 -49q-2 -11 -10 -26t-9 -18q-2 -9 -1 -16q-14 -27 -33 -78q-25 -9 -38 12q4 22 5 33q5 8 13.5 31.5t17.5 31.5q0 12 2 13q10 20 14 42q4 5 9 17.5t10 17.5q1 10 7.5 23.5t7.5 20.5q17 38 16 43q2 1 5.5 7.5t7.5 15t5 10.5q2 2 2 8 l-1 6q0 3 3.5 5t4.5 3q4 6 6 24q9 7 28 72q2 9 15 38t22 41q0 4 2.5 9.5t2.5 9.5q2 2 15 34.5t15 34.5q0 7 11 41q0 2 1.5 8t2 9t2.5 7t4.5 7t6.5 4q8 -1 12 -12t7 -13q9 -44 22 -63q-1 -3 2 -11l12 -27q0 -13 -1 -14q15 -13 19 -33q-1 -6 7 -26q3 -2 8 -11q11 -18 11 -28 q3 -5 8.5 -16.5t9.5 -16.5q0 -2 8 -18q0 -3 1 -5.5t2.5 -6t2.5 -5.5q5 -15 15.5 -39t12.5 -30q15 -26 19 -44q2 -3 7.5 -13.5t9.5 -15.5q0 -4 8 -22q2 -4 2 -10v-7q4 -13 22 -33q0 -3 3.5 -12.5t2.5 -16.5l18 -42q13 -23 17 -43q5 -7 10 -22.5t7 -19.5v-3zM394 309 q-3 7 -9.5 25t-11.5 27q0 1 -1.5 4.5t0.5 4.5q-6 7 -13 23.5t-11 22.5q-1 6 -6 17t-5 19q-4 6 -16 30q-1 12 -8 32q-7 15 -9 36q-1 2 -5.5 5t-5.5 6q-6 30 -18 35q-1 -2 -5 -6t-3 -7q0 -3 -2.5 -9.5t-6 -13t-3.5 -7.5q-21 -32 -17 -52q-7 -7 -8 -14q-8 -16 -8 -24l-6 -12 q0 -4 -3.5 -7t-3.5 -6q1 -4 -1 -10t-2 -10q-20 -46 -20 -48q-5 -15 -5 -17q-6 -4 -14.5 -23.5t-7.5 -26.5q-9 -20 -8 -27q4 -3 16.5 -4t16.5 -3q92 3 115 2q12 4 43.5 2.5t40.5 5.5q4 -2 15 -2q3 4 3.5 9t-1 8.5t-3.5 8.5t-3 6zM277 813q7 -4 13 -6.5t14 -6.5q18 -3 19 -3 q2 0 12.5 -1t13.5 1q14 9 16 18l3 10q6 2 23.5 4t23.5 -3q1 -2 2 -11q0 -1 -5 -14.5t-8 -18.5q-2 -3 -6 -9.5t-7 -11t-7 -7.5q-10 -10 -27 -16q-39 -12 -94 12q-9 6 -23.5 10t-20.5 7q0 -1 -2.5 -0.5t-4.5 1.5h-3q-3 -1 -5.5 -0.5t-5.5 -1.5q-13 -9 -17 -18q-1 -5 -14 -10.5 t-25 -3t-10 16.5q6 29 7 30q16 25 25 32q5 5 28 13q33 11 85 -13z" />
<glyph unicode="&#xc4;" horiz-adv-x="615" d="M556 33q-13 15 -14 29q-1 3 -9 17t-10 24q-1 3 -4.5 7t-4.5 7q0 3 -8 14q0 5 -5 15t-6 17q-12 20 -18 44q-1 3 -4 6.5t-4 5.5l-6 27q-3 2 -5 5q-4 1 -19 6.5t-25 6.5q-8 0 -22 -4q-22 2 -27 0q-18 5 -39 -1q-21 5 -58 -2q-6 2 -17.5 3t-15.5 2q-5 -1 -18 -5q-16 3 -17 2 q-21 -5 -30 -21v-17q-3 -2 -3 -11q-1 -3 -5 -7.5t-5 -6.5t-1 -5v-5q0 -1 -2 -3l-3 -3l-14 -30q-1 -5 -5.5 -11t-5.5 -8q-2 -13 -2 -16q-8 -12 -14 -23q-7 -21 -13 -26q0 -4 -2 -10.5t-2 -9.5q-16 -16 -27 -21q-26 2 -33 16q0 5 4.5 12t4.5 12q3 8 11 22q2 4 2 14q9 9 12 29 q12 16 21 48q5 6 10.5 23t11.5 23q1 2 0.5 4t-0.5 4t2 2q4 8 22 56q5 13 14 27q0 3 2 8t1 9q3 5 11 15q0 4 3 12t3 13q5 4 9.5 19t9.5 19q0 4 2.5 12.5t2.5 13.5q5 8 14 30t16 32q0 3 1.5 8.5t1.5 8.5q1 1 3.5 5.5t4.5 5.5q4 25 22 51q-1 3 0.5 7.5t1.5 6.5q3 4 7 15t8 15 q0 2 1.5 6t0.5 7q6 5 11.5 21.5t10.5 22.5v11q3 2 5.5 9t3.5 8q2 29 13 32q14 -4 14 -15l8 -19q-1 -4 0.5 -8.5t1.5 -6.5q2 -5 8 -13q1 -14 11 -34.5t12 -31.5q8 -16 13 -24q0 -14 8.5 -31t10.5 -24q2 -5 10 -22.5t10 -29.5q3 -4 5.5 -14t4.5 -13q1 -4 6 -11.5t6 -11.5 q2 -4 9 -23t13 -28q3 -24 15 -39q0 -10 6.5 -23t7.5 -21q3 -3 9 -15l2 -4l8 -10l1 -4q0 -3 2 -4l3 -19q2 -4 6.5 -16t9.5 -17q0 -7 14 -37l3 -10q4 -8 10 -28l15 -27q1 -11 22 -52q1 -18 -15.5 -23t-31.5 2zM446 322q-1 0 -2 2l-1 1q-1 8 -6.5 18.5t-6.5 17.5q-5 5 -17 35 q-4 6 -10 18t-9 17q-4 9 -8 33q-1 2 -5 5t-5 6q0 3 -1 4.5t-2.5 3.5t-2.5 3q-2 23 -16 47q0 3 -1.5 7.5t-1.5 8.5q-3 4 -7 12.5t-5 10.5q-1 4 -4.5 13.5t-3.5 16.5q-3 2 -6 12.5t-9 11.5q-1 -5 -4.5 -13t-5.5 -15t-2 -16q-6 -8 -5 -16q-14 -20 -14 -36q-4 -3 -7 -13t-4 -12 q0 -3 1.5 -8.5t0.5 -9.5q-1 -2 -6.5 -4t-6.5 -5q-9 -28 -11 -35q-11 -13 -13 -19q-2 -12 -14 -30q0 -2 -1 -7t-1 -8q-2 -2 -5 -8.5t-6 -9.5q-1 -3 -5 -8t-6 -9q0 -7 -5 -14.5t-6 -12.5q7 -3 56 0q3 0 6.5 -2t7.5 -1q20 2 94 2q8 -1 22 1t19 2q4 0 15 -2.5t17 -2.5q2 0 8.5 2 t10.5 1v5zM223 672q-9 -7 -26 -8.5t-30 3.5q-3 3 -7 8t-6 8q-2 21 11 42q8 13 18 18q15 3 33 -10l6.5 -13t7.5 -14q1 -14 -7 -34zM477 678q-20 -14 -39 -13q-20 3 -32 23q1 31 19 52q5 0 12.5 2t12.5 1t10.5 -5t8.5 -5q1 -6 6.5 -15.5t6.5 -12.5v-5q0 -4 -5 -22z" />
<glyph unicode="&#xc5;" horiz-adv-x="615" d="M361 761q-1 -5 0 -13t0 -12q-2 -11 -5 -20l-2 -4q-3 -3 -2 -6q-3 -2 -5 -7l-4 -4q-5 -4 -6 -6q-2 -3 -6.5 -6t-5.5 -4q-6 -2 -8 -5q-6 -3 -7 -5q-2 0 -14 -3q9 -42 22 -62q-1 -3 2 -11l12 -27q0 -13 -1 -14q15 -13 19 -33q-1 -6 7 -26q3 -2 8 -11q11 -18 11 -28 q3 -5 8.5 -16.5t9.5 -16.5q0 -2 8 -18q0 -3 1 -5.5t2.5 -6t2.5 -5.5q5 -15 15.5 -39t12.5 -30q15 -26 19 -44q2 -3 7.5 -13.5t9.5 -15.5q0 -4 8 -22q2 -4 2 -10v-7q4 -13 22 -33q0 -3 3.5 -12.5t2.5 -16.5l18 -42q13 -23 17 -43q5 -7 10 -22.5t7 -19.5v-3q-1 -8 -11.5 -12.5 t-21.5 -2.5q-2 1 -6 4t-6 3q-4 5 -10 19.5t-11 19.5q-1 8 -5.5 19.5t-5.5 18.5q-8 12 -24 61q-5 12 -11 18q-6 27 -17 36q0 1 -6 28q-2 2 -7 4.5l-7 3.5q-4 1 -8.5 -1t-7.5 -2q-23 -1 -85 -0.5t-87 -1.5q-11 4 -37.5 3.5t-36.5 4.5q-7 -2 -19 -8q-7 -23 -13 -28 q-3 -25 -14 -49q-2 -11 -10 -26t-9 -18q-2 -9 -1 -16q-14 -27 -33 -78q-25 -9 -38 12q4 22 5 33q5 8 13.5 31.5t17.5 31.5q0 12 2 13q10 20 14 42q4 5 9 17.5t10 17.5q1 10 7.5 23.5t7.5 20.5q17 38 16 43q2 1 5.5 7.5t7.5 15t5 10.5q2 2 2 8l-1 6q0 3 3.5 5t4.5 3q4 6 6 24 q9 7 28 72q2 9 15 38t22 41q0 4 2.5 9.5t2.5 9.5q2 2 15 34.5t15 34.5q0 7 11 41q0 1 0.5 3.5t0.5 4.5q-3 1 -7 1q-1 0 -6.5 1.5t-10.5 1.5q0 3 -2 4q-3 1 -7 3l-6 3q-5 5 -9 7l-11 13q-2 2 -4.5 7t-5.5 7q0 3 -2.5 9t-3.5 10q0 7 -1 9q1 3 1 20q0 3 1 8.5t1 8.5q0 2 0.5 5 t0.5 5q3 2 4 7q1 1 2.5 3t2.5 3q0 3 3 6.5t3 6.5q2 1 6 5q1 0 3 2.5t4 3.5q1 1 5 4t5 5q8 3 10 6q4 0 19 3q18 2 24 2q6 -3 19 -3q4 -3 11 -4q1 -1 2.5 -2t4.5 -2.5l5 -2.5l5 -5q3 -1 8 -6l8 -8q0 -1 2.5 -3t3.5 -4l10 -19q0 -4 1 -12.5t1 -12.5zM394 309q-3 7 -9.5 25 t-11.5 27q0 1 -1.5 4.5t0.5 4.5q-6 7 -13 23.5t-11 22.5q-1 6 -6 17t-5 19q-4 6 -16 30q-1 12 -8 32q-7 15 -9 36q-1 2 -5.5 5t-5.5 6q-6 30 -18 35q-1 -2 -5 -6t-3 -7q0 -3 -2.5 -9.5t-6 -13t-3.5 -7.5q-21 -32 -17 -52q-7 -7 -8 -14q-8 -16 -8 -24l-6 -12q0 -4 -3.5 -7 t-3.5 -6q1 -4 -1 -10t-2 -10q-20 -46 -20 -48q-5 -15 -5 -17q-6 -4 -14.5 -23.5t-7.5 -26.5q-9 -20 -8 -27q4 -3 16.5 -4t16.5 -3q92 3 115 2q12 4 43.5 2.5t40.5 5.5q4 -2 15 -2q3 4 3.5 9t-1 8.5t-3.5 8.5t-3 6zM330 750v13q-2 4 -2 11q-4 0 -4 6l-2 2q-1 2 -1 3l-10 12 q-1 1 -3 2q-4 2 -4 4q-2 0 -3.5 1t-2.5 2.5t-2 1.5q-6 2 -24 2h-13q-7 -7 -10 -8q-2 -2 -7.5 -5t-7.5 -6q-2 0 -3 -3t-3 -3l-5 -8q0 -3 -3 -9v-31q0 -3 3 -6t3 -7l8 -7q1 0 1 -2h3q0 -2 4 -6q4 -1 9 -4t8 -3q7 0 8 -1q3 0 5 1h1l5 -1q7 0 12 1q1 0 3.5 0.5t4.5 0.5q2 3 5 4 q4 1 6 3q3 2 13 14q1 3 3.5 8.5t3.5 7.5q0 4 1 7v3z" />
<glyph unicode="&#xc6;" horiz-adv-x="916" d="M901 22q0 -4 -2.5 -6t-8 -3.5t-6.5 -2.5q-4 -1 -10.5 -4t-10.5 -4q-2 0 -24.5 1.5t-33.5 6.5q-3 0 -9.5 -1t-11.5 -1.5t-9 -0.5q-43 0 -50 -2q-8 2 -26 2q-8 0 -28 -2t-30 -2q-22 4 -35 2q-6 -1 -14 -6.5t-11 -6.5q-12 10 -27 18q-2 4 -20 36q-1 9 -8 23.5t-8 17.5 t-3.5 12.5t-4.5 14.5t-5 9.5t-8 9.5t-7 8q0 6 -4 17.5t-4 19.5q-14 33 -25 54q-15 3 -29 9q-7 0 -36.5 -2.5t-46.5 -1.5q-3 -1 -10.5 -4t-13.5 -3q-3 0 -24 5q-5 0 -12.5 0.5t-12 0t-8.5 -3.5q-13 3 -19 3t-19 -2.5t-20 -2.5l-24 -9q-5 -7 -9.5 -23.5t-7.5 -22.5 q-1 -7 2 -14q-1 -2 -5 -4.5t-5 -4.5q-1 -1 -1.5 -8t-3.5 -8q-5 -10 -4 -16q-3 -3 -7 -9t-6 -8q-1 -2 -0.5 -5t0.5 -5.5t-2 -2.5q-1 -4 -5.5 -11t-5.5 -13q-4 -2 -7.5 -9t-6.5 -9q-2 -2 -1 -7t1 -8l-11 -19q-16 -14 -30 -17q-21 1 -28 16q-1 5 2.5 11t3.5 9q6 14 10 18 q0 21 17 42q0 6 13 32q0 1 3.5 13.5t8.5 17.5q0 4 13 32q6 22 12 30q1 5 3 10t5.5 11t4.5 10q2 4 5.5 15t5.5 17t8 19t10 23.5t6 20.5q2 3 6 10t6 10q3 15 19 49q1 10 9 25.5t9 25.5q3 5 11 15q-1 4 0 8.5t1 7.5q4 7 22 51q2 8 9.5 24.5t8.5 28.5q3 3 6.5 11t7.5 11 q3 19 11 37q1 3 3 11t4.5 13.5t6.5 8.5q11 7 32 0q96 -3 97 -3q25 4 63 4q24 -3 33 -3t35.5 2.5t35.5 3.5q10 -2 22 -14q1 -4 4 -13t4 -14q-4 -14 -33 -20q-5 -1 -10.5 2.5t-9.5 3.5q-24 0 -29 -3q-8 2 -25.5 1t-24.5 2q0 -3 -27 -2l-27 2q-3 0 -10.5 -1t-12.5 0q-1 0 -40 6 q-3 0 -11 2q-2 0 -5 -1t-4 -1q-2 0 -9 2t-9 0q-3 -6 2 -14.5t5 -11.5q3 -13 11 -22q10 -33 30 -79q7 -18 12 -22q4 -17 16 -45q2 -4 8 -20.5t11 -22.5q26 -4 39 2q2 -2 18 -0.5t19 1.5q2 0 6.5 -0.5t7.5 -0.5q10 -1 28.5 1.5t26.5 2.5q3 0 9 -0.5t8 -0.5q6 0 17 1.5t16 1.5 q3 0 8.5 -1t7.5 -1q5 0 16 2t17 2q3 0 8.5 -1t7.5 -1h25q5 -4 14 -21q10 -15 10 -23q-4 -11 -32 -11q-5 -2 -18 -3t-18 -2q-25 5 -101 0q-4 1 -17 5h-27q-4 0 -14 -1t-14 -1t-22 4t-27 1q2 -11 9.5 -28t9.5 -27q5 -8 22 -51q15 -22 17 -44q28 -50 38 -87q6 -10 10 -15 q8 -25 11 -27q3 -17 14 -24q18 5 28 0q3 2 10 2t9 1q10 -2 27.5 -2t26.5 -1q3 -1 7 1t7 2q38 0 58 -1q14 4 48.5 4.5t46.5 3.5q9 -3 25 -11q4 -16 14 -33v-7zM446 293q-2 4 -2 5q-19 44 -21 49q-5 4 -9.5 16t-8.5 16q-1 10 -8 24t-8 23q-1 2 -5.5 7t-5.5 9q0 10 -3 18 t-9.5 17t-8.5 13q0 2 -1 7.5t0 8.5q-10 14 -10 24q-7 10 -9 14q-6 25 -16 33q-14 -3 -14 -27q-3 -2 -5 -10t-5 -10v-13q-7 -12 -7 -17q-9 -7 -10 -11q-1 -3 -2.5 -8t-3 -9t-3.5 -7q-3 -29 -16 -45q-3 -18 -18 -40q1 -6 -2.5 -13.5t-3.5 -11.5q-6 -6 -10.5 -14t-10 -19.5 t-7.5 -15.5q-5 -8 -5 -14q3 -3 6 -4t9 0t9 1q2 -1 5 -1.5t5.5 0t5.5 1t4 0.5q2 0 5 -1t5 -1q5 0 13.5 1.5t12.5 1.5q6 0 18 -1.5t19 -1.5q14 0 42 2l7 -1q7 -2 11 -2q10 4 36 1.5t35 2.5v3z" />
<glyph unicode="&#xc7;" horiz-adv-x="626" d="M641 553q-10 -1 -20 7t-15 9q-4 5 -12.5 14t-12.5 13q-6 1 -22 12q-9 2 -23 10t-18 9q-18 3 -33 11q-4 0 -12.5 2t-14.5 1q-2 3 -9 5t-10 5q-9 -2 -30 -2h-25q-31 -7 -68 -12q-15 -7 -31 -16t-35 -20.5t-30 -17.5q-5 -3 -11.5 -10t-8.5 -9q-2 -6 -10 -12.5t-9 -7.5 q-5 -12 -14 -24l-5 -5q-1 -1 -5 -7t-8 -8l-12 -27q-1 -2 -7.5 -20t-11.5 -26q-2 -12 -7 -33t-6 -28q1 -8 0 -23.5t0 -25.5q2 -14 8 -48q2 -8 9.5 -22t9.5 -23q1 -4 5.5 -9t5.5 -7q4 -8 12 -13v-15q5 -7 22 -26t24 -31l36 -24q33 -17 37 -22q25 -7 41 -16q23 1 44 -9 q10 2 28 0t25 -2q8 1 21.5 4t16.5 3h11q2 0 4.5 1.5t3.5 1.5t4.5 -1t5.5 -1h33q7 2 15.5 9.5t12.5 9.5q4 4 13 10.5t12 10.5q11 -1 22 7.5t18 9.5q2 2 12.5 16t21.5 16q7 -2 8.5 -17t4.5 -18q1 -12 -11 -38q-16 -12 -21 -14l-4 -5q-2 -1 -4 -1h-3l-11 -7q-31 -18 -42 -27 q-46 -14 -55 -20q-3 0 -22 -5q-17 0 -52.5 -3t-53.5 -2q-4 0 -11.5 2t-12.5 3q-3 1 -9.5 0t-9.5 0q-6 1 -23 7t-27 7q-5 4 -12 8t-16 8t-13 6q-12 4 -20 11q-5 1 -11 6.5t-7 6.5q-2 2 -8 3.5t-8 4.5q-5 2 -10 8.5t-7 8.5q-5 2 -12.5 8t-12.5 8q0 5 -5 9t-6 5t-1.5 4t0 6 t-0.5 6t-8 7t-8 9q-13 11 -15 14q-7 13 -8 28q-2 4 -7 10t-7 9q-1 10 -8 28t-8 31q-2 3 -3 8t-1.5 12t-1.5 10q-2 4 -1 15.5t-4 12.5q3 7 4 25t1 21q3 8 3 24.5t1 20.5q1 5 3.5 12t3.5 9l3 23q2 8 8 22t8 23q4 4 9.5 16t10.5 17q2 4 6.5 10.5t8 12t6.5 10.5q18 16 26 25 q1 1 15 17t23 24l8 6q5 4 21 13q2 2 10 6l10 5q10 6 22 16q10 -1 24 4t23 5q14 5 21 10q14 3 44.5 5t42.5 4q26 -2 37 -5q6 0 16.5 -3.5t18.5 -2.5q6 -1 28.5 -9t36.5 -10q10 -7 25 -12q5 -5 15.5 -12.5t14.5 -11.5q4 0 6.5 -2t5.5 -4.5t5 -3.5q7 -4 13 -12q1 -5 4 -16.5 t4 -16.5q4 -24 -5 -32zM343 -94q-4 -8 -5 -13q-17 -15 -19 -25q-8 -6 -21.5 -21t-21.5 -22q-6 0 -20 2q-16 3 -17 3q-3 2 -8 8t-5 10q0 6 5 13t4 15q10 4 18.5 19.5t13.5 19.5q-1 3 1 6t1 5q1 3 5.5 6.5t5.5 4.5q-1 9 0 11q13 15 14 26q18 12 19 12q5 -1 12.5 -6t9.5 -6 q13 -3 25 -2q11 -2 14.5 -14.5t-3.5 -21.5q2 -3 -11 -16t-17 -14z" />
<glyph unicode="&#xc8;" horiz-adv-x="463" d="M389 14q-22 -7 -64.5 -6.5t-66.5 -2.5q-22 3 -65 1q-7 0 -25.5 1.5t-27.5 0.5q-6 0 -17 -3t-17 -3q-4 1 -15 3.5t-17.5 5.5t-9.5 9q-1 27 -0.5 40t3 40.5t3.5 41.5q1 4 -1 9.5t-2 9.5q0 5 0.5 12.5t0.5 13.5t-3 10q4 6 4 15t-2 18.5t-2 13.5q4 10 2 54q0 12 2 38 q0 4 -1 10t-1 10v41q0 3 -1 7.5t-1.5 8.5t-0.5 8q0 3 0.5 7t0.5 7q0 2 -1 32.5t3 33.5v62q0 6 -1 18.5t-1 19.5q2 10 2 17q0 51 2 66q0 10 3 13q6 3 24.5 2t25.5 2q10 0 29 -2t25 -2q7 0 15 0.5t18 1.5t16 1q9 1 25.5 -0.5t23.5 -1.5q10 0 42.5 0.5t50.5 1.5q6 1 12.5 -2.5 t9.5 -3.5q7 -29 4 -35q-2 -5 -5.5 -8t-9 -5.5t-8.5 -4.5q-7 0 -19.5 1t-22 1t-17.5 -3q-1 1 -8 2t-9 3q-15 -2 -82 -2q-5 -2 -17.5 -3t-17.5 -3q-2 0 -10.5 2t-14.5 2q-5 1 -11 -1.5t-8 -2.5q-13 -5 -15 -8q-1 -6 1 -17t2 -15t-2.5 -13.5t-2.5 -14.5q0 -6 2 -22q0 -4 -1 -12 t-1 -12q0 -5 1 -15t1 -18t-2 -16q0 -4 3.5 -9t2.5 -10q0 -3 -3.5 -17t0.5 -17q8 -5 32 -3.5t36 -2.5q33 9 53 3q35 0 41 3q12 -1 37 0.5t43.5 -0.5t30.5 -11q11 -20 0 -40l-16 -11q-12 -1 -41.5 -1.5t-46.5 -2.5q-14 2 -53.5 2t-57.5 4q-8 -2 -29 -0.5t-29 -2.5 q-5 -30 0 -52q1 -6 0 -16.5t-1 -13.5q-1 -14 0 -40t1 -34v-128q2 -3 5.5 -3t8 0.5t7.5 0.5q11 -5 34 -0.5t35 -0.5q11 3 49 1q4 0 12 1t11 1q4 0 11 -1.5t10 -1.5q4 0 13 0.5t14 0.5q1 0 28 -3h28q13 -8 15 -28q0 -16 -11 -27zM153 830q-1 9 3.5 19.5t4.5 12.5q2 1 14 8 q13 4 16 4q5 -1 11 -6.5t10 -7.5q2 -6 10 -16.5t10 -17.5q3 -4 9.5 -11.5t9.5 -12.5q2 -2 6.5 -7t7 -9t3.5 -9q3 -3 11.5 -10t13 -13t5.5 -15q0 -11 -17 -16q-2 -1 -3 -1q-2 1 -9.5 4t-12.5 3q-3 6 -15.5 16t-14.5 19q-4 2 -10.5 8t-10.5 8q0 1 -2 4.5t-2 6.5q-21 18 -22 20 q-12 3 -26 19z" />
<glyph unicode="&#xc9;" horiz-adv-x="463" d="M389 14q-22 -7 -64.5 -6.5t-66.5 -2.5q-22 3 -65 1q-7 0 -25.5 1.5t-27.5 0.5q-6 0 -17 -3t-17 -3q-4 1 -15 3.5t-17.5 5.5t-9.5 9q-1 27 -0.5 40t3 40.5t3.5 41.5q1 4 -1 9.5t-2 9.5q0 5 0.5 12.5t0.5 13.5t-3 10q4 6 4 15t-2 18.5t-2 13.5q4 10 2 54q0 12 2 38 q0 4 -1 10t-1 10v41q0 3 -1 7.5t-1.5 8.5t-0.5 8q0 3 0.5 7t0.5 7q0 2 -1 32.5t3 33.5v62q0 6 -1 18.5t-1 19.5q2 10 2 17q0 51 2 66q0 10 3 13q6 3 24.5 2t25.5 2q10 0 29 -2t25 -2q7 0 15 0.5t18 1.5t16 1q9 1 25.5 -0.5t23.5 -1.5q10 0 42.5 0.5t50.5 1.5q6 1 12.5 -2.5 t9.5 -3.5q7 -29 4 -35q-2 -5 -5.5 -8t-9 -5.5t-8.5 -4.5q-7 0 -19.5 1t-22 1t-17.5 -3q-1 1 -8 2t-9 3q-15 -2 -82 -2q-5 -2 -17.5 -3t-17.5 -3q-2 0 -10.5 2t-14.5 2q-5 1 -11 -1.5t-8 -2.5q-13 -5 -15 -8q-1 -6 1 -17t2 -15t-2.5 -13.5t-2.5 -14.5q0 -6 2 -22q0 -4 -1 -12 t-1 -12q0 -5 1 -15t1 -18t-2 -16q0 -4 3.5 -9t2.5 -10q0 -3 -3.5 -17t0.5 -17q8 -5 32 -3.5t36 -2.5q33 9 53 3q35 0 41 3q12 -1 37 0.5t43.5 -0.5t30.5 -11q11 -20 0 -40l-16 -11q-12 -1 -41.5 -1.5t-46.5 -2.5q-14 2 -53.5 2t-57.5 4q-8 -2 -29 -0.5t-29 -2.5 q-5 -30 0 -52q1 -6 0 -16.5t-1 -13.5q-1 -14 0 -40t1 -34v-128q2 -3 5.5 -3t8 0.5t7.5 0.5q11 -5 34 -0.5t35 -0.5q11 3 49 1q4 0 12 1t11 1q4 0 11 -1.5t10 -1.5q4 0 13 0.5t14 0.5q1 0 28 -3h28q13 -8 15 -28q0 -16 -11 -27zM142 728q0 7 4 16t5 14q8 8 24 28q12 17 14 24 l11 6q3 6 10.5 15t10.5 15q4 3 11 13.5t12 13.5q9 3 27 -2q4 -5 13 -27q0 -7 -3 -12.5t-7 -11t-6 -9.5q-2 -1 -8 -3.5t-9 -3.5q-1 -3 -5 -8.5t-5 -9.5q-1 -1 -5 -2t-6 -3q-12 -20 -28 -26q-1 -4 -4 -8t-6.5 -8t-5.5 -6q-5 -2 -13 -8q-25 -8 -31 3z" />
<glyph unicode="&#xca;" horiz-adv-x="463" d="M389 14q-22 -7 -64.5 -6.5t-66.5 -2.5q-22 3 -65 1q-7 0 -25.5 1.5t-27.5 0.5q-6 0 -17 -3t-17 -3q-4 1 -15 3.5t-17.5 5.5t-9.5 9q-1 27 -0.5 40t3 40.5t3.5 41.5q1 4 -1 9.5t-2 9.5q0 5 0.5 12.5t0.5 13.5t-3 10q4 6 4 15t-2 18.5t-2 13.5q4 10 2 54q0 12 2 38 q0 4 -1 10t-1 10v41q0 3 -1 7.5t-1.5 8.5t-0.5 8q0 3 0.5 7t0.5 7q0 2 -1 32.5t3 33.5v62q0 6 -1 18.5t-1 19.5q2 10 2 17q0 51 2 66q0 10 3 13q6 3 24.5 2t25.5 2q10 0 29 -2t25 -2q7 0 15 0.5t18 1.5t16 1q9 1 25.5 -0.5t23.5 -1.5q10 0 42.5 0.5t50.5 1.5q6 1 12.5 -2.5 t9.5 -3.5q7 -29 4 -35q-2 -5 -5.5 -8t-9 -5.5t-8.5 -4.5q-7 0 -19.5 1t-22 1t-17.5 -3q-1 1 -8 2t-9 3q-15 -2 -82 -2q-5 -2 -17.5 -3t-17.5 -3q-2 0 -10.5 2t-14.5 2q-5 1 -11 -1.5t-8 -2.5q-13 -5 -15 -8q-1 -6 1 -17t2 -15t-2.5 -13.5t-2.5 -14.5q0 -6 2 -22q0 -4 -1 -12 t-1 -12q0 -5 1 -15t1 -18t-2 -16q0 -4 3.5 -9t2.5 -10q0 -3 -3.5 -17t0.5 -17q8 -5 32 -3.5t36 -2.5q33 9 53 3q35 0 41 3q12 -1 37 0.5t43.5 -0.5t30.5 -11q11 -20 0 -40l-16 -11q-12 -1 -41.5 -1.5t-46.5 -2.5q-14 2 -53.5 2t-57.5 4q-8 -2 -29 -0.5t-29 -2.5 q-5 -30 0 -52q1 -6 0 -16.5t-1 -13.5q-1 -14 0 -40t1 -34v-128q2 -3 5.5 -3t8 0.5t7.5 0.5q11 -5 34 -0.5t35 -0.5q11 3 49 1q4 0 12 1t11 1q4 0 11 -1.5t10 -1.5q4 0 13 0.5t14 0.5q1 0 28 -3h28q13 -8 15 -28q0 -16 -11 -27zM234 884q14 -4 16 -13l16 -11q8 -15 22 -22 q0 -1 8 -14q4 -3 11.5 -10t14 -12t13.5 -8q3 -7 12 -20t12 -23q-7 -17 -24 -18q-20 2 -38 30l-10.5 7t-11.5 7q-1 2 -3.5 4.5t-4 5t-1.5 5.5l-15 13q-1 1 -5 6t-9 5q-16 0 -17 -8q-1 -1 -4.5 -3t-5.5 -4t-3 -5q-13 -12 -23 -26q-2 0 -21 -11q-7 -10 -11 -20q-4 -1 -9.5 -4 t-7.5 -4q-30 6 -30 27q3 11 17 22.5t18 19.5q10 6 31 29q1 3 2 3q3 1 6 4t6.5 7t6.5 6q2 2 5.5 5t6 6t3.5 7q6 1 13 8.5t14 8.5z" />
<glyph unicode="&#xcb;" horiz-adv-x="463" d="M389 14q-22 -7 -64.5 -6.5t-66.5 -2.5q-22 3 -65 1q-7 0 -25.5 1.5t-27.5 0.5q-6 0 -17 -3t-17 -3q-4 1 -15 3.5t-17.5 5.5t-9.5 9q-1 27 -0.5 40t3 40.5t3.5 41.5q1 4 -1 9.5t-2 9.5q0 5 0.5 12.5t0.5 13.5t-3 10q4 6 4 15t-2 18.5t-2 13.5q4 10 2 54q0 12 2 38 q0 4 -1 10t-1 10v41q0 3 -1 7.5t-1.5 8.5t-0.5 8q0 3 0.5 7t0.5 7q0 2 -1 32.5t3 33.5v62q0 6 -1 18.5t-1 19.5q2 10 2 17q0 51 2 66q0 10 3 13q6 3 24.5 2t25.5 2q10 0 29 -2t25 -2q7 0 15 0.5t18 1.5t16 1q9 1 25.5 -0.5t23.5 -1.5q10 0 42.5 0.5t50.5 1.5q6 1 12.5 -2.5 t9.5 -3.5q7 -29 4 -35q-2 -5 -5.5 -8t-9 -5.5t-8.5 -4.5q-7 0 -19.5 1t-22 1t-17.5 -3q-1 1 -8 2t-9 3q-15 -2 -82 -2q-5 -2 -17.5 -3t-17.5 -3q-2 0 -10.5 2t-14.5 2q-5 1 -11 -1.5t-8 -2.5q-13 -5 -15 -8q-1 -6 1 -17t2 -15t-2.5 -13.5t-2.5 -14.5q0 -6 2 -22q0 -4 -1 -12 t-1 -12q0 -5 1 -15t1 -18t-2 -16q0 -4 3.5 -9t2.5 -10q0 -3 -3.5 -17t0.5 -17q8 -5 32 -3.5t36 -2.5q33 9 53 3q35 0 41 3q12 -1 37 0.5t43.5 -0.5t30.5 -11q11 -20 0 -40l-16 -11q-12 -1 -41.5 -1.5t-46.5 -2.5q-14 2 -53.5 2t-57.5 4q-8 -2 -29 -0.5t-29 -2.5 q-5 -30 0 -52q1 -6 0 -16.5t-1 -13.5q-1 -14 0 -40t1 -34v-128q2 -3 5.5 -3t8 0.5t7.5 0.5q11 -5 34 -0.5t35 -0.5q11 3 49 1q4 0 12 1t11 1q4 0 11 -1.5t10 -1.5q4 0 13 0.5t14 0.5q1 0 28 -3h28q13 -8 15 -28q0 -16 -11 -27zM325 788q-8 -10 -27.5 -12t-32.5 5 q-5 5 -13 21q0 5 3 15t2 18q2 2 13 6q14 10 31 8q5 -2 10 -7.5t7 -6.5q1 -4 4.5 -15t3.5 -15.5t-1 -16.5zM128 792q-2 10 3 22.5t5 18.5q6 9 22 11t28 -3q4 -3 7.5 -15t8.5 -15q-5 -23 -30 -37q-2 0 -9.5 1t-12.5 0q-2 2 -10.5 7.5t-11.5 9.5z" />
<glyph unicode="&#xcc;" horiz-adv-x="220" d="M120 24q-11 -16 -38 -8q-1 2 -4.5 5.5t-4.5 6.5q-2 5 0.5 14.5t2.5 11.5q-4 23 1 34q-2 6 -2.5 13t0.5 16t1 14v47q0 5 1 22t0 27q0 7 -1.5 23t-1.5 23q0 4 1 12t1 11q0 5 -1 15t-1 14q0 7 1 22t1 22q-2 37 -2 43q3 41 3 42q0 5 -2 14.5t-2 12.5q2 4 1 15.5t-1 15.5l3 21 q0 7 -2 42q0 2 1 5.5t1 4.5t-1.5 3.5t-1.5 4.5q0 1 0.5 4t0.5 5q0 4 -1 15t0 17v19q0 25 6 36q11 6 30 2q13 -13 5 -71q0 -2 3 -78v-118q0 -17 2 -56.5t1 -60.5q0 -8 -2 -20q0 -4 1 -12t1 -14.5t-3 -11.5q4 -8 2 -45t-2 -46q0 -7 2.5 -19t2.5 -18t-2 -15.5t-2 -13.5 q0 -6 2.5 -34.5t-0.5 -33.5zM32 830q-1 9 3.5 19.5t4.5 12.5q2 1 14 8q14 4 16 4q5 -1 11 -6.5t10 -7.5q2 -6 10 -16.5t10 -17.5q3 -4 9.5 -11.5t9.5 -12.5q2 -2 6.5 -7t7 -9t3.5 -9q3 -3 11.5 -10t13 -13t5.5 -15q0 -11 -17 -16q-2 -1 -3 -1q-2 1 -9.5 4t-12.5 3 q-3 6 -15.5 16t-14.5 19q-4 2 -10.5 8t-10.5 8q0 1 -2 4.5t-2 6.5q-21 18 -22 20q-12 3 -26 19z" />
<glyph unicode="&#xcd;" horiz-adv-x="220" d="M120 24q-11 -16 -38 -8q-1 2 -4.5 5.5t-4.5 6.5q-2 5 0.5 14.5t2.5 11.5q-4 23 1 34q-2 6 -2.5 13t0.5 16t1 14v47q0 5 1 22t0 27q0 7 -1.5 23t-1.5 23q0 4 1 12t1 11q0 5 -1 15t-1 14q0 7 1 22t1 22q-2 37 -2 43q3 41 3 42q0 5 -2 14.5t-2 12.5q2 4 1 15.5t-1 15.5l3 21 q0 7 -2 42q0 2 1 5.5t1 4.5t-1.5 3.5t-1.5 4.5q0 1 0.5 4t0.5 5q0 4 -1 15t0 17v19q0 25 6 36q11 6 30 2q13 -13 5 -71q0 -2 3 -78v-118q0 -17 2 -56.5t1 -60.5q0 -8 -2 -20q0 -4 1 -12t1 -14.5t-3 -11.5q4 -8 2 -45t-2 -46q0 -7 2.5 -19t2.5 -18t-2 -15.5t-2 -13.5 q0 -6 2.5 -34.5t-0.5 -33.5zM20 728q0 7 4 16t5 14q8 8 24 28q12 17 14 24l11 6q3 6 10.5 15t10.5 15q4 3 11 13.5t12 13.5q9 3 27 -2q4 -5 13 -27q0 -7 -3 -12.5t-7 -11t-6 -9.5q-2 -1 -8 -3.5t-9 -3.5q-1 -3 -5 -8.5t-5 -9.5q-1 -1 -5 -2t-6 -3q-12 -20 -28 -26 q-1 -4 -4 -8t-6.5 -8t-5.5 -6q-5 -2 -13 -8q-25 -8 -31 3z" />
<glyph unicode="&#xce;" horiz-adv-x="220" d="M120 24q-11 -16 -38 -8q-1 2 -4.5 5.5t-4.5 6.5q-2 5 0.5 14.5t2.5 11.5q-4 23 1 34q-2 6 -2.5 13t0.5 16t1 14v47q0 5 1 22t0 27q0 7 -1.5 23t-1.5 23q0 4 1 12t1 11q0 5 -1 15t-1 14q0 7 1 22t1 22q-2 37 -2 43q3 41 3 42q0 5 -2 14.5t-2 12.5q2 4 1 15.5t-1 15.5l3 21 q0 7 -2 42q0 2 1 5.5t1 4.5t-1.5 3.5t-1.5 4.5q0 1 0.5 4t0.5 5q0 4 -1 15t0 17v19q0 25 6 36q11 6 30 2q13 -13 5 -71q0 -2 3 -78v-118q0 -17 2 -56.5t1 -60.5q0 -8 -2 -20q0 -4 1 -12t1 -14.5t-3 -11.5q4 -8 2 -45t-2 -46q0 -7 2.5 -19t2.5 -18t-2 -15.5t-2 -13.5 q0 -6 2.5 -34.5t-0.5 -33.5zM112 884q14 -4 16 -13l16 -11q8 -15 22 -22q0 -1 8 -14q4 -3 11.5 -10t14 -12t13.5 -8q3 -7 12 -20t12 -23q-7 -17 -24 -18q-20 2 -38 30l-10.5 7t-11.5 7q-1 2 -3.5 4.5t-4 5t-1.5 5.5l-15 13q-1 1 -5 6t-9 5q-16 0 -17 -8q-1 -1 -4.5 -3 t-5.5 -4t-3 -5q-13 -12 -23 -26q-2 0 -21 -11q-7 -10 -11 -20q-4 -1 -9.5 -4t-7.5 -4q-30 6 -30 27q3 11 17 22.5t18 19.5q10 6 31 29q1 3 2 3q3 1 6 4t6.5 7t6.5 6q2 2 5.5 5t6 6t3.5 7q6 1 13 8.5t14 8.5z" />
<glyph unicode="&#xcf;" horiz-adv-x="220" d="M120 24q-11 -16 -38 -8q-1 2 -4.5 5.5t-4.5 6.5q-2 5 0.5 14.5t2.5 11.5q-4 23 1 34q-2 6 -2.5 13t0.5 16t1 14v47q0 5 1 22t0 27q0 7 -1.5 23t-1.5 23q0 4 1 12t1 11q0 5 -1 15t-1 14q0 7 1 22t1 22q-2 37 -2 43q3 41 3 42q0 5 -2 14.5t-2 12.5q2 4 1 15.5t-1 15.5l3 21 q0 7 -2 42q0 2 1 5.5t1 4.5t-1.5 3.5t-1.5 4.5q0 1 0.5 4t0.5 5q0 4 -1 15t0 17v19q0 25 6 36q11 6 30 2q13 -13 5 -71q0 -2 3 -78v-118q0 -17 2 -56.5t1 -60.5q0 -8 -2 -20q0 -4 1 -12t1 -14.5t-3 -11.5q4 -8 2 -45t-2 -46q0 -7 2.5 -19t2.5 -18t-2 -15.5t-2 -13.5 q0 -6 2.5 -34.5t-0.5 -33.5zM204 788q-8 -10 -27.5 -12t-32.5 5q-5 5 -13 21q0 5 3 15t2 18q2 2 13 6q14 10 31 8q5 -2 10 -7.5t7 -6.5q1 -4 4.5 -15t3.5 -15.5t-1 -16.5zM7 792q-2 10 3 22.5t5 18.5q6 9 22 11t28 -3q4 -3 7.5 -15t8.5 -15q-5 -23 -30 -37q-2 0 -9.5 1 t-12.5 0q-2 2 -10.5 7.5t-11.5 9.5z" />
<glyph unicode="&#xd0;" horiz-adv-x="614" d="M57 14q-2 9 -0.5 36t1.5 37q0 15 -1.5 45t-1.5 44q0 5 1 14t1 13q0 3 -1 10t-1 11q0 67 -5 83q0 4 4 10q-16 -2 -23 -1q-14 2 -26 10q-5 4 -3.5 17t11.5 17q6 0 19.5 0.5t20.5 0.5v57q0 8 0.5 26t-0.5 27q0 54 2 62q-2 10 -2 33q1 7 0 19.5t-1 16.5q0 5 1.5 15t1.5 15 t-2.5 20.5t-0.5 23.5q4 6 16 14q5 2 34 0q39 -2 67 4q12 -3 33 -3t26 -1q25 -2 34 -1q5 -3 17.5 -6t15.5 -4l33 -9q4 -2 22 -10.5t27 -13.5q3 -1 9.5 -6.5t12.5 -7.5q2 -1 9.5 -6.5t12.5 -7.5q4 -6 25.5 -26t27.5 -36q13 -9 26.5 -35.5t19.5 -33.5q1 -6 9.5 -32t7.5 -45 q4 -6 5 -10q0 -1 1 -2t1 -2q-2 -11 -1.5 -30t-0.5 -30l2 -2q-3 -2 -3 -41q-1 -14 -7 -35l-1 -2q-1 -3 -2 -5q0 -2 -0.5 -4.5t-0.5 -3.5t-2 -3t-3 -4l-2 -8q-23 -57 -23 -58q-17 -19 -21 -28q-13 -14 -19 -30q-14 -8 -17 -16q-2 -2 -8.5 -6t-8.5 -8q-6 -1 -19 -14 q-2 -2 -8.5 -6.5t-9.5 -7.5q-11 -4 -33 -15q-18 -9 -57 -22q-23 -4 -97 -6q-5 0 -15.5 -1.5t-14.5 -1.5t-33 1t-30 -3q-9 2 -18.5 1.5t-19.5 0.5t-14 6zM143 58q79 -4 122 5q6 1 16 3.5t17.5 4t13.5 3.5q17 11 30 16q5 5 16 8q15 7 55 42q4 4 16.5 18.5t19.5 21.5q4 8 15 26 t15 30q2 4 22 67q10 44 -5 107q-2 5 -9 39q-3 5 -7 15t-8 17t-9 12q-10 22 -26 41q-10 13 -34 35q-3 2 -9.5 7t-10.5 7q-13 13 -19 16q-1 1 -13.5 8t-18.5 11q-21 6 -63 20q-9 0 -28.5 3.5t-30.5 3.5q-6 0 -17.5 -2t-16.5 -2q-7 0 -21 0.5t-22 0.5t-17.5 -1.5t-16.5 -5.5 q-1 -64 2 -148v-36v-76q0 -10 1 -15q2 0 8 0.5t9 0.5h20q8 -1 23.5 -0.5t22.5 0.5q7 -2 14 -11q0 -2 1.5 -5.5t2 -5.5t-1 -6t-5.5 -8q-16 -7 -58 -7q-5 0 -16 2t-17 1q-1 0 -3 -1q0 -6 4 -16q-1 -3 -4 -30q0 -5 -0.5 -15.5t-0.5 -15.5q0 -10 0.5 -30t0.5 -30v-30v-47 q0 -3 1 -8.5t1 -7.5q0 -26 2 -30q2 -5 19 -3.5t18 1.5z" />
<glyph unicode="&#xd1;" horiz-adv-x="688" d="M655 24q-5 -1 -10.5 0.5t-8.5 3t-9.5 5.5t-7.5 5q-2 1 -5.5 7t-7.5 7l-5.5 5.5t-8.5 5.5q-2 2 -3.5 7.5t-2.5 6.5q-3 3 -9.5 8t-9.5 8q-2 4 -7.5 10t-7.5 9q-3 1 -7.5 7.5t-9.5 8.5q-1 3 -2.5 5.5t-3.5 4t-5 3.5t-5 4q-9 13 -33 33q-1 5 -7.5 9.5t-8.5 8.5l-15 17 q-6 8 -18 16q-2 7 -15 17q-4 4 -11 10.5t-12.5 12t-9.5 10.5q-1 4 -7 9.5t-8 9.5q-3 2 -8 8t-9 8q-23 25 -35 31q-5 13 -14 18q-8 12 -14 15q-11 9 -14 18q-10 8 -13 11l-3 5q-13 13 -14 15q-3 1 -7.5 7t-8.5 7q-3 2 -7.5 8t-6.5 8q-6 4 -14 16q-3 5 -16 16q-3 7 -13 17 q-5 4 -10 9t-11 12.5t-9 10.5q-7 4 -16 15.5t-14 15.5q-4 4 -12.5 16t-15.5 16q-2 -1 -3 -4t-1 -7.5t-1 -6.5q0 -2 3 -17q-2 -51 -1 -87q0 -1 1 -6t0 -8q0 -48 4 -60q-3 -6 -3.5 -13t0.5 -17.5t1 -15.5q0 -9 -1.5 -31.5t-0.5 -35.5l4 -26q0 -4 -1 -12t-1 -11q-2 -58 3 -93 q-2 -7 -2 -14.5t1 -17t1 -14.5q0 -4 -0.5 -12t-0.5 -12q0 -6 3.5 -28.5t-0.5 -26.5q-5 -7 -21 -8t-25 4q-6 10 -6.5 27t2 41t2.5 34q0 5 -0.5 14.5t-0.5 13.5q1 40 1 119q1 3 0 10t-1 9v67q0 7 1 24t0.5 28.5t-3.5 21.5q2 5 2 10.5t-1 12.5t-1 11q0 2 1 8t1 9q0 7 -1 23 t-1 24q2 29 -1 43q0 1 1 8.5t2 11.5q0 3 -2 8t-1 10l3 18q1 8 -1 22t-2 19q0 20 1 21t1.5 5t1.5 6.5t4 2.5q5 0 8 -2t6 -5.5t5 -4.5q2 -4 7 -9l7 -7q1 -1 11 -13q14 -18 33 -36q2 -5 16 -14q3 -5 13 -15.5t13 -17.5q20 -15 30 -27q2 -3 6.5 -8t6.5 -8q2 -2 8 -6t8 -7 q9 -12 28 -31.5t25 -27.5q6 -3 14.5 -13.5t15.5 -13.5q3 -6 7 -11t11 -11t9 -8l28 -29l13 -15q2 -3 7 -7t7 -6q6 -11 27 -30q6 -4 14 -15t13 -15l27 -30q11 -14 12 -16q4 -1 9 -5.5t7 -5.5q3 -6 21 -22q2 -2 7 -8t8 -9q1 -1 4 -2l3 -1q1 -2 3 -7t4 -7q5 -6 16.5 -16.5 t15.5 -15.5q1 -1 4 -6t5 -7q11 -6 13 -7q1 -1 1.5 -3t1.5 -3t3 -1q3 3 3.5 7t-0.5 10.5t-1 9.5q0 7 2 17q0 6 -1 19t-1 19q0 45 -3 54q3 18 0 24q1 3 2.5 8.5t2.5 8.5q-5 59 -4 71q1 4 -1 8.5t-2 7.5q1 20 0 72.5t2 70.5q-2 33 0 39q-1 4 -2 15.5t-3 16.5q3 9 2 26.5t1 27.5 l-3 33q1 2 3.5 8t4.5 9q19 10 35 -2q7 -10 5.5 -35.5t0.5 -39.5q-2 -6 -2 -57q0 -31 1 -96t1 -99v-119q0 -11 3 -20q1 -4 -1 -8.5t-2 -7.5q1 -18 0.5 -65.5t2.5 -62.5q1 -5 0 -16t-1 -14q0 -4 0.5 -11.5t0.5 -13t-3 -9.5zM373 813q7 -4 13 -6.5t14 -6.5q18 -3 19 -3 q2 0 12.5 -1t13.5 1q14 9 16 18l3 10q6 2 23.5 4t23.5 -3q1 -2 2 -11q0 -1 -5 -14.5t-8 -18.5q-2 -3 -6 -9.5t-7 -11t-7 -7.5q-10 -10 -27 -16q-39 -12 -94 12q-9 6 -23.5 10t-20.5 7q0 -1 -2.5 -0.5t-4.5 1.5h-3q-3 -1 -5.5 -0.5t-5.5 -1.5q-13 -9 -17 -18q-1 -5 -14 -10.5 t-25 -3t-10 16.5q6 29 7 30q16 25 25 32q5 5 28 13q33 11 85 -13z" />
<glyph unicode="&#xd2;" horiz-adv-x="787" d="M743 373q0 -6 1 -35.5t0 -45.5q-1 -8 -6 -24t-6 -26q-18 -32 -26 -57q-2 -1 -4 -6t-5 -6q-1 -1 -3.5 -7t-4.5 -8q-2 -5 -8 -13t-8 -13l-6 -6q-6 -5 -9 -9q-1 -1 -2 -3t-2 -3t-8 -9t-9 -13q-7 -2 -16 -11t-17 -11q-1 -1 -7.5 -8t-11.5 -9q-13 -8 -21 -16q-36 -8 -48 -18 q-26 -5 -40 -14q-18 -1 -132 -4q-35 7 -47 7q-25 10 -30 11q-4 1 -9.5 4t-10 5t-10.5 2q-2 4 -8.5 9t-7.5 6q-2 1 -5 3.5t-6.5 4t-7.5 1.5q-6 9 -33 25q-3 2 -13.5 14.5t-19.5 15.5q-7 12 -21 24q-2 4 -19 24q-1 10 -10.5 25t-11.5 27q-1 4 -6 10t-6 10q-1 2 -2 6.5t-2 6.5 q-7 30 -7 31q-3 9 -6.5 29.5t-4.5 25.5q0 33 3 73q2 9 4.5 26.5t4.5 25.5q13 43 14 46q6 8 15.5 25t14.5 24q2 5 8 12.5t8 10.5t8 10.5t8 11.5q5 2 13 11.5t14 12.5l26 24q33 17 70 39h16q6 2 18 9t19 10q8 2 26.5 4t27.5 5q28 3 84 -1q20 -5 23 -5q19 -5 22 -5q3 -1 8.5 -5 t9.5 -6q34 -10 39 -17q4 0 9.5 -3t7.5 -3q4 -1 13.5 -7.5t18.5 -7.5q14 -15 35 -23q5 -7 17 -19t17 -19q4 -3 8.5 -10.5t7.5 -10.5q9 -11 13 -22q5 -5 9.5 -12.5t9 -17.5t6.5 -15l9 -27q7 -21 10 -25q5 -40 8 -49v-22zM681 464q-7 12 -12 27q-4 4 -12 17t-15 18q-4 8 -14 19 t-13 17q-20 14 -28 22q-8 2 -16 11t-13 11q-6 5 -22 11q-1 0 -9 5.5t-13 7.5q-25 7 -50 22q-10 -1 -27.5 3.5t-24.5 4.5q-6 0 -17 -2t-15 -2h-36q-1 0 -13 -3q-3 -1 -8 -1h-8q-22 -15 -44 -16q-13 -11 -25 -13q-2 -2 -5 -5.5t-5 -5.5t-6 -4.5t-8 -3.5q-5 -6 -25 -17 q-2 -2 -7.5 -9t-9.5 -10q-2 -3 -19 -17q-3 -8 -11.5 -18.5t-10.5 -13.5l-6 -12q-1 -1 -4 -4.5t-4 -5.5l-3 -6q-3 -5 -7 -15.5t-8 -16.5q1 -4 -1 -10t-2 -10q-9 -14 -12 -36v-11q-1 -2 -2.5 -5.5t-1.5 -4.5q-3 -21 -3 -22q0 -4 1.5 -12t1.5 -12q1 -12 0 -25q8 -24 8 -38 q2 -1 4 -6t4 -6q-1 -11 5 -16q1 -5 4.5 -15t4.5 -17q18 -25 22 -39q6 -5 16.5 -17.5t17.5 -17.5q7 -12 17 -17q4 -3 9 -9t8 -8q22 -10 44 -29q8 -2 46 -17q11 1 26.5 -2.5t17.5 -3.5q40 -5 46 -8q8 1 37 3t42 6q15 2 36 11t30 11q6 2 18.5 11t20.5 11q8 11 21 19q3 2 10 9 t12 10q11 18 28 38l5 4q4 5 5 9q3 3 9.5 17t12.5 19q1 8 7.5 21.5t8.5 17.5q4 12 6.5 37t5.5 37v34q0 1 -1 1q-2 21 -21 93zM315 830q-1 9 3.5 19.5t4.5 12.5q2 1 14 8q13 4 16 4q5 -1 11 -6.5t10 -7.5q2 -6 10 -16.5t10 -17.5q3 -4 9.5 -11.5t9.5 -12.5q2 -2 6.5 -7t7 -9 t3.5 -9q3 -3 11.5 -10t13 -13t5.5 -15q0 -11 -17 -16q-2 -1 -3 -1q-2 1 -9.5 4t-12.5 3q-3 6 -15.5 16t-14.5 19q-4 2 -10.5 8t-10.5 8q0 1 -2 4.5t-2 6.5q-21 18 -22 20q-12 3 -26 19zM278 664v2l1 1q-1 2 -2 2q-1 -3 1 -5z" />
<glyph unicode="&#xd3;" horiz-adv-x="787" d="M743 373q0 -6 1 -35.5t0 -45.5q-1 -8 -6 -24t-6 -26q-18 -32 -26 -57q-2 -1 -4 -6t-5 -6q-1 -1 -3.5 -7t-4.5 -8q-2 -5 -8 -13t-8 -13l-6 -6q-6 -5 -9 -9q-1 -1 -2 -3t-2 -3t-8 -9t-9 -13q-7 -2 -16 -11t-17 -11q-1 -1 -7.5 -8t-11.5 -9q-13 -8 -21 -16q-36 -8 -48 -18 q-26 -5 -40 -14q-18 -1 -132 -4q-35 7 -47 7q-25 10 -30 11q-4 1 -9.5 4t-10 5t-10.5 2q-2 4 -8.5 9t-7.5 6q-2 1 -5 3.5t-6.5 4t-7.5 1.5q-6 9 -33 25q-3 2 -13.5 14.5t-19.5 15.5q-7 12 -21 24q-2 4 -19 24q-1 10 -10.5 25t-11.5 27q-1 4 -6 10t-6 10q-1 2 -2 6.5t-2 6.5 q-7 30 -7 31q-3 9 -6.5 29.5t-4.5 25.5q0 33 3 73q2 9 4.5 26.5t4.5 25.5q13 43 14 46q6 8 15.5 25t14.5 24q2 5 8 12.5t8 10.5t8 10.5t8 11.5q5 2 13 11.5t14 12.5l26 24q33 17 70 39h16q6 2 18 9t19 10q8 2 26.5 4t27.5 5q28 3 84 -1q20 -5 23 -5q19 -5 22 -5q3 -1 8.5 -5 t9.5 -6q34 -10 39 -17q4 0 9.5 -3t7.5 -3q4 -1 13.5 -7.5t18.5 -7.5q14 -15 35 -23q5 -7 17 -19t17 -19q4 -3 8.5 -10.5t7.5 -10.5q9 -11 13 -22q5 -5 9.5 -12.5t9 -17.5t6.5 -15l9 -27q7 -21 10 -25q5 -40 8 -49v-22zM681 464q-7 12 -12 27q-4 4 -12 17t-15 18q-4 8 -14 19 t-13 17q-20 14 -28 22q-8 2 -16 11t-13 11q-6 5 -22 11q-1 0 -9 5.5t-13 7.5q-25 7 -50 22q-10 -1 -27.5 3.5t-24.5 4.5q-6 0 -17 -2t-15 -2h-36q-1 0 -13 -3q-3 -1 -8 -1h-8q-22 -15 -44 -16q-13 -11 -25 -13q-2 -2 -5 -5.5t-5 -5.5t-6 -4.5t-8 -3.5q-5 -6 -25 -17 q-2 -2 -7.5 -9t-9.5 -10q-2 -3 -19 -17q-3 -8 -11.5 -18.5t-10.5 -13.5l-6 -12q-1 -1 -4 -4.5t-4 -5.5l-3 -6q-3 -5 -7 -15.5t-8 -16.5q1 -4 -1 -10t-2 -10q-9 -14 -12 -36v-11q-1 -2 -2.5 -5.5t-1.5 -4.5q-3 -21 -3 -22q0 -4 1.5 -12t1.5 -12q1 -12 0 -25q8 -24 8 -38 q2 -1 4 -6t4 -6q-1 -11 5 -16q1 -5 4.5 -15t4.5 -17q18 -25 22 -39q6 -5 16.5 -17.5t17.5 -17.5q7 -12 17 -17q4 -3 9 -9t8 -8q22 -10 44 -29q8 -2 46 -17q11 1 26.5 -2.5t17.5 -3.5q40 -5 46 -8q8 1 37 3t42 6q15 2 36 11t30 11q6 2 18.5 11t20.5 11q8 11 21 19q3 2 10 9 t12 10q11 18 28 38l5 4q4 5 5 9q3 3 9.5 17t12.5 19q1 8 7.5 21.5t8.5 17.5q4 12 6.5 37t5.5 37v34q0 1 -1 1q-2 21 -21 93zM303 728q0 7 4 16t5 14q8 8 24 28q12 17 14 24l11 6q3 6 10.5 15t10.5 15q4 3 11 13.5t12 13.5q9 3 27 -2q4 -5 13 -27q0 -7 -3 -12.5t-7 -11 t-6 -9.5q-2 -1 -8 -3.5t-9 -3.5q-1 -3 -5 -8.5t-5 -9.5q-1 -1 -5 -2t-6 -3q-12 -20 -28 -26q-1 -4 -4 -8t-6.5 -8t-5.5 -6q-5 -2 -13 -8q-25 -8 -31 3zM278 664v2l1 1q-1 2 -2 2q-1 -3 1 -5z" />
<glyph unicode="&#xd4;" horiz-adv-x="787" d="M743 373q0 -6 1 -35.5t0 -45.5q-1 -8 -6 -24t-6 -26q-18 -32 -26 -57q-2 -1 -4 -6t-5 -6q-1 -1 -3.5 -7t-4.5 -8q-2 -5 -8 -13t-8 -13l-6 -6q-6 -5 -9 -9q-1 -1 -2 -3t-2 -3t-8 -9t-9 -13q-7 -2 -16 -11t-17 -11q-1 -1 -7.5 -8t-11.5 -9q-13 -8 -21 -16q-36 -8 -48 -18 q-26 -5 -40 -14q-18 -1 -132 -4q-35 7 -47 7q-25 10 -30 11q-4 1 -9.5 4t-10 5t-10.5 2q-2 4 -8.5 9t-7.5 6q-2 1 -5 3.5t-6.5 4t-7.5 1.5q-6 9 -33 25q-3 2 -13.5 14.5t-19.5 15.5q-7 12 -21 24q-2 4 -19 24q-1 10 -10.5 25t-11.5 27q-1 4 -6 10t-6 10q-1 2 -2 6.5t-2 6.5 q-7 30 -7 31q-3 9 -6.5 29.5t-4.5 25.5q0 33 3 73q2 9 4.5 26.5t4.5 25.5q13 43 14 46q6 8 15.5 25t14.5 24q2 5 8 12.5t8 10.5t8 10.5t8 11.5q5 2 13 11.5t14 12.5l26 24q33 17 70 39h16q6 2 18 9t19 10q8 2 26.5 4t27.5 5q28 3 84 -1q20 -5 23 -5q19 -5 22 -5q3 -1 8.5 -5 t9.5 -6q34 -10 39 -17q4 0 9.5 -3t7.5 -3q4 -1 13.5 -7.5t18.5 -7.5q14 -15 35 -23q5 -7 17 -19t17 -19q4 -3 8.5 -10.5t7.5 -10.5q9 -11 13 -22q5 -5 9.5 -12.5t9 -17.5t6.5 -15l9 -27q7 -21 10 -25q5 -40 8 -49v-22zM681 464q-7 12 -12 27q-4 4 -12 17t-15 18q-4 8 -14 19 t-13 17q-20 14 -28 22q-8 2 -16 11t-13 11q-6 5 -22 11q-1 0 -9 5.5t-13 7.5q-25 7 -50 22q-10 -1 -27.5 3.5t-24.5 4.5q-6 0 -17 -2t-15 -2h-36q-1 0 -13 -3q-3 -1 -8 -1h-8q-22 -15 -44 -16q-13 -11 -25 -13q-2 -2 -5 -5.5t-5 -5.5t-6 -4.5t-8 -3.5q-5 -6 -25 -17 q-2 -2 -7.5 -9t-9.5 -10q-2 -3 -19 -17q-3 -8 -11.5 -18.5t-10.5 -13.5l-6 -12q-1 -1 -4 -4.5t-4 -5.5l-3 -6q-3 -5 -7 -15.5t-8 -16.5q1 -4 -1 -10t-2 -10q-9 -14 -12 -36v-11q-1 -2 -2.5 -5.5t-1.5 -4.5q-3 -21 -3 -22q0 -4 1.5 -12t1.5 -12q1 -12 0 -25q8 -24 8 -38 q2 -1 4 -6t4 -6q-1 -11 5 -16q1 -5 4.5 -15t4.5 -17q18 -25 22 -39q6 -5 16.5 -17.5t17.5 -17.5q7 -12 17 -17q4 -3 9 -9t8 -8q22 -10 44 -29q8 -2 46 -17q11 1 26.5 -2.5t17.5 -3.5q40 -5 46 -8q8 1 37 3t42 6q15 2 36 11t30 11q6 2 18.5 11t20.5 11q8 11 21 19q3 2 10 9 t12 10q11 18 28 38l5 4q4 5 5 9q3 3 9.5 17t12.5 19q1 8 7.5 21.5t8.5 17.5q4 12 6.5 37t5.5 37v34q0 1 -1 1q-2 21 -21 93zM395 884q14 -4 16 -13l16 -11q8 -15 22 -22q0 -1 8 -14q4 -3 11.5 -10t14 -12t13.5 -8q3 -7 12 -20t12 -23q-7 -17 -24 -18q-20 2 -38 30l-10.5 7 t-11.5 7q-1 2 -3.5 4.5t-4 5t-1.5 5.5l-15 13q-1 1 -5 6t-9 5q-16 0 -17 -8q-1 -1 -4.5 -3t-5.5 -4t-3 -5q-12 -12 -23 -26q-2 0 -21 -11q-7 -10 -11 -20q-4 -1 -9.5 -4t-7.5 -4q-30 6 -30 27q3 11 17 22.5t18 19.5q10 6 31 29q1 3 2 3q3 1 6 4t6.5 7t6.5 6q2 2 5.5 5t6 6 t3.5 7q6 1 13 8.5t14 8.5zM278 664v2l1 1q-1 2 -2 2q-1 -3 1 -5z" />
<glyph unicode="&#xd5;" horiz-adv-x="787" d="M743 373q0 -6 1 -35.5t0 -45.5q-1 -8 -6 -24t-6 -26q-18 -32 -26 -57q-2 -1 -4 -6t-5 -6q-1 -1 -3.5 -7t-4.5 -8q-2 -5 -8 -13t-8 -13l-6 -6q-6 -5 -9 -9q-1 -1 -2 -3t-2 -3t-8 -9t-9 -13q-7 -2 -16 -11t-17 -11q-1 -1 -7.5 -8t-11.5 -9q-13 -8 -21 -16q-36 -8 -48 -18 q-26 -5 -40 -14q-18 -1 -132 -4q-35 7 -47 7q-25 10 -30 11q-4 1 -9.5 4t-10 5t-10.5 2q-2 4 -8.5 9t-7.5 6q-2 1 -5 3.5t-6.5 4t-7.5 1.5q-6 9 -33 25q-3 2 -13.5 14.5t-19.5 15.5q-7 12 -21 24q-2 4 -19 24q-1 10 -10.5 25t-11.5 27q-1 4 -6 10t-6 10q-1 2 -2 6.5t-2 6.5 q-7 30 -7 31q-3 9 -6.5 29.5t-4.5 25.5q0 33 3 73q2 9 4.5 26.5t4.5 25.5q13 43 14 46q6 8 15.5 25t14.5 24q2 5 8 12.5t8 10.5t8 10.5t8 11.5q5 2 13 11.5t14 12.5l26 24q33 17 70 39h16q6 2 18 9t19 10q8 2 26.5 4t27.5 5q28 3 84 -1q20 -5 23 -5q19 -5 22 -5q3 -1 8.5 -5 t9.5 -6q34 -10 39 -17q4 0 9.5 -3t7.5 -3q4 -1 13.5 -7.5t18.5 -7.5q14 -15 35 -23q5 -7 17 -19t17 -19q4 -3 8.5 -10.5t7.5 -10.5q9 -11 13 -22q5 -5 9.5 -12.5t9 -17.5t6.5 -15l9 -27q7 -21 10 -25q5 -40 8 -49v-22zM681 464q-7 12 -12 27q-4 4 -12 17t-15 18q-4 8 -14 19 t-13 17q-20 14 -28 22q-8 2 -16 11t-13 11q-6 5 -22 11q-1 0 -9 5.5t-13 7.5q-25 7 -50 22q-10 -1 -27.5 3.5t-24.5 4.5q-6 0 -17 -2t-15 -2h-36q-1 0 -13 -3q-3 -1 -8 -1h-8q-22 -15 -44 -16q-13 -11 -25 -13q-2 -2 -5 -5.5t-5 -5.5t-6 -4.5t-8 -3.5q-5 -6 -25 -17 q-2 -2 -7.5 -9t-9.5 -10q-2 -3 -19 -17q-3 -8 -11.5 -18.5t-10.5 -13.5l-6 -12q-1 -1 -4 -4.5t-4 -5.5l-3 -6q-3 -5 -7 -15.5t-8 -16.5q1 -4 -1 -10t-2 -10q-9 -14 -12 -36v-11q-1 -2 -2.5 -5.5t-1.5 -4.5q-3 -21 -3 -22q0 -4 1.5 -12t1.5 -12q1 -12 0 -25q8 -24 8 -38 q2 -1 4 -6t4 -6q-1 -11 5 -16q1 -5 4.5 -15t4.5 -17q18 -25 22 -39q6 -5 16.5 -17.5t17.5 -17.5q7 -12 17 -17q4 -3 9 -9t8 -8q22 -10 44 -29q8 -2 46 -17q11 1 26.5 -2.5t17.5 -3.5q40 -5 46 -8q8 1 37 3t42 6q15 2 36 11t30 11q6 2 18.5 11t20.5 11q8 11 21 19q3 2 10 9 t12 10q11 18 28 38l5 4q4 5 5 9q3 3 9.5 17t12.5 19q1 8 7.5 21.5t8.5 17.5q4 12 6.5 37t5.5 37v34q0 1 -1 1q-2 21 -21 93zM371 872q7 -4 13 -6.5t14 -6.5q18 -3 19 -3q2 0 12.5 -1t13.5 1q14 10 16 18l3 10q6 2 23.5 4t23.5 -3q1 -2 2 -11q0 -1 -5 -14.5t-8 -18.5 q-2 -3 -6 -9.5t-7 -11t-7 -7.5q-10 -10 -27 -16q-39 -12 -94 12q-9 6 -23.5 10t-20.5 7q0 -1 -2.5 -0.5t-4.5 0.5l-3 1q-3 -1 -5.5 -0.5t-5.5 -1.5q-13 -9 -17 -18q-1 -5 -14 -10.5t-25 -3t-10 16.5q6 29 7 30q16 25 25 32q5 5 28 13q33 11 85 -13zM278 664v2l1 1q-1 2 -2 2 q-1 -3 1 -5z" />
<glyph unicode="&#xd6;" horiz-adv-x="787" d="M677 148q-2 -25 -17 -26q-4 0 -6.5 -2.5t-4.5 -6.5t-4 -6q-7 -2 -16 -10t-15 -10q-4 -5 -14.5 -11t-14.5 -11q-3 -1 -10 -3.5t-10 -4.5q-4 -2 -10 -7t-9 -7q-13 -3 -38 -12.5t-42 -11.5q-4 -3 -28.5 -4t-30.5 1q-4 1 -9.5 -1t-9.5 -2h-12q-2 0 -4 0.5t-4.5 1.5t-4.5 1 q-3 0 -12.5 0.5t-14.5 1.5q-1 0 -3 0.5t-4.5 1.5t-3.5 1q-20 2 -28 8q-5 -1 -11 0t-10 1q-1 0 -10.5 4.5t-14.5 2.5q-3 0 -6.5 4t-5.5 5q-4 0 -22 8q-2 0 -19 9h-15q-3 1 -12.5 7t-15.5 9q-2 2 -4.5 8t-3.5 8q-1 3 -7.5 8.5t-6.5 11.5q-1 1 -7.5 6.5t-9.5 10t-5 9.5 q-3 1 -11 12q0 1 -0.5 2.5t-1.5 2.5q0 1 -3.5 3.5t-4.5 4.5q-1 1 -1 6t-2 6q-1 4 -6 9.5t-6 9.5q-6 6 -13 18q-3 21 -3 22q-2 3 -5.5 14.5t-7.5 15.5q0 5 -4 15.5t-5 17.5q0 6 0.5 14.5t1.5 19t1 16.5q0 3 -2 8.5t-3 9.5q3 27 11 41q0 12 7 45q4 22 8 32l1 1q2 1 2 2v6l4 10 q24 52 30 58q0 4 3.5 10t3.5 11q5 5 18.5 17.5t22 22t15.5 19.5q5 3 14 10.5t15 10.5q24 19 28 20q4 2 9 8t7 8q6 0 11.5 1.5t8.5 3.5t8 6t7 5q4 0 21.5 4.5t28.5 1.5q6 1 16 7l30 3q8 1 21.5 -0.5t19.5 -1.5q2 0 8 1t9 1q13 0 37 -5.5t36 -5.5q7 -7 28 -15t28 -14 q2 0 19 -6q10 -8 28.5 -21.5t23.5 -17.5q3 -5 9 -12t9 -12q10 -7 23.5 -24t20.5 -23q2 -9 10 -22t9 -16q3 -4 8.5 -17t10.5 -19q2 -11 7.5 -31.5t7.5 -30.5v-19q2 -6 5 -19t5 -19q-2 -9 -1.5 -24.5t-0.5 -24.5l-3 -12q-1 -4 0 -12.5t0 -12.5q-1 -8 -5.5 -23.5t-5.5 -21.5 l-2 -15q-15 -24 -14 -35q-1 -3 -6 -9t-6 -11q-4 -2 -9 -7t-7 -6q-1 -5 -5.5 -11.5t-5.5 -9.5zM247 636q-5 -3 -13.5 -9t-13.5 -9q-4 -3 -12 -9.5t-13 -9.5q-7 -10 -46 -52q-1 -5 -6 -15t-7 -16q-5 -4 -11.5 -15t-11.5 -15q-3 -21 -13 -36q-2 -11 -7 -28.5t-6 -23.5 q-6 -56 8 -100q1 -4 4 -11t4 -11l10 -31l15 -26q2 -5 7.5 -15t7.5 -15q3 -3 12 -10.5t13 -12.5q19 -19 23 -25q31 -21 37 -27q11 -3 36 -21q8 -1 50 -17q8 1 14.5 -0.5t13 -4t10.5 -3.5q14 2 40 -0.5t37 -2.5q6 3 20.5 6t20.5 5q31 12 40 13q18 9 49 25l11 4q2 1 4 4t4 4 q3 3 11 5q1 5 8.5 10.5t8.5 6.5q5 9 17 18q3 8 14 20.5t15 21.5q3 1 6 4t5 4q0 4 2.5 10t1.5 12q6 7 13 23t8 18q3 10 7 31.5t6 28.5q1 10 1 28.5v26.5q-1 4 -3.5 10.5t-3.5 12t-1 12.5q-4 6 -9 33q-11 10 -16 38q-12 14 -14 20q-2 5 -8 11t-8 10q1 4 -1 8t-2 6 q-22 17 -36 40q-9 4 -40 30q-5 0 -14.5 5.5t-16.5 5.5q-2 2 -4.5 7.5t-3.5 6.5q-5 0 -17.5 5t-20.5 3q-15 12 -44 12q-18 8 -30 8q-3 0 -10.5 -2t-11.5 -1q-2 0 -6 2t-7 1q-3 0 -6.5 -2.5t-5.5 -2.5q-8 1 -19.5 -2.5t-12.5 -3.5q-7 -6 -25 -14h-16q-1 -2 -4.5 -3.5 t-4.5 -2.5q0 -3 -6 -3.5t-7 -1.5q-3 -1 -5.5 -6.5t-5.5 -6.5q-2 1 -4 4t-5 3zM141 691q6 -4 -3 -22q0 -1 -2 -2t-3 -2l-1 -2q0 -1 -1 -2q0 -3 -4 -3q-12 -8 -16 -8q-7 -1 -35 9q-9 17 -8 27q0 4 4.5 12t3.5 16q2 1 8.5 7t10.5 8q23 7 40 -11q0 -6 3 -14t3 -13zM707 662 q-5 0 -15.5 -1.5t-16.5 -1.5q-25 1 -36 30q1 4 5.5 14.5t5.5 18.5q19 15 28 14q4 1 15 -6q10 -6 17 -20q6 -16 5 -35q-3 -1 -4.5 -6.5t-3.5 -6.5z" />
<glyph unicode="&#xd7;" horiz-adv-x="368" d="M90 310q14 0 19 -12q4 -10 67 -67l4 5l41 43l16 16t17 16q9 3 24 -5q15 -12 20 -27q0 -6 2 -9q-2 -2 -5 -10t-7 -9q-9 -3 -66 -69q9 -9 12 -11t32 -25q6 -11 22 -25q2 -2 6 -4.5t6 -4t5 -4.5t3.5 -4.5t1.5 -5.5t-1 -7q-9 -14 -22 -26q-16 -12 -27 -11q-6 6 -14 11 q-3 2 -32 32t-35 34q-4 2 -6 4l-10 -10l-10 -15q-9 -4 -25 -22l-14 -19q-3 -7 -7 -9t-10.5 -2h-7.5q-14 7 -26 21q-12 15 -12 27q3 3 6.5 7.5t5.5 6.5q2 3 29 28.5t31 30.5l3 5l-4 4q-2 2 -12 14t-13 14q-5 6 -24.5 24t-24.5 24q-3 9 5 25q10 13 27 19q6 2 10 2z" />
<glyph unicode="&#xd8;" horiz-adv-x="787" d="M743 373q0 -6 1 -35.5t0 -45.5q-1 -8 -6 -24t-6 -26q-18 -32 -26 -57q-2 -1 -4 -6t-5 -6q-1 -1 -3.5 -7t-4.5 -8q-2 -5 -8 -13t-8 -13l-6 -6q-6 -5 -9 -9q-1 -1 -2 -3t-2 -3t-8 -9t-9 -13q-7 -2 -16 -11t-17 -11q-1 -1 -7.5 -8t-11.5 -9q-13 -8 -21 -16q-36 -8 -48 -18 q-26 -5 -40 -14q-18 -1 -132 -4q-35 7 -47 7l-8 3q0 -1 -5 -13q-1 -3 -2 -10.5t-4 -10.5q-1 -1 -2 -8.5t-6 -11.5q-5 -6 -7 -9t-7 -4.5t-7 -1.5t-13 -1q-8 0 -11 0.5t-3.5 1.5t-0.5 6.5v8.5l15 24q4 15 16 34l3 8q-10 6 -18 6q-2 4 -8.5 9t-7.5 6q-2 1 -5 3.5t-6.5 4 t-7.5 1.5q-6 9 -33 25q-3 2 -13.5 14.5t-19.5 15.5q-7 12 -21 24q-2 4 -19 24q-1 10 -10.5 25t-11.5 27q-1 4 -6 10t-6 10q-1 2 -2 6.5t-2 6.5q-7 30 -7 31q-3 9 -6.5 29.5t-4.5 25.5q0 33 3 73q2 9 4.5 26.5t4.5 25.5q13 43 14 46q6 8 15.5 25t14.5 24q2 5 8 12.5t8 10.5 t8 10.5t8 11.5q5 2 13 11.5t14 12.5l26 24q33 17 70 39h16q6 2 18 9t19 10q8 2 26.5 4t27.5 5q28 3 84 -1q20 -5 23 -5q19 -5 22 -5q3 -1 8.5 -5t9.5 -6q27 -8 30 -10q4 11 5.5 15t5.5 10.5t8.5 7.5t13 1t19.5 -4q9 -12 -14 -42l-3 -6q14 -10 23 -10q14 -15 35 -23 q5 -7 17 -19t17 -19q4 -3 8.5 -10.5t7.5 -10.5q9 -11 13 -22q5 -5 9.5 -12.5t9 -17.5t6.5 -15l9 -27q7 -21 10 -25q5 -40 8 -49v-22zM252 76q9 -2 25 -8q22 44 29 66q4 10 17 36.5t22 47t13 37.5q4 7 10.5 23.5t13.5 25.5q1 9 9 25t10 24l3 15q5 4 15 25t20.5 47.5 t11.5 27.5q3 7 8.5 19t7.5 17l6 15q17 34 37 88l9 20l-5 3q-25 7 -50 22q-10 -1 -27.5 3.5t-24.5 4.5q-6 0 -17 -2t-15 -2h-36q-1 0 -13 -3q-3 -1 -8 -1h-8q-22 -15 -44 -16q-13 -11 -25 -13q-2 -2 -5 -5.5t-5 -5.5t-6 -4.5t-8 -3.5q-5 -6 -25 -17q-2 -2 -7.5 -9t-9.5 -10 q-2 -3 -19 -17q-3 -8 -11.5 -18.5t-10.5 -13.5l-6 -12q-1 -1 -4 -4.5t-4 -5.5l-3 -6q-3 -5 -7 -15.5t-8 -16.5q1 -4 -1 -10t-2 -10q-9 -14 -12 -36v-11q-1 -2 -2.5 -5.5t-1.5 -4.5q-3 -21 -3 -22q0 -4 1.5 -12t1.5 -12q1 -12 0 -25q8 -24 8 -38q2 -1 4 -6t4 -6q-1 -11 5 -16 q1 -5 4.5 -15t4.5 -17q18 -25 22 -39q6 -5 16.5 -17.5t17.5 -17.5q7 -12 17 -17q4 -3 9 -9t8 -8q22 -10 44 -29zM469 419l-28 -67q-8 -12 -23 -50q-1 -3 -7.5 -20t-11.5 -27q-1 -3 -6 -10t-6 -10l-8 -22q-2 -4 -12 -28.5t-16 -36.5q-1 -7 -16 -35q-1 -1 0 -2t0 -2 q-14 -31 -17 -43q-1 -1 -2.5 -4t-2.5 -4q6 0 15.5 -2.5t13.5 -2.5q40 -5 46 -8q8 1 37 3t42 6q15 2 36 11t30 11q6 2 18.5 11t20.5 11q8 11 21 19q3 2 10 9t12 10q11 18 28 38l5 4q4 5 5 9q3 3 9.5 17t12.5 19q1 8 7.5 21.5t8.5 17.5q4 12 6.5 37t5.5 37v34q0 1 -1 1 q-2 21 -21 93q-7 12 -12 27q-4 4 -12 17t-15 18q-4 8 -14 19t-13 17q-20 14 -28 22q-8 2 -16 11t-13 11l-5 4q-4 -12 -5 -18q-2 -5 -7 -10t-6 -9q-6 -14 -21 -45.5t-24 -53t-16 -43.5q0 -1 -2 -3.5t-3 -4.5t0 -4zM278 664v2l1 1q-1 2 -2 2q-1 -3 1 -5z" />
<glyph unicode="&#xd9;" horiz-adv-x="590" d="M57 693q24 8 36 -3q8 -14 2 -30q9 -19 0 -45q0 -2 1 -14.5t4 -18.5q-2 -13 -2 -40.5v-33.5q0 -50 2 -60q-4 -12 -4.5 -37.5t-0.5 -29.5q0 -5 2 -11.5t2 -7.5q-1 -16 0 -32q-7 -31 -4 -61q0 -2 1.5 -17t-0.5 -18q6 -20 3 -35q1 -3 3.5 -7.5t4 -9.5t0.5 -11l15 -36 q1 -2 15.5 -15t19.5 -22q5 -1 9.5 -4.5t9.5 -8.5t8 -7q4 -3 17 -9t19 -12q9 3 36 -4q8 3 30 0.5t30 -2.5q3 0 10 2t11 2q14 9 25 12q7 4 19 12t17 11l4 2l4 3l10 8q13 13 15 14q1 4 6.5 11.5t6.5 13.5q1 1 13 22q12 36 14 57q-3 10 -1.5 36t0.5 35q5 4 2.5 29.5t-2.5 30.5 q0 3 2 17t-1 16q9 34 2 63q2 29 2 205q0 3 -2 10.5t-1 13.5q8 16 11 17q19 6 38 -6q3 -12 3 -26t-1.5 -32t-1.5 -28v-34q-1 -4 2.5 -9.5t3.5 -8.5q-10 -19 -6 -45q0 -3 2 -9.5t2 -8.5l2 -19q0 -16 1 -18q0 -2 1 -3t1 -2q-1 -4 -3.5 -8.5t-2.5 -7.5q0 -5 -2 -15t-2 -15 q0 -4 1.5 -12t1.5 -12q0 -2 -0.5 -7t-0.5 -8q0 -2 0.5 -8t0.5 -8q0 -4 -2 -14t-1 -16q7 -53 2 -82q2 -5 0 -24.5t-2 -25.5q-8 -20 -9 -34q-1 -3 -6.5 -12t-5.5 -17q-3 -6 -10.5 -14t-9.5 -10q-4 -11 -5 -14q-9 -6 -22 -21.5t-16 -18.5q-19 -6 -33 -20q-6 1 -11.5 -3t-8.5 -4 q-4 -1 -9 -5.5t-7 -5.5q-18 1 -36 -4q-30 0 -37 -3q-6 3 -13 3.5t-16.5 0t-14.5 -0.5q-4 0 -13.5 1.5t-13.5 2t-14 -1.5q-4 -1 -9 4q-2 0 -5 0.5t-5 0.5t-3 1q-13 5 -19 13q-3 1 -8.5 1t-8.5 2q-9 12 -10 16q-2 1 -15 11q-10 5 -15 11q-6 4 -25 25q-2 2 -4 8.5t-2 7.5 q-1 3 -5.5 8t-5.5 9q-3 3 -5.5 9t-4.5 8q2 13 -9 32q1 9 -2.5 22.5t-3.5 18.5v27l3 20q1 2 0 12t-1 12q0 6 0.5 18.5t0.5 19.5q0 4 -1 16.5t0 19.5q0 2 0.5 7t0.5 7q0 48 2 158v26.5t2 25.5q-3 14 -2 47t-1 50q2 2 4 8.5t5 9.5zM217 830q-1 9 3.5 19.5t4.5 12.5q2 1 14 8 q13 4 16 4q5 -1 11 -6.5t10 -7.5q2 -6 10 -16.5t10 -17.5q3 -4 9.5 -11.5t9.5 -12.5q2 -2 6.5 -7t7 -9t3.5 -9q3 -3 11.5 -10t13 -13t5.5 -15q0 -11 -17 -16q-2 -1 -3 -1q-2 1 -9.5 4t-12.5 3q-3 6 -15.5 16t-14.5 19q-4 2 -10.5 8t-10.5 8q0 1 -2 4.5t-2 6.5q-21 18 -22 20 q-12 3 -26 19z" />
<glyph unicode="&#xda;" horiz-adv-x="590" d="M57 693q24 8 36 -3q8 -14 2 -30q9 -19 0 -45q0 -2 1 -14.5t4 -18.5q-2 -13 -2 -40.5v-33.5q0 -50 2 -60q-4 -12 -4.5 -37.5t-0.5 -29.5q0 -5 2 -11.5t2 -7.5q-1 -16 0 -32q-7 -31 -4 -61q0 -2 1.5 -17t-0.5 -18q6 -20 3 -35q1 -3 3.5 -7.5t4 -9.5t0.5 -11l15 -36 q1 -2 15.5 -15t19.5 -22q5 -1 9.5 -4.5t9.5 -8.5t8 -7q4 -3 17 -9t19 -12q9 3 36 -4q8 3 30 0.5t30 -2.5q3 0 10 2t11 2q14 9 25 12q7 4 19 12t17 11l4 2l4 3l10 8q13 13 15 14q1 4 6.5 11.5t6.5 13.5q1 1 13 22q12 36 14 57q-3 10 -1.5 36t0.5 35q5 4 2.5 29.5t-2.5 30.5 q0 3 2 17t-1 16q9 34 2 63q2 29 2 205q0 3 -2 10.5t-1 13.5q8 16 11 17q19 6 38 -6q3 -12 3 -26t-1.5 -32t-1.5 -28v-34q-1 -4 2.5 -9.5t3.5 -8.5q-10 -19 -6 -45q0 -3 2 -9.5t2 -8.5l2 -19q0 -16 1 -18q0 -2 1 -3t1 -2q-1 -4 -3.5 -8.5t-2.5 -7.5q0 -5 -2 -15t-2 -15 q0 -4 1.5 -12t1.5 -12q0 -2 -0.5 -7t-0.5 -8q0 -2 0.5 -8t0.5 -8q0 -4 -2 -14t-1 -16q7 -53 2 -82q2 -5 0 -24.5t-2 -25.5q-8 -20 -9 -34q-1 -3 -6.5 -12t-5.5 -17q-3 -6 -10.5 -14t-9.5 -10q-4 -11 -5 -14q-9 -6 -22 -21.5t-16 -18.5q-19 -6 -33 -20q-6 1 -11.5 -3t-8.5 -4 q-4 -1 -9 -5.5t-7 -5.5q-18 1 -36 -4q-30 0 -37 -3q-6 3 -13 3.5t-16.5 0t-14.5 -0.5q-4 0 -13.5 1.5t-13.5 2t-14 -1.5q-4 -1 -9 4q-2 0 -5 0.5t-5 0.5t-3 1q-13 5 -19 13q-3 1 -8.5 1t-8.5 2q-9 12 -10 16q-2 1 -15 11q-10 5 -15 11q-6 4 -25 25q-2 2 -4 8.5t-2 7.5 q-1 3 -5.5 8t-5.5 9q-3 3 -5.5 9t-4.5 8q2 13 -9 32q1 9 -2.5 22.5t-3.5 18.5v27l3 20q1 2 0 12t-1 12q0 6 0.5 18.5t0.5 19.5q0 4 -1 16.5t0 19.5q0 2 0.5 7t0.5 7q0 48 2 158v26.5t2 25.5q-3 14 -2 47t-1 50q2 2 4 8.5t5 9.5zM205 728q0 7 4 16t5 14q8 8 24 28 q12 17 14 24l11 6q3 6 10.5 15t10.5 15q4 3 11 13.5t12 13.5q9 3 27 -2q4 -5 13 -27q0 -7 -3 -12.5t-7 -11t-6 -9.5q-2 -1 -8 -3.5t-9 -3.5q-1 -3 -5 -8.5t-5 -9.5q-1 -1 -5 -2t-6 -3q-12 -20 -28 -26q-1 -4 -4 -8t-6.5 -8t-5.5 -6q-5 -2 -13 -8q-25 -8 -31 3z" />
<glyph unicode="&#xdb;" horiz-adv-x="590" d="M57 693q24 8 36 -3q8 -14 2 -30q9 -19 0 -45q0 -2 1 -14.5t4 -18.5q-2 -13 -2 -40.5v-33.5q0 -50 2 -60q-4 -12 -4.5 -37.5t-0.5 -29.5q0 -5 2 -11.5t2 -7.5q-1 -16 0 -32q-7 -31 -4 -61q0 -2 1.5 -17t-0.5 -18q6 -20 3 -35q1 -3 3.5 -7.5t4 -9.5t0.5 -11l15 -36 q1 -2 15.5 -15t19.5 -22q5 -1 9.5 -4.5t9.5 -8.5t8 -7q4 -3 17 -9t19 -12q9 3 36 -4q8 3 30 0.5t30 -2.5q3 0 10 2t11 2q14 9 25 12q7 4 19 12t17 11l4 2l4 3l10 8q13 13 15 14q1 4 6.5 11.5t6.5 13.5q1 1 13 22q12 36 14 57q-3 10 -1.5 36t0.5 35q5 4 2.5 29.5t-2.5 30.5 q0 3 2 17t-1 16q9 34 2 63q2 29 2 205q0 3 -2 10.5t-1 13.5q8 16 11 17q19 6 38 -6q3 -12 3 -26t-1.5 -32t-1.5 -28v-34q-1 -4 2.5 -9.5t3.5 -8.5q-10 -19 -6 -45q0 -3 2 -9.5t2 -8.5l2 -19q0 -16 1 -18q0 -2 1 -3t1 -2q-1 -4 -3.5 -8.5t-2.5 -7.5q0 -5 -2 -15t-2 -15 q0 -4 1.5 -12t1.5 -12q0 -2 -0.5 -7t-0.5 -8q0 -2 0.5 -8t0.5 -8q0 -4 -2 -14t-1 -16q7 -53 2 -82q2 -5 0 -24.5t-2 -25.5q-8 -20 -9 -34q-1 -3 -6.5 -12t-5.5 -17q-3 -6 -10.5 -14t-9.5 -10q-4 -11 -5 -14q-9 -6 -22 -21.5t-16 -18.5q-19 -6 -33 -20q-6 1 -11.5 -3t-8.5 -4 q-4 -1 -9 -5.5t-7 -5.5q-18 1 -36 -4q-30 0 -37 -3q-6 3 -13 3.5t-16.5 0t-14.5 -0.5q-4 0 -13.5 1.5t-13.5 2t-14 -1.5q-4 -1 -9 4q-2 0 -5 0.5t-5 0.5t-3 1q-13 5 -19 13q-3 1 -8.5 1t-8.5 2q-9 12 -10 16q-2 1 -15 11q-10 5 -15 11q-6 4 -25 25q-2 2 -4 8.5t-2 7.5 q-1 3 -5.5 8t-5.5 9q-3 3 -5.5 9t-4.5 8q2 13 -9 32q1 9 -2.5 22.5t-3.5 18.5v27l3 20q1 2 0 12t-1 12q0 6 0.5 18.5t0.5 19.5q0 4 -1 16.5t0 19.5q0 2 0.5 7t0.5 7q0 48 2 158v26.5t2 25.5q-3 14 -2 47t-1 50q2 2 4 8.5t5 9.5zM297 884q14 -4 16 -13l16 -11q8 -15 22 -22 q0 -1 8 -14q4 -3 11.5 -10t14 -12t13.5 -8q3 -7 12 -20t12 -23q-7 -17 -24 -18q-20 2 -38 30l-10.5 7t-11.5 7q-1 2 -3.5 4.5t-4 5t-1.5 5.5l-15 13q-1 1 -5 6t-9 5q-16 0 -17 -8q-1 -1 -4.5 -3t-5.5 -4t-3 -5q-12 -12 -23 -26q-2 0 -21 -11q-7 -10 -11 -20q-4 -1 -9.5 -4 t-7.5 -4q-30 6 -30 27q3 11 17 22.5t18 19.5q10 6 31 29q1 3 2 3q3 1 6 4t6.5 7t6.5 6q2 2 5.5 5t6 6t3.5 7q6 1 13 8.5t14 8.5z" />
<glyph unicode="&#xdc;" horiz-adv-x="590" d="M491 103q-5 -5 -17 -7q-4 -2 -11 -12q-3 0 -13 -5q-3 -1 -5 -3.5t-4 -5.5t-3 -5q-5 -2 -21 -16q-1 -1 -9.5 -5t-12.5 -7q-28 -8 -44 -19q-6 0 -33 -4t-41 -1q-1 0 -4.5 1.5t-5.5 1.5q-1 0 -5 -1t-6 -1q-10 2 -11 2q-24 11 -38 11q-7 5 -36 14q-1 2 -6.5 6.5t-7.5 7.5 q-10 3 -23 13.5t-20 13.5q-14 25 -36 41q-1 16 -15 38t-15 32q-3 70 3 109q3 21 -1 28q-2 2 -0.5 34t0.5 35q-1 4 1 9.5t2 6.5q-4 16 0 63q0 2 -2 6.5t-3 7.5l5 32q-7 21 -6 73t-5 73q0 17 6 43q2 1 5.5 3.5t7 4t8.5 1.5q12 -1 22 -19q-4 -31 -2 -123l-3 -15q-1 -4 1 -7 t2 -6q-2 -8 -1 -29.5t-2 -27.5q3 0 1.5 -17.5t-1.5 -18.5q0 -5 2.5 -17.5t2.5 -18.5q0 -5 -1 -14.5t-1 -14.5q2 -29 -3 -37q2 -5 2.5 -13.5t0 -16t0.5 -15.5q0 -2 0.5 -11.5t-0.5 -13.5q0 -5 -0.5 -23.5t0.5 -25.5q0 -3 2.5 -11t2.5 -12q-2 -20 6 -22q3 -3 0 -11 q10 -10 18 -24q1 -2 7.5 -10t7.5 -14q5 -2 14 -10t15 -10q1 -2 4 -6t4 -7q35 -12 37 -12q9 -8 27 -15q23 0 63 2q31 0 38 3q1 1 4 3t4 2l24 3q6 3 16.5 10.5t11.5 8.5h2.5t2.5 1q20 17 22 18q13 13 16 14q1 7 8.5 17t8.5 11q1 2 4 12t7 15q2 22 8 32q5 65 5 77q0 8 -2 24 t-2 23q0 15 2 43q1 7 -0.5 20t-1.5 18q1 17 0 36q0 8 1 23.5t1 23.5t-1.5 26t-1.5 26q0 2 1 6.5t0 6.5v65.5t-1 68.5q4 4 5 9q12 6 23 5q11 -5 18 -21q-2 -10 -4 -15q1 -10 0.5 -38.5t-0.5 -40.5q4 -66 0 -166q0 -2 1 -6t1 -6q1 -4 -0.5 -12.5t-1.5 -11.5q0 -9 2 -27.5 t2 -27.5q0 -54 4 -68q0 -39 5 -52q-1 -13 -8 -36t-9 -36q-6 -7 -12 -23.5t-10 -22.5q-1 -4 0 -7.5t1 -6.5zM176 643q-6 6 -6 16q-8 16 -8 18q0 3 9 17q0 2 5 16q17 9 19 9q6 2 11 2t9 -2.5t8 -6.5t7 -6q1 -3 7.5 -16.5t4.5 -27.5q-2 0 -1.5 -4t-1.5 -4q0 -3 -1.5 -4.5 t-5 -2.5t-4.5 -2q-2 -4 -11 -9q-10 -1 -24 3t-17 4zM400 684q4 -1 1 -11.5t-3 -11.5q-2 -3 -7 -8t-7 -8q-6 -1 -13.5 -4t-11.5 -4q-8 2 -32 17q-7 18 5 54q11 13 49 13q1 -2 5 -4q3 -2 4 -3q6 -20 10 -30z" />
<glyph unicode="&#xdd;" horiz-adv-x="578" d="M306 5q-2 -1 -12.5 -6.5t-17.5 -6.5q-19 0 -27 8q-5 10 -6 11q1 7 5 24q0 3 -2.5 12.5t-3 14.5t0 12.5t3.5 12.5q0 1 -2 11t-4 14q2 4 3 16t4 16q-2 10 1 25q-1 5 -2 21.5t-3 25.5q1 3 3 8t2 8q0 10 -1.5 28t-1.5 24q-3 4 -5 15t-4 15q-1 4 -6.5 8.5t-6.5 5.5l-11 16 q-1 2 -2 8t-1 7q-1 5 -7 9t-7 7q-2 12 -2 14q-1 3 -6 8.5t-6 9.5q-7 14 -11 17q-13 24 -25 35q1 4 -1.5 8.5t-2.5 7.5q-1 3 -8 12t-9 17q-2 3 -7 7t-6 6q-2 6 -17 34q-1 2 -4.5 6.5t-4.5 7.5q-2 5 -11 12q-2 9 -9.5 21t-8.5 20q-3 3 -10 14t-12 16q0 5 -5 13.5t-3 13.5 q1 5 4.5 8t12 6t10.5 4q23 -5 36 -13l16 -36q2 -4 7.5 -8.5t6.5 -6.5q0 -3 5 -6l6 -18q10 -13 16 -30q1 -2 9 -13.5t10 -19.5q5 -5 9 -15q3 -2 4.5 -9t3.5 -9q3 -3 6 -9l4 -8q4 -8 11 -14q2 -3 8.5 -14t11.5 -16q0 -8 2 -10q1 -3 5 -8t6 -9q1 -2 4 -5l4.5 -4.5t3.5 -5 t2 -6.5q2 -2 0.5 -8t-0.5 -10t4.5 -8t4.5 -7q6 -8 13 -9q7 0 11 11q12 15 22 41q4 5 12.5 20t14.5 21q3 9 12 24t10 18q2 4 6 11.5t5 11.5q4 6 10 22l14 15q4 14 14 24q0 4 5 14q0 4 2.5 6t6 4t5.5 4q1 9 8 23t8 24q24 36 48 43q24 -5 32 -21q0 -5 -1 -9t-3.5 -8.5 t-3.5 -7.5q0 -1 -4.5 -7.5t-4.5 -12.5q-1 -1 -3 -2t-3.5 -2t-2.5 -2l-2 -2q-5 -21 -16 -27q0 -4 -2 -8t-1 -8l-14 -16q-1 -4 -3.5 -10t-3.5 -9q-14 -19 -26 -41q-3 -8 -11.5 -22.5t-11.5 -22.5q-5 -4 -13 -16.5t-15 -16.5q0 -4 -1 -6.5t-2.5 -5.5l-2.5 -5q-12 -12 -15 -21 q-9 -10 -11 -22q-3 -2 -7 -8.5t-5 -7.5q-1 -2 -0.5 -4.5t0.5 -5t-2 -2.5q-3 -6 -15 -15.5t-15 -17.5q-2 -49 3 -79q-3 -10 -3 -21t1.5 -25t1.5 -22q0 -10 -5 -42q0 -13 0.5 -27t1.5 -31.5t1 -27.5q7 -19 8 -23zM199 728q0 7 4 16t5 14q8 8 24 28q12 17 14 24l11 6 q3 6 10.5 15t10.5 15q4 3 11 13.5t12 13.5q9 3 27 -2q4 -5 13 -27q0 -7 -3 -12.5t-7 -11t-6 -9.5q-2 -1 -8 -3.5t-9 -3.5q-1 -3 -5 -8.5t-5 -9.5q-1 -1 -5 -2t-6 -3q-12 -20 -28 -26q-1 -4 -4 -8t-6.5 -8t-5.5 -6q-5 -2 -13 -8q-25 -8 -31 3z" />
<glyph unicode="&#xde;" />
<glyph unicode="&#xdf;" />
<glyph unicode="&#xe0;" horiz-adv-x="499" d="M401 8q0 5 2.5 27.5t-0.5 28.5q-8 -1 -13 -5.5t-10 -12l-7 -10.5q-5 -3 -13 -9.5t-12 -9.5q-2 -1 -8 -1.5t-8 -1.5q-18 -12 -24 -14q-9 -3 -31.5 -5t-31.5 -5q-16 4 -23 0q-14 6 -32 5q-24 5 -30 5q-1 2 -8 3.5t-9 4.5q-2 0 -7.5 3t-9.5 3q-2 1 -5 4.5t-5 4.5 q-1 3 -6 4.5t-6 2.5q-2 4 -10 11t-11 11q-1 1 -8 9t-11 13q-2 8 -9 23t-8 26q-1 5 -6.5 10t-6.5 10q2 9 0 40q0 31 -1 34q1 3 2 10.5t2 10.5q0 15 2.5 29t6.5 29.5t6 24.5q4 5 10.5 16.5t11.5 16.5q5 9 23 30q13 8 46 37q23 6 25 6q39 17 112 9q24 -5 33 -4q4 -4 13.5 -8.5 t13.5 -7.5q19 -12 27 -14q3 -3 7.5 -12t9 -14t11.5 -7q6 5 6 31q0 4 -0.5 14.5t0.5 12.5q7 7 20 6.5t20 -6.5q3 -7 4 -27t2 -25q0 -2 -0.5 -5.5t-1 -6t-1.5 -4.5q6 -29 -2 -53q2 -21 2.5 -75.5t4.5 -84.5q0 -3 -2 -8t-1 -9q0 -39 -2 -46q1 -3 1.5 -9t1.5 -11t3 -8 q-1 -3 0 -20t-3 -21q-1 -4 -19 -14q-24 5 -27 8zM406 254q-7 25 -8 33q-8 9 -12 26q-2 3 -5 7t-5 6q0 4 -4 7.5t-4 6.5l-25 24q-13 5 -14 6q-3 0 -6 3.5t-7 4.5q-12 4 -20 3q-5 7 -19 9t-27.5 1t-26.5 1q-5 -1 -11 -5.5t-11 -5.5q-4 1 -10 0t-7 -1q-30 -20 -36 -22 q-13 -16 -24 -22q-1 -6 -16 -21q-2 -13 -17 -38q-1 -5 -7.5 -35t-3.5 -45q4 -31 5 -40q4 -7 8 -23q7 -9 14 -27q5 -4 13 -12.5t12 -11.5l6 -3l11 -9q21 -16 54 -26q6 -1 71 -1q14 4 22 3q6 6 17 6q12 11 24 13q7 7 21 19.5t21 19.5q5 15 13 22q1 7 5.5 18t5.5 17q4 45 3 92z M171 633q-1 9 3.5 19.5t4.5 12.5q2 1 14 8q13 5 16 4q5 -1 11 -6.5t10 -7.5q2 -6 10 -16.5t10 -17.5q3 -4 9.5 -11.5t9.5 -12.5q2 -2 6.5 -7t7 -9t3.5 -9q3 -3 11.5 -10t13 -13t5.5 -15q0 -11 -17 -16q-2 -1 -3 -1q-2 1 -9.5 4t-12.5 3q-3 6 -15.5 16t-14.5 19q-4 3 -10.5 8 t-10.5 8q0 1 -2 4.5t-2 6.5q-21 18 -22 20q-12 3 -26 19z" />
<glyph unicode="&#xe1;" horiz-adv-x="499" d="M401 8q0 5 2.5 27.5t-0.5 28.5q-8 -1 -13 -5.5t-10 -12l-7 -10.5q-5 -3 -13 -9.5t-12 -9.5q-2 -1 -8 -1.5t-8 -1.5q-18 -12 -24 -14q-9 -3 -31.5 -5t-31.5 -5q-16 4 -23 0q-14 6 -32 5q-24 5 -30 5q-1 2 -8 3.5t-9 4.5q-2 0 -7.5 3t-9.5 3q-2 1 -5 4.5t-5 4.5 q-1 3 -6 4.5t-6 2.5q-2 4 -10 11t-11 11q-1 1 -8 9t-11 13q-2 8 -9 23t-8 26q-1 5 -6.5 10t-6.5 10q2 9 0 40q0 31 -1 34q1 3 2 10.5t2 10.5q0 15 2.5 29t6.5 29.5t6 24.5q4 5 10.5 16.5t11.5 16.5q5 9 23 30q13 8 46 37q23 6 25 6q39 17 112 9q24 -5 33 -4q4 -4 13.5 -8.5 t13.5 -7.5q19 -12 27 -14q3 -3 7.5 -12t9 -14t11.5 -7q6 5 6 31q0 4 -0.5 14.5t0.5 12.5q7 7 20 6.5t20 -6.5q3 -7 4 -27t2 -25q0 -2 -0.5 -5.5t-1 -6t-1.5 -4.5q6 -29 -2 -53q2 -21 2.5 -75.5t4.5 -84.5q0 -3 -2 -8t-1 -9q0 -39 -2 -46q1 -3 1.5 -9t1.5 -11t3 -8 q-1 -3 0 -20t-3 -21q-1 -4 -19 -14q-24 5 -27 8zM406 254q-7 25 -8 33q-8 9 -12 26q-2 3 -5 7t-5 6q0 4 -4 7.5t-4 6.5l-25 24q-13 5 -14 6q-3 0 -6 3.5t-7 4.5q-12 4 -20 3q-5 7 -19 9t-27.5 1t-26.5 1q-5 -1 -11 -5.5t-11 -5.5q-4 1 -10 0t-7 -1q-30 -20 -36 -22 q-13 -16 -24 -22q-1 -6 -16 -21q-2 -13 -17 -38q-1 -5 -7.5 -35t-3.5 -45q4 -31 5 -40q4 -7 8 -23q7 -9 14 -27q5 -4 13 -12.5t12 -11.5l6 -3l11 -9q21 -16 54 -26q6 -1 71 -1q14 4 22 3q6 6 17 6q12 11 24 13q7 7 21 19.5t21 19.5q5 15 13 22q1 7 5.5 18t5.5 17q4 45 3 92z M160 531q0 7 4 16t5 14q8 8 24 28q12 17 14 24l11 6q3 5 10.5 15t10.5 15q4 3 11 13.5t12 13.5q9 3 27 -2q4 -5 13 -27q0 -7 -3 -12.5t-7 -11t-6 -9.5q-2 -1 -8 -3.5t-9 -3.5q-1 -3 -5 -8.5t-5 -9.5q-1 -1 -5 -2t-6 -3q-12 -20 -28 -26q-1 -4 -4 -8t-6.5 -8t-5.5 -6 q-5 -2 -13 -8q-25 -8 -31 3z" />
<glyph unicode="&#xe2;" horiz-adv-x="499" d="M401 8q0 5 2.5 27.5t-0.5 28.5q-8 -1 -13 -5.5t-10 -12l-7 -10.5q-5 -3 -13 -9.5t-12 -9.5q-2 -1 -8 -1.5t-8 -1.5q-18 -12 -24 -14q-9 -3 -31.5 -5t-31.5 -5q-16 4 -23 0q-14 6 -32 5q-24 5 -30 5q-1 2 -8 3.5t-9 4.5q-2 0 -7.5 3t-9.5 3q-2 1 -5 4.5t-5 4.5 q-1 3 -6 4.5t-6 2.5q-2 4 -10 11t-11 11q-1 1 -8 9t-11 13q-2 8 -9 23t-8 26q-1 5 -6.5 10t-6.5 10q2 9 0 40q0 31 -1 34q1 3 2 10.5t2 10.5q0 15 2.5 29t6.5 29.5t6 24.5q4 5 10.5 16.5t11.5 16.5q5 9 23 30q13 8 46 37q23 6 25 6q39 17 112 9q24 -5 33 -4q4 -4 13.5 -8.5 t13.5 -7.5q19 -12 27 -14q3 -3 7.5 -12t9 -14t11.5 -7q6 5 6 31q0 4 -0.5 14.5t0.5 12.5q7 7 20 6.5t20 -6.5q3 -7 4 -27t2 -25q0 -2 -0.5 -5.5t-1 -6t-1.5 -4.5q6 -29 -2 -53q2 -21 2.5 -75.5t4.5 -84.5q0 -3 -2 -8t-1 -9q0 -39 -2 -46q1 -3 1.5 -9t1.5 -11t3 -8 q-1 -3 0 -20t-3 -21q-1 -4 -19 -14q-24 5 -27 8zM406 254q-7 25 -8 33q-8 9 -12 26q-2 3 -5 7t-5 6q0 4 -4 7.5t-4 6.5l-25 24q-13 5 -14 6q-3 0 -6 3.5t-7 4.5q-12 4 -20 3q-5 7 -19 9t-27.5 1t-26.5 1q-5 -1 -11 -5.5t-11 -5.5q-4 1 -10 0t-7 -1q-30 -20 -36 -22 q-13 -16 -24 -22q-1 -6 -16 -21q-2 -13 -17 -38q-1 -5 -7.5 -35t-3.5 -45q4 -31 5 -40q4 -7 8 -23q7 -9 14 -27q5 -4 13 -12.5t12 -11.5l6 -3l11 -9q21 -16 54 -26q6 -1 71 -1q14 4 22 3q6 6 17 6q12 11 24 13q7 7 21 19.5t21 19.5q5 15 13 22q1 7 5.5 18t5.5 17q4 45 3 92z M278 687q14 -4 16 -13l16 -11q8 -15 22 -22q0 -1 8 -14q4 -3 11.5 -10t14 -12t13.5 -8q3 -7 12 -20t12 -23q-7 -17 -24 -18q-20 2 -38 30l-10.5 7t-11.5 7q-1 2 -3.5 4.5t-4 5t-1.5 5.5l-15 13q-1 1 -5 6t-9 5q-16 0 -17 -8q-1 -1 -4.5 -3t-5.5 -4t-3 -5q-13 -13 -23 -26 q-2 0 -21 -11q-7 -10 -11 -20q-4 -1 -9.5 -4t-7.5 -4q-30 6 -30 27q3 11 17 22.5t18 19.5q10 6 31 29q1 3 2 3q3 1 6 4t6.5 7t6.5 6q2 2 5.5 5t6 6t3.5 7q6 1 13 8.5t14 8.5z" />
<glyph unicode="&#xe3;" horiz-adv-x="486" d="M401 8q0 5 2.5 27.5t-0.5 28.5q-8 -1 -13 -5.5t-10 -12l-7 -10.5q-5 -3 -13 -9.5t-12 -9.5q-2 -1 -8 -1.5t-8 -1.5q-18 -12 -24 -14q-9 -3 -31.5 -5t-31.5 -5q-16 4 -23 0q-14 6 -32 5q-24 5 -30 5q-1 2 -8 3.5t-9 4.5q-2 0 -7.5 3t-9.5 3q-2 1 -5 4.5t-5 4.5 q-1 3 -6 4.5t-6 2.5q-2 4 -10 11t-11 11q-1 1 -8 9t-11 13q-2 8 -9 23t-8 26q-1 5 -6.5 10t-6.5 10q2 9 0 40q0 31 -1 34q1 3 2 10.5t2 10.5q0 15 2.5 29t6.5 29.5t6 24.5q4 5 10.5 16.5t11.5 16.5q5 9 23 30q13 8 46 37q23 6 25 6q39 17 112 9q24 -5 33 -4q4 -4 13.5 -8.5 t13.5 -7.5q19 -12 27 -14q3 -3 7.5 -12t9 -14t11.5 -7q6 5 6 31q0 4 -0.5 14.5t0.5 12.5q7 7 20 6.5t20 -6.5q3 -7 4 -27t2 -25q0 -2 -0.5 -5.5t-1 -6t-1.5 -4.5q6 -29 -2 -53q2 -21 2.5 -75.5t4.5 -84.5q0 -3 -2 -8t-1 -9q0 -39 -2 -46q1 -3 1.5 -9t1.5 -11t3 -8 q-1 -3 0 -20t-3 -21q-1 -4 -19 -14q-24 5 -27 8zM406 254q-7 25 -8 33q-8 9 -12 26q-2 3 -5 7t-5 6q0 4 -4 7.5t-4 6.5l-25 24q-13 5 -14 6q-3 0 -6 3.5t-7 4.5q-12 4 -20 3q-5 7 -19 9t-27.5 1t-26.5 1q-5 -1 -11 -5.5t-11 -5.5q-4 1 -10 0t-7 -1q-30 -20 -36 -22 q-13 -16 -24 -22q-1 -6 -16 -21q-2 -13 -17 -38q-1 -5 -7.5 -35t-3.5 -45q4 -31 5 -40q4 -7 8 -23q7 -9 14 -27q5 -4 13 -12.5t12 -11.5l6 -3l11 -9q21 -16 54 -26q6 -1 71 -1q14 4 22 3q6 6 17 6q12 11 24 13q7 7 21 19.5t21 19.5q5 15 13 22q1 7 5.5 18t5.5 17q4 45 3 92z " />
<glyph unicode="&#xe4;" horiz-adv-x="499" d="M401 8q0 5 2.5 27.5t-0.5 28.5q-8 -1 -13 -5.5t-10 -12l-7 -10.5q-5 -3 -13 -9.5t-12 -9.5q-2 -1 -8 -1.5t-8 -1.5q-18 -12 -24 -14q-9 -3 -31.5 -5t-31.5 -5q-16 4 -23 0q-14 6 -32 5q-24 5 -30 5q-1 2 -8 3.5t-9 4.5q-2 0 -7.5 3t-9.5 3q-2 1 -5 4.5t-5 4.5 q-1 3 -6 4.5t-6 2.5q-2 4 -10 11t-11 11q-1 1 -8 9t-11 13q-2 8 -9 23t-8 26q-1 5 -6.5 10t-6.5 10q2 9 0 40q0 31 -1 34q1 3 2 10.5t2 10.5q0 15 2.5 29t6.5 29.5t6 24.5q4 5 10.5 16.5t11.5 16.5q5 9 23 30q13 8 46 37q23 6 25 6q39 17 112 9q24 -5 33 -4q4 -4 13.5 -8.5 t13.5 -7.5q19 -12 27 -14q3 -3 7.5 -12t9 -14t11.5 -7q6 5 6 31q0 4 -0.5 14.5t0.5 12.5q7 7 20 6.5t20 -6.5q3 -7 4 -27t2 -25q0 -2 -0.5 -5.5t-1 -6t-1.5 -4.5q6 -29 -2 -53q2 -21 2.5 -75.5t4.5 -84.5q0 -3 -2 -8t-1 -9q0 -39 -2 -46q1 -3 1.5 -9t1.5 -11t3 -8 q-1 -3 0 -20t-3 -21q-1 -4 -19 -14q-24 5 -27 8zM406 254q-7 25 -8 33q-8 9 -12 26q-2 3 -5 7t-5 6q0 4 -4 7.5t-4 6.5l-25 24q-13 5 -14 6q-3 0 -6 3.5t-7 4.5q-12 4 -20 3q-5 7 -19 9t-27.5 1t-26.5 1q-5 -1 -11 -5.5t-11 -5.5q-4 1 -10 0t-7 -1q-30 -20 -36 -22 q-13 -16 -24 -22q-1 -6 -16 -21q-2 -13 -17 -38q-1 -5 -7.5 -35t-3.5 -45q4 -31 5 -40q4 -7 8 -23q7 -9 14 -27q5 -4 13 -12.5t12 -11.5l6 -3l11 -9q21 -16 54 -26q6 -1 71 -1q14 4 22 3q6 6 17 6q12 11 24 13q7 7 21 19.5t21 19.5q5 15 13 22q1 7 5.5 18t5.5 17q4 45 3 92z M343 591q-8 -10 -27.5 -12t-32.5 5q-5 5 -13 21q0 5 3 15t2 18q2 2 13 6q14 10 31 8q5 -2 10 -7.5t7 -6.5q1 -4 4.5 -15t3.5 -15.5t-1 -16.5zM146 595q-2 10 3 22.5t5 18.5q6 9 22 11t28 -3q4 -3 7.5 -15t8.5 -15q-5 -23 -30 -37q-2 0 -9.5 1t-12.5 0q-2 2 -10.5 7.5 t-11.5 9.5z" />
<glyph unicode="&#xe5;" horiz-adv-x="499" d="M401 8q0 5 2.5 27.5t-0.5 28.5q-8 -1 -13 -5.5t-10 -12l-7 -10.5q-5 -3 -13 -9.5t-12 -9.5q-2 -1 -8 -1.5t-8 -1.5q-18 -12 -24 -14q-9 -3 -31.5 -5t-31.5 -5q-16 4 -23 0q-14 6 -32 5q-24 5 -30 5q-1 2 -8 3.5t-9 4.5q-2 0 -7.5 3t-9.5 3q-2 1 -5 4.5t-5 4.5 q-1 3 -6 4.5t-6 2.5q-2 4 -10 11t-11 11q-1 1 -8 9t-11 13q-2 8 -9 23t-8 26q-1 5 -6.5 10t-6.5 10q2 9 0 40q0 31 -1 34q1 3 2 10.5t2 10.5q0 15 2.5 29t6.5 29.5t6 24.5q4 5 10.5 16.5t11.5 16.5q5 9 23 30q13 8 46 37q23 6 25 6q39 17 112 9q24 -5 33 -4q4 -4 13.5 -8.5 t13.5 -7.5q19 -12 27 -14q3 -3 7.5 -12t9 -14t11.5 -7q6 5 6 31q0 4 -0.5 14.5t0.5 12.5q7 7 20 6.5t20 -6.5q3 -7 4 -27t2 -25q0 -2 -0.5 -5.5t-1 -6t-1.5 -4.5q6 -29 -2 -53q2 -21 2.5 -75.5t4.5 -84.5q0 -3 -2 -8t-1 -9q0 -39 -2 -46q1 -3 1.5 -9t1.5 -11t3 -8 q-1 -3 0 -20t-3 -21q-1 -4 -19 -14q-24 5 -27 8zM406 254q-7 25 -8 33q-8 9 -12 26q-2 3 -5 7t-5 6q0 4 -4 7.5t-4 6.5l-25 24q-13 5 -14 6q-3 0 -6 3.5t-7 4.5q-12 4 -20 3q-5 7 -19 9t-27.5 1t-26.5 1q-5 -1 -11 -5.5t-11 -5.5q-4 1 -10 0t-7 -1q-30 -20 -36 -22 q-13 -16 -24 -22q-1 -6 -16 -21q-2 -13 -17 -38q-1 -5 -7.5 -35t-3.5 -45q4 -31 5 -40q4 -7 8 -23q7 -9 14 -27q5 -4 13 -12.5t12 -11.5l6 -3l11 -9q21 -16 54 -26q6 -1 71 -1q14 4 22 3q6 6 17 6q12 11 24 13q7 7 21 19.5t21 19.5q5 15 13 22q1 7 5.5 18t5.5 17q4 45 3 92z M340 609v-13v-12q-2 -11 -5 -20l-3 -4q-2 -3 -1 -6q-3 -2 -5 -7l-4 -4q-5 -4 -6 -6q-2 -3 -6.5 -6t-5.5 -4q-6 -2 -8 -5q-6 -3 -7 -5q-3 0 -5.5 -0.5t-6 -1.5t-5.5 -1h-14q-1 0 -6 -0.5t-7 -0.5t-6 1t-6 0q-1 0 -6.5 1.5t-10.5 1.5q0 3 -2 4l-6 3t-7 3q-5 5 -9 7l-11 13 q-2 2 -4.5 7t-5.5 7q0 3 -2.5 9t-3.5 10q0 7 -1 9q1 3 1 20q0 3 1 8.5t1 8.5q0 2 0.5 5t0.5 5q2 2 4 7q1 1 2.5 3t2.5 3q1 3 3 6.5t3 6.5q2 1 6 5q1 0 3 2.5t4 3.5q1 1 5 4t5 5q8 3 10 6q4 0 19 3q18 2 24 2q6 -3 19 -3q4 -3 11 -4q1 -1 2.5 -2t4.5 -2.5l5 -2.5l5 -5 q3 -1 8 -6l8 -8q0 -1 2.5 -3t3.5 -4l10 -19q0 -4 1 -12.5t1 -12.5zM309 598v13q-2 4 -2 11q-4 0 -4 6l-1 2q-2 2 -2 3l-10 12q-1 1 -3 2q-4 2 -4 4q-2 0 -3.5 1t-2.5 2.5t-2 1.5q-6 2 -24 2h-13q-7 -7 -10 -8q-2 -2 -7.5 -5t-7.5 -6q-1 0 -3 -3t-3 -3l-5 -8q0 -3 -3 -9v-31 q0 -3 3 -6t3 -7l8 -7q1 0 1 -2h3q0 -2 4 -6q3 -1 8 -4t9 -3q7 0 8 -1q3 0 5 1h1l5 -1q7 0 12 1q1 0 3.5 0.5t4.5 0.5q2 3 5 4q4 1 6 3q3 2 13 14q1 3 3.5 8.5t3.5 7.5v7z" />
</font>
</defs>
</svg>
