<?xml version="1.0" standalone="no"?>
<!DOCTYPE svg PUBLIC "-//W3C//DTD SVG 1.1//EN" "http://www.w3.org/Graphics/SVG/1.1/DTD/svg11.dtd" >
<svg xmlns="http://www.w3.org/2000/svg">
<metadata>
This is a custom SVG webfont generated by Font Squirrel.
Copyright   : Copyright c 2011 by Bastien Sozoo All rights reserved3
Designer    : BSozoo
Foundry     : BSozoo
</metadata>
<defs>
<font id="FuturaRenerRegular" horiz-adv-x="833" >
<font-face units-per-em="1000" ascent="750" descent="-250" />
<missing-glyph horiz-adv-x="307" />
<glyph unicode=" "  horiz-adv-x="307" />
<glyph unicode="&#x09;" horiz-adv-x="307" />
<glyph unicode="&#xa0;" horiz-adv-x="307" />
<glyph unicode="!" horiz-adv-x="189" d="M140 188q-1 0 -10 -3.5t-14 -1.5q-6 -1 -13 2t-12 3q-6 0 -20.5 -4.5t-18.5 1.5q-7 7 -5 36q2 42 0 54q-1 3 -0.5 19.5t0.5 24.5v60v93q0 11 -1.5 35.5t-1.5 36.5q0 10 0.5 27.5t0.5 26.5q0 12 -1.5 33.5t-1.5 39t3 32.5q9 5 45 7q22 5 41 -2q6 -17 4 -55q-2 -73 0 -110 q2 -30 2 -86v-69v-98q0 -6 0.5 -13.5t1.5 -16.5t1 -14q3 -36 5 -42q1 -5 -2 -9.5t-3 -6.5zM151 68q2 0 2 -3t-0.5 -6t0.5 -5q1 -4 -3 -6.5t-4 -4.5q-2 -1 -2.5 -6t-1.5 -7q-16 -4 -32 -12q-4 1 -27 1l-33 15q-12 32 -12 34q1 15 22 52q3 1 6.5 5t5.5 5q22 7 43 0t30 -22 q-2 -11 4 -21q0 -7 2 -19z" />
<glyph unicode="&#x22;" horiz-adv-x="305" d="M97 519q-4 -2 -15.5 -7t-18.5 -7q-21 5 -24 8q-5 4 -1 19v2q-1 1 1 2q-3 7 -4 20t3 20q-4 14 -5.5 28.5t-1.5 23.5t0.5 26.5t0.5 27.5q0 7 -3 26t-2 28q32 15 79 6l4 -4q3 -7 2 -18t3 -17q-3 -4 -3 -12q0 -2 -3 -5.5t-3 -5.5q3 -11 1 -52q0 -3 -2 -10.5t-2.5 -13.5 t2.5 -17q-3 -11 -4.5 -34.5t-3.5 -33.5zM199 519q-10 32 -8 68q1 11 -0.5 25t-1.5 16q-2 41 1 52q-2 8 -2 14q0 2 -0.5 7t-0.5 8q0 5 -3 15t2 14l4 4q16 4 47.5 3.5t31.5 -9.5q0 -7 -3 -26.5t-2 -27.5q0 -14 -6.5 -53.5t0.5 -52.5q2 -7 1.5 -21t-2.5 -19q2 -1 1 -2v-2 q4 -15 -1 -19q-9 -8 -24 -8q-31 0 -34 14z" />
<glyph unicode="#" horiz-adv-x="624" d="M54 364q9 10 30 8q9 -4 86 -4v1l1 1q10 17 15 56q10 20 10 33q1 5 0 9.5t1 10t7 9.5q13 2 25 2q34 0 39 -1q13 -9 -1 -28q-2 -6 -7.5 -20.5t-5.5 -23.5q0 -2 -2.5 -5.5t-1.5 -7.5l-14 -34q20 0 41.5 1t34 1.5t13.5 0.5q4 0 35 -0.5t45 -0.5q9 23 15 54q1 4 5 15t3 18 q4 19 10 25q11 2 13 4t10 2q27 0 33 -9t7 -12.5t-1 -5.5l-3 -2q-9 -36 -9 -44q-1 -1 -4.5 -5t-2.5 -8q-8 -20 -11 -30h44q45 9 49 -8q2 -6 0.5 -15t-0.5 -12q1 -5 -1.5 -9t-8 -8.5t-7.5 -6.5q-6 -3 -20 -5q-4 0 -27.5 0.5t-32.5 -0.5l-15 -2l-2 -2q2 -2 0.5 -12t-5.5 -20 l-3 -11q-4 -5 -12 -32q-2 -21 -6 -31q-8 -11 -8 -13v-3q70 0 82 -1q14 -4 18 -8q8 -2 5.5 -15.5t-8.5 -23.5q2 -3 -3 -6q-13 -13 -30 -7q-13 4 -79 2q-2 -10 -9 -16v-1q-5 -17 -2 -29q-1 -2 -4.5 -5.5t-4.5 -6.5q0 -1 -10 -35q0 -12 -1 -13v-4q2 -6 -4 -9q-3 -4 -5.5 -5 t-5 0t-8.5 1.5t-13 0.5q-6 0 -14.5 -0.5t-13 -1t-8.5 0.5t-6 5q2 11 10 17q-1 3 1.5 10t2.5 11q2 8 13 35.5t13 40.5q0 2 1 3q-64 -3 -81 -3q-6 0 -39.5 1t-43.5 1q-2 -5 -8 -14v-1q-6 -18 -4 -29q-1 -2 -3.5 -5.5t-3.5 -6.5q-2 -11 -10 -35v-5q0 -5 -3 -8q2 -10 -1 -13 q-7 -7 -11 -8t-21 -2q-36 0 -44 11q9 16 10 17q-1 5 7 21q2 9 11 36.5t12 37.5q-20 2 -29 0q-16 -4 -28 0.5t-14 15.5q-3 11 -3 20q-2 20 15 25q1 2 3 2.5l4 1t6 0.5t6 1q4 0 26 -0.5t32 0.5h3q2 5 4 15q2 6 3 16.5t5 17.5q9 22 8 30v8q5 5 15 38q-64 0 -90 2q-15 3 -19 8 q-8 1 -5.5 15.5t8.5 22.5q0 3 5 6zM218 306q2 -1 0 -11.5t-6 -20.5l-3 -11q-5 -6 -7.5 -18t-3.5 -14q0 -2 -5 -31q-11 -11 -11 -13q49 -5 63 -4q17 3 81 3q4 0 14 -0.5t14 -0.5h1q3 6 7 18q1 5 0 15.5t3 15.5q-1 4 3.5 14.5t4.5 15.5l-1 8q7 7 14 36q-36 2 -54 2 q-5 -1 -86 -1q-4 0 -13.5 0.5t-12.5 0.5z" />
<glyph unicode="$" horiz-adv-x="499" d="M303 -61q-3 -4 -25 -6q-3 0 -7 -0.5t-6.5 -1t-5.5 0.5t-5 3q-5 19 -3 54v16q-15 0 -23 1q-16 4 -25 3q-7 4 -26 11.5t-28 12.5q-7 3 -21 15.5t-25 15.5q-1 4 -3 7t-6 6.5t-5 5.5q-14 16 -16 18q-1 5 -4.5 12.5t-4.5 9.5q0 3 -9 20q-5 32 0 41q9 4 31 8q4 -2 14.5 1.5 t15.5 0.5q5 0 6.5 -7t2.5 -8q2 -9 5 -18l5 -10q6 -12 20 -24q1 -1 2 -5t3 -6q1 -4 6.5 -7.5t6.5 -6.5q13 -2 32 -8.5t26 -8.5h22v11q0 6 -1.5 41.5t0.5 43.5q0 19 -2 24q1 6 1 30q-2 63 0 93l-1 2v2q-1 0 -8 5q-10 1 -24 6.5t-22 6.5q-13 10 -28 14q-19 16 -35 20 q-29 31 -36 41q-10 35 -12 52q0 8 1 22t0 23q2 4 3 12t2 13q0 1 1 1l2 2q0 1 0.5 4.5t1.5 4.5q2 5 9 13.5t8 15.5q19 17 25 28q8 1 13 10q17 5 28 17q5 1 14 4t14 4q4 1 10 5.5t9 5.5q15 0 21 -1q0 14 -2 28q1 5 1.5 24.5t3.5 25.5q4 5 25 5q21 -3 24 -8q2 -5 2 -22 q1 -13 -1 -25q0 -5 0.5 -5t0.5 -5v-9q0 -5 0.5 -8t0.5 -4q6 0 9 1q2 -2 5 -2.5t5.5 0t5.5 -0.5q2 -1 6.5 -3.5t9.5 -3.5t11 0q4 -2 11.5 -8.5t9.5 -7.5q3 0 4 -1l1 -2q0 -1 1 -1q3 -1 8 -3t8 -4l5 -5t7 -4q3 -4 10 -12.5t11 -16.5t4 -18q-1 -4 -3.5 -7.5t-5.5 -4.5 t-8.5 -3.5t-7.5 -3.5q-17 -15 -30 -14q-6 0 -11.5 8t-7.5 9q-2 4 -7.5 10t-7.5 9q-4 0 -7 5q-24 10 -37 14q0 -116 3 -168q0 -2 -1.5 -8t-1.5 -10q0 -2 0.5 -5t0.5 -4q12 -6 27 -9q3 -1 20 -11q11 -3 19 -11q7 -3 19.5 -12t16.5 -11q6 -5 43 -48q1 -8 11 -26t8 -28 q6 -10 1 -34.5t-3 -32.5q2 -6 -1 -19q-1 -4 -4 -9t-4 -8q-1 -2 -2 -9t-3 -10l-12 -18q-2 -2 -4 -7t-3 -7q-2 -4 -9 -11l-2 -2q-5 -2 -4 -6q-3 -2 -13 -14q-4 -2 -13 -8t-14 -9q-4 -4 -13.5 -8.5t-13.5 -7.5q-7 0 -13.5 -1.5t-14 -4t-11.5 -3.5h-7l2 -13q-1 -10 -0.5 -20 t0.5 -20.5t-2 -15.5zM345 282q-5 2 -42 25q0 -47 1 -51q-1 -10 -1 -61v-104l32 13q5 5 14.5 12t12.5 10q3 5 8 16.5t8 16.5q-1 9 4 21.5t5 21.5q0 7 -5 19t-6 20q-6 11 -6 13q-4 6 -13 14.5t-12 13.5zM211 430q11 -3 39 -16v32q-1 48 -1 145q-39 -10 -65 -36 q-20 -41 -24 -63q2 -12 10 -32q6 -7 21 -16.5t20 -13.5z" />
<glyph unicode="%" horiz-adv-x="714" d="M297 686q2 -4 11.5 -14t11.5 -14q8 -10 17 -33q0 -14 6 -18q-1 -5 1 -15q0 -2 -2 -11t-1 -13q1 -7 -1 -15t-2 -11q-8 -8 -8 -16q-3 -9 -2 -13q-4 -3 -11 -12.5t-10 -12.5l-19 -16l-9 -10q-4 -3 -7.5 -5.5t-5.5 -3.5t-3.5 -2t-1.5 -2q-28 -15 -29 -16q-2 3 -7 3 q-2 -1 -10.5 -3t-12.5 -5q-2 1 -18 1q-8 1 -18.5 2t-12.5 1q-4 0 -13 5t-15 5q-3 2 -8.5 4t-11 5.5t-10.5 8.5q-5 8 -9 8q-7 12 -18 25q-6 7 -10.5 15.5t-7.5 11.5l-11 16q1 8 -2 13q1 6 -1 13q-3 5 -3.5 12.5t-2.5 11.5q3 8 3 14q1 2 1 6.5t2 7.5q0 4 1.5 12t1.5 11 q3 5 4.5 11.5t1.5 7.5q3 6 7 11t9 9t6 6q25 23 26 24q15 8 30 20q6 1 20 8q3 -1 24 4h10h19q2 -1 4 -1t6.5 -0.5t8.5 -1.5q10 3 15 -1q2 -1 14.5 -5t18.5 -9q12 -8 34 -34zM669 136q0 -4 0.5 -18t-0.5 -18q-1 -16 -8 -36l-3 -3t-3 -3.5t-2 -5t1 -6.5q-3 -3 -9 -12 q-17 -14 -18 -16q-4 -6 -11 -11.5t-8 -6.5q-12 -2 -16 -8q-8 -3 -10 -8q-5 0 -16.5 -2.5t-15.5 -3.5h-25q-1 0 -6 -1t-7 -1q-7 0 -12.5 1t-6.5 1.5t-4 -0.5q-3 0 -13.5 3t-18.5 3q0 4 -3 7q-3 0 -10.5 4t-12.5 5q-1 1 -14 12q-4 5 -21 22q-3 3 -7 12.5t-8 13.5q-1 3 -4 8.5 t-5 11t-2 13.5q0 10 -2 12q2 12 2 31q0 9 2 18.5t2 13.5t0.5 10t0.5 9q6 5 7 11q2 2 8 11q1 6 5.5 12t5.5 10q5 3 11 9q2 0 5 4t6 5q2 3 8.5 8t8.5 8q12 4 17 10q10 0 34 6q9 0 19.5 1t15.5 1q17 -4 36 -4q5 -3 20 -7q2 -3 21 -12q3 -1 5 -3.5t3 -3.5q12 -10 14 -12 q1 -2 2.5 -3.5l4.5 -4.5l6 -6q10 -5 11 -11q9 -21 16 -32q0 -8 2 -23t2 -25zM440 505l-28 -67q-8 -12 -23 -50q-1 -3 -7.5 -20t-11.5 -27q-2 -3 -6 -10t-6 -10l-8 -22q-2 -4 -12 -28.5t-16 -36.5q-1 -7 -16 -35v-2v-2q-14 -31 -17 -43q-1 -4 -5 -9t-6 -8q-6 -16 -9 -23.5 t-4.5 -9.5t-2.5 -3t-4.5 -9l-10.5 -24q-1 -1 -8 -20t-14 -36t-9 -19q-1 -1 -2 -8.5t-6 -11.5q-5 -6 -7 -9t-7 -4.5t-7 -1.5t-13 -1q-39 -2 -40 17l15 24q2 8 19 44t22 44q4 12 29.5 64t32.5 72q4 10 17 36.5t22 47t13 37.5q4 7 10.5 23.5t13.5 25.5q1 9 9 25t10 24l3 15 q5 4 15 25t20.5 47.5t11.5 27.5q3 7 8.5 19t7.5 17l6 15q17 34 37 88q19 45 20 50q2 4 4.5 14t6 17.5t9.5 13.5q9 3 25 3q33 0 37 -2q9 -12 -14 -42q-21 -53 -25 -69q-2 -5 -7 -10t-6 -9q-6 -14 -21 -45.5t-24 -53t-16 -43.5q0 -1 -2 -3.5t-3 -4.5t0 -4zM267 648q-6 6 -6 7 q-4 0 -23 19q-1 -2 -5 -1t-5 3q-1 1 -4 1.5t-5 2.5q-31 9 -32 9q-15 -5 -17 -3q-9 -7 -16 -3q-23 -9 -37 -18l-16 -23q-1 -1 -1.5 -8.5t-2.5 -9.5q0 -4 -4 -16.5t-3 -20.5q-2 -1 -0.5 -7.5t-1.5 -9.5q3 -5 5 -13q3 -5 0 -15l15 -17l25 -29q1 -2 12 -2q6 0 8 -3q2 -1 23 -6 q2 2 5 -1l4 3q1 -2 6.5 -1.5t6.5 0.5q5 3 14 4.5t13 3.5q18 15 21 13q1 1 1 3v2l6 1l18 19l1 4q2 3 4 4q1 4 12 24q2 10 2 13t-1.5 12.5t-1.5 13.5q-4 9 -6 24q-6 7 -9.5 12t-3.5 7zM622 127v9q-5 3 -5 29q-7 0 -7 8q0 1 -2 4t-2 5q-16 24 -19 27q-15 5 -15 9q-10 0 -14 8 q-8 3 -40 3h-27l-4 -4t-6 -5.5t-5 -2.5q-3 -3 -13.5 -9.5t-15.5 -13.5q-2 0 -5 -6t-7 -6q-1 -6 -5 -13q0 -5 -9 -12v-61q0 -2 9 -9q4 -4 4 -8q0 -1 13 -19q3 0 3 -4h6q0 -2 4 -5.5t5 -4.5q6 -1 14 -5.5t12 -5.5q23 0 24 -3q2 0 3 2l1 1l5 -3q5 0 26 3q1 0 4.5 1.5t5.5 1.5 q5 4 24 10q6 4 24 31q3 11 11 22q0 8 0.5 13t1 7.5t1.5 4.5v1z" />
<glyph unicode="&#x26;" horiz-adv-x="600" d="M473 205q-7 -2 -7 -17v-21q-1 -3 -3.5 -13.5t-3.5 -16.5q-2 -5 -8 -11l-3 -15q-12 -13 -19 -29q-6 -3 -22 -17q-1 -6 -9 -11t-9 -10q-8 -2 -20 -11t-18 -11q-2 -1 -15 -5t-19 -9q-14 -2 -26 -6q-19 4 -31 -2q-3 0 -7.5 2t-8.5 1q-4 1 -9.5 -1t-9.5 -2q-52 15 -61 22 q-2 1 -5 0.5t-5.5 -0.5t-2.5 2q-6 2 -14 10t-13 10q-1 3 -3 6t-4 4t-6 4t-6 4q-5 5 -6 4q-3 8 -13 19t-14 19q-3 4 -9.5 19.5t-12.5 21.5q0 14 -8 36q14 110 15 114q9 14 25 44q17 15 19 19q4 0 6.5 2t5.5 5t5 4q4 2 9 6t8 5t11 3t12.5 5t5.5 9q-1 4 -4.5 6t-9 3t-7.5 2 q-5 7 -20 22.5t-21 25.5q1 8 -1 21.5t-2 19.5q1 5 3 15.5t3 15.5q1 3 1.5 9.5t0.5 8.5q3 13 3 14q11 14 19 34l24 24q5 2 25.5 16.5t38.5 10.5q3 0 7 2.5t8 2.5q11 -1 38 -2t40 -3q10 -6 26 -11q4 -2 10.5 -9.5t11.5 -9.5q6 -12 15 -21q9 -18 15 -22q0 -14 9 -22q0 -9 8 -25 q0 -5 1.5 -18.5t-1.5 -16.5l-21 -9h-16.5t-17 0.5t-12 3t-12.5 7.5l-6 27q-11 23 -21 27q-5 9 -12 15q-35 5 -41 5q-54 -18 -65 -55q-3 -31 11 -55q2 -4 8 -7t8 -7q1 -3 4 -5t6.5 -4.5t5.5 -3.5q8 -2 30.5 -1t25.5 -5q0 -3 3 -32.5t1 -45.5q-6 -5 -16 -6t-20 0t-21 -1 q-25 -8 -44 -18q-1 -1 -5.5 -4.5t-8.5 -4.5q-2 -4 -7.5 -10t-7.5 -9q-1 -3 -3.5 -6t-5.5 -6.5t-5 -6.5q-10 -16 -14 -46v-9q1 -18 8 -35q2 -6 6 -15.5t5 -14.5q1 -2 7.5 -10t8.5 -14q7 -3 18 -12.5t18 -12.5q8 -1 24 -6t26 -6q8 2 22 2.5t18 1.5t14 6t16 5l23 21q10 7 21 22 q8 12 14 38l1 2l2 2q2 10 -1 18q-11 2 -32 -1t-31 -2q-4 -1 -11.5 -3.5t-12.5 -3.5q-2 2 -9 4.5t-10 5.5q-3 63 0 72q7 4 18 5.5t21.5 0.5t23.5 1q22 -7 52 -2q1 0 6 1.5t8 1.5q5 0 12.5 -1.5t11.5 -1.5q1 0 28 3q14 -3 27 -3q3 0 8 1.5t8 1.5q12 2 69 -1q5 -5 7 -21t3 -19 q-2 -5 -3 -16.5t-4 -19t-11 -9.5q-4 -3 -11 0.5t-11 3.5q-6 1 -16 -1.5t-15 -2.5q-4 0 -15.5 2t-14.5 -1z" />
<glyph unicode="'" horiz-adv-x="186" d="M112 519q-4 -2 -15.5 -7t-18.5 -7q-21 5 -24 8q-5 4 -1 19l-1 2q0 1 2 2q-3 7 -4 20t3 20q-4 14 -5.5 28.5t-1.5 23.5t0.5 26.5t0.5 27.5q0 7 -3 26t-2 28q32 15 79 6l4 -4q3 -7 2 -18t3 -17q-3 -4 -3 -12q-1 -2 -3 -5.5t-3 -5.5q2 -6 -1 -24t2 -28q-10 -20 -2 -41 q-3 -11 -4.5 -34.5t-3.5 -33.5z" />
<glyph unicode="(" horiz-adv-x="372" d="M259 -169l-33 -3q-3 2 -5.5 5t-4 6l-3.5 7t-3 7q-4 9 -14 25q-4 20 -17 43q-4 22 -5 33q-2 6 -5.5 17t-7 19.5t-8.5 14.5q0 8 -4 24.5t-3 28.5q-3 5 -8 47q-3 10 -8 23q1 4 -5 37q-1 6 -1.5 12.5t-1 15t-0.5 12.5t-1 12t-1.5 14.5t-0.5 12.5q0 2 2.5 38t-1.5 41 q3 12 4 42t1 35q3 45 11 96q6 32 5 46q3 6 6 20.5t5 19.5q1 5 4 15t4 14l3 16q1 4 9 30t10 41q8 16 11 24q1 9 4.5 17t8.5 17.5t7 14.5q10 20 13 22q10 0 16 -2t14 -9t9 -14q2 -8 -3 -22.5t-5 -22.5q-4 -4 -9 -14t-8 -14q0 -5 -5 -17q-7 -28 -15 -48q0 -6 -2 -15t0 -15 q-7 -6 -13 -26q0 -6 -1.5 -11t-4 -10t-3.5 -8q-1 -4 0.5 -10.5t1.5 -9.5q-14 -38 -16 -90q-5 -25 -3 -30q-4 -7 -7 -19q2 -20 -4 -54q1 -17 1 -52q0 -4 -1 -16.5t0 -19.5q0 -8 4 -30t3 -34q4 -17 19 -111q2 -5 5 -15t6 -15q9 -62 26 -94q1 -3 7 -19t8 -25q7 -22 18 -41l3 -5 q0 -12 -8 -24z" />
<glyph unicode=")" horiz-adv-x="374" d="M179 -182q-15 2 -20 11q-1 2 -4.5 5t-5 6.5t-1.5 7.5q-1 7 4 14t5 11q1 3 3 8t3.5 9t4.5 6q2 12 10.5 34.5t10.5 36.5q9 34 9 37q8 12 8 36q5 6 9 21t5 18q0 7 1 17t1 13q6 23 6 25v12v12q2 16 10 33q3 73 3 74q0 2 1.5 10.5t1.5 13.5q0 3 -1 8t-1 8q0 8 0.5 28.5t0.5 31 t-2 26t-6 26.5q0 28 -10 55q1 13 -4 32.5t-5 28.5q-3 7 -7 26.5t-9 27.5q0 16 -6.5 37.5t-7.5 26.5q-3 5 -6 15.5t-5 13.5t-5.5 13t-7.5 14q0 10 -3.5 19t-8.5 19t-7 17q0 1 2 8t4 9.5t7 2.5q7 11 20 11q14 -2 14 -19q3 -8 11 -22q2 -19 15 -39q2 -11 8.5 -29t8.5 -26 q1 -6 4 -14.5t4 -14.5q2 -4 4.5 -13t4.5 -13q1 -11 5 -27t5 -24q9 -48 9 -49q2 -5 10 -49q1 -5 3.5 -23t4.5 -27q-1 -15 4 -60q-3 -23 0 -80q-4 -21 -4 -52q-1 -2 0 -4l1 -3v-3q0 -4 -0.5 -8.5t-0.5 -7.5q-2 -20 -4 -25q-1 -4 -3 -7t-5 -7t-4 -6q0 -2 3.5 -9.5t2.5 -9.5 q-1 -9 -6.5 -41.5t-6.5 -51.5q-7 -17 -15 -55q-1 -3 -3.5 -7t-3.5 -6q-2 -13 -4 -14q2 -13 -4.5 -29t-5.5 -28q-16 -18 -17 -35q-6 -4 -14.5 -19t-17.5 -18z" />
<glyph unicode="*" horiz-adv-x="373" d="M210 505q-5 -3 -5 -21q-1 -30 8 -85q-5 -8 -21 -10.5t-25 4.5q-4 8 2 27v36q3 36 1 41q0 7 -4 8q-16 1 -27 -19q-8 -2 -13.5 -6t-13.5 -12l-9 -9q-4 -1 -15.5 -4t-19.5 -4q-2 2 -6 4t-5 3q-2 2 -3.5 7t-2.5 7q-2 2 -2 8.5t2 8.5q0 4 12 10q2 1 8 2t8 2l10 7q10 6 14 11 q12 3 23 11q2 2 9.5 6t8.5 9q-1 4 -5 6.5t-10 4t-9 2.5q-18 6 -24 11q-2 0 -26 6q-21 23 -15 48l8 6q12 1 24 -6t17 -8q4 -4 15 -11.5t15 -12.5q7 -1 15.5 -6t13.5 -6q6 6 6 25q0 4 -1 12.5t-1 12.5q0 2 1 7t1 7q0 4 -3 25.5t1 25.5q7 7 18.5 8.5t19.5 -5.5q2 -2 3 -8t2 -8 q0 -7 -2 -33t-1 -41q0 -17 4 -24q19 4 30 18q7 1 16 8.5t14 8.5q4 1 14.5 11t17.5 9q7 0 16 -15q9 -18 9 -21q0 -5 -3.5 -9.5t-9 -9t-7.5 -6.5q-1 0 -11 -3q-2 0 -6.5 -0.5t-6.5 -1.5l-5 -2.5t-4 -1.5q-20 -8 -30 -13q-2 -1 -6 -2.5t-7 -3t-5 -4.5q3 -11 27 -17 q6 -6 23 -13.5t23 -14.5q34 -5 31 -33q-17 -19 -31 -21q-7 2 -16.5 9.5t-15.5 9.5q0 2 -11 8l-11 8l-8 3l-10 9q-11 9 -18 10z" />
<glyph unicode="+" horiz-adv-x="392" d="M204 330q10 -10 5 -22q-6 -12 0 -95q2 1 7 1q4 0 30 0.5t29 0.5q7 0 23.5 0.5t22.5 -0.5q8 -4 14 -21q2 -19 -6 -33l-2 -3q-2 -3 -3 -5q-2 0 -10 -3.5t-12 -1.5q-13 5 -94 -3q-2 -10 0 -15l5 -41q-4 -12 -2 -33q2 -16 4 -23q0 -10 0.5 -12t-4.5 -7.5t-6 -6.5 q-17 -5 -34 -3q-19 2 -27 11q0 6 -2 18v51.5t-1 55.5q-1 2 -1 7h-15l-18 -3q-12 4 -33 2q-16 -2 -23 -4q-10 0 -12 -0.5t-7.5 4.5t-6.5 6q-5 17 -3 34q2 19 11 27q6 0 18 2q3 0 40 -1t44 0q4 0 6 1v6q0 4 1 19t1 18q0 7 -1 34t0 35q4 8 21 14q19 2 33 -6q6 -3 8 -5z" />
<glyph unicode="," horiz-adv-x="284" d="M246 97q0 -7 -5 -15.5t-6 -10.5q-2 -4 -8 -11.5t-8 -11.5q0 -1 -4 -15.5t-8 -21.5q-1 -3 -5.5 -7t-5.5 -8q0 -2 -1.5 -8.5t-1.5 -10.5q-7 -10 -21 -46q-5 -5 -9.5 -12t-9 -17.5t-6.5 -14.5q0 -1 -3 -19q-2 -1 -10 -9q-26 -4 -43.5 5t-11.5 34q1 3 6.5 6t6.5 5l9 33l11 32 q7 16 8 20q3 9 8.5 26.5t10.5 31t11 24.5q1 3 3.5 14.5t4 16t5 11t8.5 10.5q14 1 31.5 -7t26.5 -9q1 -1 8 -6t9 -9z" />
<glyph unicode="-" horiz-adv-x="254" d="M210 185q-48 -9 -50 -9q-5 0 -16 2t-17 1l-18 -3q-25 8 -56 -2q-3 2 -12.5 4.5t-13.5 5.5q-12 43 8 61q42 3 43 3q7 0 21 -1.5t21 -1.5q4 0 11 1.5t10 1.5q4 0 10.5 -0.5t9.5 -0.5q7 0 23.5 0.5t22.5 -0.5q8 -4 14 -21q2 -19 -6 -33l-2 -3q-2 -3 -3 -5z" />
<glyph unicode="." horiz-adv-x="237" d="M175 60l2 -2q-1 -8 -4 -14.5t-7.5 -14.5t-6.5 -12q-30 -15 -62 -15q-17 8 -21 13q-2 2 -8.5 6t-9.5 8q-4 8 -2.5 25t6.5 26l15 21q17 21 36 21q6 0 37 -13q20 -31 25 -49z" />
<glyph unicode="/" horiz-adv-x="401" d="M277 395l-28 -67q-8 -12 -23 -50q-1 -3 -7.5 -20t-11.5 -27q-1 -3 -6 -10t-6 -10l-8 -22q-2 -4 -12 -28.5t-16 -36.5q-1 -7 -16 -35q-1 -1 0 -2t0 -2q-14 -31 -17 -43q-2 -4 -6 -9t-5 -8q-2 -5 -23 -54q-1 -3 -2 -10.5t-4 -10.5q-1 -1 -2 -8.5t-6 -11.5q-5 -6 -7 -9 t-7 -4.5t-7 -1.5t-13 -1q-39 -2 -40 17l15 24q4 15 16 34q4 12 25.5 56.5t28.5 64.5q4 10 17 36.5t22 47t13 37.5q4 7 10.5 23.5t13.5 25.5q1 9 9 25t10 24l3 15q5 4 15 25t20.5 47.5t11.5 27.5q3 7 8.5 19t7.5 17l6 15q17 34 37 88q19 45 20 50q2 4 4.5 14t6 17.5t9.5 13.5 q9 3 25 3q33 0 37 -2q9 -12 -14 -42q-21 -53 -25 -69q-2 -5 -7 -10t-6 -9q-6 -14 -21 -45.5t-24 -53t-16 -43.5q0 -1 -2 -3.5t-3 -4.5t0 -4z" />
<glyph unicode="0" horiz-adv-x="562" d="M521 271q1 0 1 -1q-2 -9 -0.5 -32t0.5 -33l-15 -54q-1 -3 -6.5 -11t-4.5 -17q-9 -3 -15 -19q-14 -9 -26 -28q-3 -3 -15 -11.5t-17 -13.5q-14 -5 -22 -12q-2 -2 -9 -5.5t-10 -6.5q-6 -1 -21.5 -5.5t-24.5 -5.5h-38q-31 -3 -33 -3q-5 0 -17 2t-19 1q-4 1 -11.5 3.5 t-13.5 3.5t-14 1q-2 1 -4.5 5t-5.5 6q-4 1 -31 17q-5 2 -14 9t-15 10l-28 35q-6 5 -14 17.5t-13 16.5q-2 11 -8.5 27.5t-8.5 23.5q0 23 -3 28q3 7 3.5 15t0 19t-0.5 18q1 5 2.5 13.5t2.5 15.5t1 15q0 1 3 11.5t3 17.5q3 2 10 19q8 15 9 17q3 6 11 16t10 17q3 2 7.5 7t8.5 7 q9 12 14 14q4 4 15.5 12.5t15.5 14.5q7 2 29 14q10 1 26 5.5t23 5.5q11 1 31.5 3t31.5 2q6 -3 14.5 -4.5t19 -2.5t16.5 -2q15 -8 30 -11q4 -5 15.5 -10.5t14.5 -7.5q4 -2 9.5 -7t9.5 -7q13 -11 19 -14q18 -21 19 -22l19 -21q3 -9 11.5 -24t11.5 -24q1 -12 5.5 -35t4.5 -35z M444 249q0 3 -1.5 11.5t-0.5 13.5q-1 3 -3.5 9t-3.5 11t-1 12q-8 8 -9 16q-8 16 -8 19q-22 20 -30 33q-16 4 -21 14q-4 1 -20 14q-30 6 -63 5q-25 -7 -37 -3q-3 -2 -9 -6.5t-11 -7.5t-11 -4q-5 -5 -19.5 -16t-21.5 -18q-3 -2 -7 -7t-7 -6q-5 -13 -11 -19q-3 -13 -11 -25 q0 -6 -3 -14t-4 -11q-1 -25 7 -65q1 -3 4.5 -8.5t4.5 -7.5q1 -3 4 -9l4 -8q5 -8 21 -22l6 -3l5 -7l2.5 -2.5t3 -2.5t3 -2.5t2.5 -3.5l45 -19q3 -1 12.5 -1.5t13.5 -2.5q3 0 7.5 1.5t7.5 1.5q2 -1 8 -2t8 -3q4 2 13.5 3t13.5 2q23 6 25 6q24 15 30 16q20 18 36 39 q17 39 21 46q0 7 2.5 18t2.5 15z" />
<glyph unicode="1" horiz-adv-x="299" d="M229 6q-2 -1 -30 -1q-38 -2 -46 3q-2 7 -6 8q-1 7 1.5 32.5t-1.5 33.5q4 17 3.5 53.5t1.5 55.5q-8 44 -2 69l-3 24q2 9 2 24.5t1 24.5q-3 5 -5.5 23t-8.5 22q-15 2 -41 -2.5t-40 -0.5q-3 5 -9 10q-2 9 0 39q2 29 6 35q8 3 44 3h45q7 0 22 1.5t22 1.5q1 0 5 -1t6 0 q2 0 8.5 1t12 0.5t9.5 -3.5q6 -8 6 -33q0 -12 -2 -36v-145v-40q2 -44 -1 -53q2 -9 2.5 -21.5t0 -23t0.5 -23.5q0 -1 1 -5t1 -5t-1 -4t-1 -4q0 -5 2 -15l3 -15q-1 -1 0 -2t1 -2q2 -12 -9 -29z" />
<glyph unicode="2" horiz-adv-x="523" d="M483 16q-24 -4 -38 -5q-8 -1 -22.5 -3t-21.5 -2q-3 0 -8 1t-8 1q-22 0 -25 2q-4 -3 -16.5 -3.5t-15.5 -1.5q-4 1 -37 1h-29q-16 0 -38 4q-3 -1 -8 -3t-7 -2q-4 -1 -7 1t-6 2q-7 -2 -41.5 -1t-45.5 1q-3 0 -9 -1t-9.5 -1.5t-7.5 1t-7 4.5q0 7 8 12.5t10 8.5q6 3 17 11.5 t16 11.5q1 1 4.5 2.5t4.5 2.5t11 7t16 9q2 3 11 9.5t11 12.5q13 5 32.5 20t25.5 19q3 6 13.5 11.5t13.5 10.5q11 5 28 21q40 44 48 61q2 4 12 37q-2 35 -8 48q-1 5 -6.5 13t-7.5 14q-4 5 -27 22q-5 1 -15.5 6.5t-15.5 6.5q-10 3 -43 1q-1 0 -4 1t-4 1q-5 -1 -29 -11 q-6 -4 -15.5 -13t-14.5 -12q-5 -11 -16 -22q-1 -8 -10 -27q2 -4 2 -8.5t-1 -9.5t-1 -7q1 -6 4.5 -20.5t6.5 -27t3 -13.5q0 -3 -4.5 -7.5t-10.5 -5.5q-5 -3 -29 -9t-25 -4l-8 8q-1 2 -4.5 12t-6.5 13q0 9 -3.5 27.5t-2.5 29.5q0 3 1.5 9.5t2 10t-0.5 10.5q4 9 6 34q7 12 8 23 q8 7 24 37l25 27q5 3 14 9t16.5 10t16.5 6q18 10 19 11q6 -1 24 7q8 -1 21 3h28q7 -1 22.5 -6.5t26.5 -6.5l25 -14q3 -1 11 -6.5t13 -7.5q5 -6 15 -16l13 -13q3 -5 9.5 -14t11.5 -16.5t9 -14.5q1 -12 9 -30l2 -46q0 -3 -0.5 -20.5t0.5 -23.5q0 -1 -3.5 -8.5t-2.5 -13.5 q-5 -5 -11 -18t-8 -17q0 -3 -2.5 -5t-6 -4t-4.5 -3q-3 -5 -11 -15q-6 -2 -15 -8.5t-13 -8.5q-16 -14 -22 -22q-20 -5 -35 -20q-8 -1 -16 -13q3 -5 21 -3q39 2 52 -2q10 3 11 3q41 0 53 2q10 0 26.5 3t24.5 2q12 -17 11 -79z" />
<glyph unicode="3" horiz-adv-x="455" d="M48 49q3 2 27 2q9 -1 17.5 0t16 -0.5t10.5 -6.5q2 -4 2 -10t-1 -14t-1 -12l3.5 -14t3.5 -16q2 -6 9 -15.5t10 -16.5q12 -9 23 -20q10 -3 27 -10t24 -9q42 3 77 17q3 1 10 8t14 8q2 5 11 15t12 18l5 26q3 25 3 26q0 11 -3.5 20.5t-8.5 19t-7 15.5q-12 20 -47 41q-5 0 -5 2 q-20 2 -28 5q-18 -1 -25 6q-5 49 0 77q12 8 29 7q4 1 13 3t13 4q3 1 8.5 6.5t10.5 6.5q3 5 13 20.5t13 25.5l4 31q-2 11 -6.5 20.5t-12 20t-10.5 15.5l-31 20q-22 6 -51 5q-24 -6 -39 -16q-27 -24 -41 -66q0 -8 3 -20.5t3 -20.5q-4 -8 -15.5 -10t-23.5 0t-25 -1q-2 2 -9 4.5 t-9 4.5q-5 9 -5 38q8 41 8 47q7 10 13 37q7 8 17 26q13 8 22 21q14 3 33 20q22 10 40 15q14 -1 47 4q4 0 17.5 -2t22.5 -2q7 -6 36 -15q1 -1 22 -14q2 -4 9.5 -9t9.5 -7l19 -22q20 -43 25 -52l9 -42q-1 -7 -1 -22t-2 -24q-13 -29 -14 -35q-19 -23 -36 -37q-7 -2 -8 -5 q-22 -7 -27 -13q1 -6 11.5 -9t12.5 -5q3 -2 12.5 -5.5t12.5 -7.5q4 -1 7.5 -8t6.5 -9q3 0 4 -1.5t2 -3.5t2 -3q8 -8 28 -50q2 -8 1.5 -23t0.5 -23q1 -6 4.5 -16.5t3.5 -11.5q-3 -34 -3 -35q0 -4 -4.5 -12.5t-3.5 -15.5q-10 -13 -14 -27q-4 -3 -18 -21q-14 -20 -15 -22 q-8 -1 -18 -8.5t-12 -8.5l-29 -19l-30 -9q-8 2 -21 0t-21 0q-4 1 -8.5 -2t-7.5 -3q-6 -1 -14 5q-17 -5 -40 4q-1 1 -5 2t-6 3q-9 8 -25 11q-15 17 -28 21q-4 8 -15 19t-15 17q-5 5 -12 20t-13 21q-6 26 -11 38q0 3 -1 8t-1 7q1 6 1.5 18t2 20.5t5.5 15.5z" />
<glyph unicode="4" horiz-adv-x="546" d="M518 13q-2 0 -9 -4t-13 -3q-19 2 -25 0q-15 4 -52 4q-4 -7 -6 -17t-1.5 -17t1.5 -20.5t1 -18.5v-17q0 -2 1 -5t1 -5v-45q0 -6 1.5 -17t2 -16t-0.5 -16q-6 -4 -21 -4h-19q-5 0 -12.5 -2t-9.5 -2q-20 6 -23 8q-4 5 -10 17q5 23 7 28t0 26t-2 26q0 43 -3 52q7 24 3 37 q-1 1 -24 4q-35 4 -52 -3q-16 2 -31 0h-29q-10 1 -28.5 0t-24.5 -1q-5 0 -16 1.5t-16 1.5q-4 0 -10.5 -1.5t-9.5 -1.5t-9 0.5t-9 0.5h-12.5t-11.5 0.5t-10 3t-8 7.5q1 10 11.5 20.5t12.5 14.5q13 20 25 31q5 7 23.5 28.5t26.5 35.5q15 14 24 33q3 1 6.5 7t5.5 8q2 3 6.5 8 t6.5 8q6 4 14.5 15t12.5 15q11 20 27 30q0 3 1 4.5t2.5 3.5t2.5 3q2 0 2.5 4.5t3.5 5.5q4 4 11.5 13t12.5 13q2 5 10 14t10 15q4 5 12.5 14t11.5 13l6 9q3 4 8.5 9.5l7.5 7.5t4 5.5t2 4.5q1 1 4.5 2.5t5.5 3.5q1 6 5.5 12.5t5.5 9.5q1 2 6.5 7.5t6.5 11.5q4 3 12.5 17 t20.5 15q11 -4 11 -35q-2 -5 -3.5 -19t-3.5 -20l4 -16q-5 -117 0 -202q-2 -10 -4 -14q2 -12 3 -41.5t4 -45.5q17 -4 50 -2t49 -1q5 -8 5 -28.5t1 -25.5l2 -4q0 -11 -5 -19zM326 145q5 24 0 117q-8 1 -14.5 -5t-7.5 -16q-13 -11 -14 -19q-9 -4 -19.5 -18t-12.5 -16 q-11 -11 -16 -21l-3 -1l-8 -8q-14 -18 -16 -24q-2 0 -4 -2.5t-5 -2.5q-2 -6 -11.5 -16.5t-10.5 -19.5q5 -2 19.5 -0.5t21.5 0.5q23 -7 52 0q30 -6 47 3q9 14 2 49z" />
<glyph unicode="5" horiz-adv-x="475" d="M55 99q-2 8 5 32q3 17 9 28q0 8 2 14q3 7 6.5 24t7.5 24q-1 12 4.5 26t5.5 24q11 21 14 59q9 21 19 67q4 26 8 37l9 33l20 3h122q8 0 24.5 0.5t24.5 0.5q3 0 9 -0.5t10 -0.5q7 0 21.5 1.5t25 1t19.5 -4.5q7 -12 5 -53q-2 -25 -7 -29q-12 -1 -45.5 -1t-53.5 -2q-4 3 -13 3 q-15 -2 -45.5 -1t-45.5 0q-4 -5 -7.5 -19t-5.5 -18q-3 -13 -10 -37.5t-10 -37.5q-1 -7 -5 -18.5t-5 -19.5q5 -4 14 -3t13 5q15 1 27 6q17 2 54 -2q10 -7 29 -9q52 -32 71 -52q12 -18 22 -30q4 -10 13 -28t13 -27q0 -20 8 -38q0 -27 3 -38q-2 -9 -2 -44q0 -3 -3 -10t-2 -14 q-7 -7 -7 -11l-15 -12q-1 -9 -8 -18q-2 -1 -4 -7.5t-5 -8.5q0 -3 -1.5 -4.5t-4 -2.5t-3.5 -2q-4 -8 -8 -9q-13 -11 -18 -18q-5 -1 -11.5 -6t-10.5 -6q-19 -13 -20 -15l-16 -3q-4 -2 -10.5 -7t-9.5 -7l-21 3q-43 -8 -102 3q-58 36 -63 38q-4 7 -14.5 16.5t-14.5 15.5 q-3 3 -13 13.5t-15 16.5q-1 16 -13 28q0 4 -2 12.5t-1 15.5q4 14 13 24q3 2 13.5 4.5t14.5 5.5q21 8 28 6q4 -1 6.5 -4.5t3.5 -7.5t2 -9.5t3 -8.5q22 -40 37 -54q22 -8 35 -19q8 1 25 -3q5 2 7.5 1.5t7.5 -2.5t7 -2q7 3 23 6t23 5q20 9 25 13q1 1 9 7t13 7q5 9 19 27 q4 5 8 14q3 3 3 5q0 1 3 19l7 14q2 11 -2 36q-2 6 -8.5 18t-8.5 18l-21 27q-26 20 -41 28q-30 9 -37 11q-15 2 -48 0q-26 -7 -27 -7q-5 0 -11.5 -5t-14.5 -3q-3 -3 -10.5 -7t-10.5 -8q-15 -6 -19 -14q-5 -1 -11 -7t-8 -7t-8 -3.5t-8.5 -2.5t-8.5 1z" />
<glyph unicode="6" horiz-adv-x="511" d="M328 713q14 -1 30 -10.5t26 -10.5q1 -1 3.5 -7t5.5 -7q1 -2 5 -6.5t5 -7.5q-1 -8 -6.5 -17.5t-6.5 -14.5q-7 -5 -17.5 -17t-15.5 -16q-1 -4 -4 -9.5t-4 -7.5q-5 -4 -17 -18q0 -5 -6 -10t-7 -10q-5 -5 -14 -18t-16 -18q-3 -6 -14 -17.5t-14 -20.5q-3 -2 -9 -8t-9 -8 q-1 -5 -6 -10t-6 -10q6 -2 9.5 -1.5t10.5 2.5t10 2h67q7 -2 20 -6.5t20 -6.5q3 -3 19 -14.5t22 -20.5l5 -3q4 -2 4 -6q1 -2 5 -4t5 -5q3 -4 17 -21q2 -7 9.5 -19.5t9.5 -21.5q9 -19 9 -49q2 -5 4.5 -16t3.5 -14q1 -6 0.5 -18.5t1.5 -14.5q-2 -3 -3 -11.5t-2 -10.5 q-1 -3 -4.5 -12t-6.5 -13q-1 -6 -4 -14t-4 -13l-4 -5q-2 -2 -4 -6l-3 -6q-1 -3 -9 -12t-10 -15q-10 -9 -19 -19q-1 -4 -7.5 -10t-7.5 -11q-19 -4 -51 -26q-21 -2 -31 -8q-6 0 -16.5 -2t-18.5 -1q-3 -1 -9.5 -3.5t-10.5 -3.5q-30 5 -32 7q-11 -1 -47 9q-3 1 -9 2t-7 1t-4 2 t-4 3q-3 1 -11.5 4.5t-13.5 6.5q-11 5 -19 17q-4 2 -10 7.5t-11 7.5q-2 5 -5 9t-7 9t-6 8q-18 22 -21 26q0 6 -2.5 11t-6 10.5t-5.5 8.5q-1 12 -10 47q2 11 -3 34q1 6 7 21q-1 7 3 27q2 18 4 25q3 9 10 22t9 19q1 3 5 7t5 6t3 7.5t3 7.5l11 11q4 5 13 17t14 18 q4 9 16.5 23.5t16.5 25.5q4 3 11 11t11 11q21 44 51 71q1 6 4 11t8.5 11t7.5 9q0 1 0.5 3.5t1.5 3.5l4 3q20 26 29 39q3 2 7 9.5t8 9.5q10 17 13 21q4 4 12 19t16 19zM388 266l-6 15q-9 16 -16 23q-17 25 -39 41q-11 1 -24.5 8.5t-18.5 9.5q-6 0 -6 1q-5 0 -17 -1t-16 1 q-13 -6 -30 -3q-7 -5 -25 -11q-18 -12 -22 -14q-3 -4 -10.5 -10.5t-8.5 -7.5q-12 -14 -32 -55q-7 -29 -5 -47q0 -2 1.5 -6t2.5 -7q2 -24 3 -26t11 -18q1 -1 2.5 -3t2 -3.5t2 -3l2.5 -2.5l11 -11t11 -13q7 -2 21 -14q24 -10 36 -14q21 -4 63 -2q19 8 35 11q28 17 42 32 q8 12 26 36q11 37 12 44q0 3 0.5 16t-1.5 14q1 8 -7 20z" />
<glyph unicode="7" horiz-adv-x="610" d="M574 479q-3 -23 -38 -55l-25 -44q-3 -4 -11.5 -13t-14 -16.5t-9.5 -16.5q-17 -14 -33 -45q-7 -7 -24 -31t-31 -33q-1 -1 -1 -3t-0.5 -3.5l-1 -3t-1.5 -3t-2 -2.5q-1 -4 -10 -11q-1 -1 -3 -5.5t-5 -5.5q-14 -28 -31 -40q-3 -9 -12.5 -22t-12.5 -19q-19 -21 -27 -38 q-7 -4 -16 -17t-16 -17q-1 -6 -6 -12t-6 -9q-1 -2 -5.5 -8.5t-5.5 -11.5q-9 -6 -24 -29q-7 -1 -11 -15q-3 -2 -7.5 -6t-6.5 -5q-1 -5 -5 -10t-5 -9q-19 -14 -44 -62q-3 -2 -12.5 -10t-18.5 -9q-14 -1 -21 10q-4 1 -10 4t-10 4q-2 4 -11.5 13.5t-10.5 19.5q-1 7 6 14.5 t8 10.5q9 10 19 19q8 18 16 24q15 21 17 22q3 7 15.5 21t15.5 26q14 9 30 36q7 6 17 19.5t13 16.5q2 2 13 16t14 24q4 2 6.5 5t5.5 8t5 7q1 2 4.5 4.5t5.5 5.5l6 12q2 3 6.5 6t6.5 5q1 1 1 2.5v2.5l4.5 4.5l5.5 5.5l9 14q1 1 3.5 2.5t3.5 3.5l14 22q12 15 14 19q1 2 7 8 t7 11q4 2 16 17q1 3 5.5 9.5t5.5 11.5q7 5 16.5 18t16.5 18q0 3 8 10q0 7 6 11q10 12 11 22q0 2 -2.5 2.5t-5.5 0t-6 0.5q-6 -1 -23 -2t-24 -3q-32 4 -58 -3q-24 0 -34 1q-23 -5 -64 -3h-6.5t-9.5 2q-2 0 -88 -3q-45 -2 -62 6q-4 9 -3 28t-1 27q4 21 12 29q5 2 26 0t26 -2 h114q21 0 31 3q50 -3 96 0q4 1 8 -1t7 -2q50 3 100 3q21 0 62 -0.5t61 -0.5q1 -2 3 -4t2 -3z" />
<glyph unicode="8" horiz-adv-x="491" d="M153 394q3 3 -8.5 13.5t-18.5 13.5q-8 3 -19.5 12.5t-15.5 12.5q-9 20 -14 25q-1 7 -8 27q0 40 6 59v18l19 56q8 6 19.5 21t16.5 20q7 3 16.5 10t13.5 9q4 3 16 7t16 8q11 0 30.5 3.5t29.5 3.5q6 0 20 -2.5t22 -2.5q2 -1 7 -3t7.5 -2h9.5q3 -3 10.5 -6t10.5 -6 q2 -2 9 -6.5t9 -8.5q14 -8 18 -15l17 -16q5 -14 21 -36q2 -15 7 -23q1 -12 5 -34q1 -3 4 -15t3 -18q0 -5 -2.5 -16.5t-1.5 -18.5q-2 -4 -8 -14t-9 -16q-7 -6 -21 -21t-22 -22q-1 0 -11.5 -2.5t-13.5 -6.5q0 -5 7.5 -7.5t8.5 -3.5q3 -1 8 -4t9 -4q2 -2 6 -5t5 -4q2 -1 5 -4.5 t6 -3.5q14 -18 18 -21q2 -2 30 -47q3 -16 9 -30q-1 -12 2.5 -41.5t0.5 -46.5q0 -1 -3.5 -13.5t-2.5 -21.5q-1 -5 -5.5 -9.5t-5.5 -6.5q1 -5 -2 -11t-3 -11q-7 -6 -30 -38q-12 -8 -26 -22q-4 -4 -14.5 -10t-14.5 -10q-18 -6 -36 -13q-15 -5 -19 -6q-2 0 -4.5 -0.5t-4 -1 t-2.5 -0.5q-31 -3 -36 -3q-4 -1 -7.5 1t-5.5 2q-16 -1 -38 6t-34 7q-6 6 -16 6q-17 17 -40 24q-3 5 -17 17l-8 11q-1 1 -1 3v2l-7 6l-3 8q0 1 -5 8q-5 11 -14 22q-2 11 -12 29q0 5 -5 15q4 8 -2 18q2 4 2 15v13q5 30 3 38q13 40 16 47q16 26 22 41l33 32q7 2 20.5 9.5 t22.5 10.5zM376 248q-15 33 -31 56q-20 15 -27 19q0 1 -8 3q-18 12 -22 13q-21 6 -50 6q-4 0 -11.5 -3t-12.5 -3q-4 -6 -24 -8q-3 -5 -15 -9l-18 -21l-3 -1l-7 -7t-7 -8l-6 -15q-8 -12 -8 -15l-2 -12q-3 -12 -3 -13q-1 -19 8 -50q20 -38 49 -62q13 -3 56 -17q9 2 30 2 q7 3 23 6t23 6q18 10 41 33q21 39 24 44q-1 5 0 11t1 10v1v34zM211 628q-11 -7 -24 -22.5t-16 -22.5q-1 -1 -4.5 -8.5t-7.5 -16.5t-6 -16q-5 -56 42 -93q31 -12 43 -12q4 0 15.5 1t18.5 0q3 1 15 6.5t18 7.5q13 15 27 27q12 29 14 37v23q-1 5 -3.5 13.5t-3.5 11.5 q-2 5 -8 11t-8 10q-2 14 -5 19q-14 10 -20 11q-1 1 -8.5 7.5t-12.5 8.5q-3 -1 -30.5 1t-35.5 -4z" />
<glyph unicode="9" horiz-adv-x="491" d="M200 -167q-23 3 -31 17q-20 5 -27 19q0 10 9 21q1 2 1.5 6.5t2.5 5.5q0 3 1.5 5t5.5 4l5 2q3 13 11 21q2 4 6 10.5t5 9.5q0 3 3.5 5.5t3.5 4.5l6 9q7 12 14 18q5 15 17 28q2 5 7 13t6 12q16 12 22 33q-4 3 -10 0t-9 -3h-47q-27 7 -38 6q-40 20 -57 32q-3 3 -15.5 17.5 t-20.5 20.5q-1 4 -14 25q-20 68 -21 73v45q8 41 16 71q7 7 8 16q18 18 24 35q10 11 38 31q7 7 9 8q1 1 14 7.5t19 11.5q21 3 33 11q10 -1 24 5q9 -1 17.5 -0.5t17.5 -0.5t14 -4q3 -1 7 0.5t7 1.5q11 -2 31.5 -10.5t33.5 -10.5q11 -9 18 -9q9 -8 46 -41v-13q2 -3 8 -6t8 -5 q7 -22 11 -27q-2 -12 -2 -20q2 -6 8 -15.5t8 -16.5q0 -3 -1.5 -7.5t-1.5 -8.5q5 -41 5 -50q-1 -17 -7 -33.5t-15 -34.5t-13 -28q-4 -4 -10 -14.5t-10 -14.5q-19 -24 -21 -26q-2 -7 -8 -19q-4 -1 -5.5 -7.5t-3.5 -8.5q0 -3 -8 -8q-14 -20 -19 -31l-14 -15q-2 -7 -10 -17 l-19 -35q-21 -17 -26 -42q-3 -2 -9 -9t-9 -10q-1 -3 -3 -8t-2 -8q-7 -5 -14.5 -18t-11.5 -17zM375 309q-2 2 -9.5 15t-13.5 17q0 2 -2 11q-12 8 -17 19l-27 18q-9 2 -23 9t-23 9q-9 -3 -30 -6.5t-30 -6.5q-25 -16 -26 -16q-8 -9 -26 -25q-1 -3 -20 -33q0 -2 2 -6.5t1 -7.5 q-1 -2 -4 -5t-4 -5q-4 -7 -4 -13.5t1.5 -17t1.5 -17.5q12 -28 14 -35l19 -21q1 -1 8 -9t11 -13q6 -1 14 -6t12 -6q33 -5 40 -7q10 2 31 0q36 12 41 15q7 3 16.5 11.5t15.5 11.5q3 6 19 24q1 10 9 24q-1 5 2 11.5t3 8.5q-1 7 -0.5 17t0.5 16q4 0 0 2q1 4 -1 9t-1 8z" />
<glyph unicode=":" horiz-adv-x="196" d="M153 300q1 0 1 -2q-6 -33 -17 -45q-23 -11 -42 -13q-2 -1 -4 1t-3 2l-8 2q-6 3 -22 19q-7 7 -11 19q5 48 38 66h32q1 -2 4.5 -3.5t4.5 -1.5q3 -2 7.5 -9.5t8.5 -9.5l11 -22v-3zM156 73l2 -2q-1 -7 -4 -13l-6.5 -13l-5.5 -11q-26 -13 -55 -13q-16 6 -19 11q-2 2 -8 6t-8 7 q-4 7 -2.5 22t5.5 23q3 6 14 19q16 19 32 19q7 0 33 -12q18 -26 22 -43z" />
<glyph unicode=";" horiz-adv-x="250" d="M33 -148q-36 -3 -37 -3q-19 11 -23 19q-1 4 0 7.5t3.5 7.5t3.5 6q1 1 1 3q1 3 3 3q10 19 14 23q5 27 22 72.5t22 69.5q7 8 13 31t12 31q33 6 79 -24l3 -6q0 -9 -6.5 -21t-5.5 -22q-3 -1 -8 -11q-2 -2 -5.5 -5t-4.5 -4q-2 -9 -11.5 -25.5t-8.5 -31.5q-19 -16 -24 -49 q-9 -11 -21 -36t-21 -35zM154 279q8 -30 -17 -59q-23 -13 -57 -8q-42 21 -35 66q9 11 14 25q20 19 43 21q16 -4 24 -5l5 -5t7 -5l6 -14q0 -3 4 -6t4 -6q2 0 2 -4z" />
<glyph unicode="&#x3c;" horiz-adv-x="281" d="M80 231q2 -8 10.5 -18.5t10.5 -14.5q8 -7 11 -16q1 -2 5.5 -6.5t5.5 -9.5l16 -12q3 -8 12.5 -20t12.5 -18q3 -2 8 -8t8 -8q1 -3 6.5 -8t7.5 -9q12 -7 14 -8q1 -5 7.5 -13.5t5.5 -15.5q-1 -5 -5 -9t-11 -7.5t-10 -5.5q-19 0 -25 3q-5 4 -11 18q-2 2 -9 7.5t-11 7.5 q-5 7 -5 12l-18 12l-6 16q-1 2 -5 4.5t-6 4.5q-3 4 -8 12.5t-9 11.5q-3 10 -14.5 22.5t-14.5 21.5q-12 9 -31 41q0 6 4 14.5t4 14.5q11 9 27 33t26 33q2 4 7 9.5t6 7.5q3 7 13 17q3 5 11.5 17t11.5 20l19 14q2 3 7 19.5t12 21.5q7 0 15.5 -3t16.5 -2q19 -19 20 -28 q-1 -4 -6.5 -9t-6.5 -9l-15 -12q-25 -35 -35 -41q-1 -6 -14 -24q-1 -1 -2.5 -3t-3 -4.5t-2.5 -3.5l-14 -14q-1 -1 -2.5 -3t-3 -4.5t-2.5 -3.5q-17 -23 -19 -28q-12 -7 -16 -16z" />
<glyph unicode="=" horiz-adv-x="375" d="M326 130q-2 0 -10 -3.5t-12 -1.5q-12 3 -33 2t-49 -3l-29 -3q-4 0 -32 2t-34 1l-18 -3q-12 4 -33 2q-16 -2 -23 -4q-10 0 -12 -0.5t-7.5 4.5t-6.5 6q-5 17 -3 34q2 19 11 27q6 0 18 2q3 0 40 -1t44 0q13 2 24 2.5t17 -0.5t10 -2t6 -2t3 -1q3 0 10 1.5t11 1.5t30 0.5 t29 0.5q7 0 23.5 0.5t22.5 -0.5q8 -4 14 -21q2 -19 -6 -33l-2 -3q-2 -3 -3 -5zM326 283q-10 -10 -22 -5q-12 3 -33 2t-49 -4l-29 -2q-4 0 -32 2t-34 1l-18 -3q-4 1 -5 -0.5t-6 -1.5q-3 0 -19.5 0.5t-19.5 -0.5q-31 -10 -32 10q0 5 0.5 10t1.5 11t1 10q1 6 0.5 11t0.5 10t4 8 q1 2 6 2t9.5 -0.5t8.5 0.5q3 0 19.5 -0.5t23.5 0.5q25 4 53 0.5t42 -1.5t59 2q4 0 11 -0.5t10 -0.5q7 0 23.5 0.5t22.5 -0.5q5 -2 5 -11.5t1 -11.5q0 -3 2 -10t2 -10.5t-2 -9.5q-3 -6 -5 -8z" />
<glyph unicode="&#x3e;" horiz-adv-x="285" d="M63 31q-2 10 2 18.5t14 7.5v5q-1 6 2 6q2 5 9 12.5t8 9.5q16 21 17 23q1 1 2 3.5t2 3.5t6.5 6t5.5 10q14 18 16 24q6 2 12 10t8 10q2 3 8 10.5t8 13.5q3 3 9 7l9 6q-1 7 1 15q0 5 -5 9.5t-6 8.5q-2 1 -7 6t-9 6q-1 4 -4.5 9.5t-4.5 8.5q-8 7 -28 34q-25 30 -45 60 q-2 2 -9 7t-11 9.5t-6 10.5q0 9 2 15t7.5 10.5t9.5 7t12 5.5q11 -4 24 -25q2 -6 4 -8q3 -3 8 -13q3 -5 10.5 -13.5t10.5 -13.5q2 -3 6.5 -6.5t5.5 -4.5q5 -10 17.5 -25t17.5 -24q2 -2 6.5 -5.5t6.5 -5.5q7 -15 16 -22q2 -2 7 -10t10 -10q1 -6 5.5 -12.5t5.5 -9.5q-1 -2 0 -3 t1 -2q0 -2 -2.5 -8.5t-1.5 -11.5l-16 -12q-3 -5 -15.5 -21t-14.5 -29l-33 -35q-3 -12 -19 -34q-2 -6 -11 -15.5t-11 -16.5q-7 -3 -17.5 -12.5t-17.5 -12.5q-5 0 -20 5q-6 2 -18 8z" />
<glyph unicode="?" horiz-adv-x="424" d="M279 335q2 1 26 1q4 0 13 1t14.5 1.5t13 0t13.5 -3.5q2 -3 2.5 -8.5t0 -10.5t0.5 -11q0 -3 -3 -11.5t-2 -15.5l-6 -11q-1 -1 -2 -6t-3 -7q-1 -2 -6.5 -6.5t-7.5 -9.5q-1 -3 -5.5 -8t-6.5 -9q-22 -17 -26 -22q-17 -5 -20 -8q-3 0 -24 -5q-36 -2 -55 -1q-61 19 -68 22 q-1 2 -9.5 10t-12.5 14q-6 2 -11.5 11.5t-8.5 11.5q-1 11 -10.5 31.5t-10.5 33.5q0 3 1.5 12.5t0.5 15.5q5 23 4 29q4 5 11.5 24t17.5 24q3 2 6 6t5 6q2 4 6 7t9.5 6t8.5 5q4 2 12 4t14 4.5t10 6.5q4 0 10.5 1.5t11.5 1.5q3 1 12 5.5t16 5.5q28 8 29 9q3 1 33 29q1 4 5 13 t5.5 17t0.5 17q-2 2 -2 3q-2 10 -13 21t-14 17q-4 1 -20 14q-12 0 -24 5q-14 -7 -30 -3q-5 -3 -17 -7q-17 -12 -33 -47q-1 -2 -1.5 -8.5t-1.5 -8.5q-1 -3 0.5 -13.5t-2.5 -10.5q-4 -13 -41 -8q-4 0 -12.5 -2.5t-15.5 -2.5q-13 7 -19 18q0 5 3.5 12t4.5 10v19q6 30 6 33 q1 1 6 13q5 8 5 12q2 5 7 13.5t6 10.5q17 10 45 38q15 3 21 11q4 0 7.5 1t7 2.5t5.5 2.5q9 0 28 2t28 1q13 -1 50 -13l19 -12l1 -3h4l1 -3l6 -2q6 -2 7 -5q3 0 5.5 -4t3.5 -5t7 -6t9 -7q12 -22 19 -33q3 -9 7 -29t6 -28q1 -4 1 -33q0 -3 1 -9t1 -10q-1 -3 -3.5 -8.5 t-3.5 -8.5t-2 -9.5t-2 -9.5q-3 -6 -12.5 -15.5t-11.5 -15.5q-3 -1 -12 -7.5t-16 -8.5l-35 -25q-14 -3 -38 -13q-6 -4 -21 -7t-17 -4q-21 -8 -39 -22q-9 -16 -11 -21q-6 -38 33 -63q6 1 15.5 -1.5t12.5 -2.5q11 -1 35 11q4 3 11 11t10 11q1 2 3.5 14t7.5 16zM269 60 q-3 -12 -22 -33q-33 -5 -39 -4q-7 0 -13.5 2.5t-14.5 7t-9 5.5q-14 26 -15 35q0 8 9 19q1 5 4 11.5t4 8.5q4 3 11 9t8 7q5 0 13.5 3t13.5 2q6 0 11.5 -3t12 -7.5t9.5 -6.5q16 -40 17 -56z" />
<glyph unicode="@" horiz-adv-x="768" d="M464 301q-1 1 -2.5 3t-2.5 4.5t-2 3.5q-7 10 -8 11q-3 2 -12 10t-15 12l-18 9q-5 0 -14.5 2t-15.5 2q-7 1 -17 -1t-15 -2q-8 -2 -29 -13l-7 -7t-9 -8.5t-9 -5.5q-1 -5 -4.5 -11.5t-4.5 -9.5q-6 -17 -9 -23q0 -5 -0.5 -10.5t-1.5 -11.5t-1 -10q2 -12 1 -19q1 -2 9 -20 q0 -5 1 -9.5t2.5 -8.5t2.5 -7q2 -1 10.5 -7t12.5 -11q8 -8 26 -17q4 1 10.5 -1t8.5 -2q5 0 11 -2.5t10 -1.5l15 3q3 0 6 2.5t7 1.5q1 1 3 1.5t4.5 0t4.5 0.5q3 2 11 4l15 10q2 2 5 7t4 6q27 17 25 93q0 2 -2 1q0 12 -6 32zM515 69q-3 0 -26 15q-5 3 -13 20q-6 5 -10 25 q-1 -4 -3.5 -6.5t-4.5 -3.5t-5 -2t-5 -3q-1 -1 -7.5 -6t-8.5 -9q-8 -1 -17 -8q-18 -7 -40 -8q-2 0 -5 -1q-5 -2 -6 -2q-10 -1 -28.5 1.5t-26.5 2.5l-10.5 3.5t-11.5 3.5q-9 7 -16 8q-7 8 -16 11q-1 5 -12 12q-6 12 -12 15q-3 16 -14 22q0 10 -9 28q-2 8 -3 28t-3 28 q0 3 1.5 10.5t2 11t-1.5 10.5q3 4 4 9.5t1 13.5t1 12q1 2 4 8.5t3 11.5q6 6 9 19q3 3 7 9t6 8l13 15l25 20q5 1 13.5 5t12.5 5l9 2q16 4 20 4q2 0 6 -0.5t7 -0.5q5 0 20 1t21 -1q4 -2 6 -2l12 -4q7 -2 34 -18q2 -2 5 -7t5 -7t5.5 -5t7.5 -4q4 2 5 9.5t0 15t1 13.5 q19 11 56 4q14 -29 4 -81q4 -17 0 -63l3 -14q-3 -3 -0.5 -21t2.5 -21v-44q2 -10 1 -10t1 -8l3 -12q0 -9 7 -12.5t13 -2.5q8 1 24.5 6.5t19.5 9.5l26 38q13 20 19 53q0 3 5 34v21q0 1 -2 1v3q-1 9 -5.5 25t-5.5 27q-2 2 -1 3q-14 24 -16 30q-11 11 -19 29l-25 25t-37 30 q-3 3 -11 8t-11 9q-10 3 -25.5 10.5t-22.5 10.5q-11 2 -29 8q-6 0 -16 2t-15 2q-12 1 -35 -1q-4 0 -15.5 -0.5t-17.5 -1.5q-3 0 -10 -2t-9 -2l-19 -7q-5 -1 -13.5 -3t-15 -4t-10.5 -4q-6 -2 -16 -10t-16 -10q-3 -3 -10.5 -6.5t-8.5 -4.5q-8 -8 -11 -8q-15 -22 -31 -35 q-2 -7 -10.5 -17t-10.5 -14t-4.5 -14t-6.5 -15q-1 -2 -4.5 -13t-6.5 -15q-1 -9 -5 -27q0 -3 -2 -12.5t-2 -14.5q-1 -5 0 -15t1 -13l3 -33q4 -8 16 -40q2 -6 8 -18.5t8 -20.5q10 -13 11 -16q26 -24 35 -31q19 -19 20 -21q6 -2 25 -16q13 -3 33 -13t27 -12q3 0 21.5 -8 t21.5 -8q6 0 35 -3t40 -2t36 4.5t48 5.5q16 2 34.5 6t30.5 7.5t23.5 7.5t12.5 4q7 9 47 15q12 -25 15 -38.5t0 -17.5t-11 -6q-5 -6 -40 -17q-4 -2 -104 -31q-11 -4 -24 -6.5t-29.5 -4.5t-27.5 -4q-12 -3 -37.5 -1.5t-31.5 0.5q-3 1 -19.5 3.5t-26.5 6.5q-4 2 -18 4t-18 4 q-8 0 -16 4l-1 3q-6 2 -18 4q-2 1 -4 2.5t-3 1.5q-10 3 -45 23q-3 2 -15.5 10.5t-20.5 11.5q-4 7 -15.5 16.5t-14.5 13.5q-35 34 -74 104q-4 22 -14 44q2 9 -3 24t-5 21q0 8 2 26q0 45 4 78q3 7 10 37q14 40 25 54l3 5l3 3l2 1q1 1 1 3.5v3.5l5 4q1 2 4 9t4 9q3 4 9.5 10 t9.5 9t8 11t8 11q15 8 47 36q10 2 23 10.5t18 10.5q6 5 21 11t20 9q1 0 14 3q3 1 7 3t6 2t7.5 0.5t8.5 1.5q2 0 5.5 2t5.5 2q13 3 31 3q37 4 57 2q2 0 5.5 -1.5t5.5 -1.5h14q8 -1 24 -5q13 -2 23 -5q12 -4 24 -12q19 0 41.5 -13.5t31.5 -15.5q11 -12 26 -20q11 -11 29 -19 q5 -8 16.5 -22t16.5 -21q7 -7 16.5 -22t14.5 -20q1 -7 6.5 -17t6.5 -16q3 -5 7 -16t7 -16q-1 -13 3.5 -31.5t4.5 -26.5v-6v-12l-1 -6q-3 -14 -4 -25l-1.5 -16.5t-3.5 -10.5t-9.5 -26t-15.5 -37q-23 -39 -37 -41q-27 -25 -56 -37q-19 -8 -32 -9.5t-30 2t-23 3.5z" />
<glyph unicode="A" horiz-adv-x="664" d="M554 1q-5 5 -11.5 17t-10.5 16q-14 30 -19 37q-2 2 -2 7t-1 7q-5 9 -13 17q0 3 -1.5 8.5t-1.5 9.5q-1 1 -2.5 3t-3 4.5t-2.5 3.5l-5 4q-11 24 -17 27q-12 -1 -32.5 0.5t-28.5 1.5q-7 0 -19 -1t-21 -1t-17 2q-15 -3 -16 -3q-25 1 -67 -0.5t-56 -1.5h-38q-14 -5 -22 -39 l-12 -16q-1 -5 -4 -12t-3 -12q-5 -6 -12 -20t-11 -19q-1 -2 -3 -9t-4 -10q-2 -4 -22 -24q-6 1 -17 -2t-14 -3q-27 0 -36 16q-1 8 0 14t5 13.5t4 8.5q1 2 7 12.5t10 14.5q2 10 16 38l17 35q0 5 2.5 9.5t6 9.5t4.5 8q1 2 2 7t3 8l3 6t3 7q3 8 8 17q2 5 6 14t7 13l6 14 q1 1 3 2.5t2 2.5v4t1 4q1 2 4 6t4 6q1 3 3.5 10t4.5 11l5 6q5 7 4 13q12 20 16 36q4 6 11 20t11 20q0 3 2.5 9t2.5 9q3 4 7 12.5t6 11.5q2 4 7 11t7 11v4t1 4t3 2.5t2 2.5l2 8q1 2 4.5 8t5.5 12t2 11q4 4 8.5 13.5t5.5 11.5q10 22 13 26q11 35 25 50q0 4 4 9.5t4 9.5 q1 1 3 5t4 6.5t6 2.5t7.5 -1t6.5 -4.5t4.5 -4.5t4.5 -7l4 -5q1 -6 3 -11.5t6 -12t5 -9.5q2 -6 8 -16t8 -15q6 -15 17 -30q4 -23 19 -43q1 -6 5.5 -17t6.5 -18q1 -4 5.5 -8.5t5.5 -8.5l2 -8q1 -2 3.5 -5.5t4 -6.5t2.5 -7t1 -8q8 -9 13 -20q1 -1 1 -4v-4q5 -8 8 -16 q15 -25 21 -44q5 -9 13 -28t13 -27q8 -9 16.5 -30t10.5 -25q2 -5 7 -11.5t6 -7.5q1 -2 1 -8t2 -8q2 -4 6 -13.5t8 -17t8 -12.5q2 -7 9.5 -21t9.5 -23q4 -9 13 -20q0 -5 2 -14t2 -11q1 -6 -3 -12.5t-5 -8.5q-2 -1 -14 -8.5t-15.5 -7.5h-20.5zM433 250q-2 6 -2 7q-6 8 -28 49 q-7 22 -22 42q-3 10 -12 26.5t-12 22.5l-11 25q-1 1 -6 10.5t-7 14.5q-2 2 -4.5 8t-4.5 8q-2 15 -10 16q-11 -7 -11 -27q-3 -2 -6.5 -9.5t-5.5 -9.5q-3 -15 -16.5 -37.5t-16.5 -37.5q-8 -9 -18 -31.5t-12 -25.5l-15 -30q-8 -7 -12 -32q7 -3 14.5 -3t17 1t14.5 1t16 -1.5 t16.5 -2t17.5 0.5q18 7 49 0l31 4q4 0 10 -1.5t8 -1.5q33 2 38 7v7z" />
<glyph unicode="B" horiz-adv-x="503" d="M77 8q5 69 0 190q2 9 2 74q-2 64 -2 205q0 6 -1 17t-1 19.5t2 15.5q0 2 -3 86q0 26 1 29q4 5 17.5 7.5t16.5 4.5q17 -2 78.5 -4t91.5 -9l57 -33q33 -39 39 -46q3 -10 20 -47q6 -50 -1 -95q-1 -3 -4.5 -9.5t-3.5 -12.5l-17 -25l-9 -6t-10.5 -7.5t-6.5 -8.5q0 -4 4 -6.5 t7.5 -3.5t4.5 -1l19 -6q2 -3 9.5 -7t9.5 -8q1 -1 19 -12q6 -9 18 -25.5t18 -25.5q6 -11 8 -34q1 -8 1.5 -23t1.5 -23l2 -6q0 -10 -11 -49q-1 -2 -2.5 -7t-2.5 -7t-14 -26q-2 -3 -5 -8t-5.5 -9t-3.5 -8q-40 -31 -49 -39q-12 -4 -27 -11q-8 -1 -27 -10q-15 1 -42 -2t-33 -3 q-3 0 -7 1t-6 1t-5.5 -1t-5.5 -1q-16 2 -24 2q-5 0 -17.5 -1.5t-18.5 -1.5t-18 1.5t-17 1.5q-3 0 -13.5 -1.5t-16.5 -0.5q-7 2 -12.5 6t-4.5 9zM205 71q3 0 8 -1t7 -1q4 0 13.5 2.5t15.5 2.5q5 0 13.5 -1t15.5 -1t13 2q10 3 25.5 12.5t22.5 12.5l31 38q1 6 5 15t5 12 q0 7 1 20t0 21q-3 12 -3 14q-2 2 -8.5 13.5t-11.5 16.5q-2 3 -7 7t-6 5q-9 12 -14 13q-31 17 -55 21q-20 3 -78 1q-3 0 -12.5 1t-15.5 0t-11 -4q-1 -12 -0.5 -41t0.5 -41v-24q0 -18 -2 -23q0 -2 2 -7t2 -9q-3 -19 -2 -38v-20t2 -17q6 -3 13.5 -3.5t17.5 0.5t13 1zM246 370 q22 11 23 11q3 3 14 12t15 15q1 1 3 4.5t3 6.5l6 17q1 2 3 4.5t2 3.5q1 3 2 12t1 10q-1 2 -1 22l-15 38q-21 29 -50 43q-6 2 -21.5 4t-22.5 5q-5 0 -14 0.5t-14 1t-11 -1.5t-10 -6q-1 -24 -1 -75t-1 -76q4 -7 2.5 -28t4.5 -26q48 -4 82 3z" />
<glyph unicode="C" horiz-adv-x="626" d="M570 44q-8 -12 -33 -19q-10 -5 -19 -6q-26 -11 -49 -16q-30 -7 -53 -10q-22 -1 -88 4q-42 12 -65 17l-57 30q-5 2 -12 8.5t-13 8.5q-6 8 -24 18q-5 8 -18 21t-18 20q0 1 -8 12q-7 10 -25 32q-3 8 -12 28t-13 32q0 1 -0.5 3t-1.5 3q-5 16 -9 50l-2 19q0 2 -1 5.5t-1.5 6.5 t-0.5 6q0 5 2 36q0 6 0.5 18t0.5 18q10 43 11 51q3 3 6 10.5t5 9.5q0 4 8 24q12 11 19 33q3 3 14 17.5t19 20.5q2 2 8 8.5t9 10.5q10 6 18 17l16 9q4 7 15.5 14.5t13.5 9.5l29 13q12 6 27 11h5t4 1l17 7l54 12q13 -1 44 0.5t44 -0.5q6 -1 23.5 -5.5t27.5 -3.5q27 -12 41 -15 l19 -12l6 -3t7.5 -4t5.5 -6q4 -7 4 -49q0 -3 1 -9t1 -10t-0.5 -8.5t-2.5 -8t-5 -5.5q-14 -2 -30.5 12t-19.5 15q-30 12 -54 18q-6 1 -26 4t-32 5q-23 -1 -56.5 -9.5t-51.5 -9.5q-30 -10 -59 -36q-11 -7 -27.5 -23.5t-23.5 -22.5q-1 -4 -16 -24q-1 -1 -4 -12q-3 -6 -5 -8 q-3 -3 -7.5 -11t-6.5 -10q-2 -10 -10 -33q-2 -27 -5 -39q0 -24 2 -68q16 -37 19 -41q0 -3 9 -20q11 -26 29 -40q2 -4 8 -11t8 -11q5 -2 12 -9t11 -10q11 -6 24 -19q20 -5 25 -11q18 -6 25 -11q7 -1 35.5 -6t45.5 -6q12 -2 23 0q4 0 10 2t9 2q5 1 15 1t14 1q3 0 9 2.5t10 2.5 q2 1 11 6t17 5q2 1 10.5 6t14.5 6q5 2 15 12.5t21 11.5q4 0 5.5 -5t2.5 -6q0 -2 1.5 -7t0.5 -9q-2 -9 -2 -33q1 -2 1.5 -6t1.5 -6q-1 -3 -1 -11.5t-2 -12.5z" />
<glyph unicode="D" horiz-adv-x="614" d="M542 219q0 -1 3 -9.5t-1 -9.5q-8 -28 -30 -52q-5 -14 -13 -24q-2 -4 -8 -8t-8 -6q-1 -3 -5.5 -7.5t-6.5 -8.5q-12 -8 -32 -26q-12 -5 -28 -18q-12 -2 -28 -16q-13 -2 -36 -11t-34 -11q-20 -4 -82 -8q-3 0 -8 -1.5t-9 -1.5q-16 2 -79 0q-7 0 -26 -0.5t-29 -0.5 q-15 7 -22 22q1 15 -1 41.5t-2 35.5t1 28.5t0.5 33t-3.5 26.5v119q0 2 2 7.5t1 9.5q0 3 -1.5 9t-1.5 8q0 6 0.5 27.5t-1.5 24.5q6 33 0 74q0 10 3 16q-2 19 -2 151q2 3 5 10.5t6 10.5q6 0 23 2.5t26 2.5q4 0 12 -1.5t13 -1.5q4 -1 15.5 0t16.5 1h30q3 0 5.5 -0.5t6 -1.5 t5.5 -1q30 4 69 -6q21 1 60 -10l21 -12q10 -2 25.5 -10.5t24.5 -10.5q4 -3 11.5 -10t14 -12t14.5 -8q1 -1 11 -14q11 -7 12 -13q3 -3 12.5 -10.5t14.5 -12.5q5 -11 16.5 -31t16.5 -31q2 -3 0 -16q2 -4 7.5 -8t6.5 -7q1 -6 5 -16t5 -13q0 -13 -2 -17q3 -9 4 -19.5t1.5 -25.5 t1.5 -21q0 -5 -0.5 -20t0.5 -21q-3 -8 -7.5 -25.5t-7.5 -25.5q0 -7 -14 -9zM158 83q12 -2 29 2q31 4 62 -2q14 6 25 5q17 7 57 17l28 16q3 2 8.5 6t10.5 7t10 4q7 8 22.5 22t22.5 21q8 15 13 17q5 13 11 19q1 5 5 11.5t5 9.5q0 5 5 11.5t6 8.5v7l3 4q1 5 1 16v16q4 7 5 18 t0.5 19.5t-2 22t-1.5 20.5q-7 14 -8 27q-5 6 -12.5 23t-14.5 24q-5 12 -16 21q-3 3 -7.5 11t-7.5 11q-6 3 -15.5 10.5t-13.5 9.5q-1 1 -5 2.5t-6 4.5q-6 5 -20.5 12.5t-20.5 12.5q-15 3 -28 11q-10 -1 -32 8q-2 0 -52 3q-6 0 -17.5 1.5t-17 2t-15.5 -0.5q-3 -1 -16 -0.5 t-14 -4.5q-4 -10 -4.5 -35t-1.5 -31q3 -11 1 -28q0 -2 1 -4t1 -4v-85v-36q2 -90 0 -180q1 -3 1.5 -6t1 -7t0.5 -6q-5 -42 2 -58q6 -6 11 -7z" />
<glyph unicode="E" horiz-adv-x="463" d="M59 641q2 4 6.5 6t10.5 4l9 3h142q8 0 22.5 -1t21.5 -1q4 0 11.5 2t9.5 2q4 0 11 -1t11 -1q61 0 82 -5q14 -13 9 -57q-1 -6 -5.5 -9t-15.5 -4.5t-13 -1.5q-7 2 -37 0t-37 -2q-97 0 -115 -3q-23 4 -30 -3q-4 -1 -6 -8.5t-4 -9.5q0 -47 -3 -55q3 -30 3 -31q-3 -35 3 -48 q10 -11 36.5 -11.5t45.5 2.5q4 0 10 -0.5t10 0t7 2.5q12 -3 42 -2.5t43 -4.5q56 0 68 -9q-1 -9 2.5 -31.5t-2.5 -28.5q-7 -6 -27.5 -9t-24.5 -4h-28q-6 0 -15.5 1t-14.5 1q-22 0 -78 -2q-1 0 -5 -0.5t-6 -0.5q-47 0 -58 -5q-9 -11 -6 -22q-3 -3 -3 -13.5t-2 -13.5 q-2 -28 0 -53l5 -30q0 -2 -1.5 -8.5t-1.5 -9.5l1 -7q0 -6 -3 -7q0 -6 -0.5 -19t0.5 -16q7 -18 22 -25q3 -2 14.5 0t13.5 2q3 0 9.5 -1t9.5 -1t9 1t9 1q4 0 10 -1.5t10 -1.5q4 -1 11.5 0t9.5 1t9 -1t10 0q3 0 9 1.5t9 1.5q4 0 13 -1t13 -1q62 0 74 -3q13 -13 6 -60 q-2 -8 -17 -12q-2 -3 -7 -3.5t-10 0t-10 -0.5q-4 1 -9 -1t-8 -2q-16 3 -48 2t-50 1q-13 -3 -44 -3q-8 0 -24 1t-24 1q-65 0 -77 3q-3 1 -19 14q-2 4 -2.5 9.5t0.5 12.5t1 11q-3 30 0 44q0 2 0.5 5.5t0.5 4.5q-1 3 -1.5 11t-1.5 11q5 7 -1 17q-1 4 1 7t2 7q-5 28 0 48 q-2 25 0 82q0 7 -1 21.5t-1 25t3 19.5q0 5 -2 11.5t-1 12.5q2 14 -3 23q-1 4 1 8t2 6q-5 19 -5 56q2 26 5 37q0 9 -0.5 30t-0.5 32q-2 52 0 61z" />
<glyph unicode="F" horiz-adv-x="410" d="M381 578q-5 -3 -11 -3t-13.5 1t-11.5 1q-5 0 -14 -1t-13 -1l-2 1q-3 1 -4 1t-2.5 -1t-2.5 -1q-9 0 -32 1t-34 1q-34 0 -96 -2q-4 -4 -4 -22q1 -5 3 -11t2 -9q-2 -11 -2.5 -24t0.5 -31t1 -26q0 -5 -2 -22t0 -20q5 -4 17 -4h15q4 0 10.5 -2t9.5 -2q5 -1 13.5 1t13.5 2 q5 1 12 -1t10 -2q27 3 104 1q3 0 9.5 1t11.5 0.5t9 -2.5q6 -6 6 -35q6 -23 0 -35q-5 -5 -13.5 -7t-13.5 -2.5t-19 0t-17 0.5q-46 0 -63 -3q-3 -1 -7.5 0t-6.5 1q-22 2 -69 0q-24 0 -29 -3q-5 -13 -5 -30q0 -5 1 -16t1 -17v-31q-2 -22 -2 -34l4 -26v-62q-2 -49 -2 -57 q0 -2 2 -11.5t1 -15t-5 -10.5q-3 -3 -25 -5q-16 -2 -27 -2q-27 0 -36 10q-2 7 -1.5 10.5t2 11t1.5 11.5t-1 12t-1 12t1.5 10t1.5 10q-1 19 -1 115v96v14q0 17 -0.5 70t-1.5 83q0 4 1 13t1 13t-1.5 14t-1.5 14q0 1 3 22q0 4 -1.5 14t-1.5 14t0.5 11t0.5 10q0 7 -2 19.5 t-2 22.5t4 19q7 5 16.5 6.5t25.5 0t21 -1.5t15 1.5t15 0.5q4 0 9 -2t10 -1q6 0 15.5 1t16.5 0q4 4 12 -1q1 1 14 1q44 4 68 3h36q4 0 20 0.5t25 1.5q15 -8 18 -38t-9 -46z" />
<glyph unicode="G" horiz-adv-x="727" d="M587 250q-2 3 -4.5 3.5t-6 -0.5t-5.5 -1q-15 1 -135 -5q-1 1 -8 6.5t-9 9.5l3 27q-5 31 -2 41q13 8 54 6q2 0 11 -1t14 0q43 0 49 -2q8 2 20.5 2.5t24.5 0t26 0.5q38 2 42 2q17 -2 19 -7q3 -2 3 -4v-35q1 -16 -6 -55q-1 -6 -4 -19.5t-4 -21.5q-4 -5 -8.5 -19t-5.5 -16 q-9 -11 -16 -33q-9 -11 -11 -16q-1 -3 -6 -7t-6 -7l-24 -30q-6 -4 -22 -18t-27 -20q-3 -3 -13.5 -7t-13.5 -8q-14 -6 -28 -15q-10 1 -36 -8q-16 -1 -57.5 -3t-62.5 -4l-21 6q-17 2 -20 5q-9 1 -24 4.5t-19 4.5l-39 17q-7 7 -19 10q-2 4 -17 11q-9 9 -15 11q-7 9 -12 11 q-12 15 -27 20q-3 7 -10.5 16t-9.5 11q-4 5 -12 13l-11 11q-5 19 -6 20q-2 5 -8 14.5t-9 15.5q-1 2 -2 6t-1 5q-1 3 -4.5 10l-5.5 11q-5 19 -8 22q-2 28 -8 38q1 4 4 49q0 36 1 53q1 16 9.5 42t9.5 37q6 9 13 24q7 9 12 23q6 5 15.5 18.5t16.5 18.5q4 7 15.5 17.5t15.5 18.5 q5 2 11 8l8 8q8 1 19 14q6 4 20.5 12t20.5 13q22 5 51 19q9 -1 20 2.5t17 3.5q2 2 18 5q5 -1 10 1t7 2q54 2 126 -11q5 -2 13.5 -6t11.5 -5q25 -8 26 -9q10 -3 25.5 -10.5t23.5 -10.5q21 -21 45 -35q4 -5 12.5 -13t14 -15.5t8.5 -16.5q-1 -5 -4.5 -10t-6 -8t-8.5 -8t-8 -6 q-1 -1 -5 -5.5t-6.5 -6.5t-6.5 -5t-8 -4.5t-9 -1.5q-15 2 -18 9q-3 2 -6 8t-7 8q-2 2 -12.5 11.5t-15.5 15.5q-9 3 -40 22q-9 0 -19 8q-7 -1 -18.5 3t-15.5 4q-5 1 -20.5 1.5t-24.5 3.5h-25t-23 -1q-3 0 -15.5 -4.5t-19.5 -2.5q-6 -3 -18 -6.5t-15 -4.5q-6 -3 -18 -10 t-20 -10q-2 -3 -17 -13q-3 -1 -7.5 -6.5t-8.5 -6.5q-18 -20 -29 -29q-1 -4 -5.5 -9.5t-5.5 -8.5q-3 -2 -6 -8t-6 -8q-4 -8 -13.5 -30t-15.5 -33q0 -11 -4 -33q-4 -61 19 -120q1 -1 5.5 -9t5.5 -14q2 -3 10.5 -11.5t13 -15t7.5 -14.5q10 -10 30 -26.5t25 -20.5q20 -8 27 -15 q10 -1 35 -12q15 -2 35 -8q34 -2 48 -5q8 1 21 2t23 2.5t18 3.5t25 8.5t27 8.5l17.5 10.5t18.5 11.5q8 8 20 24.5t18 23.5q1 3 13 25l3 9q5 16 6 19q4 14 3 22z" />
<glyph unicode="H" horiz-adv-x="595" d="M541 11q-5 -3 -11 -4t-16 0t-13 1q-31 -2 -39 3q0 2 -3.5 7t-2.5 10q1 8 1 52q2 36 2 55q0 5 -1 15t-1 15v112q0 4 1 13t0.5 15.5t-2.5 12.5q0 4 -10 3l-9 -1l-11 1l-30 -2q-30 -2 -30 2q-3 0 -10 -1.5t-11 -1.5t-13.5 4t-14.5 4t-14 -3t-13 -3q-12 -2 -79 1 q-1 0 -4 -0.5t-5 -0.5q-52 3 -62 0q-4 -7 -4 -46l-2 -44q0 -4 2 -9t1 -10q0 -1 -3 -19q1 -23 1 -65t1 -67q0 -5 2.5 -22t0.5 -26q-8 -13 -37 -6q-29 -5 -37 0q-5 1 -8.5 7t-4.5 7q0 10 0.5 87t-2.5 88q4 17 3.5 53.5t1.5 55.5q-3 10 -3.5 22t0 27t0.5 24q-2 46 -2 70 q2 37 0 73q0 18 -0.5 53.5t-0.5 55.5q0 21 6 27q28 15 81 0q4 -6 2 -40t-2 -42q0 -11 0.5 -36.5t0.5 -38.5q0 -20 -5 -42q3 -8 3 -26.5t2 -27.5q9 -5 21 -6t30.5 0.5t25.5 1.5q65 0 81 -2q14 4 23 3q1 0 22 -3q15 1 57 0t54 2q3 1 4 7t2 7q0 2 1.5 8t0.5 11l-2 94q0 2 1 7 t1 7q0 3 -1 7t-1 6q0 1 1 1l1 2q-3 9 -3 21q-1 7 0 19.5t1 16.5q0 3 -1.5 11t-1.5 11q0 1 5 19q24 9 74 3q10 -11 6.5 -42t1.5 -46q-2 -4 -0.5 -28t1.5 -27q0 -4 -2 -31.5t1 -30.5v-14q-2 -22 -2 -46q0 -4 1.5 -13.5t1.5 -14.5q0 -3 -0.5 -7.5t-0.5 -6.5v-76q-2 -9 -2 -46 v-12q0 -10 1.5 -29t1.5 -28q0 -12 -2 -45t-1 -51q1 -6 3 -16.5t2 -15.5q0 -15 -3 -20z" />
<glyph unicode="I" horiz-adv-x="220" d="M140 27q-8 -8 -31 -8q-11 -7 -35 -2q-7 7 -8.5 16.5t1 27t2.5 21.5q-5 28 -8 33q7 13 4 46.5t4 47.5q0 4 -2.5 9t-2.5 7q0 5 1 14t0.5 16t-2.5 13q-1 4 2 8t3 8q-2 7 -2 44q0 46 3 55q-5 16 -5 50.5t-3 53.5q5 9 3 30q0 2 1 6.5t1 5.5q0 5 -3.5 23.5t-1.5 28.5 q1 4 1.5 15t0.5 14q0 2 -1 9t-0.5 13t2.5 11q9 11 33 12t37 -6q7 -7 9 -22q2 -4 2 -5q-1 -11 -1 -52t-4 -61q1 -3 2.5 -10.5t2.5 -10.5q-2 -8 -2 -52q0 -3 -1 -31.5t3 -29.5q-3 -26 -2 -71t-1 -68q5 -23 0 -58q3 -84 -2 -151z" />
<glyph unicode="J" horiz-adv-x="295" d="M-66 -186q2 13 8 17q2 12 8 16q4 3 8 14.5t11 13.5q3 2 24 -1q3 -3 10.5 -4.5t9.5 -3.5q8 1 27.5 0t27.5 1q8 3 15.5 8t11.5 8.5t11.5 11l10.5 10.5q4 14 14 38q4 34 7 47q-4 2 -3 43.5t1 46.5q0 8 -0.5 24t-0.5 23q0 8 0.5 22t0.5 21q0 6 -1.5 19t-1.5 20q0 1 1 4t1 4 t-1 3t-1 4t1.5 6.5t1.5 7.5t-0.5 10t-0.5 10q0 54 -2 70q0 1 2 11t1 17q0 6 -5 38q1 4 2 15.5t3 15.5q-2 32 -2 97.5t-1 96.5q-8 19 3 30q5 5 41 7q12 6 38 -2q4 -5 5 -11t0.5 -17.5t-0.5 -12.5q-2 -23 0 -47q0 -11 -0.5 -46t1.5 -43q-2 -12 -2 -29.5t1 -38.5t1 -31v-115 q1 -3 0 -13t-1 -14q0 -68 3 -90q-8 -51 0 -93q-2 -8 -2 -67q0 -12 -2 -36t-2 -35q-5 -18 -5 -21q-7 -7 -10 -20q-10 -14 -14 -22q-14 -12 -20 -22q-6 -2 -15 -9.5t-12 -9.5t-13.5 -7t-14.5 -9q-36 -7 -75 -18q-22 4 -34 4q-7 3 -24.5 7.5t-29 10t-16.5 15.5z" />
<glyph unicode="K" horiz-adv-x="574" d="M535 28q1 -6 -1 -14q-13 -6 -46 -6q-34 -2 -44 0q-10 3 -25 23l-24 24q-3 6 -20 27q-1 3 -5.5 6.5t-5.5 5.5q-2 2 -5 7t-5 8q-17 15 -39 42q-22 32 -38 43q-6 13 -11 15q-1 4 -4 8t-7.5 8t-5.5 6q-2 2 -4.5 6.5t-3.5 6.5q-4 6 -10 10q-24 27 -25 28q-3 3 -11 13.5 t-14 13.5q-6 -1 -11 -7t-8 -7q-1 -5 -6.5 -10t-6.5 -9q0 -6 2 -49q0 -8 -0.5 -23.5t0 -27t3.5 -20.5q-2 -5 -3 -16.5t-2 -16.5q3 -24 5 -73q10 -28 -2 -41q-13 -11 -45 -3q-35 -2 -43 10q-1 23 3 70q-3 14 -3 89q0 11 1 33.5t1 34.5q0 10 -1 30t-1 29q2 40 -1 54q-1 4 1 9 t2 8q-3 40 -2 119.5t-1 114.5q-9 35 6 50h42q4 0 13 1t14.5 0.5t9.5 -4.5q3 -5 4 -10.5t0 -15t-1 -12.5q0 -6 0.5 -18t0.5 -17q2 -17 -3 -33q1 -7 1 -21t1 -24.5t5 -17.5q0 -2 -2.5 -6.5t-2.5 -8.5q-1 -22 1 -60q0 -1 -0.5 -8t2.5 -7q8 1 16 8t11 8q3 5 11 11.5t11 9.5 q3 5 10.5 12t9.5 10q2 0 10 11q8 8 9 11q3 1 9 5.5t10 6.5q5 10 14 19q3 2 5.5 5t5 7t4.5 6q2 0 6 3t8 3q2 5 10.5 13t11.5 14q14 8 16 9q1 5 4.5 9t10 9t7.5 6q6 9 11 12q1 1 5.5 5t5.5 7q5 4 14.5 14t17.5 17t17 11q9 1 28 0t28 0q3 0 10 1t10 1.5t7.5 -1t7.5 -4.5 q1 -9 -2 -15t-9 -11.5t-8 -8.5q-6 -4 -15 -13t-13 -12q-2 -2 -23 -22t-29 -32q-9 -4 -16.5 -11t-16.5 -16.5t-13 -13.5l-11 -11q-4 -2 -6 -4q-3 -3 -7.5 -9t-9.5 -11t-10 -7q-3 -4 -11 -10.5t-11 -11.5q-3 -2 -10.5 -9.5t-13.5 -9.5q-1 -3 -4.5 -6.5l-8 -8l-7.5 -7.5 q-18 -18 -18 -25t7 -14t9 -12q5 -3 11 -10t10 -10q7 -15 18 -22q2 -5 9 -12t9 -12q7 -7 19 -22t19 -22q9 -15 19 -22q9 -15 20 -21q1 -3 5 -6.5t5 -5.5q1 -5 7 -13q17 -17 19 -23q3 -3 19 -24q15 -15 18 -24q6 -4 17 -16t17 -17q3 -8 21 -28q4 -2 4 -5z" />
<glyph unicode="L" horiz-adv-x="394" d="M67 656q9 4 60 6q2 -1 11 -4t12 -6q1 -1 3 -4t4 -4q3 -10 3 -52l-2 -52q0 -4 1 -13t1 -13t-1 -13t-1 -14q0 -10 -0.5 -28t-0.5 -27q0 -3 3 -27q0 -22 1 -24q-6 -33 0 -90q-3 -37 -1 -80q0 -15 -0.5 -57.5t0.5 -59.5q4 -6 12.5 -7t17 0t17.5 -1q7 2 26 3t26 4l59 -7 q50 1 51 -15q3 -1 3 -5v-35q1 -6 -0.5 -10t-4.5 -8t-4 -7q-7 -4 -17 -6q-11 -4 -19 -5l-10 2q-1 0 -4 -1t-5 -1q-8 0 -26 1.5t-33 1.5t-26 -3q-10 3 -24 3.5t-35 -0.5t-30 -1q-4 0 -17.5 -0.5t-19 0t-15 2t-14.5 6t-8 11.5q-2 5 1 14.5t3 11.5t-1 5.5t-1 5.5q0 10 2 32v33 q-2 4 -2 5l2 83v16q-1 3 -2 5.5t0 3.5q0 27 0.5 118t1.5 139q0 10 -4 22v90q0 43 7 56z" />
<glyph unicode="M" horiz-adv-x="773" d="M737 11q-32 -13 -71 -3q-15 14 -14 37q-3 6 -4.5 21.5t-3.5 21.5q1 15 -4.5 35.5t-6.5 24.5q-1 6 -4.5 18t-5 21.5t-1.5 20.5q-6 18 -5 30q-1 2 -3.5 9t-4.5 10q0 3 1.5 6.5t0.5 7.5q-3 10 -8 36.5t-10 37.5q-1 3 0.5 7t1.5 6q-4 11 -7.5 34.5t-6.5 32.5q-4 -1 -6.5 -5 t-4 -10.5t-2.5 -9.5q-1 -4 -9 -14q-2 -15 -7 -17q-4 -18 -15 -32q-1 -3 -3.5 -10t-3.5 -12q-9 -15 -23 -47t-19 -43q-9 -14 -23 -44.5t-21 -43.5q-5 -17 -5 -19q-4 -3 -16 -28q-4 -4 -7.5 -15t-6.5 -15q-5 -14 -14 -30q-5 -22 -21 -24q-8 0 -15 16q-2 5 -6 11.5t-5 8.5 q-3 14 -12 34.5t-11 25.5q-1 5 -4.5 12.5t-4.5 9.5q-3 9 -6 14q-2 3 -4.5 10.5l-3.5 10.5q-4 9 -11 17q-10 34 -27 65q-3 9 -13.5 29.5t-14.5 33.5q-3 5 -7.5 16t-7.5 16q-3 4 -7 15t-7 16l-27 63q-4 -1 -5.5 -5t-2.5 -11t-1 -9q-4 -20 -3 -30q-7 -12 -11.5 -45t-10.5 -45 v-17q-12 -26 -11 -54q-8 -27 -18 -82.5t-17 -79.5q-1 -4 0.5 -8t1.5 -6q-3 -4 -6.5 -13.5t-6.5 -13.5q-32 -11 -65 6q-4 5 -1.5 19t0.5 21q-1 5 4 9t5 8q-3 10 -0.5 29.5t0.5 28.5q4 14 12.5 59t16.5 66v14q11 47 12 66l10 36q5 32 8 37v19q12 36 22 88q1 12 9 42t8 51 q2 3 3 7.5t2.5 10.5t2.5 9q1 2 2 8t3 10t6 5q6 2 10 -0.5t8 -9.5t6 -9q1 -8 4 -16t7.5 -18t6.5 -15q17 -38 23 -44q0 -4 7 -20q3 -5 7 -16.5t6 -16.5q2 -6 13 -19q14 -45 28 -71q16 -27 19 -41q1 -2 4.5 -10t6.5 -11q0 -2 1.5 -6t0.5 -8q10 -16 18 -38q4 -5 10 -19 q0 -5 4 -10.5t4 -9.5q6 -13 16 -41q3 -4 7 -19t10 -20q10 4 16 28q4 6 8 18.5t6 17.5q0 1 1.5 2.5t1.5 2.5q2 4 6 15.5t8.5 19.5t9.5 14q0 5 3 11.5t3 10.5q0 1 4.5 6.5t4.5 10.5q0 4 4 9t4 9q3 4 9 16t10 17l3 15q9 10 13 18q1 6 5.5 16t5.5 17q16 24 22 38l8 22q1 2 3.5 6 t3.5 7t1 7q9 10 12 27q10 17 40 79q1 2 2 5.5t1.5 5t2 4t2.5 4t3 2.5t5 1q10 1 14 -10.5t3 -27.5q8 -28 11 -57l6 -15q0 -13 7 -41q5 -34 7 -38q0 -3 -1 -7t0 -7q1 -5 8 -31t8 -44q7 -21 8 -33q3 -4 4.5 -15t4.5 -15q0 -6 2 -16t1 -17q5 -9 8.5 -31.5t7.5 -31.5 q0 -17 2 -32.5t7 -35t7 -28.5q2 -4 4 -24q4 -13 5 -23q0 -1 1 -10.5t2 -14.5q1 -2 4 -11.5t2.5 -15t-4.5 -11.5z" />
<glyph unicode="N" horiz-adv-x="688" d="M624 1q-17 5 -36.5 26.5t-25.5 25.5q-4 6 -13.5 16t-12.5 14q-22 20 -27 30q-3 3 -9 7l-9 6q-3 3 -9.5 10.5t-10.5 11.5q-20 17 -22 20t-9 9.5t-9 11.5q-15 11 -31 27q-24 21 -28 28q-4 1 -6 3t-4.5 5.5t-4.5 5.5q-4 5 -12 12t-10 9t-6 7t-8 8t-8 5q-12 16 -58 57 q-4 7 -14 16t-13 14q-12 8 -14 14q-2 2 -6.5 7t-6.5 9q-3 2 -8.5 6t-9.5 8t-7 8q-5 2 -13 9.5t-14 9.5q-3 1 -3.5 -2.5t-2.5 -3.5q0 -2 -2.5 -3.5t-2.5 -3.5q-2 -10 -6 -15q2 -7 2 -24t1 -24q-7 -39 0 -63q-3 -11 -1 -41t1 -41q0 -4 -1.5 -12t-1.5 -11q0 -6 1 -18t1 -17 l-4 -24q0 -2 1 -5.5t1 -5.5q0 -6 -1 -22t-1 -30t2 -25q0 -4 2.5 -9.5t2.5 -9.5q-2 -23 -5 -31q-10 -9 -37 -9t-37 9q-8 30 -3 67q-7 31 3 59q-5 8 -3.5 33.5t-2.5 37.5q1 7 0.5 28.5t2.5 26.5q-2 7 0 36q0 5 -1 15t-1 15q0 6 2.5 16.5t2.5 14.5q1 15 -5 45q3 6 1 27.5 t-2 28.5v57q-2 12 -2 17q0 3 1 11t0.5 13.5t-3.5 10.5q4 10 4 41q-9 35 1 46q12 -1 20 -6.5t16 -14t13 -12.5q23 -23 39 -43l18 -11q2 -2 14.5 -15t16.5 -23q14 -10 52 -50q3 -3 8.5 -7.5t10 -8.5t8.5 -8l11 -11t11 -17q15 -7 18 -10q6 -7 26 -26.5t27 -33.5q18 -11 32 -26 q4 -5 14 -14t14 -15q5 -5 20.5 -18.5t23.5 -22.5q2 -2 6 -7.5t7 -7.5q3 -4 11 -10l12 -9q5 -2 12 -9.5t12 -9.5q4 -2 10 -1t10.5 5t1.5 8q3 6 3.5 24t2.5 24v30v28q1 4 -1 9t-2 8q3 12 1 39t2 37q0 3 -0.5 8t-1 9.5t-1.5 7.5q0 3 2 7t1 7q-2 9 -1 32.5t1 30.5q0 4 -2 9t-1 9 q3 34 2 39q0 1 -2 7.5t-1 11.5l1 2q-4 22 5 39q3 2 11 3.5t11 2.5q6 0 14 -1t14 0q19 -2 23 -7q3 -7 2.5 -31.5t3.5 -32.5q-3 -9 -3 -57q0 -3 -1 -9t-1 -10t1.5 -12.5t1.5 -12.5q0 -3 -0.5 -8t-0.5 -8q-1 -8 1 -23t2 -21q0 -3 -1.5 -11t-1.5 -11q-2 -6 -0.5 -34.5t1.5 -34.5 q0 -3 -0.5 -9t-0.5 -9q0 -2 1 -7t0 -8q0 -4 -1.5 -10t-1.5 -9q0 -12 3 -22v-29q0 -56 2 -64q-3 -7 -3 -15q1 -11 1 -52t5 -49q2 -35 -14 -44z" />
<glyph unicode="O" horiz-adv-x="787" d="M742 364q2 0 2 -2q-2 -66 -2 -77l-2 -10t-2 -11t-2 -10q0 -1 -1.5 -3.5t-1.5 -3.5q-1 -3 -1.5 -11t-2.5 -12q-2 -9 -11.5 -25.5t-11.5 -25.5q-45 -60 -49 -63q-3 -6 -14 -14.5t-14 -13.5l-32 -24q-7 -2 -19 -9.5t-19 -9.5q-12 -10 -38 -17q-7 -4 -42 -14q-12 -4 -27 -5.5 t-35 -2.5t-30 -2q-18 4 -41 3q-22 7 -34 5q-4 2 -12 5t-12 5h-5l-1 3q-6 2 -18 4q-2 1 -4 2.5t-3 1.5q-10 3 -45 23q-3 2 -15.5 10.5t-20.5 11.5q-4 7 -15.5 16.5t-14.5 13.5q-35 34 -74 104q-4 22 -14 44q2 9 -3 24t-5 21q0 8 2 26q0 45 4 78q3 7 10 37q14 40 25 54l3 5 l3 3l2 1q1 1 1 3.5v3.5l5 4q1 2 4 9t4 9q3 4 9.5 10t9.5 9t8 11t8 11q15 8 47 36q10 2 23 10.5t18 10.5q6 5 21 11t20 9q1 0 14 3q3 1 7 3t6 2t7.5 0.5t8.5 1.5q2 0 5.5 2t5.5 2q13 3 31 3q37 4 57 2q2 0 5.5 -1.5t5.5 -1.5h14q8 -1 24 -5q13 -2 23 -5q12 -4 24 -12 q19 0 41.5 -13.5t31.5 -15.5q11 -12 26 -20q11 -11 29 -19q5 -8 16.5 -22t16.5 -21q7 -7 16.5 -22t14.5 -20q1 -7 6.5 -17t6.5 -16q3 -5 7 -16t7 -16q-1 -13 3.5 -31.5t4.5 -26.5zM663 362q-1 9 -5.5 25t-5.5 27q-2 2 -1 3q-14 24 -16 30q-11 11 -19 29l-25 25t-37 30 q-3 3 -11 8t-11 9q-10 3 -25.5 10.5t-22.5 10.5q-11 2 -29 8q-6 0 -16 2t-15 2q-12 1 -35 -1q-4 0 -15.5 -0.5t-17.5 -1.5q-3 0 -10 -2t-9 -2l-19 -7q-5 -1 -13.5 -3t-15 -4t-10.5 -4q-6 -2 -16 -10t-16 -10q-3 -3 -10.5 -6.5t-8.5 -4.5q-8 -8 -11 -8q-15 -22 -31 -35 q-2 -7 -10.5 -17t-10.5 -14t-4.5 -14t-6.5 -15q-1 -2 -4.5 -13t-6.5 -15q-1 -9 -5 -27q0 -3 -2 -12.5t-2 -14.5q-1 -5 0 -15t1 -13l3 -33q4 -8 16 -40q2 -6 8 -18.5t8 -20.5q10 -13 11 -16q26 -24 35 -31q19 -19 20 -21q6 -2 25 -16q13 -3 33 -13t27 -12h18q33 -13 58 -5 q12 -3 34.5 0.5t28.5 3.5q17 9 35 7q15 16 37 19q15 12 29 18q4 6 25 20q9 13 19 19q6 17 24 33q7 18 11 24q3 3 7 11t7 11q0 25 8 49q0 2 3 36v21q0 1 -2 1v3z" />
<glyph unicode="P" horiz-adv-x="452" d="M146 274q1 -10 0.5 -40.5t-0.5 -43.5q0 -8 0.5 -16.5t1.5 -19.5t1 -17q0 -2 -1 -7.5t-1 -8.5q0 -1 1 -3.5t1 -4.5q-2 -15 0 -39q2 -50 -2 -65q-10 -1 -35.5 -2.5t-38.5 -3.5l-11 11q-4 25 3 44q-1 6 -1 38q-1 18 0 35q0 13 -2 39t-2 39q0 5 2 12.5t2 9.5t-1 6t-1 6 q0 7 1.5 27.5t1.5 30.5q0 5 -1 19.5t0 22.5q0 3 0.5 9t0.5 9q0 9 -1 35.5t0 41.5q0 7 -1 20.5t-1 20.5q0 1 1 4t1 5q0 3 -1.5 14.5t-1.5 16.5t1 17q0 4 -2 9t-1 10q3 12 1 53t7 46q0 2 10 2h13q13 -1 57.5 0.5t48.5 -5.5q6 1 35 1q1 0 3.5 -0.5t4.5 -0.5q1 0 3.5 0.5 t3.5 0.5h16q3 0 10 -2t9 -2q3 -1 9.5 -2t9.5 -2q5 -1 33 -11q16 -10 21 -18q8 -2 20 -10q12 -13 43 -57q1 -5 4 -15t4 -15q3 -26 4 -31q1 -16 0 -30t-4.5 -33t-4.5 -25q-10 -16 -14 -24q-2 -3 -7.5 -9.5t-7.5 -12.5q-6 -3 -14 -12.5t-11 -11.5q-5 -2 -27 -22q-10 -2 -15 -6 q-14 -8 -37 -13q-2 0 -15 -2t-19 -4h-14q-2 0 -6 -1t-6 -1l-18 4q-5 0 -16.5 -1t-18.5 -1q-20 2 -28 -8zM185 358h58l52 17q8 4 40 31q0 4 1 6t3.5 4.5t3.5 4.5q0 13 4 20q1 2 2.5 9.5t4.5 9.5q-3 7 1 24l-3 4q-1 3 -2.5 6t-2.5 6t-1 7q-5 5 -13 18t-13 19q-39 25 -69 33 q-12 1 -44.5 1t-46.5 3q-2 -3 -7 -3q-6 -7 -7 -21.5t3 -23.5q-5 -11 0 -46q-1 -5 -5.5 -10.5t-5.5 -8.5q7 -6 9 -28q0 -3 1 -6.5t1 -4.5l-3 -5v-8q-1 -11 1.5 -32t2.5 -25q5 -3 10.5 -3t13 1t11.5 1z" />
<glyph unicode="Q" horiz-adv-x="776" d="M729 -2q-4 -5 -9.5 -7t-9.5 -2t-13 0.5t-13 0.5h-11h-39q-9 3 -20.5 16t-20.5 16q-6 16 -24 23q-13 -1 -45 -22q-47 -13 -71 -23q-3 0 -8.5 1t-9.5 0q-12 -4 -30 -5t-33 -0.5t-31 -0.5q-23 3 -84 21q-2 2 -7 4.5t-7 4.5q-3 0 -8 2t-9 1q-4 4 -13.5 8.5t-11.5 5.5 q-3 2 -8 5.5t-9 6t-9 3.5q-2 3 -7.5 8t-7.5 9q-2 0 -19 12q-7 5 -17 15.5t-16 14.5q-6 8 -17 23t-17 23q-3 6 -11.5 24.5t-14.5 26.5q1 5 0.5 7.5t-2.5 7.5t-3 7l-5 23q-7 40 -8 49q0 4 1.5 12t1.5 13q1 4 0 12t-1 12t2 15.5t1 17.5q8 27 11 51q6 10 17.5 36t18.5 38 q2 4 11 13.5t11 17.5q17 11 26 29q2 1 22 15q17 14 19 18q11 4 48 28q16 4 22 8q14 9 45 14q3 1 10 2t12 3t8 5q7 1 19.5 1h19.5q5 1 14.5 3t12.5 2l20 -3q20 -4 21 0q3 -1 10 -3.5t10 -4.5h14q9 -3 32.5 -11t37.5 -11q5 -3 15.5 -9t15.5 -10q4 -1 8.5 -5t7.5 -5q1 -1 10 -6 q2 -1 6.5 -4l7.5 -5v-2l1 -2h3q2 0 2 -3h3q1 0 1 -1.5t1 -1.5q7 -3 18.5 -15t15.5 -15q4 -5 13.5 -18t15.5 -20q4 -12 27 -44q2 -9 8.5 -24t8.5 -20q3 -8 6 -24.5t5 -24.5q1 -45 -5 -129q-10 -22 -14 -43q-14 -27 -14 -33q-13 -16 -16 -25q-10 -7 -24 -27q-2 -1 -8 -5 t-9.5 -7t-5.5 -8q-1 -4 6 -11q6 -6 8 -10q3 -2 8.5 -7.5t8.5 -7.5q1 -5 8.5 -9t9.5 -7q3 -2 5.5 -5t5 -7t4.5 -6q15 -6 30 -23q4 -2 4 -13zM615 230q3 6 8 19t8 19q1 5 4.5 20.5t6.5 23.5q-2 3 -1 19t1 22q-7 42 -13 57q-1 1 -1 3.5v3.5q-4 11 -14 28t-12 21q-19 21 -29 38 q-7 3 -17.5 12.5t-17.5 12.5q-6 6 -19 14.5t-17 11.5q-12 3 -31 10t-28 9q-13 2 -80 7q-5 -1 -16 -4t-17 -3q-3 -1 -12 -1.5t-13 -2.5q-6 -1 -18 -6t-19 -6q-7 -5 -22.5 -14.5t-22.5 -15.5q-8 -5 -21.5 -17.5t-21.5 -17.5q-1 -1 -3 -6t-5 -6q0 -3 -4 -7t-4 -8 q-17 -23 -19 -25q-3 -7 -9 -20.5t-8 -20.5q-2 -9 -5 -28t-4 -22q-1 -22 0 -43q3 -6 4 -18.5t2 -16.5t5 -12t4 -13q1 -4 5 -11.5t5 -13.5q13 -21 14 -25q3 -3 8.5 -11t7.5 -10l3 -4q1 -2 4.5 -4t4.5 -3q4 -4 14.5 -15t17.5 -15l8 -4t9 -4l5 -4q8 -5 24 -11q23 -12 50 -19 q10 1 26 -3t21 -4q3 0 9 1t9 1t13 -1.5t17 -0.5q7 3 24 4t23 3q18 8 24 9q3 -1 6.5 2t5.5 3q1 1 3.5 2t3.5 2.5t1 4.5q1 5 -5 9l-6 4q-2 1 -6.5 5.5t-7.5 5.5q-4 4 -13.5 12t-13.5 12q-18 18 -27 23q-10 14 -28 22q-5 9 -19 21l-6 4q-7 5 -9 8.5t-2 9.5q4 15 33 9q1 0 6 2.5 t9 1.5q7 -3 16 -3.5t22 0.5t18 1q7 -3 26 -20l7 -5l4 -8q10 -12 18 -16l1 -3q1 -1 4.5 -2t5.5 -3q1 0 6 -6.5t10 -7.5q1 -4 6 -8.5t6 -7.5q3 -1 8 -6t10 -6q24 17 42 66z" />
<glyph unicode="R" horiz-adv-x="495" d="M152 274q-6 -10 -6 -25q0 -5 -2 -14.5t-3 -15.5q-2 -9 3 -24q0 -4 -3.5 -9t-3.5 -8q3 -5 3.5 -11t-0.5 -15.5t-1 -13.5t1.5 -14t1.5 -15q1 -12 0.5 -41.5t1.5 -39.5q-11 -15 -16 -19q-61 -7 -71 14q-3 8 0 27q-1 14 1 38t1 38q0 4 -2 9t-2 8q3 11 3.5 39.5t3.5 39.5 q-2 9 -2 20.5t1 25t1 19.5q-1 8 -5 17q5 18 0 30q4 18 3 27q0 3 -1.5 10.5t-1.5 11.5q-1 15 5 41q0 4 -2.5 9t-2.5 7l3 15q-5 38 -1 100q0 1 -1 3.5t-1 4.5q0 1 1 2.5t1 3.5q-2 25 1 39q0 4 -2 12.5t-1 14.5q3 6 9.5 9t17 4.5t14.5 3.5q6 -1 17 0.5t15 1.5t11 -1.5t11 -1.5 q2 0 21 0.5t21 -2.5q3 1 7.5 3t6.5 2q6 -4 13 -4.5t16.5 0.5t13.5 1q2 0 7.5 -1.5t6.5 -1.5q11 -2 27 -7q9 -2 21.5 -8.5t17.5 -8.5l10 -8l17 -14q17 -12 21 -17q1 -1 1 -3v-2l2 -1q1 0 1 -1l2 -4l3 -2l17 -25q-1 -7 3 -14.5t4 -10.5q2 -3 3.5 -11.5t4.5 -11.5 q-7 -12 -2 -37q0 -1 -2 -11.5t-1 -17.5q-14 -45 -33 -80q-24 -17 -35 -35q-3 0 -3 -1q-8 -5 -24 -11.5t-23 -10.5q-18 -2 -24 -7q0 -6 9 -19q3 -1 6.5 -7t6.5 -8q19 -26 25 -30q1 -3 4 -8t4 -8q1 -2 8 -8.5t8 -12.5q4 -2 9.5 -10t6.5 -10q2 -4 11 -14.5t12 -17.5l3 -5 q2 -4 4 -6q7 -9 19 -26t22.5 -30.5t22.5 -22.5q0 -2 2 -6q1 -3 -0.5 -6.5t-1.5 -5.5q-4 -5 -12 -8t-14 -4t-18.5 -2t-16.5 -2q-2 1 -9 3.5t-10 4.5q-4 -1 -5.5 4t-4.5 5q0 2 -3 4.5t-4 5.5q-12 12 -16 20q-2 4 -8 10.5t-8 10.5q-1 5 -8 11t-8 7q-2 2 -4 12q-1 0 -2 0.5 t-2 0.5q-4 8 -14 25q-17 17 -41 55l-17 16q-2 5 -14 21q-14 17 -15 19q-16 11 -20 19q-5 11 -28 9zM142 548q-2 -8 -3 -17.5t-1 -22t-1 -20.5q2 -6 4.5 -19t3.5 -17q-2 -9 -4 -31q2 -9 2.5 -28.5t0.5 -20.5l11 -13q12 -3 47 -1t51 1q3 1 11 7.5t14 8.5q3 1 6 4t6 4l15 6 q3 5 14 13q2 4 11 21.5t13 30.5t4 30q-8 20 -11 31q-5 10 -18.5 24.5t-16.5 19.5q-16 3 -25 13q-10 -1 -21 3.5t-15 5.5h-52q-40 0 -47 -6q-1 -5 1 -27z" />
<glyph unicode="S" horiz-adv-x="499" d="M55 184q9 4 31 8q4 -2 14.5 1.5t15.5 0.5q5 0 6.5 -7t2.5 -8q2 -9 5 -18l5 -10q6 -12 20 -24q1 -1 2 -5t3 -6q1 -4 6.5 -7.5t6.5 -6.5q13 -2 32 -8.5t26 -8.5q9 1 23.5 0.5t20.5 -0.5q11 1 21 4t21.5 8t17.5 7q5 5 14.5 12t12.5 10q3 5 8 16.5t8 16.5q-1 9 4 21.5t5 21.5 q0 7 -5 19t-6 20q-6 11 -6 13q-4 6 -13 14.5t-12 13.5q-5 2 -49 30q-8 5 -27 12.5t-27 12.5q-10 1 -24 6.5t-22 6.5q-13 10 -28 14q-19 16 -35 20q-29 31 -36 41q-10 35 -12 52q0 8 1 22t0 23q2 4 3 12t2 13q0 1 1 1l2 2q0 1 0.5 4.5t1.5 4.5q2 5 9 13.5t8 15.5q19 17 25 28 q8 1 13 10q17 5 28 17q5 1 14 4t14 4q4 1 10 5.5t9 5.5q9 0 26.5 -0.5t27.5 0.5l31 -3q2 -2 5 -2.5t5.5 0t5.5 -0.5q2 -1 6.5 -3.5t9.5 -3.5t11 0q4 -2 11.5 -8.5t9.5 -7.5q3 0 4 -1l1 -2q0 -1 1 -1q3 -1 8 -3t8 -4l5 -5t7 -4q3 -4 10 -12.5t11 -16.5t4 -18q-1 -4 -3.5 -7.5 t-5.5 -4.5t-8.5 -3.5t-7.5 -3.5q-17 -15 -30 -14q-6 0 -11.5 8t-7.5 9q-2 4 -7.5 10t-7.5 9q-4 0 -7 5q-34 14 -55 18q-20 -2 -33 -1q-40 -10 -66 -36q-20 -41 -24 -63q2 -12 10 -32q6 -7 21 -16.5t20 -13.5q12 -3 31.5 -12t26.5 -12q5 -2 26 -10.5t34 -11.5q3 -1 20 -11 q11 -3 19 -11q7 -3 19.5 -12t16.5 -11q6 -5 43 -48q1 -8 11 -26t8 -28q6 -10 1 -34.5t-3 -32.5q2 -6 -1 -19q-1 -4 -4 -9t-4 -8q-1 -2 -2 -9t-3 -10l-12 -18q-2 -2 -4 -7t-3 -7q-2 -4 -9 -11l-2 -2q-5 -2 -4 -6q-3 -2 -13 -14q-4 -2 -13 -8t-14 -9q-4 -4 -13.5 -8.5 t-13.5 -7.5q-7 0 -13.5 -1.5t-14 -4t-11.5 -3.5q-73 -2 -82 -2q-16 4 -25 3q-7 4 -26 11.5t-28 12.5q-7 3 -21 15.5t-25 15.5q-1 4 -3 7t-6 6.5t-5 5.5q-14 16 -16 18q-1 5 -4.5 12.5t-4.5 9.5q0 3 -9 20q-5 32 0 41z" />
<glyph unicode="T" horiz-adv-x="471" d="M431 585q-4 -4 -9 -6t-13.5 -2h-13t-15.5 1.5t-12 1.5q-7 -4 -42 -3t-42 0q-11 -6 -11 -32q-3 -5 -3 -18t-3 -18q0 -6 3.5 -20t4.5 -21q0 -15 -5 -32q2 -21 -2 -86q2 -6 2 -33q0 -11 5 -56q-4 -7 -4 -31q1 -5 -1.5 -8.5t-2.5 -7.5q0 -1 9 -31q-2 -8 0 -51t2 -53 q0 -49 -13 -63q-49 -5 -61 0q-7 12 -8 18q0 2 1 6t0 7q0 46 2 58q-1 5 -5 18q4 16 1 52.5t2 54.5q-3 46 -4 52q4 18 0 44q-1 3 -0.5 5t2 5.5t1.5 5.5q0 3 -1 12t-1 13v27q0 4 -2 12.5t-2 12.5q-1 14 3 36q-1 12 -0.5 46.5t-1.5 48.5q-2 20 -8 25q-15 2 -50 0q-2 0 -6 1t-7 1 q-5 0 -18 -1.5t-20 -1.5q-4 0 -11 0.5t-11 0.5q-16 0 -19 2q-15 18 -11 58q5 5 22 9q28 8 49 8q7 0 21 -1.5t20 -1.5q2 0 4 1t3 1t2 -1t2 -1q39 2 51 0q24 3 25 3t25 -3q7 0 20.5 1t20.5 1q13 0 41 -2q6 0 19 1t19 1q7 0 18.5 -1t17.5 -1q2 -1 7 -3t8.5 -4t5.5 -5l3 -7 q0 -5 0.5 -15.5t0 -18t-3.5 -11.5z" />
<glyph unicode="U" horiz-adv-x="590" d="M113 651q11 -11 13 -19v-29q-2 -34 -2 -58l3 -42q1 -8 0 -23t-1 -20q-1 -6 0 -16.5t1 -13.5q0 -2 -1 -6.5t0 -7.5q0 -26 -5 -35q0 -3 2.5 -23.5t3 -29.5t0 -24t-4.5 -25q1 -4 3.5 -16.5t3.5 -19.5q1 -14 1 -41q24 -54 32 -65q10 -11 42 -35q8 -2 40 -14q55 -5 68 -3 q6 2 20 5.5t20 6.5q6 2 15 7.5t14 7.5q4 6 20 15q2 4 8.5 11.5t7.5 14.5q2 5 8.5 12t8.5 11q2 13 7 18q-1 8 2 23.5t3 21.5q0 3 -1 11t-1 11q0 5 1.5 14.5t1.5 14.5q0 6 -0.5 17t-0.5 16q-1 20 -0.5 61t0.5 60q-3 46 0 65q-1 3 -2 9.5t-2 9.5l4 58q0 5 -0.5 14.5t-0.5 15.5 t1 13.5t4 13.5q14 8 37.5 8.5t35.5 -8.5q13 -28 0 -69q1 -7 4 -16.5t4 -13.5q-3 -13 -3.5 -29.5t0.5 -38.5t1 -29q-1 -5 -3 -26q1 -6 1.5 -24.5t3.5 -26.5q-4 -28 0 -47q-1 -2 0 -3t1 -2q-1 -5 -0.5 -20.5t-2.5 -20.5q1 -3 1 -13t2 -14q-7 -78 -14 -96q-5 -5 -9 -19.5 t-8 -19.5q-1 -2 -11 -18q-1 -3 -5 -9t-5 -9q-12 -9 -33.5 -26.5t-24.5 -19.5q-11 -3 -27.5 -11.5t-21.5 -10.5q-10 -3 -30 -7t-28 -6h-51q-8 3 -23.5 6.5t-20.5 4.5q-9 1 -22.5 6.5t-19.5 6.5q-20 14 -32 19q-22 17 -28 20q-3 4 -15 16t-17 20q-24 38 -27 41q-1 8 -5 25.5 t-5.5 31.5t-0.5 27q0 4 -3 9.5t-3 7.5q6 42 -2 87q5 17 3.5 52t1.5 52q0 1 -3 55q0 13 0.5 40t-0.5 41l2 6q-2 10 -2 16q0 2 1 7t1 7t-2.5 11t-1.5 14q0 2 0.5 3.5t2 3.5t2.5 3t2 3.5t3 3.5q8 7 63 7z" />
<glyph unicode="V" horiz-adv-x="666" d="M626 644q1 -12 -14 -41q-6 -21 -16 -36q-3 -10 -16 -36q-2 -6 -7 -19t-7 -19q-6 -12 -14 -38q-2 -3 -16 -36q-1 -3 -4.5 -8.5t-4.5 -8.5t-3 -9.5t-4 -9.5q-9 -24 -17 -35q-3 -14 -13 -37t-12 -37q-7 -9 -15.5 -30.5t-14.5 -29.5q-1 -8 -7 -20q-1 -3 -11 -18 q-2 -12 -10 -29.5t-10 -26.5q-17 -37 -21 -43q0 -3 -2 -9.5t-1 -12.5q-5 -4 -9.5 -15t-7.5 -15q-1 -3 -3.5 -11t-5.5 -12.5t-8 -6.5q-11 -1 -17 3.5t-11 14t-7 12.5q-1 5 -3 13.5t-3 13.5q-2 3 -5 11t-6 11q-4 8 -13.5 32.5t-16.5 35.5q-1 4 -5.5 15t-5.5 18q-12 13 -13 31 q-12 20 -16 24q-1 8 -4 15.5t-8 17t-7 13.5l-1 2v2l-13 29q-1 4 -5.5 11.5t-5.5 13.5q-5 7 -12 25t-12 25q-18 44 -23 51q0 7 -10 27q-1 1 -1 3.5v4.5l-3 1l-7 14q-6 22 -22 49q0 4 -2.5 10t-2.5 9q-2 5 -10 19.5t-12 23.5q-1 6 -9 21t-5 26q6 9 29.5 10t27.5 3q4 -2 13 -3 t12 -2q3 0 8 -11q5 -5 10.5 -18.5t8.5 -17.5q1 -12 11 -26q7 -20 11 -25q3 -7 11 -24.5t11 -27.5q2 -3 6 -11.5t7 -12.5q1 -14 12 -23q1 -10 7.5 -23t7.5 -17q4 -5 8.5 -18t6.5 -18l18 -36q13 -32 14 -38q9 -11 19 -39t16 -38q0 -8 6 -22q5 -16 11 -18q5 1 7 8t4 8 q5 16 8 19q0 13 5 25q1 7 8 19.5t9 20.5q2 4 6 11.5t7 14.5t3 15q7 10 9 19q1 1 1.5 3t0.5 3q1 4 5.5 11.5t6.5 12.5q1 2 2.5 7t2.5 7q5 10 8 19l3 7q3 7 3 12q2 2 6 8.5t7 9.5q0 2 0.5 5.5t1 6t1.5 4.5q1 4 5.5 12t5.5 15q8 16 13 24q0 3 2 9.5t2 10.5q8 6 8 17q3 5 8 17.5 t8 17.5q2 7 7 19t7 17q1 3 3.5 11.5t5.5 13t8 7.5h60q17 0 18 -5z" />
<glyph unicode="W" horiz-adv-x="1005" d="M505 454q-4 -3 -6 -14t-5 -15q-6 -30 -6 -31q-14 -28 -16 -47q-9 -15 -16 -38q-2 -3 -7 -17.5t-10 -19.5q-3 -12 -13.5 -37t-13.5 -41q-15 -32 -16 -43q-7 -11 -15 -41q-8 -10 -8 -20q-7 -12 -8 -21q-3 -5 -7.5 -20t-8.5 -21q-1 -3 -2.5 -9.5t-3 -10t-4.5 -7t-7 -4.5 q-16 0 -22 22q-4 4 -8 15t-7 15q-4 11 -12.5 32t-12.5 31q-2 2 -6.5 10.5t-7.5 11.5q-9 41 -28 68q0 4 -2 9t-3 8q-20 37 -32 71q-1 4 -4.5 9t-4.5 8q-2 2 -2 7.5t-1 6.5q-23 47 -27 60q-5 9 -17 35.5t-21 38.5q-2 15 -14 37q-1 6 -16 33q-5 22 -19 50q-20 43 -22 46 q1 6 0.5 12t0 12t2.5 9q11 6 32 2q17 4 44 0q0 -2 3 -2q3 -3 13 -25q11 -24 11 -27q21 -39 27 -60q21 -40 30 -68q3 -4 8 -15.5t9 -15.5q2 -15 14 -33q0 -3 2 -8.5t1 -9.5q22 -45 27 -63q14 -24 28 -63q1 -6 5.5 -17t6.5 -18q0 -1 2 -8t4 -9q4 -11 11 -11q4 0 6.5 2.5t3.5 6 t2 8t2 7.5l8 30q1 4 8 17.5t8 23.5q2 3 7 17.5t10 20.5q0 5 3.5 13.5t2.5 14.5q3 5 8.5 15.5t9.5 15.5q1 6 4.5 16.5t4.5 18.5q7 9 14 30.5t10 27.5q5 10 12 30.5t10 28.5q3 5 6.5 16t4.5 14q9 26 9 30q3 3 6.5 14t6.5 14q1 2 2 10t3.5 12t7.5 5q5 0 8.5 -2t5.5 -6.5 t2.5 -7.5t2 -10t1.5 -9q46 -113 54 -134q1 -5 14 -33q1 -3 12 -35q3 -7 9 -20.5t10.5 -24.5t7.5 -21q4 -5 9 -16.5t9 -16.5q0 -1 6 -25q1 -4 4.5 -9t4.5 -7q1 -8 6.5 -20.5t6.5 -20.5q4 -3 8 -17t11 -16q9 1 11.5 14.5t4.5 15.5l9 35q7 10 17 39q13 29 16 41q4 4 11 22 l10 24q1 5 5.5 15t6.5 16q1 2 7 12.5t6 19.5q4 3 9 12.5t7 12.5q0 3 0.5 5.5t1.5 6t1 5.5q3 3 16 38q2 6 7 18.5t7 19.5q3 5 8 18t8 18q2 4 4 12.5t4.5 14.5t6.5 10q20 6 40 1q23 6 41 2q1 -1 8 -11v-16q-1 -5 -6 -15t-5 -18q-5 -5 -10.5 -18.5t-5.5 -14.5q0 -2 -2.5 -4.5 t-2.5 -3.5t-0.5 -4.5t-1.5 -5.5l-3 -3q-4 -6 -3 -14q-2 -2 -6 -7.5t-5 -6.5q0 -8 -2.5 -14t-8 -15t-6.5 -11q-2 -13 -10.5 -31.5t-10.5 -29.5q-6 -9 -15 -33q-8 -11 -15 -35q-1 -3 -4.5 -8.5t-4.5 -7.5q-4 -21 -19 -42q-3 -15 -14 -38.5t-13 -37.5q-2 -2 -4.5 -8t-4.5 -8 q-9 -33 -21 -50q0 -4 -2.5 -9.5t-2.5 -9.5q-3 -6 -9 -17t-8 -15q0 -4 -2 -12.5t-3 -13.5q0 -1 -6 -10q-1 -2 -14 -30q-1 -4 -4 -11.5t-4 -10.5q-3 -13 -17 -12q-7 0 -10 4t-5.5 13t-3.5 11q-3 6 -11 16q1 7 -3 15.5t-5 11.5q-2 8 -9.5 26t-11.5 22q0 9 -12 43l-18 36 q-1 7 -4 17t-3 16q-2 2 -13 29q-3 6 -11 26t-14 29l-3 16q-6 8 -12.5 27t-11.5 26q-4 30 -13 43q0 26 -14 30z" />
<glyph unicode="X" horiz-adv-x="582" d="M544 19q-1 -5 -3 -8t-7.5 -4.5t-8.5 -2t-11 -0.5h-11q-1 -3 -5.5 -1.5t-5.5 1.5h-36q-5 2 -12.5 8.5t-8.5 7.5q-11 23 -14 30q-2 4 -7.5 10t-6.5 8q-15 30 -27 44l-2.5 5t-2.5 5.5t-1 4.5q-9 11 -24 35.5t-24 35.5q-8 27 -36 63q-5 0 -8.5 -6.5t-4.5 -7.5q-1 -2 -6 -19 q-3 -3 -7.5 -12.5t-8.5 -13.5q-2 -4 -8 -12t-7 -14q-7 -9 -19 -26.5t-16 -22.5q-1 -6 -10 -22l-6 -12l-9 -16q-16 -28 -22 -33q-8 -25 -29 -41q-6 -1 -26.5 -0.5t-25.5 -2.5q-37 10 -41 30q1 7 5 12t10.5 10.5t9.5 8.5q19 33 38 59q0 3 2 6.5t1 7.5q9 10 23 33t23 33 q1 6 5 12.5t5 11.5q4 3 10 10t9 10l3.5 10.5t3.5 11.5q10 8 22 29.5t19 28.5q0 6 4.5 13.5t3.5 13.5q0 11 -9 16q-2 3 -5 8t-5 8q-4 5 -9.5 15.5t-11 18.5t-12.5 13q-3 10 -14 23.5t-13 23.5q-3 3 -8.5 11t-9.5 11q0 5 -2 11q-5 8 -14 23t-14 23q-20 25 -22 30q-9 12 -19 33 q-1 2 -7 9t-7 10t1 13q2 6 25 6q11 -1 34.5 0.5t31.5 -0.5q8 -7 17.5 -25t14.5 -24q4 -8 15 -24t15 -26q7 -7 16.5 -24.5t14.5 -24.5q21 -36 32 -47q8 -23 19 -26q4 0 6 2t4 6t3 5q1 3 2.5 5t3.5 4.5t3 4.5q8 18 19 29q2 4 8 14t9 16q7 15 19 28q1 5 5 12t5 12q21 21 52 83 q6 4 14.5 4.5t20.5 -1t18 -1.5q5 0 15.5 1t17.5 0.5t11 -4.5q6 -2 1 -17.5t-5 -17.5q-3 -2 -10 -14q-6 -7 -14.5 -21.5t-12.5 -19.5q-4 -7 -11.5 -17.5t-13.5 -20t-9 -19.5q-13 -16 -33 -52l-15 -14q-4 -12 -15 -28.5t-13 -20.5q-2 -2 -4.5 -7t-3.5 -6q-1 -2 -10 -14 t-12 -20q3 -8 11 -21.5t10 -18.5q0 -3 1.5 -4.5t4 -3.5t3.5 -3q2 -2 9 -17q1 -1 3 -2l1 -1q14 -27 19 -33q2 -3 17.5 -27t26.5 -33q3 -10 7.5 -18.5t12 -20t10.5 -15.5q1 -2 6.5 -9.5t7.5 -12.5q1 -3 6 -8t6 -9q1 -2 5 -9t8 -9q3 -10 13 -24t12 -23q0 -1 1 -3t1 -3z" />
<glyph unicode="Y" horiz-adv-x="578" d="M338 11q-23 -15 -67 -8q-19 2 -23 6q-1 1 -2 3.5t-3 3.5q-4 5 -0.5 28.5t3.5 29.5v39q0 2 1.5 8.5t1.5 10.5q0 9 -4 24.5t-4 22.5q7 40 7 104q-2 5 -7 12.5l-7 10.5q-5 11 -15 22l-6 15q-5 6 -15.5 22.5t-17.5 23.5q0 1 -1.5 6t-1.5 8l-16 18q-5 13 -20 35.5t-21 36.5 q-4 7 -16 19q-10 28 -22 47q-3 3 -12 13t-14 18t-8 17q-2 5 -9.5 13t-9.5 13v23q4 5 19.5 7t19.5 4q8 -3 29 -4t29 -4q4 -1 7 -8t6 -8q1 -2 4.5 -8t4.5 -9q13 -22 23 -32q1 -1 1 -6t2 -7q23 -37 25 -42q2 -1 5 -5.5t6 -5.5q1 -6 4.5 -13.5t4.5 -11.5q3 -6 10.5 -14t8.5 -10 q4 -8 3 -14q2 -3 5.5 -6t4.5 -5q1 -1 2.5 -6t5.5 -5q10 -18 19 -21q1 -1 2.5 -5.5t3 -7t5.5 -3.5q9 0 17.5 10t10.5 11l3 14q6 4 13 17.5t11 17.5q1 8 10 22.5t17 25.5l8 10q11 24 19 33q5 24 17 33q8 19 19 30q0 8 2.5 13.5t7 12t6.5 9.5q29 8 53 2q24 2 38 1q1 -2 4 -5 t4 -6q1 -13 -7.5 -27.5t-9.5 -19.5q-1 -1 -16 -25q-17 -36 -32 -51q-9 -22 -20 -33q-18 -28 -22 -31q-11 -30 -37 -62l-6 -9q-1 -1 -4.5 -5t-4.5 -6q-2 -4 -4.5 -11.5t-3.5 -9.5q-4 -6 -5 -9q-1 -2 -5 -9.5t-4 -8.5q-13 -13 -16 -22q-2 -8 -8.5 -20.5t-7.5 -15.5 q-1 -13 -0.5 -40.5t1 -43.5t-0.5 -25q4 -19 -2 -42q14 -51 5 -73q0 -3 1.5 -12t1.5 -13q0 -16 -4 -22z" />
<glyph unicode="Z" horiz-adv-x="550" d="M504 17q-5 -5 -12.5 -6.5t-22 -0.5t-17.5 1q-8 0 -22.5 -1.5t-21.5 -1.5q-4 0 -11 0.5t-10 0.5q-5 0 -22 -5q-9 3 -20 3.5t-28 -0.5t-23 -1q-4 0 -13 1t-14 1q-27 -2 -42 1l-16 -3q-20 0 -60.5 0.5t-59.5 -0.5q-7 -2 -18 -2.5t-18 -2.5q-21 8 -25 18q1 10 12 28 q0 7 5.5 15.5t5.5 14.5q14 13 29 39q5 6 10 18.5t7 15.5t9.5 13t9.5 16q1 4 6.5 10t6.5 11q2 5 11 19.5t11 24.5q11 11 12 22q7 7 13 16t13.5 23t10.5 19q6 8 17.5 28t19.5 29q1 7 7 18t8 18q9 8 20 29.5t19 29.5q3 9 11 23t11 21q17 16 30 57q-2 4 -6.5 5t-13 0t-10.5 -1 q-30 2 -38 -1h-56t-56 1t-39 0q-4 0 -18 -1t-22.5 0t-16.5 5q-2 2 -2 14t1 17q1 6 -1 24t2 20q4 3 9 3.5t12 -0.5t9 -1q5 0 13 0.5t12 0.5q8 0 24.5 -1.5t24.5 -1.5q5 0 14 1.5t13 1.5q3 0 9 -0.5t10 -0.5q62 0 74 -3q3 0 7.5 1.5t8.5 1.5h80q3 0 11 -1t11 -1l42 1 q30 5 40 -4q4 -10 2 -19q-1 -4 -2 -6q-1 -4 -7 -12t-7 -13q-3 -4 -17 -21q-7 -16 -8 -20q-3 -3 -8.5 -11t-9.5 -11q-2 -9 -10 -21.5t-10 -21.5q-3 -1 -6.5 -5.5t-4.5 -5.5q-2 -10 -12.5 -26.5t-12.5 -28.5q-2 -2 -7 -10t-9 -11q-1 -2 -1.5 -6t-1.5 -6q-4 -4 -11.5 -15.5 t-12.5 -16.5q-1 -1 -9 -15t-11 -18q-2 -12 -22 -36q-1 -3 -4 -9.5t-4 -11.5q-7 -4 -16 -23q-1 -1 -24.5 -40.5t-24.5 -46.5q-5 -4 -10 -13.5t-7 -11.5q-3 -6 -12 -15.5t-13.5 -18.5t-1.5 -21q4 0 19 -1t27.5 -1.5t14.5 -1.5q19 4 45 4q1 0 5 -1t6 -1q1 0 4 1t5 1q3 0 11 -2 t13 -2q9 2 31.5 3t35.5 -3q3 0 10 1.5t12 0.5q3 0 22.5 2t25.5 0q4 0 13.5 0.5t15 1t10.5 -1.5q4 -18 3 -21q3 -3 2 -14t1 -16q-1 -2 -1 -11t-3 -11z" />
<glyph unicode="[" horiz-adv-x="307" d="M273 -147q-7 -3 -20 -4t-19 -3q-13 4 -38 4q-5 -2 -6 0q-6 1 -25 -2q-16 -1 -38 3q-23 0 -27 14q-3 5 2 11t4 11q0 3 -5 24q2 38 -1 57q3 12 3 14l2 186q0 2 -1 5t-1 4v43q0 5 1 47.5t-3 47.5q4 0 3 36.5t-1 41.5q2 53 -2 67q1 2 1.5 9t2.5 10q-2 6 -4 39q0 2 1 5.5 t1 5.5q0 1 -1 4t-1 5l2 108q-2 11 -2 86q9 8 41 8q42 2 86 0q32 11 48 -5q2 -4 4 -26q0 -21 1 -30q-7 -14 -47 -18q-31 9 -57 8q-5 -7 -5 -33v-151q0 -9 1 -27t1 -27q-1 -69 0 -148v-83q0 -11 1 -31.5t1 -30.5q0 -4 -1 -14t-1 -14v-38v-14v-33q0 -5 1 -14t1 -13 q0 -8 -1 -23.5t-1 -27.5t2 -23q8 -5 23 3q6 -2 22 -2h19q27 8 38 -4q3 -4 3 -29q2 -33 -8 -39z" />
<glyph unicode="\" horiz-adv-x="390" d="M277 202q-1 -1 -0.5 -2.5t2 -3.5t2.5 -3.5t1 -2.5q7 -22 16 -43.5t24 -53t21 -45.5q1 -4 6 -9t7 -10q4 -16 25 -69q23 -30 14 -42q-4 -2 -37 -2q-16 0 -25 3q-6 6 -9.5 13.5t-6 17.5t-4.5 14q-1 5 -20 50q-20 54 -37 88l-6 15q-2 5 -7.5 17t-8.5 19q-1 1 -11.5 27.5 t-20.5 47.5t-15 25l-3 15q-2 8 -10 24t-9 25q-7 9 -13.5 25.5t-10.5 23.5q-4 17 -13 37.5t-22 47t-17 36.5q-7 20 -28.5 64.5t-25.5 56.5q-12 18 -16 34l-7 10q-6 9 -8 14q1 19 40 17q21 -1 27 -7q2 -3 7 -9q5 -4 6 -11.5t2 -8.5q3 -3 4 -10.5t2 -10.5q21 -49 23 -54 q1 -4 5 -9t6 -8q3 -12 17 -43q1 -1 0 -2t0 -2q15 -28 16 -35q4 -9 9 -19.5t10 -24t9 -21.5l8 -22q1 -3 6 -10t6 -10q5 -10 11.5 -27t7.5 -20q15 -38 23 -50z" />
<glyph unicode="]" horiz-adv-x="302" d="M223 -139q-13 -13 -16 -14q-16 -4 -22 -8q-28 3 -38.5 3t-39.5 -2.5t-40 -3.5q-3 2 -13 6t-12 8q-5 4 -3 16q-3 12 0 49q2 4 8 8.5t7 5.5q9 3 28 1t28 -1q4 0 13.5 -3.5t17.5 -2.5q8 3 6 19t-0.5 63.5t-3.5 62.5q-1 6 1.5 13.5t2.5 8.5q-1 7 -1 99q0 6 -1 17.5t-1 17.5 q0 29 2 77q0 8 0.5 23.5t0.5 22.5t-1.5 21t-1.5 21q0 6 1 18t1 17q0 6 -1 17t-1 16q0 10 1 28t1 27q0 5 -1 14.5t-1 14.5t1 14t1 13q0 1 -1.5 8.5t-1.5 11.5q-1 6 0 15t1 13v51q-34 0 -42 -3q-3 -1 -14 -0.5t-15 -1.5q-11 -1 -27 7q-4 3 -7 13.5t-4 12.5q5 39 8 43 q7 5 25.5 6.5t20.5 1.5q10 -5 21 -5q6 0 31 5l21 -3q6 -1 14 3q13 -4 20 -3q4 0 18 -5q10 -10 4 -40q-3 -43 -1 -170q0 -11 -1 -35.5t-1 -36.5q0 -34 2 -76v-9v-267q0 -6 0.5 -18t0.5 -18t-0.5 -17.5t-0.5 -17.5q0 -11 1.5 -34t1.5 -35q0 -7 -1 -28t0 -34.5t4 -25.5v-15z " />
<glyph unicode="^" horiz-adv-x="498" d="M412 545q-11 -15 -20 -17q-8 -11 -25 -11q-9 1 -21 9.5t-14 9.5q-6 7 -19 20.5t-19 20.5q-4 1 -7 2.5t-6.5 3.5t-6.5 3q-6 0 -11 -8q-6 -6 -16 -12q-1 -5 -6.5 -11.5t-6.5 -12.5q-6 -2 -11 -9q-7 -2 -18 -10.5t-18 -10.5q-39 5 -47 33q1 5 3.5 9t6 8t5.5 7q4 3 10.5 9.5 t10.5 9.5q2 4 7 10t7 10q2 1 6 3.5t7 3.5l23 25q16 16 26 22q9 19 23 22q8 -2 24 -16q13 -13 17 -20q5 -2 11.5 -9t9.5 -9q10 -5 19 -18q4 -3 12 -7q2 -5 5 -8.5t9 -7.5t8 -6q11 -15 19 -20q0 -1 1.5 -2.5t1.5 -2.5v-13z" />
<glyph unicode="_" horiz-adv-x="576" d="M559 -4q-17 -9 -42 -5q-8 2 -40.5 2t-66.5 -1t-65 -2t-33 -1q-1 0 -55 1t-67 0q-11 -1 -33 -1h-8q-2 -1 -12 -2q-7 0 -37.5 0.5t-34.5 -0.5q-58 -9 -59 8q-1 5 2 13.5t3 9.5t-0.5 8t2 10t8.5 5q2 2 11 2t17.5 -0.5t15.5 0.5q6 0 36.5 -0.5t43.5 0.5q45 3 97.5 0.5 t77.5 -1.5q26 2 109 2q7 0 20.5 -0.5t18.5 -0.5q13 0 43.5 0.5t41.5 -0.5q6 -1 7.5 -4t1.5 -7t2 -7q1 -2 4 -7.5t3 -8t-4 -7.5q-2 -5 -8 -6z" />
<glyph unicode="`" horiz-adv-x="498" d="M216 650q2 -2 7 -7.5t7 -9.5q11 -13 13 -19q11 -9 14 -17q5 -4 10 -9.5t11 -12.5t9 -11q3 -5 13.5 -16t14.5 -19q1 0 1.5 -1.5t1.5 -1.5q0 -14 -13 -22t-28 -5q-4 1 -7.5 4t-7 7t-5.5 6q-8 2 -18.5 11.5t-17.5 10.5q-1 2 -5.5 6.5t-5.5 8.5q-9 5 -28.5 21.5t-33.5 22.5 q-1 4 -8 10t-8 12q0 5 2 9t6 7.5t5 5.5q9 1 25 9q25 15 29 14q7 0 17 -14z" />
<glyph unicode="a" horiz-adv-x="499" d="M457 30q-6 -8 -42 -27q-21 2 -30 0q-8 6 -8 27q0 3 1 10t0 11t-4 6q-6 -1 -13 -9.5t-9 -9.5q-1 -1 -9.5 -8t-11.5 -12q-13 -3 -23 -11q-16 -5 -51 -10l-15 -3q-12 -1 -35.5 2t-34.5 3q-18 6 -28 8q-12 10 -21 12q-14 12 -20 13q-3 9 -16 16q-7 15 -16 20q-5 20 -17 28 q-1 15 -13 35q-2 9 -3.5 35t-4.5 38q7 30 4 42q4 6 5 23t2 21q1 3 5 12t5 15q8 8 11 24q3 3 9 11.5t7 10.5q16 19 17 20q7 4 33 26q6 1 17 6t16 6l11 2q1 0 11.5 3t15.5 3q2 0 7.5 -0.5t8.5 -0.5q7 0 27 1t26 -1l8 -4l16 -4q5 -2 44 -24q2 -3 6 -8.5t6.5 -9t7.5 -7t10 -5.5 q7 4 6.5 22.5t1.5 27.5q22 14 71 5q19 -35 6 -104q4 -22 0 -82l3 -19q-3 -4 -0.5 -26t2.5 -27q0 -6 -1.5 -18t-1.5 -21.5t3 -17.5q-2 -13 -1.5 -38.5t-0.5 -37.5zM372 279l-9 15q-10 13 -10 14q-7 4 -18 14t-16 14q-20 7 -24 11q-7 0 -19 3t-20 3q-9 1 -23.5 -1.5 t-17.5 -2.5q-8 -2 -21.5 -8.5t-15.5 -7.5q-28 -26 -33 -28q-1 -6 -6 -15t-6 -12q-11 -29 -11 -30q0 -9 -2.5 -22.5t-2.5 -18.5q4 -16 3 -25q2 -4 6 -13.5t5 -12.5q0 -5 0.5 -9.5t2 -7.5t3 -7t2.5 -7q4 -4 15 -11.5t15 -12.5q8 -8 32 -22q4 0 26 -5q6 1 13.5 -1.5t13.5 -2.5 q4 0 7 0.5t6 1.5t6 1t7.5 3.5t8.5 2.5q1 1 4 1.5t6 0t6 0.5q6 5 15 6q3 4 19 13q2 2 5.5 8t5.5 9q34 21 32 120q0 2 -2 1q0 15 -8 41z" />
<glyph unicode="b" horiz-adv-x="523" d="M146 38q-1 -2 -1 -24q1 -10 -8 -21h-69q-13 13 -5 43q0 8 -1 40.5t2 36.5q-3 5 -3 11t1 15t1 14q0 3 -1 9t-1 8q0 3 1 8.5t1 8.5q0 17 -5 95q-2 40 3 54q-2 18 -2.5 38t0.5 47t1 41q-3 253 -3 255q-4 27 -2 36q4 4 10 5t15.5 -0.5t13.5 -1.5t11 2t11 2q14 -1 24 -8 q0 -2 1 -15t4 -20q-3 -18 -5 -63v-79v-107q0 -4 1 -11.5t1 -10.5q0 -1 -1.5 -17t-1.5 -24q-1 -2 0 -6t1 -5q0 -2 -0.5 -6.5t-0.5 -7t1 -6.5t3 -7q9 1 17.5 9t11.5 10l25 22q15 3 36 13q11 -1 28 2t27 2q4 0 9.5 3t9.5 2q4 0 14.5 -3.5t17.5 -2.5q6 -7 22 -12.5t20 -8.5 q5 -2 12 -8.5t9 -8.5t6 -4t5 -4q7 -7 9 -8q0 -3 7 -8q3 -5 11 -17l7 -11q1 -1 2 -3t2 -3q1 -2 3.5 -5.5t3.5 -5.5q4 -5 8 -21q9 -24 10 -36q1 -8 1 -52q2 -32 2 -49v-5q1 -6 -0.5 -14.5t-1.5 -12.5q0 -1 -2.5 -7t-1.5 -11q-10 -12 -24 -40q-3 -3 -7 -9.5t-6 -9.5l-6 -6 q-6 -7 -8 -11q-8 -2 -19 -12t-15 -12l-18 -6q-10 -4 -14 -8q-8 0 -22 -4t-24 -4q-35 4 -52 -1q-7 1 -56 12q-11 5 -29 19q-1 1 -6 4.5t-6 6.5q-2 1 -6 5.5t-9 4.5zM373 288q-8 8 -12 16q-6 4 -17 11.5t-20 13.5t-17 11q-3 0 -25.5 1.5t-31.5 1.5q-11 -5 -25 -4 q-10 -5 -27 -16.5t-23 -15.5q-3 -8 -13 -20t-12 -15q-6 -26 -10 -37q-1 -5 0.5 -12t1.5 -9q-3 -15 -3 -16q0 -3 0.5 -12t-0.5 -13q3 -7 7 -30q6 -7 16.5 -24t16.5 -25q26 -9 37 -22q6 1 13.5 -2.5t9.5 -3.5q7 0 18.5 -1t16.5 -1q17 1 41.5 10.5t31.5 11.5q9 8 25 26 q10 26 17 38q-1 6 2.5 16.5t3.5 14.5q1 5 0.5 22.5t-0.5 24.5q0 2 -1 2q-1 13 -10 31.5t-11 26.5z" />
<glyph unicode="c" horiz-adv-x="415" d="M371 302q-10 -1 -18.5 8t-12.5 10q-4 4 -15 9t-15 8q-6 0 -28 8q-16 -1 -30 3l-43 -9q-4 -1 -9 -5.5t-8 -5.5q-2 -1 -8 -4.5t-8 -6.5q-5 -4 -14 -13.5t-14 -13.5q-1 -2 -11 -18q-18 -54 -18 -78q4 -19 35 -78q6 -6 20.5 -15.5t20.5 -14.5q11 -1 25 -9q11 1 25 -5 q24 4 40 3q36 8 56 24q3 2 7.5 7.5t9 8.5t10.5 3q6 -6 7.5 -16.5t0 -21t0.5 -22.5q2 -4 2 -13.5v-11.5q-1 -6 -7 -11t-7 -8q-16 -13 -18 -14q-8 -2 -26 -4t-26 -4q-42 -2 -46 -3q-6 0 -16 1t-17 0q-2 0 -6.5 2t-7.5 3q-2 1 -5 0.5t-4 -0.5t-3 1l-2 2l-30 5q-7 7 -22.5 16.5 t-20.5 13.5q-14 21 -25 25q-2 4 -15 21t-16 30q-1 4 -4 10l-4 8q-1 3 -2.5 9.5t-3.5 9.5q0 4 -2 8v19q-3 21 -3 25q0 11 0.5 22t1.5 24t1 21q1 3 3.5 12t4.5 13q3 4 8 23q9 8 12 19l6 7q7 7 9 11q4 6 14.5 17t14.5 16q22 8 34 22q23 9 28 14q9 2 28 8q20 -2 51 1t49 1 q5 -3 18.5 -6t18.5 -7q24 -5 32 -19q0 -4 2 -5q-3 -28 0 -60q0 -2 1 -9.5t0 -12t-5 -8.5z" />
<glyph unicode="d" horiz-adv-x="511" d="M451 0q-21 -10 -39 -5q-25 -8 -41 8l1 46q-11 -6 -14 -11l-4 -6q-4 -5 -5 -9q-3 -2 -27 -23q-6 0 -8 -3q-8 -1 -33 -5q-39 -6 -71 -3q-9 1 -24.5 3.5t-22.5 2.5q-12 7 -22 8q-26 16 -41 22q-15 24 -32 38q-4 8 -14 29.5t-16 33.5q-1 8 -4 22t-4 20q0 10 2 30v30 q0 8 2.5 25.5t2.5 26.5q10 21 12 22q1 10 7 22q1 4 6 9t6 10q1 1 5 8t6 11q9 9 27 23.5t24 19.5q10 2 25 8.5t20 8.5q28 4 41 7q4 1 11.5 -0.5t10.5 -1.5q4 0 10.5 1t8.5 1q4 -1 6.5 -2t5.5 -3t6 -3q12 -4 19 -5q3 -3 41 -27q2 -2 7.5 -7t7.5 -9q10 -10 18 -12q4 2 4 19 q-3 103 -3 107l3 20q0 5 -2 12.5t-2 9.5q2 49 0 60q1 3 1 22v19v46q0 10 -2.5 28t-3 26.5t2.5 25.5q3 3 13.5 4.5t13.5 3.5q6 -1 29 0t26 -6q3 -6 3.5 -13t-0.5 -16.5t-1 -13.5q-1 -9 0 -26t1 -22v-45q2 -12 2 -22l-1 -2q-1 -1 -1 -2q1 -43 1.5 -130.5t0.5 -114.5 q0 -8 -1.5 -35.5t-0.5 -39.5q1 -18 0.5 -62t1.5 -64l-3 -15q3 -12 2 -37.5t1 -40.5l1 -5l-1 -5l3 -24q2 -14 -5 -23zM355 124q9 14 11 18q12 26 8 72q-4 48 -19 62q-2 2 -3.5 8.5t-2.5 8.5q-11 7 -27 27q-4 2 -22 14q-6 1 -14 5t-13 4q-4 1 -16 2t-17 3q-9 -5 -30 -5 q-5 -5 -17 -7q-33 -25 -35 -26q-5 -9 -24 -28q-8 -18 -11 -28q-4 -24 -8 -34q0 -34 5 -64q1 -5 5.5 -12t5.5 -9l10 -20q4 -3 16.5 -16t21.5 -17q3 -3 6 -3q3 -1 8.5 -2t8.5 -2q4 -1 14 -4.5t16 -4.5q21 -1 55 3q1 3 8 4t8 4q8 7 17 8q2 3 24 22q1 2 11 17z" />
<glyph unicode="e" horiz-adv-x="483" d="M444 203q-14 -1 -26.5 -0.5t-27.5 0t-24 -2.5q-11 3 -46 1t-48 -1q-4 0 -9 1.5t-9 1.5q-15 -1 -45.5 -1.5t-45.5 -1.5q-4 0 -11 0.5t-12.5 0t-9.5 -3.5q-3 -5 2 -21q-7 -13 4 -38q3 -7 14.5 -18.5t15.5 -18.5q11 -5 27 -19q38 -14 41 -14q33 -2 57 4q16 8 27 10 q23 16 50 42l13 26q14 0 31 -15q13 -5 27 -17q1 -20 -16.5 -39t-19.5 -24q-34 -28 -52 -39q-35 -12 -40 -15q-5 0 -15.5 -2t-17.5 -2q-4 -1 -13.5 0t-13.5 1t-13.5 -1t-14.5 0q-7 0 -20 2t-19 2q-7 4 -24.5 10.5t-24.5 11.5q-24 27 -30 30q-11 18 -16 22l-8 8 q-6 8 -14.5 31.5t-12.5 30.5q-1 5 -2 13.5t-2 15.5t-2 13v37q-1 5 2 9t3 6q-5 13 -2 30l5 21q6 19 14 23q-3 14 9 32t13 24q4 2 9.5 7.5t9.5 7.5q2 4 8 9.5t8 8.5q6 1 16 8t17 9q5 4 19 7.5t19 5.5q6 -2 14 0t14 0q8 2 21 2t20 1q3 -1 24.5 -4t30.5 -7q5 -1 8.5 -6.5 t5.5 -6.5q3 -1 26 -5q3 -2 7.5 -7.5t9.5 -8.5t11 -4l6 -12t5 -12q13 -14 27 -36q2 -11 16 -46q1 -5 1 -15.5t1 -18.5t4 -13q0 -26 -6 -30zM363 282q-1 3 -4.5 11t-3.5 14q-13 19 -30 36q-14 8 -20 13q-15 1 -28 8q-7 -1 -19 1t-16 2q-8 0 -22 -4t-21 -4q-3 -3 -10 -6t-9 -5 q-7 -7 -11 -8q-2 -5 -5.5 -9t-8.5 -8.5t-8 -7.5q0 -1 -6.5 -16t-5.5 -28q6 -5 30 -5q3 0 13.5 -1t16.5 0q4 0 12 1.5t10 1.5q1 0 4 -1t5 -1t5 1t5 1q30 0 42 -3q3 1 40 1q33 0 44 8q-1 3 0 4.5t1 3.5z" />
<glyph unicode="f" horiz-adv-x="283" d="M263 685q-7 -4 -29 -1.5t-33 1.5q-4 0 -12 -2.5t-15 -1.5q-6 -4 -10.5 -12t-8.5 -19.5t-6 -16.5q0 -20 -0.5 -68.5t0.5 -69.5q0 -1 1 -1l1 -2q-2 -6 -2 -18v-19q3 -25 5 -31q7 -5 33 -5h41q29 2 33 0q5 -5 5 -23.5t3 -23.5l-3 -24q-1 -4 -6.5 -8.5t-6.5 -5.5 q-70 6 -101 3q-2 -23 -0.5 -76t-2.5 -74l3 -20q0 -76 5 -161q-1 -1 -4 -3.5t-5 -3.5t-5.5 -2t-7.5 0q-14 3 -26.5 1t-25.5 -1t-19 9q-2 7 3 36q-1 16 -1 52v56v96q0 6 -1 16t-1 15q0 3 1 8.5t1 7.5q-2 31 -7 41q-3 3 -15 3t-15 3q-7 15 -7 39.5t7 38.5q17 -1 29 3q2 1 2.5 4 t0 5.5t0.5 5.5q3 15 3 16q0 3 -0.5 9.5t-0.5 9.5q-1 2 0 6t1 5q1 5 0 17t-1 16q0 5 -0.5 20.5t-1.5 22.5q0 2 3 12q-1 6 -5 16q6 36 4 55q3 21 3 22l6 16l5 18q1 3 8 12.5t8 15.5q6 4 11.5 9t12 12t10.5 10q2 -1 3 -0.5t2 2t2 2.5q2 1 7.5 1.5t7.5 1.5l14 4q4 1 10.5 2 t11 2.5t8.5 3.5q23 -3 45 0q3 -2 9 -4t10.5 -4.5t6.5 -6.5q2 -7 2 -26t3 -26q0 -4 -1 -8t-2.5 -8t-2.5 -7z" />
<glyph unicode="g" horiz-adv-x="499" d="M427 -180h-120h-140q-8 0 -24 -2q-5 0 -16 1t-16 1q-4 0 -12.5 -0.5t-13.5 -0.5t-11 1.5t-10 5.5q-2 4 -2 9t1 11.5t1 9.5q0 4 -0.5 9.5t-1 9t0.5 8.5t3 8q5 1 53 -2q9 0 28 1t29 1q19 0 57 -2h53q13 1 23.5 0t22.5 0.5t21 6.5q2 5 2.5 12.5t0 14t0.5 14.5v91v13 q0 11 -2 14q-2 2 -4 1t-3.5 -2.5t-3 -3.5t-3.5 -3q-10 -13 -11 -14q-9 -4 -43 -28l-15 -4q-4 1 -7 -2.5t-6 -3.5q-41 -2 -60 2q-19 2 -22 4q-10 -1 -22.5 4.5t-20.5 5.5l-14 9l-16 8q-4 2 -12.5 9t-13.5 10q-2 4 -8 10.5t-8 11.5q-12 14 -17 21l-23 58q1 19 -3 35 q-1 26 3 85q2 16 11.5 40t11.5 31q4 3 11 8t9 6q2 5 8 12.5t8 12.5q20 15 33 28q32 16 63 24h25q4 0 11.5 1t10.5 1t9 -2t10 -3q5 -1 16.5 -1t16.5 -1q6 -2 16.5 -9.5t18.5 -9.5q2 -4 9.5 -9t9.5 -8q2 -1 5.5 -5t7 -6t9.5 -1q6 3 5 18t0 21q5 6 38 6q32 0 37 -4q7 -29 5 -76 q0 -8 -0.5 -35t-1.5 -41q0 -13 1 -39.5t1 -39.5v-91q0 -10 -0.5 -35t0.5 -34v-26q0 -6 -2 -22q0 -5 1 -14t1 -14v-68v-33q3 -18 -9 -30zM353 268q-7 8 -10 23q-32 37 -36 41q-8 2 -23.5 9.5t-25.5 9.5q-6 3 -21.5 1.5t-20.5 -2t-20 -4t-20 -4.5q-4 -2 -12.5 -8t-14.5 -8 q-1 -2 -5 -6q0 -2 -1 -3t-3 -1l-2 -1q-9 -12 -12 -17q-1 -1 -3 -2l-1 -1q0 -1 -1 -6t-2 -7t-3 -5.5t-3 -5.5t-2 -7l-1 -6l-5 -12q-2 -9 -1 -29t-1 -31q6 -12 5 -21q8 -11 14 -33q20 -26 21 -28q2 -1 15 -10t21 -12q8 -4 43 -13h19q5 3 17 6t16 5q7 2 17 7l14 7q20 20 25 27 q11 13 11 14q2 3 5 12.5t7 14.5q-1 7 1.5 20.5t2.5 19.5v45q0 2 -1 2q0 2 -1 5.5t-1.5 6.5t-0.5 7z" />
<glyph unicode="h" horiz-adv-x="463" d="M327 301q-9 24 -41 47q-22 8 -51.5 7.5t-48.5 -10.5q-25 -13 -44 -46q0 -4 -2 -12.5t-2 -12.5v-11q-1 -4 -1.5 -30t-5.5 -35q6 -14 0 -28q0 -4 2.5 -9.5t2.5 -9.5q-1 -9 -1.5 -25.5t-0.5 -21.5q0 -6 1.5 -24.5t0.5 -27.5q0 -1 3 -13.5t2 -14.5t-3 -13q-15 -14 -41 -3 q-32 0 -37 3q-4 5 -5 10t0.5 16.5t1.5 12.5q1 10 0 32t-1 33q0 4 0.5 10t0.5 9q0 4 -5 22q1 8 2 28.5t3 29.5q0 65 -1 99q-2 12 -2 16q0 42 -2 51q4 22 4 75q0 11 -2 33.5t-2 25.5v60v20q2 29 -1 39q1 10 1 64q1 12 0.5 22t0 21.5t3.5 20.5q9 5 42 3q34 0 40 -9 q4 -28 -7 -49q5 -16 5 -19v-16q-2 -1 -2 -3v-38q2 -14 4 -20q-4 -15 -1.5 -48t-2.5 -48q2 -16 2 -22q0 -4 -1 -12t-1 -12l4 -21q0 -5 -1 -15.5t-1 -19.5t2 -17q6 -1 16 7t12 9q3 2 11.5 4.5t10.5 3.5q4 2 10.5 5.5t8.5 4.5q19 6 90 1q4 -1 12.5 -5.5t15.5 -5.5q4 -4 13.5 -7 t13.5 -6q6 -4 17.5 -15.5t17.5 -15.5q2 -5 8 -17t9 -19q-2 -40 3 -63q-5 -28 2 -54q-5 -102 3 -184q6 -19 -10 -29h-28q-4 0 -13.5 -0.5t-14.5 -0.5t-11 1.5t-8 6.5q-2 6 -2 8t2.5 8.5t2.5 11.5q1 5 -0.5 14.5t-1.5 13.5q0 3 1 11.5t1 12.5l-3 69q-1 7 0 19t1 16q1 13 0 36 t-1 30v35z" />
<glyph unicode="i" horiz-adv-x="199" d="M61 9q2 15 0 75q0 5 2 15t2 15q0 9 -1 26.5t-1 32.5t2 28l-4 20q0 5 1 15t1 15q0 11 -2 33q0 5 -1.5 16t-1.5 16q0 9 1 25.5t1 24.5q0 40 3 49q63 8 77 -5q3 -3 1 -34.5t-2 -35.5q0 -11 1.5 -33.5t1.5 -34.5q0 -36 -2 -104q0 -4 1 -10t1 -9q0 -4 -1 -10t-1 -9 q0 -7 1.5 -21t1.5 -20q1 -2 0 -3t-1 -2q0 -2 0.5 -16t1 -23t-0.5 -14q-7 -7 -7 -10q-3 -2 -7.5 -9.5t-8.5 -9.5q-45 -9 -59 7zM148 577q-9 -17 -33 -27q-3 0 -16 1t-17 0q-16 11 -22 23q-13 13 -14 28q1 13 14 42q4 2 25 13q5 -1 15 -2t17 -2.5t12 -4.5q21 -19 19 -71z" />
<glyph unicode="j" horiz-adv-x="195" d="M147 -170q-2 -1 -4.5 -3.5l-3.5 -3.5q-3 -1 -16.5 -1.5t-18.5 -3.5q-5 1 -14.5 1.5t-16.5 2.5t-11 6q-5 7 -5 22q0 2 1.5 5.5t1.5 5.5v13q2 19 2 86q0 4 1 17.5t0 20.5q0 4 -1.5 12.5t-1.5 12.5q0 15 2 45q1 20 -2 121v31q0 25 2 32q-2 4 -2 30q0 5 -0.5 15.5t-0.5 15.5 t0.5 14t0.5 13q0 9 -1.5 29.5t-0.5 34t5 23.5h40q28 0 36 -6q3 -7 3 -17t-1.5 -22.5t-1.5 -19.5q0 -11 3 -20q-3 -49 -1 -112q0 -6 0.5 -17t0.5 -16v-92q0 -3 -0.5 -7t-0.5 -7q0 -5 1.5 -16t1.5 -17q0 -3 -1 -10.5t-1 -11.5q0 -10 1.5 -29t1.5 -29q0 -7 -0.5 -65.5 t2.5 -65.5q0 -1 2 -5q0 -6 -2 -12zM153 613q2 0 2 -2v-20q-14 -30 -16 -33q-22 -15 -63 -5q-10 8 -16 11q-25 30 -12 63q1 5 7 11.5t7 10.5q5 2 12 6t11 5q4 -1 15 -1t15 -2q25 -9 37 -41q1 0 1 -3z" />
<glyph unicode="k" horiz-adv-x="447" d="M409 27q1 -6 -1.5 -9.5t-9 -5t-10.5 -1.5h-13h-5h-11h-40q-11 7 -38 39q-1 4 -4 8t-7 8l-6 6q-1 2 -6.5 10t-9.5 12q-6 6 -17 21t-17 22q-4 4 -16 19.5t-21 21.5q-2 6 -13.5 12t-14.5 2q-1 -3 -2.5 -4.5t-4.5 -3.5t-4 -3q1 -5 -1 -13.5t-2 -11.5q0 -2 0.5 -6t0.5 -7 q0 -11 -1 -48t1 -50q0 -3 1.5 -10t2 -9.5t-1.5 -9.5q-3 -4 -7.5 -5t-13 0t-11.5 1h-12t-13 0.5t-11 2t-9 4.5q-2 6 -2 44q0 7 -1.5 20t-1.5 23.5t3 19.5q-2 11 -2 23t1 27.5t1 23.5q0 6 -1.5 17t-1.5 16q0 15 1.5 54.5t0.5 59.5l-4 34q0 4 1 12t1 12q1 30 -2 162q0 67 -1 73 q3 5 1 19q0 1 1 3t1 3q0 3 -1.5 9t-1.5 8q0 3 0.5 8.5t0.5 9.5q0 2 -0.5 6.5t0.5 7.5q-10 39 5 52q7 2 30 0q25 5 36 1q4 -4 6 -10.5t2.5 -11t0 -15t-0.5 -13.5v-113q3 -50 3 -51q-1 -8 -1 -79v-19q0 -4 1 -18t0 -21q0 -9 -0.5 -30.5t-0.5 -32.5q0 -4 0.5 -12t0.5 -12 t-1.5 -13.5t-1 -16.5t4.5 -12q10 0 17 4t16.5 15t10.5 12l36 38q5 3 10.5 10t8.5 9q1 2 8.5 8t9.5 11q5 4 17 17.5t22 17.5q17 0 57 -2q2 0 8 3t11 2q2 -2 9 -2.5t8 -4.5q2 -8 -2.5 -15.5t-8 -9.5t-13.5 -8q-18 -20 -23 -23q-3 -1 -6 -5.5t-7 -5.5q-7 -4 -12 -11l-20 -19 q-20 -18 -28 -29q-13 -7 -16 -11l-3.5 -3.5t-5.5 -4t-8 -0.5q0 -7 -7.5 -13.5t-8.5 -12.5q2 -9 10.5 -18.5t10.5 -13.5q11 -12 35 -39.5t37 -40.5q4 -7 12 -17t10 -13q6 -3 12.5 -13.5t11.5 -13.5q1 -2 10 -11q0 -4 1 -5t5 -1q6 -5 16.5 -18.5t16.5 -18.5z" />
<glyph unicode="l" horiz-adv-x="203" d="M137 14q-4 -3 -38 -5q-4 0 -13 -1t-15 -0.5t-10 3.5q-6 12 -4 47q0 7 0.5 21.5t0.5 22.5t1 25t1 26q0 5 -2.5 36.5t0.5 38.5q2 14 -3 22q2 7 2 26q-2 66 0 82q-3 2 -2.5 50t0.5 55q-3 81 0 163q-3 12 -2.5 43t-3.5 45q1 4 1 21.5t5 22.5q6 5 38 5q33 -2 38 -7q4 -7 4 -20 q2 -14 -3 -22q3 -14 3 -27q1 -1 0 -4t-1 -4q0 -5 1.5 -17t1.5 -18q0 -4 -1 -13t-1 -13q0 -123 4 -178q0 -2 -2 -7.5t-2 -8.5v-55q2 -18 2 -27q0 -5 -1 -15.5t-0.5 -18t3.5 -13.5q-2 -12 -2 -54q2 -90 -2 -158q2 -2 3 -9t2 -10q0 -5 0.5 -16.5t0 -20t-3.5 -13.5z" />
<glyph unicode="m" horiz-adv-x="686" d="M623 11h-38q-3 0 -11 -1t-11.5 -1t-9 1t-8.5 4q0 11 1 38.5t1 40.5q0 7 -1 21t-1 21t1 21t1 22q0 6 -1 19t-1 20q0 3 1 8.5t1 7.5q0 5 -1 15.5t-1 16.5q0 5 -0.5 15t-0.5 15q0 3 0.5 29.5t-2.5 29.5q-5 3 -12 3.5t-13.5 0t-15.5 0.5l-10.5 -3.5t-11.5 -3.5q-4 0 -16 2 l-17 3q-3 -1 -13 -1t-14 -2q-33 3 -38 0q-4 -4 -4.5 -10t0.5 -15.5t1 -12.5q0 -4 -0.5 -10.5t-0.5 -9.5q0 -4 1.5 -11.5t1.5 -11.5q0 -8 -2 -18q0 -8 -3 -16q6 -50 2 -85q3 -20 3 -57t1 -47q5 -33 2 -40q-10 -5 -41 0q-5 0 -13.5 -2t-13 -2t-12.5 3q-11 10 -4 37q1 5 0 25 t-1 24q0 7 1.5 22.5t1 27t-4.5 21.5q3 6 3.5 12.5t-0.5 17t-1 14.5q0 5 0.5 14t0.5 13q0 11 -1.5 38t-1.5 39q2 32 -3 41q-4 2 -14 1.5t-13 2.5q-17 -5 -53.5 -4t-54.5 -3q-4 0 -12 1t-11 -1q-8 -8 -3 -44q0 -10 -0.5 -34.5t-0.5 -36.5t0.5 -26.5t1.5 -32t1 -27.5v-89 q0 -5 2 -17t1.5 -20.5t-3.5 -15.5q-8 -5 -30 -4t-33 -1q-8 0 -19 9q-4 16 3 43q-2 15 -2 43v34q0 62 2 70q-2 1 -2 15v16q0 1 -3 25q0 4 1 14t1 15v28q0 6 1 24t0 28q0 4 -0.5 15t-0.5 16.5t2 13t6 12.5h176h22q35 0 40 -2q9 3 26.5 3t25.5 2q34 -4 57 0q6 -2 50 -2 q2 0 10 -1t12 0q1 0 22 3q11 1 40 0.5t41 -0.5q31 2 39 -2q9 -30 -2 -72q3 -17 3.5 -36t-0.5 -45.5t-1 -38.5q0 -4 1.5 -13t1.5 -14q1 -15 1.5 -44.5t0.5 -38.5q0 -2 -1 -4.5t-1 -3.5q0 -4 1 -11.5t0.5 -13t-2.5 -10.5q2 -4 2 -13t2 -14q0 -37 -4 -42z" />
<glyph unicode="n" horiz-adv-x="471" d="M409 11q-7 -1 -28 0.5t-31 -0.5q-5 -1 -9.5 2t-5.5 3q-5 14 1 48v21q0 8 -0.5 26t-0.5 27q-1 3 0 8t1 7q0 3 -1.5 9t-1.5 10q0 2 1 6t1 6q-2 10 -2 13q0 6 2.5 19.5t2.5 21.5q0 7 -1.5 22.5t-1.5 23.5v29.5t-2 29.5q-5 4 -11 5t-15.5 0t-12.5 -1q-10 -1 -30 0t-27 1h-8 q-4 0 -18.5 -0.5t-19.5 0.5t-11.5 5.5t-10.5 5.5q-4 0 -6 -5.5t-7 -5.5q-13 -5 -14 -8q-1 -6 -2 -32.5t-3 -39.5q3 -5 3.5 -11t-0.5 -14.5t-1 -12.5q0 -7 2 -23.5t1 -25.5q0 -4 -1.5 -12t-1.5 -12q-1 -16 3 -42q1 -4 -1 -10t-2 -9l3 -19q-5 -54 -15 -57q-7 -2 -32.5 2 t-32.5 9q-2 3 -2 25.5v25.5q0 4 -1 13.5t-0.5 16t3.5 12.5q-2 9 -2 26v11q-1 10 1 31t2 30q0 8 -1.5 24.5t-1.5 24.5v49q0 3 1 9t0.5 10t-2.5 8q3 11 0 47q4 19 9 25q11 7 47 5q8 -1 22 0t21 1q5 0 15 -1.5t15 -1.5q10 0 31 1.5t32 1.5q1 0 4 -0.5t5 -0.5t7.5 1t10 0.5 t8.5 -3.5q8 3 31.5 2t34.5 1q8 -2 25 -2t25 -1q3 -2 11 -23q1 -9 0 -24t-1 -19q0 -8 1 -22t0 -22q0 -4 -1.5 -9t-1.5 -7q0 -3 1 -9t1 -10q0 -3 -1 -9t-1 -8q0 -11 1.5 -32.5t1.5 -32.5q0 -12 -0.5 -25t-1.5 -29t-1 -25q0 -2 1.5 -7t1.5 -7q-1 -5 2 -63q2 -22 -6 -28z" />
<glyph unicode="o" horiz-adv-x="523" d="M487 236q1 1 1 -1q1 -14 -3 -38q-1 -5 -2 -17.5t-3 -17.5l-15 -36q-14 -22 -19 -33q-13 -9 -19 -18q-12 -9 -19 -17q-14 -6 -30 -17q-10 -3 -14 -10q-13 -4 -15 -8q-3 0 -30 -11q-80 -2 -104 4l-4 3h-7q-17 3 -48 19q-14 6 -19 9t-46 36q-2 7 -10 17.5t-9 12.5l-11 22 q0 1 -1 2t-2 3l-11 28l-3 24q-1 8 0.5 22t-0.5 19q1 5 3.5 21.5t4.5 24.5q1 7 3 14t5 14.5t4 12.5q1 4 5.5 10.5t5.5 12.5q12 12 16 19q14 10 17 18q2 4 10 9t9 6q2 2 7 9.5t9 9.5q28 8 33 8q8 4 19 7t25.5 6t21.5 5h52q13 -4 37 -8q1 -3 7.5 -4t7.5 -3q2 0 7.5 -2.5 t10.5 -1.5q2 -3 19 -11q4 -2 10.5 -8t9.5 -8l6 -6l7 -7q1 -1 5 -2.5t6 -3.5q2 -4 7.5 -11t7.5 -11q3 -3 8 -10.5t8 -10.5l3 -12q1 -2 3.5 -5t3.5 -5q5 -12 11 -20q0 -11 4 -28t4 -26zM403 249q-6 17 -25 55q-8 5 -11 13q-9 5 -25 17q-5 2 -14.5 8t-12.5 8q-25 11 -76 9 l-36 -9q-11 -8 -30 -23.5t-24 -19.5q-2 -5 -17 -28q-12 -61 -10 -77q4 -8 10 -24q7 -22 9 -25q5 -8 17.5 -18t15.5 -14t10 -7.5t9 -6.5q4 -3 22 -11q2 0 2 -2q9 -1 26 -2.5t26 -3.5q7 3 36 3q8 5 18 5q7 7 31 20q4 6 13.5 17t15 18t11.5 18t9 23q2 9 2 27t1 25q0 2 -1 2 l-1 2q0 1 -1 1z" />
<glyph unicode="p" horiz-adv-x="511" d="M130 72q-3 -2 -3 -4.5t1 -7t1 -7.5q-3 -6 -1 -62t2 -64q0 -7 -1 -25.5t-0.5 -31.5t3.5 -25q-4 -4 -13 -10t-11 -7q-3 0 -15 -1t-18 -1t-13 1.5t-11 6.5q-4 38 3 65v3.5t-0.5 4t-1.5 4t-1 4.5q-1 6 -0.5 26.5t0.5 28.5v43t-1 44q4 10 4 18q0 5 -2 11.5t-2 9.5 q1 25 0.5 44.5t0 42t2.5 39.5q0 3 -1.5 7.5t-1.5 6.5q-1 3 0 8.5t1 7.5q0 6 -1.5 22t-1.5 24q0 6 5 41q1 11 2 33t3 33q0 11 3 20q5 1 16.5 1t17.5 1q3 0 7.5 -2t8.5 -1q8 1 14 -3q4 -5 2 -23.5t3 -24.5q6 -1 9.5 4.5t4.5 6.5q2 3 6 7t5 6q22 10 35 22q11 1 27 11q4 -1 10 1 t7 2q19 -3 58 -3q4 0 10 1t9 1q6 0 17 -3t17 -4q3 -2 9.5 -5.5t12.5 -6t12 -3.5q17 -19 25 -24l8 -16q2 -3 8 -8t8 -8q2 -1 3.5 -4.5t2.5 -4.5l4 -2q2 -3 4 -4q9 -28 18 -41q0 -14 9 -46q0 -26 3 -47q-2 -8 -2 -23t-1 -21q0 -1 -2 -9.5t-1 -13.5q-10 -20 -13 -33 q-13 -15 -20 -31q-22 -21 -43 -43q-5 -1 -23 -14q-4 -1 -24.5 -7.5t-32.5 -8.5q-4 5 -26 2.5t-26 -2.5q-6 0 -19.5 4t-20.5 4q-15 5 -58 32q-1 1 -14 17q-2 2 -4 6t-5 6t-7 2zM378 287q-6 9 -18 22.5t-17 19.5q-53 27 -68 30q-8 2 -53 -1q-6 -5 -21 -11t-17 -7q-3 -4 -14 -9 q-5 -8 -16.5 -20t-15.5 -18q-1 -4 -11 -30q-5 -48 2 -87q1 -1 5.5 -14.5t8.5 -19.5q5 -8 20 -26q12 -12 14 -15q8 -3 21.5 -11t19.5 -10q14 -4 16 -5q10 -1 31.5 3t33.5 2q6 3 18.5 11t20.5 11q5 7 18 18q12 25 23 42q0 6 3.5 15.5t4.5 13.5q1 7 1 23t1 25q0 2 -2 2 q-1 9 -4.5 23.5t-4.5 22.5z" />
<glyph unicode="q" horiz-adv-x="519" d="M455 -170q-13 -4 -42 -2q-28 -3 -37 13q-2 6 0.5 19.5t1.5 21.5q0 2 5 15q-1 4 -4 9.5t-3 9.5t2 8.5t1 9.5q1 4 -1 9t-2 8q6 39 -1 52q7 17 0 61q-2 2 -8 -4q-5 -3 -8 -8q-2 -3 -7 -8t-7 -8q-5 -1 -11.5 -6.5t-10.5 -6.5q-2 -3 -9.5 -6.5t-9.5 -7.5q-4 0 -29 -8 q-18 -4 -28 -8q-11 4 -24 -1q-23 7 -34 5l-43 19q-17 14 -33 23q-2 3 -11.5 12.5t-13.5 16.5q-4 3 -24 28v4t-2 2.5t-3 2.5l-12 27q-3 7 -5.5 22t-4.5 21v43.5t2 55.5q4 6 13 41q7 18 9 22l3 4q4 4 5 7q5 8 11 14q3 2 5 8t4 8q23 16 27 17q3 2 7 6.5t6 6.5q1 1 2 1q2 1 3 1 l3 3q1 1 2 1h2l10 7q14 4 25 4q15 7 19 8q9 2 30 1.5t30 1.5q7 -2 21.5 -4t25.5 -4.5t19 -6.5q3 -3 9.5 -8t9.5 -8q2 -1 5.5 -5.5t7.5 -6t9 -1.5q5 1 7 6.5t3 13.5t3 12q7 5 36 5q5 0 13.5 0.5t14 -0.5t10.5 -4l1 -1l2 -2q4 -7 4.5 -16t-0.5 -22.5t-1 -18.5q2 -30 -1 -42 q6 -34 0 -62q2 -5 2.5 -11.5t-0.5 -15.5t-1 -14q0 -6 1.5 -20t1.5 -21q0 -6 -0.5 -21t-0.5 -23q0 -3 0.5 -7t0.5 -7q0 -7 -2 -20t-2 -19t1 -19.5t0 -21.5q0 -3 1.5 -6t1.5 -5v-5q1 -5 -1 -13v-70t1 -70q2 -32 -3 -42zM372 271q-9 21 -30 50q-15 10 -24 19q-5 2 -15.5 7 t-16.5 7q-7 3 -24.5 3.5t-23.5 1.5q-8 -1 -23.5 -5t-24.5 -6q-10 -7 -25 -22.5t-20 -19.5l-7 -11q-1 -3 -1.5 -7.5t-1.5 -7.5q-1 -4 -5 -12q-1 -3 -3.5 -12.5t-3.5 -14.5q-2 -3 -0.5 -28t1.5 -30q5 -12 10 -29q3 -5 9 -15.5t8 -14.5q2 -2 7 -6t8 -8t5 -8q10 -4 27 -12.5 l19 -9.5q26 1 43 -3q27 5 55 17q30 28 42 44q1 4 3.5 10.5t3.5 8.5q-1 5 3.5 10t4.5 8q0 8 1 16t2.5 17t2.5 14q0 2 -2 2q0 4 -2 20.5t-2 26.5z" />
<glyph unicode="r" horiz-adv-x="299" d="M137 16q-9 -5 -43 -5q-23 -1 -34 11q-3 7 -3.5 14.5t0.5 18.5t1 17q0 2 -1 6t-1 5l4 22q0 5 -1 14.5t-1 14.5q2 37 0 47q3 11 1.5 42t1.5 43q-3 24 -1 76q0 8 -1 22t-1 25t2 21v4t0.5 4.5t1 3.5t2.5 3q7 4 35 -1q28 5 36 0q5 -8 5 -21q0 -6 -1.5 -23t-0.5 -26 q2 -1 2 -4.5t2 -4.5q0 -6 -2.5 -18.5t-2.5 -19t5 -16.5q0 -2 -3 -6t-2 -8q2 -7 1 -23.5t2 -20.5q-1 -2 -1.5 -8.5t-1.5 -8.5q1 -5 1 -30q2 -15 -3 -29q4 -19 2 -66q0 -5 1.5 -23t-1.5 -24q-1 -3 1 -7.5t2 -6.5q0 -8 -3 -14zM268 331l-10 -10q-4 -1 -14 -4.5t-16 -4.5 q-7 -1 -18.5 2.5t-15.5 3.5q-3 2 -8.5 6.5t-9.5 6.5q-2 5 -9 17q-1 4 -2 13t-3 12q4 14 3 22q11 25 52 40l17.5 -3.5t18.5 -4.5q2 -2 27 -35q4 -51 -12 -61z" />
<glyph unicode="s" horiz-adv-x="323" d="M55 114q3 1 11 5.5t15 3.5q4 1 11 -6q5 -4 13 -13t11 -12q5 -2 16 -10q30 -5 35 -5q19 4 30.5 9.5t19.5 20t5 37.5q-2 5 -6 10t-10 10t-8 8l-18 9t-21.5 10t-20.5 6q-3 2 -15 8t-16.5 8.5t-14 8t-14.5 10t-11.5 11t-11 13.5t-7.5 15l-6 57q2 8 7 21t7 20l24 32 q4 2 11.5 9t13.5 10q7 4 43 11l48 -5q3 -2 12.5 -6t14.5 -7q3 -3 12 -8t12 -8t7 -11t7 -11q9 -17 8 -26q-1 -3 -4 -5t-7 -3t-6 -2q-3 -1 -12 -5t-11 -4t-8 2q-31 31 -50 32t-50 -22q0 -1 -4 -11t-3 -19q1 -6 6 -12t6 -10q24 -19 94 -39q4 -5 15 -11t15 -10q20 -14 28 -22 q16 -25 22 -45q0 -26 2 -35q1 -4 0 -5q0 -5 -2 -27q-1 -4 -5.5 -12t-6.5 -13q-5 -2 -8.5 -10t-7.5 -10q0 -3 -4 -5.5t-4 -4.5q-6 -4 -8 -8q-1 1 -3 -1q-4 -1 -15 -7.5t-19 -8.5q-29 -7 -56 -9t-45 3q-10 2 -24 9.5t-22 9.5q-3 5 -13.5 14t-13.5 12q-20 20 -20 34 q0 6 12 15.5t18 9.5z" />
<glyph unicode="t" horiz-adv-x="263" d="M229 356q-11 -3 -36.5 -0.5t-37.5 0.5q-3 -5 -3 -32q-2 -28 -2 -42q3 -39 3 -41q0 -3 -0.5 -10t-0.5 -11v-7v-81q0 -4 -1 -12.5t-1 -12.5q0 -3 2.5 -21t-0.5 -23q7 -25 3 -38q-22 -17 -76 -8q-2 3 -5 10.5t-4 8.5q1 3 0.5 10.5t-0.5 10.5q0 2 1.5 6.5t1.5 7.5q0 8 -2 52 q0 3 1 8t1 7t-1 7t-1 8q0 1 1 5.5t1 6.5q0 8 -1.5 28t-0.5 31q2 26 -1 34q1 3 2.5 9.5t2.5 8.5q-5 42 -5 50q0 2 1 8.5t0.5 11t-3.5 8.5q-7 4 -18 0t-15 -3q-3 0 -4.5 2.5t-2.5 6.5t-2 5v19q0 4 -0.5 12.5t0 15.5t3.5 12q5 3 16.5 3.5t16.5 2.5q8 6 8 36q0 7 0.5 20.5 t0.5 20.5q0 8 -2.5 22.5t-1.5 21.5q0 5 2 14t2 10q8 2 40 2q31 0 36 -2q9 -18 0 -74q3 -10 2.5 -36t5.5 -33q11 -6 35 -4.5t37 -0.5q6 -4 7 -21t3 -22q-2 -22 -8 -28z" />
<glyph unicode="u" horiz-adv-x="447" d="M49 429h30q4 0 12.5 0.5t13.5 -0.5t9 -4t5.5 -8.5t1 -10.5t-1 -13t-0.5 -12q-2 -24 0 -50q0 -15 -0.5 -43.5t0 -52t3.5 -43.5q-2 -5 -2 -17.5v-15.5q1 -1 1.5 -3.5t1 -5.5t0.5 -4q2 -5 8 -13.5t8 -14.5q5 -4 11 -12.5t8 -11.5q16 -3 30 -9q3 -1 10 -2t12 -2t9 -2 q11 5 35 11q2 1 18 14q2 2 5 4.5t6.5 5t5.5 4.5q1 6 9 14q1 6 5 15.5t5 11.5q-1 9 1 26.5t2 25.5q0 14 -1.5 62t1.5 61q-3 7 -3.5 15.5t0.5 20t1 16.5l-1 19q-2 19 1 19q9 6 40 6q33 0 41 -5q2 -4 2.5 -10t-0.5 -14t-1 -12q0 -3 1 -10.5t1 -11.5v-58q-1 -2 0 -3t1 -2 q0 -4 -2 -9.5t-2 -9.5q0 -3 1 -22.5t-3 -19.5q4 -13 4.5 -29.5t-1 -39t-1.5 -32.5q-2 -4 -5 -15t-6 -15t-13 -29q-11 -13 -16 -25q-3 -1 -34 -27q-41 -15 -48 -17q-12 -1 -35 -3t-33.5 -2.5t-36.5 0.5q-10 3 -26.5 11t-25.5 11l-16 13q-15 12 -39 46q-3 10 -16 39q0 6 -5 43 q3 17 3 56q0 2 -1 8.5t0 9.5q0 3 0.5 8.5t0.5 8.5q0 8 -1.5 23t-1.5 23q0 3 1 9t1 10q0 3 -1 9t-1 10q0 3 1.5 10t1.5 10q-2 24 -1 36l3 9t4 10t5 7z" />
<glyph unicode="v" horiz-adv-x="475" d="M54 432q11 3 30 2.5t30 0.5q3 -5 10 -6q1 -1 8 -15.5t12 -19.5q0 -5 11 -29q6 -14 14 -23q1 -6 5.5 -15.5t5.5 -16.5q6 -10 17 -34.5t18 -36.5q1 -17 11 -26q-1 -4 0.5 -9.5t1.5 -8.5q2 -2 4.5 -7t5 -8t5.5 -5q5 0 7 2t3.5 7t2.5 7q6 12 6 22q3 4 19 41q7 13 19 41 q4 8 13.5 24t15.5 29t9 27q3 2 6 7.5t5 6.5q5 19 8 21q2 13 8 19q3 2 9.5 3.5t9.5 2.5q10 -3 30 0.5t28 -0.5q0 -2 1 -3t1 -2q-1 -1 0 -2.5t1 -2.5v-11q0 -4 -2.5 -12t-3.5 -13q-10 -13 -24 -52q-1 -3 -6 -10t-5 -14q-13 -16 -23 -39q-11 -22 -13 -24q0 -1 -1 -6.5t-2 -7.5 q-1 -5 -11 -17q0 -1 -1.5 -6t-1.5 -8q-8 -7 -16 -29q-3 -4 -8 -14t-8 -14q-1 -7 -5 -19q-1 -3 -12 -19q-1 -3 -3 -7.5t-3 -9t-1 -10.5q-6 -6 -17 -28q-3 -4 -7.5 -14.5t-8.5 -15.5q-7 -2 -9 -5l-19 3q0 2 -3 2l-21 39q-2 5 -7 13t-7 11l-3 3v5q-13 26 -14 33q-1 3 -5.5 8 t-5.5 9q-3 11 -10 18q1 4 -1 9t-2 8q-1 3 -4.5 7t-4.5 7q-1 5 -3.5 14t-3.5 13q-7 16 -15 25q-1 3 -4.5 7.5t-6 9t-2.5 10.5q-19 28 -22 30q-10 20 -19 33q-3 10 -20 44q-9 37 4 51z" />
<glyph unicode="w" horiz-adv-x="694" d="M477 11q-12 1 -18.5 17t-11.5 19q-1 11 -19 39q0 7 -7 19q0 12 -8 32q0 4 -7.5 19.5t-12.5 21.5q-7 19 -16 28q-4 20 -9 32q-1 1 -6 11t-7 17q-5 1 -8 -4.5t-6 -6.5q0 -4 -2 -9.5t-1 -9.5q-4 -6 -18 -38q-13 -32 -15 -37q-4 -6 -9.5 -19t-8.5 -18q-13 -31 -14 -39 q-2 -2 -5.5 -8t-5.5 -8q0 -1 -1 -6.5t0 -7.5q-6 -5 -13 -21t-13 -22q-14 -1 -22 16q-10 20 -11 25q-2 5 -8 12t-8 10q-2 4 -4.5 13.5t-4.5 13.5l-11 25l-4.5 9t-6 13t-2.5 8q-4 5 -9.5 15.5t-7.5 13.5q-3 3 -7.5 14t-8.5 14q-1 9 -7 21.5t-7 19.5q-1 3 -6.5 11t-6.5 14 q-3 5 -11 15q-2 9 -12 23q0 2 -2 6t-1 7q-2 4 -8 10l-7 7q-2 6 -12 29t-10 41q2 1 3 6.5t4 7.5q2 1 8.5 -1t10.5 -1q26 4 41 3q-1 -1 1 -1q4 -1 8.5 -7.5t7.5 -7.5q1 -7 6.5 -19t6.5 -18q8 -16 18 -26q1 -2 2.5 -6t3 -6.5t3.5 -5.5t4 -5q1 -7 5.5 -17.5t5.5 -14.5 q1 -2 5.5 -9.5t8 -14t3.5 -9.5q8 -14 11 -22q3 -4 10 -22q1 -2 4.5 -10t6.5 -10q4 -18 11 -21q7 4 13 25q11 16 17 35q5 5 11.5 18.5t5.5 20.5q20 45 24 51q3 11 14 35.5t13 41.5q2 1 5 6.5t6 7.5q1 2 1.5 6.5t2 7.5t4.5 4q8 0 11.5 -3t7 -14t3.5 -12q1 -3 4.5 -8t4.5 -6 q1 -13 11 -25q1 -10 8 -24t8 -22q18 -25 32 -68q4 -6 12.5 -25.5t15.5 -27.5q4 -23 8 -26q7 4 14 27q6 6 13 22t12 22q6 19 22 51q7 23 13 28q0 1 4.5 10.5t4.5 11.5l10 11q6 20 17 38q10 27 21 35q9 -1 28 1t31 0t16 -12q0 -22 -15 -43q-3 -9 -16 -38q-16 -30 -19 -33 q1 -3 -1 -7t-2 -7q-13 -20 -15 -30q-3 -2 -6 -8t-5 -8q0 -3 -3.5 -8t-3.5 -9q-12 -22 -16 -35q-10 -9 -20.5 -33.5t-17.5 -33.5q-2 -15 -19 -41q-1 -7 -6.5 -20t-10.5 -24t-5 -12q-1 -3 -4.5 -6.5t-4.5 -5.5q-3 -8 -11 -11z" />
<glyph unicode="x" horiz-adv-x="499" d="M225 162q-2 -5 -7 -11.5t-6 -8.5q-1 -4 -7 -10t-7 -11q-3 -2 -8 -7.5t-9 -8.5q-10 -22 -27 -34q0 -3 -2.5 -6.5t-2.5 -6.5q-7 -5 -18 -20.5t-19 -20.5q-11 1 -36 -1t-39 0q-17 0 -20 7q-2 11 7 19t10 11q5 3 9 7t8 9t7 8q3 1 8.5 8t5.5 11q3 3 11.5 12t13.5 15 q16 23 24 27q4 10 16.5 24.5t16.5 22.5q6 1 12.5 9t12.5 10q4 16 16 30q-3 6 -14 17t-14 19q-7 3 -16.5 12t-13.5 12q0 2 -5 14q-21 26 -38 39q-5 11 -19.5 27.5t-18.5 21.5q3 15 8 22q13 -1 38 -0.5t39 -0.5q9 -6 21.5 -24t21.5 -24q2 -4 9.5 -12.5t9.5 -15.5l20 -22 l12 -11l1 -4q2 -3 4 -4.5t6 -1.5q7 1 12.5 11.5t9.5 12.5q0 3 3 6.5t4 4.5l5 6q1 2 11 15.5t14 21.5q15 10 19 26q4 3 10 9.5t9 8.5q1 0 4 1q5 0 6 2q13 -1 39 -1t38 -1l6 -14q-2 -13 -16 -26.5t-17 -22.5q-20 -18 -23 -22q-2 -2 -9.5 -10.5t-13.5 -11.5q-3 -10 -17 -25 t-17 -25q-1 -1 -6.5 -4t-7.5 -6q-1 0 -1 -2t-1 -3l-4 -4l-5.5 -5.5l-4.5 -4.5q1 -3 8.5 -15t8.5 -15q4 -6 13 -11q5 -3 12.5 -11.5t10.5 -10.5q1 -3 4 -7t4 -7q28 -30 35 -41q3 -4 11 -12t13 -14.5t9 -14.5q3 -3 12.5 -13.5t15.5 -14.5q2 -2 4 -5t5 -8t5 -9.5t2.5 -9 t-1.5 -7.5t-7 -4q-2 0 -3 -1q-14 2 -37.5 1t-39.5 0q-6 4 -16 13.5t-16 13.5q-3 9 -14 23t-14 23q-6 4 -16 19.5t-19 19.5q-4 16 -17 27q0 1 -8 14q-10 8 -14 8q-6 0 -11.5 -7.5t-7.5 -8.5z" />
<glyph unicode="y" horiz-adv-x="499" d="M89 -156q-2 5 0 22q1 3 5.5 7t5.5 5q13 37 27 52q8 27 23 51q2 2 3 7.5t2 6.5q1 3 5 7.5t5 8.5q1 3 3.5 8.5t3.5 7.5q1 1 5 6.5t5 8.5q2 8 9 15q1 6 9 21.5t7 25.5q-1 7 -9 19q-4 3 -8 11q-10 14 -11 16q-3 5 -9 14t-11 16t-10 12q-2 8 -9.5 20t-9.5 19q-3 3 -10 21 q-9 7 -9 19l-16 16q-13 37 -39 64q0 3 -2 8t-3 8q-6 10 -11 16l-3 1v4q-19 29 -5 47q10 -2 37 0t36 -2q4 0 5.5 -3t3 -7.5t2.5 -6.5l12 -14q1 -7 7.5 -15.5t7.5 -14.5q14 -23 17 -25q1 -4 5 -15q3 -4 30 -50q2 -4 12.5 -22t15.5 -29l11 -11q1 -2 4.5 -11t7.5 -13t10 -5 q5 2 9.5 10t7.5 10q8 24 15 35l7 17q7 12 7 17q9 12 11 15q0 4 2.5 10.5t3.5 11.5q3 3 8 12t9 13q1 9 5 17t10.5 16.5t8.5 13.5q7 38 27 46h42q29 0 35 -10q0 -1 2 -6q0 -1 -3 -7.5t-4 -11.5q-8 -10 -15 -23q-1 -1 -2 -4t-2 -4q-1 -3 -6 -8t-6 -8l-6 -21q-6 -7 -13.5 -24 t-12.5 -24q-3 -8 -11 -23t-11 -22q-3 -10 -5 -12l-4 -5q-2 -2 -3 -7t-2 -7q-4 -8 -14 -22q-10 -31 -25 -49q0 -4 -3.5 -11t-3.5 -13q-10 -12 -17 -33q-3 -5 -9 -15.5t-10 -15.5q-3 -6 -8 -17t-8 -18t-8.5 -16t-10.5 -16q-1 -4 -3.5 -10.5t-3.5 -9.5q-2 -3 -6.5 -11t-6.5 -13 q0 -1 -3 -11l-3 -1q-4 -9 -8 -27q-8 -7 -20 -29.5t-23 -30.5q-4 -2 -39 -2h-11h-11t-9 1.5t-7 5.5z" />
<glyph unicode="z" horiz-adv-x="491" d="M442 28q-8 -6 -25 -12q-12 2 -69.5 0t-69.5 -2q-4 -1 -9 1t-8 2q-40 -4 -123 0q-7 0 -22.5 -0.5t-27 0.5t-20.5 5q-8 -4 -18.5 -1.5t-14.5 9.5q-1 11 8.5 20.5t10.5 13.5q6 4 14 14t11 13q14 20 26 29q2 6 10.5 15.5t11.5 14.5q5 5 12.5 15.5t10.5 13.5q1 1 4 3t4 4 t4.5 6.5t6.5 8t7 5.5q2 8 22 30q2 5 10.5 14t11.5 16q26 18 39 49q4 3 19 21q14 14 16 23q-4 3 -9 3.5t-12.5 -0.5t-10.5 -1q-2 0 -5 0.5t-4 0.5q-3 1 -13.5 0t-13.5 -1q-54 -4 -73 3q-7 -3 -47 -3q-2 0 -8.5 -0.5t-10 -1t-8 0t-7.5 2.5t-5 5q-3 57 16 65q6 1 14 -2t11 -3 q16 3 56 1t59 2q12 -2 52 0q27 -7 55 0q9 -2 29.5 -1t28.5 -2q31 7 52 3q4 -5 1 -15t-4 -12.5t-7 -10.5t-7 -9q-23 -30 -31 -35q-2 -7 -9.5 -17t-9.5 -14q-3 -1 -6.5 -6t-6.5 -7q-8 -10 -9 -16q-10 -6 -29 -27q-1 -2 -5.5 -6.5t-6.5 -7.5q-1 -3 -5.5 -7.5t-5.5 -8.5 q-6 -3 -14 -11t-12 -11l-3 -15q-15 -11 -31 -29q-23 -21 -27 -31q-14 -7 -22 -22q-18 -15 -19 -24q2 -3 20 -3q2 0 12 -0.5t10 1.5q35 2 41 4q12 -4 36.5 -3t36.5 -1l17 4q9 -2 29.5 -0.5t29.5 0.5q30 3 36 1q15 -16 3 -63z" />
<glyph unicode="{" />
<glyph unicode="|" horiz-adv-x="130" d="M89 -40q-3 -4 -25 -6q-3 0 -7 -0.5t-6.5 -1t-5.5 0.5t-5 3q-5 19 -3 54q0 7 0.5 23.5t0.5 25.5t0.5 29t0.5 29q0 6 -1.5 41.5t0.5 43.5q0 19 -2 24q1 6 1 30q-2 63 0 93q-1 12 -1 118q-1 91 0 184q-2 15 -2 39t-3 40q1 5 1.5 24.5t3.5 25.5q4 5 25 5q21 -3 24 -8 q2 -5 2 -22q1 -13 -1 -25q0 -5 0.5 -5t0.5 -5v-9q0 -6 1 -19t1 -20q0 -4 -1 -15t-1 -15q0 -139 3 -201q0 -2 -1.5 -8t-1.5 -10v-62q2 -20 2 -31q0 -49 1 -53q-1 -10 -1 -61q0 -118 -2 -178q2 -3 2.5 -11t1.5 -11q-1 -10 -0.5 -20t0.5 -20.5t-2 -15.5z" />
<glyph unicode="}" />
<glyph unicode="~" />
<glyph unicode="&#xa1;" horiz-adv-x="189" d="M140 543q0 -2 3 -6.5t2 -9.5q-2 -6 -5 -42q0 -1 -1.5 -18.5t-1.5 -25.5v-98v-69t-2 -86q-2 -37 0 -110q2 -38 -4 -55q-19 -7 -41 -2q-36 2 -45 7q-3 15 -3 32.5t1.5 39t1.5 33.5q0 9 -0.5 26.5t-0.5 27.5q0 12 1.5 36.5t1.5 35.5v93v60q0 8 -0.5 24.5t0.5 19.5q2 12 0 54 q-2 29 5 36q4 6 18.5 1.5t20.5 -4.5q5 -1 12 2t13 3q5 2 14 -1.5t10 -3.5zM151 663q-2 -12 -2 -19q-6 -10 -4 -21q-9 -15 -30 -22t-43 0q-2 1 -5.5 5t-6.5 5q-21 37 -22 52q0 2 12 34q4 2 10.5 5t12 5.5t10.5 4.5q23 0 27 1q16 -8 32 -12q1 -2 1.5 -7t2.5 -6q0 -2 4 -4.5 t3 -6.5q-1 -2 -0.5 -5t0.5 -6t-2 -3z" />
<glyph unicode="&#xa2;" horiz-adv-x="415" d="M267 -48q-3 -4 -25 -6q-3 0 -7 -0.5t-6.5 -1t-5.5 0.5t-5 3q-4 17 -4 42q-2 0 -6 2t-7 3q-2 1 -5 0.5t-4 -0.5t-3 1l-2 2l-30 5q-7 7 -22.5 16.5t-20.5 13.5q-14 21 -25 25q-2 4 -15 21t-16 30q-1 4 -4 10l-4 8q-1 3 -2.5 9.5t-3.5 9.5q0 4 -2 8v19q-3 21 -3 25 q0 11 0.5 22t1.5 24t1 21q1 3 3.5 12t4.5 13q3 4 8 23q9 8 12 19l6 7q7 7 9 11q4 6 14.5 17t14.5 16q22 8 34 22q23 9 28 14q9 2 28 8q4 -1 12 -1q-4 18 1 42q4 5 25 5q21 -3 24 -8v-36q18 1 38 0q5 -3 18.5 -6t18.5 -7q24 -5 32 -19q0 -4 2 -5q-3 -28 0 -60q0 -2 1 -9.5 t0 -12t-5 -8.5q-10 -1 -18.5 8t-12.5 10q-4 4 -15 9t-15 8q-6 0 -28 8q-9 -1 -16 0q0 -4 0.5 -11.5t0.5 -11.5q0 -49 1 -53q-1 -10 -1 -61q0 -87 -1 -133h19q36 8 56 24q3 2 7.5 7.5t9 8.5t10.5 3q6 -6 7.5 -16.5t0 -21t0.5 -22.5q2 -4 2 -13.5v-11.5q-1 -6 -7 -11t-7 -8 q-16 -13 -18 -14q-8 -2 -26 -4t-26 -4h-25q0 -34 -2 -40zM195 86q9 -1 21 -7q1 10 1 30q0 6 -1.5 41.5t0.5 43.5q0 19 -2 24q1 6 1 30q-2 62 0 92q-1 0 -3 -0.5t-3 -0.5q-4 -1 -9 -5.5t-8 -5.5q-2 -1 -8 -4.5t-8 -6.5q-5 -4 -14 -13.5t-14 -13.5q-1 -2 -11 -18 q-2 -6 -6 -15.5t-6 -15.5t-4 -18t-2 -29q4 -19 35 -78q6 -6 20.5 -15.5t20.5 -14.5z" />
<glyph unicode="&#xa3;" horiz-adv-x="394" d="M285 382q-48 -9 -50 -9q-5 0 -16 2t-17 1l-18 -3q-10 3 -24 3q-5 -33 1 -85q-3 -37 -1 -80q0 -15 -0.5 -57.5t0.5 -59.5q4 -6 12.5 -7t17 0t17.5 -1q7 2 26 3t26 4l59 -7q50 1 51 -15q3 -1 3 -5v-35q1 -6 -0.5 -10t-4.5 -8t-4 -7q-7 -4 -17 -6q-11 -4 -19 -5l-10 2 q-1 0 -4 -1t-5 -1q-8 0 -26 1.5t-33 1.5t-26 -3q-10 3 -24 3.5t-35 -0.5t-30 -1q-4 0 -17.5 -0.5t-19 0t-15 2t-14.5 6t-8 11.5q-2 5 1 14.5t3 11.5t-1 5.5t-1 5.5q0 10 2 32v33q-2 4 -2 5l2 83v16q-1 3 -2 5.5t0 3.5q0 27 0.5 118t1.5 139q0 10 -4 22v90q0 43 7 56 q9 4 60 6q2 -1 11 -4t12 -6q1 -1 3 -4t4 -4q3 -10 3 -52l-2 -52q0 -4 1 -13t1 -13t-1 -13t-1 -14q0 -8 -0.5 -22t-0.5 -20q36 -3 38 -3q3 0 10 1.5t11 1.5t10.5 -0.5t9.5 -0.5q7 0 23.5 0.5t22.5 -0.5q8 -4 14 -21q2 -19 -6 -33l-2 -3q-2 -3 -3 -5z" />
<glyph unicode="&#xa4;" />
<glyph unicode="&#xa5;" horiz-adv-x="578" d="M434 130q-2 0 -10 -3.5t-12 -1.5q-9 3 -74 -1q11 -46 3 -66q0 -3 1.5 -12t1.5 -13q0 -16 -4 -22q-23 -15 -67 -8q-19 2 -23 6q-1 1 -2 3.5t-3 3.5q-4 5 -0.5 28.5t3.5 29.5v39q0 3 2 11h-15l-18 -3q-12 4 -33 2q-16 -2 -23 -4q-10 0 -12 -0.5t-7.5 4.5t-6.5 6 q-5 17 -3 34q2 19 11 27q6 0 18 2q3 0 40 -1t44 0q5 35 5 86h-15l-18 -3q-4 1 -5 -0.5t-6 -1.5q-3 0 -19.5 0.5t-19.5 -0.5q-31 -10 -32 10q0 5 0.5 10t1.5 11t1 10q1 6 0.5 11t0.5 10t4 8q1 2 6 2t9.5 -0.5t8.5 0.5q3 0 19.5 -0.5t23.5 0.5h3q-4 5 -14 21.5t-17 23.5 q0 1 -1.5 6t-1.5 8l-16 18q-5 13 -20 35.5t-21 36.5q-4 7 -16 19q-10 28 -22 47q-3 3 -12 13t-14 18t-8 17q-2 5 -9.5 13t-9.5 13v23q4 5 19.5 7t19.5 4q8 -3 29 -4t29 -4q4 -1 7 -8t6 -8q1 -2 4.5 -8t4.5 -9q13 -22 23 -32q1 -1 1 -6t2 -7q23 -37 25 -42q2 -1 5 -5.5 t6 -5.5q1 -6 4.5 -13.5t4.5 -11.5q3 -6 10.5 -14t8.5 -10q4 -8 3 -14q2 -3 5.5 -6t4.5 -5q1 -1 2.5 -6t5.5 -5q10 -18 19 -21q1 -1 2.5 -5.5t3 -7t5.5 -3.5q9 0 17.5 10t10.5 11l3 14q6 4 13 17.5t11 17.5q1 8 10 22.5t17 25.5l8 10q11 24 19 33q5 24 17 33q8 19 19 30 q0 8 2.5 13.5t7 12t6.5 9.5q29 8 53 2q24 2 38 1q1 -2 4 -5t4 -6q1 -13 -7.5 -27.5t-9.5 -19.5q-1 -1 -16 -25q-17 -36 -32 -51q-9 -22 -20 -33q-4 -6 -12.5 -17.5t-9.5 -13.5q-7 -10 -18.5 -31t-18.5 -31l-6 -9q-1 -1 -4.5 -5t-4.5 -6q-2 -4 -4.5 -11.5t-3.5 -9.5 q-4 -6 -5 -9l-7 -14h13q7 0 23.5 0.5t22.5 -0.5q5 -2 5 -11.5t1 -11.5q0 -3 2 -10t2 -10.5t-2 -9.5q-3 -6 -5 -8q-10 -10 -22 -5q-9 3 -75 -1q-1 -14 0.5 -46t1.5 -40q9 0 27 0.5t19 0.5q7 0 23.5 0.5t22.5 -0.5q8 -4 14 -21q2 -19 -6 -33l-2 -3q-2 -3 -3 -5z" />
<glyph unicode="&#xa6;" />
<glyph unicode="&#xa7;" horiz-adv-x="620" d="M118 -13q6 6 17 8t27.5 2t23.5 1q2 -2 8 -4t8 -5q6 -24 8 -33q10 -21 11 -27q3 -3 35 -30l12 -3q1 0 3 -2l2 -1q1 0 3.5 0.5t4.5 -0.5q1 0 10 -3t12 -3.5t9 1t11 5.5q3 -2 13 -0.5t13 1.5q39 21 58 52q4 20 8 30q1 9 -1 22t-2 19q-1 2 -5.5 9t-5.5 12q-13 13 -26 22 q-5 2 -13.5 9t-14.5 10q-12 0 -33.5 3.5t-35.5 2.5q-17 4 -24 5q-12 6 -21 6l-15 10q-12 4 -18 8l-6 6q-1 1 -5 1l-4 4t-6.5 5.5t-6.5 3.5q-3 4 -14.5 19.5t-18.5 23.5q-1 3 -14 30q-5 13 -6 30.5t-0.5 27t3.5 35.5t3 30q5 13 17.5 34.5t15.5 28.5q7 3 16 14q13 7 15 14 q0 4 -3.5 7t-9 5t-7.5 4q-2 3 -8 8t-8 9q-4 6 -16 16q-1 5 -5.5 11.5t-5.5 10.5t-5.5 10t-5.5 10q0 5 5 85q11 39 27 68q15 17 19 25q13 9 27 23q25 11 33 17q26 3 48 16q11 5 92 -8q25 -17 38 -25q6 -3 17 -13t19 -13q11 -15 25 -28l19 -38q2 -9 6 -24t5 -23q3 -1 0.5 -6.5 t-1.5 -7.5q-2 0 -2 -2q-16 -12 -49 -5q-2 0 -9.5 -3t-12.5 -1t-9 12q-1 2 -1 6q-1 2 -1 4q-3 17 -14 39q-3 6 -12 14.5t-12 12.5q-14 4 -19 11q-4 0 -7 1.5t-7 4t-6 3.5q-25 3 -49 0q-8 -3 -35 -15q-4 -2 -10 -9.5t-10 -9.5q-1 -7 -8.5 -13t-9.5 -9q-8 -24 -12 -48 q10 -33 11 -34l3 -3q2 -3 5 -11t6 -12l27 -15q12 1 31.5 -5t32.5 -3q4 -1 8.5 -4t7.5 -3q8 0 15 -2.5t15.5 -6t13.5 -5.5q7 -3 20 -9t20 -8q4 -2 12 -10t15 -11q2 -7 15 -18q5 -10 15 -25.5t14 -23.5q1 -8 11 -51v-23q-1 -5 -4 -29.5t-7 -35.5q-2 -4 -18 -32 q-18 -19 -23 -26q-4 -2 -12.5 -7.5t-14.5 -7.5q0 -5 6.5 -9t7.5 -5q1 -3 6.5 -7t6.5 -7q18 -18 25 -30q17 -23 28 -80q2 -23 -1 -54q-7 -11 -11 -31q-10 -12 -16 -30q-33 -38 -36 -44q-26 -6 -44 -18q-24 -3 -40 -12q-13 3 -35 -4q-9 2 -27 2h-23q-29 8 -35 8q-5 6 -23 16 q-20 12 -26 14q-9 19 -25 27q-9 23 -20 34q-2 7 -8.5 24.5t-9 31.5t-0.5 29zM410 306l-19 36q-5 2 -13.5 9t-13.5 10q-27 15 -53 17h-9.5t-9.5 -1q-2 -1 -6.5 -3t-6.5 -2q-1 0 -7 -1t-9 -2t-11 -7t-14 -7q-8 -13 -19 -21q-2 -7 -9.5 -21t-9.5 -24q-1 -22 5 -54l13 -14l9 -18 q6 -3 26 -14.5t33 -16.5q7 -1 18 0t13 1q2 1 30 7q2 1 12.5 8.5t17.5 10.5q2 5 12 12t13 13q3 5 4 15.5t2 14.5q8 22 8 23q0 2 -1 2q0 4 -2.5 12.5t-2.5 14.5z" />
<glyph unicode="&#xa8;" horiz-adv-x="572" d="M348 597q0 1 -1 5.5t-2 6.5q6 37 35 54q7 1 18.5 3t14.5 3q7 -1 19 -9q10 -7 17 -18q10 -17 10 -56q-12 -23 -54 -32q-12 0 -27 10q-20 10 -30 33zM285 612q2 2 2 -1q-1 -4 -1.5 -12.5t-1.5 -12.5q-2 -5 -7 -10.5t-6 -8.5q-21 -12 -22 -13q-6 2 -25 0q-5 1 -14 5t-15 5 q-2 3 -7.5 11t-9.5 12q-4 18 5 41l6 18q16 14 30 20q63 2 66 -54z" />
<glyph unicode="&#xa9;" />
<glyph unicode="&#xaa;" horiz-adv-x="499" d="M457 30q-6 -8 -42 -27q-21 2 -30 0q-8 6 -8 27q0 3 1 10t0 11t-4 6q-6 -1 -13 -9.5t-9 -9.5q-1 -1 -9.5 -8t-11.5 -12q-13 -3 -23 -11q-16 -5 -51 -10l-15 -3q-12 -1 -35.5 2t-34.5 3q-18 6 -28 8q-12 10 -21 12q-14 12 -20 13q-3 9 -16 16q-7 15 -16 20q-5 20 -17 28 q-1 15 -13 35q-2 9 -3.5 35t-4.5 38q7 30 4 42q4 6 5 23t2 21q1 3 5 12t5 15q8 8 11 24q3 3 9 11.5t7 10.5q16 19 17 20q7 4 33 26q6 1 17 6t16 6l11 2q1 0 11.5 3t15.5 3q2 0 7.5 -0.5t8.5 -0.5q7 0 27 1t26 -1l8 -4l16 -4q5 -2 44 -24q2 -3 6 -8.5t6.5 -9t7.5 -7t10 -5.5 q7 4 6.5 22.5t1.5 27.5q22 14 71 5q19 -35 6 -104q4 -22 0 -82l3 -19q-3 -4 -0.5 -26t2.5 -27q0 -6 -1.5 -18t-1.5 -21.5t3 -17.5q-2 -13 -1.5 -38.5t-0.5 -37.5zM372 279l-9 15q-10 13 -10 14q-7 4 -18 14t-16 14q-20 7 -24 11q-7 0 -19 3t-20 3q-9 1 -23.5 -1.5 t-17.5 -2.5q-8 -2 -21.5 -8.5t-15.5 -7.5q-28 -26 -33 -28q-1 -6 -6 -15t-6 -12q-11 -29 -11 -30q0 -9 -2.5 -22.5t-2.5 -18.5q4 -16 3 -25q2 -4 6 -13.5t5 -12.5q0 -5 0.5 -9.5t2 -7.5t3 -7t2.5 -7q4 -4 15 -11.5t15 -12.5q8 -8 32 -22q4 0 26 -5q6 1 13.5 -1.5t13.5 -2.5 q4 0 7 0.5t6 1.5t6 1t7.5 3.5t8.5 2.5q1 1 4 1.5t6 0t6 0.5q6 5 15 6q3 4 19 13q2 2 5.5 8t5.5 9q34 21 32 120q0 2 -2 1q0 15 -8 41z" />
<glyph unicode="&#xab;" horiz-adv-x="365" d="M80 231q2 -8 10.5 -18.5t10.5 -14.5q8 -7 11 -16q1 -2 5.5 -6.5t5.5 -9.5l16 -12q3 -8 12.5 -20t12.5 -18q3 -2 8 -8t8 -8q1 -3 6.5 -8t7.5 -9q12 -7 14 -8q1 -5 7.5 -13.5t5.5 -15.5q-1 -5 -5 -9t-11 -7.5t-10 -5.5q-19 0 -25 3q-5 4 -11 18q-2 2 -9 7.5t-11 7.5 q-5 7 -5 12l-18 12l-6 16q-1 2 -5 4.5t-6 4.5q-3 4 -8 12.5t-9 11.5q-3 10 -14.5 22.5t-14.5 21.5q-12 9 -31 41q0 6 4 14.5t4 14.5q11 9 27 33t26 33q2 4 7 9.5t6 7.5q3 7 13 17q3 5 11.5 17t11.5 20l19 14q2 3 7 19.5t12 21.5q7 0 15.5 -3t16.5 -2q19 -19 20 -28 q-1 -4 -6.5 -9t-6.5 -9l-15 -12q-25 -35 -35 -41q-1 -6 -14 -24q-1 -1 -2.5 -3t-3 -4.5t-2.5 -3.5l-14 -14q-1 -1 -2.5 -3t-3 -4.5t-2.5 -3.5q-17 -23 -19 -28q-12 -7 -16 -16zM332 35q-19 -14 -39 -9q-5 4 -11.5 13t-10.5 12q-3 1 -13 11v2q0 2 -1 3t-5 2.5t-6 3.5 q-2 8 -10.5 17.5t-10.5 14.5q-7 9 -19 31q-4 4 -10 13t-9 12q-4 6 -14 17t-14 15l-6 9l-3 5l-3 1q-2 0 -2 1q-10 13 -10 20q0 4 2.5 7t6.5 7t6 7q1 1 2.5 5t3.5 6q1 1 3 2q5 4 5 7q4 5 14 18.5t17 19.5q1 2 4 5l4 4q1 2 3 7l3 1q8 14 16 22q17 20 27 43q18 14 33 43 q12 4 25 1q8 -2 14.5 -9.5t7.5 -14.5q1 -5 -1 -10t-4 -8t-6 -8.5t-6 -7.5q-16 -23 -22 -29q-3 -5 -11 -14t-11 -14q-24 -32 -39 -39q-1 -5 -3.5 -12t-3.5 -9q-1 -1 -4.5 -3.5t-5 -5.5t-1.5 -8q-15 -10 -16 -13q3 -11 16 -25t16 -21q4 -2 9 -10.5t8 -11.5q1 -3 4 -6t4 -5 q5 -9 10 -9q6 -13 34 -43q5 -10 35 -42q0 -1 2 -5q-2 -10 -4 -16z" />
<glyph unicode="&#xac;" />
<glyph unicode="&#xad;" horiz-adv-x="254" d="M210 185q-48 -9 -50 -9q-5 0 -16 2t-17 1l-18 -3q-25 8 -56 -2q-3 2 -12.5 4.5t-13.5 5.5q-12 43 8 61q42 3 43 3q7 0 21 -1.5t21 -1.5q4 0 11 1.5t10 1.5q4 0 10.5 -0.5t9.5 -0.5q7 0 23.5 0.5t22.5 -0.5q8 -4 14 -21q2 -19 -6 -33l-2 -3q-2 -3 -3 -5z" />
<glyph unicode="&#xae;" />
<glyph unicode="&#xaf;" />
<glyph unicode="&#xb0;" />
<glyph unicode="&#xb1;" />
<glyph unicode="&#xb2;" horiz-adv-x="523" d="M437 335q-19 -4 -30 -4l-34 -4q-3 0 -7 0.5t-6 0.5q-16 0 -19 2q-3 -3 -13 -3t-12 -1q-4 1 -29 1h-23q-17 0 -29 3q-3 -1 -6.5 -2.5t-5.5 -1.5q-3 0 -5 1t-5 1q-7 -1 -32.5 -0.5t-35.5 0.5q-2 0 -8.5 -1t-10.5 0t-7 4q0 6 6.5 10t7.5 6q5 3 13.5 9.5t12.5 8.5q1 1 3.5 2 t3.5 2q18 11 21 12q2 3 8.5 8t8.5 10q10 4 25.5 15.5t19.5 14.5q2 5 11 9t11 8l21 17q32 34 38 47q1 2 9 29q-2 30 -6 37q-1 4 -5.5 10.5t-5.5 10.5l-21 18q-5 0 -13.5 4.5t-10.5 5.5q-3 1 -34 1q-1 0 -3 0.5t-3 0.5q-6 -1 -23 -8q-4 -3 -11 -10t-12 -10q-2 -4 -12 -17 q-1 -6 -8 -21v-20q0 -4 3 -15.5t5.5 -21t2.5 -10.5q0 -2 -4 -5.5t-8 -4.5q-4 -3 -22.5 -7.5t-19.5 -3.5q0 1 -3 4l-3 3q-2 2 -4 9.5t-5 9.5q0 8 -2.5 22.5t-2.5 22.5q3 22 3 23q4 9 4 27q6 10 7 18q7 6 18 28l20 21q4 2 10.5 7t12.5 8.5t13 4.5q12 6 15 9q5 -1 19 5 q4 -1 16 2h22q6 -1 18 -5t20 -5q2 -1 9.5 -5t10.5 -6q2 -1 8.5 -5t10.5 -6q3 -4 10.5 -11.5l10.5 -10.5q2 -4 11 -16t13 -19q1 -10 7 -24q1 -12 1 -36v-34q0 -2 -2.5 -7t-1.5 -10q-4 -4 -9 -14.5t-6 -12.5q0 -3 -2 -4.5t-4.5 -3t-3.5 -2.5l-9 -12q-5 -1 -12 -6.5t-10 -6.5 q-9 -8 -17 -17q-15 -4 -27 -16q-5 0 -13 -10q4 -4 17 -2q28 2 40 -2l9 3q32 0 41 1q7 0 20.5 2.5t19.5 1.5q9 -13 9 -61z" />
<glyph unicode="&#xb3;" horiz-adv-x="455" d="M89 362q2 1 21 1q31 0 34 -5q2 -4 2 -8.5t-1 -10.5t-1 -9q1 -4 3 -11.5t3 -11.5q2 -5 7.5 -12.5t7.5 -12.5l18 -16q8 -2 21 -7.5t18 -7.5q36 3 60 13q2 1 8 6.5t11 6.5q2 3 9 11t9 15q1 3 2 10t2 10q3 16 2 20q0 12 -6.5 26.5t-7.5 16.5q-9 14 -37 32q-4 0 -4 2 q-14 0 -22 4q-14 -2 -19 4q-4 35 0 60q7 6 22 6l21 5q1 1 5.5 5t8.5 5q2 4 10 16t11 20l3 24q-1 9 -5 16.5t-10 15.5t-8 12q-4 3 -12 8t-12 8q-15 4 -40 4q-23 -8 -30 -13q-21 -18 -32 -51q0 -7 2 -16.5t2 -15.5q-3 -7 -12 -8.5t-18.5 0t-18.5 -0.5q-2 1 -7 3t-7 4 q-4 7 -4 30q1 4 2.5 11t2.5 13t1 12q7 11 10 29q5 6 13 20q11 8 17 17q11 2 26 15q16 8 31 12q2 0 37 3q5 0 15 -1.5t16 -1.5q2 -2 28 -12l17 -10q2 -3 7.5 -7t7.5 -6t7 -8t8 -9l20 -41q1 -9 7 -32q-1 -6 -1 -17.5t-2 -18.5q-10 -23 -11 -28q-12 -16 -28 -28q-5 -2 -6 -4 q-18 -7 -21 -10q1 -5 9.5 -7.5t9.5 -3.5t9 -4.5t10 -6.5q3 -1 6 -6.5t5 -6.5q2 0 3 -1t1.5 -2.5t1.5 -2.5q7 -7 22 -39q2 -6 1.5 -18t0.5 -18t6 -22l-2 -27q0 -4 -4 -10.5t-3 -11.5q-7 -11 -11 -21q-1 -1 -14 -16q-1 -2 -5.5 -7.5t-5.5 -10.5q-5 0 -9 -2.5t-8 -6t-7 -4.5 q-4 -2 -11 -7.5t-11 -7.5q-8 -1 -24 -7q-6 2 -16 0.5t-16 -0.5q-4 1 -7 -1.5t-6 -2.5q-5 0 -11 4q-14 -5 -31 4l-9 3q-5 5 -19 9q-11 13 -22 16q-3 6 -11.5 15t-11.5 13t-9 16t-11 16q-2 13 -8 30q0 3 -1 6.5t-1 5.5q1 4 1 13.5t1.5 16.5t4.5 12z" />
<glyph unicode="&#xb4;" horiz-adv-x="538" d="M414 636q2 -7 -0.5 -12t-11.5 -11t-10 -7q-3 -5 -12.5 -11.5t-12.5 -11.5q-7 -3 -15.5 -10.5t-13.5 -10.5q-4 -5 -13.5 -12t-12.5 -10q-2 -1 -3 -3t-2.5 -4.5t-2.5 -3.5q-6 -1 -14.5 -8.5t-14.5 -8.5q-4 -1 -9 0t-11 3t-10 3q-16 3 -17 19q-1 6 4.5 11t5.5 9q8 7 20 23 t19 23l10 13q10 12 14 20q5 3 11.5 15.5t13.5 16.5q7 1 26 -0.5t24 -1.5q14 -7 26 -11q1 -2 6.5 -7.5t5.5 -11.5z" />
<glyph unicode="&#xb5;" />
<glyph unicode="&#x3bc;" />
<glyph unicode="&#xb6;" />
<glyph unicode="&#xb7;" horiz-adv-x="222" d="M175 323l2 -2q-1 -8 -4 -14.5t-7.5 -14.5t-6.5 -12q-30 -15 -62 -15q-17 8 -21 13q-2 2 -8.5 6t-9.5 8q-4 8 -2.5 25t6.5 26l15 21q17 21 36 21q6 0 37 -13q20 -31 25 -49z" />
<glyph unicode="&#xb8;" horiz-adv-x="472" d="M278 -86q-4 -8 -5 -13q-17 -15 -19 -25q-8 -6 -21.5 -21t-21.5 -22q-6 0 -20 2l-17 3q-3 2 -8 8t-5 10q0 6 5 13t4 15q10 4 18.5 19.5t13.5 19.5q0 3 1 6t1 5q1 3 5.5 6.5t5.5 4.5q-1 9 0 11q13 15 14 26q17 12 19 12q5 -1 12.5 -6t9.5 -6q13 -3 25 -2q11 -2 14.5 -14.5 t-3.5 -21.5q2 -3 -11 -16t-17 -14z" />
<glyph unicode="&#xb9;" horiz-adv-x="299" d="M210 341q-2 -1 -24 -1q-3 0 -11.5 -1t-14 0t-10.5 4q0 4 -4 6q-1 6 1 25t-1 26q3 13 2.5 42t1.5 43q-6 37 -2 54l-2 19q2 7 1.5 19t0.5 19q-2 3 -4 17.5t-7 17.5q-11 1 -33 -2.5t-30 0.5l-7 8q-2 9 0 30q2 23 5 27q8 3 34 3h35q6 0 17.5 1t16.5 1q1 0 4 -0.5t5 -0.5t7 1 t9 0.5t7 -2.5q5 -6 5 -26q0 -5 -0.5 -14t-0.5 -14v-113v-31q0 -39 -1 -42q2 -1 2 -25v-28q0 -1 1 -3.5t1 -3.5t-1 -3t-1 -4l4 -23q-1 -1 0 -2l1 -1q1 -11 -7 -23z" />
<glyph unicode="&#xba;" horiz-adv-x="523" d="M438 538h1q1 -7 -2 -30q-2 -4 -2.5 -14t-1.5 -13l-12 -28q-2 -3 -7.5 -12t-7.5 -14q-11 -8 -15 -14l-14 -13q-12 -5 -24 -14q-6 -2 -11 -8q-9 -2 -11 -6q-4 0 -24 -8q-61 -2 -81 3l-3 2h-5q-15 3 -38 15l-15 7q-7 5 -19.5 15t-16.5 13q-2 5 -7.5 13.5t-6.5 9.5l-9 18 q-2 2 -2 3l-9 22q0 4 -2 19q-1 7 0 17t0 15q0 3 2 16.5t4 19.5q1 7 5 18.5t4 13.5q1 2 4.5 7.5t4.5 10.5q7 6 12 15q11 7 14 14q2 3 7.5 6.5t6.5 4.5q2 2 6 7.5t7 7.5q18 6 26 6q9 4 51 14h41q5 -2 29 -6q0 -2 5 -3t6 -2q2 0 6.5 -2t7.5 -1q2 -3 15 -9q3 -2 8 -6t8 -6 q1 -1 4 -5t6 -6l8 -4q1 -2 5.5 -8t6.5 -9q3 -3 7 -9t6 -8q1 -2 1.5 -5t0.5 -4q5 -7 5 -8q1 -2 4 -7.5t5 -8.5q0 -8 3 -21.5t3 -20.5zM373 548q-5 12 -20 43q-7 5 -8 11q-9 4 -20 13l-21 12q-20 9 -59 7q-17 -4 -28 -7l-42 -33q-1 -4 -14 -22q-9 -45 -7 -60q2 -4 7 -19 q1 -3 3 -9.5t4 -9.5q4 -7 14.5 -15.5t11.5 -9.5q2 -3 8 -6t7 -5q5 -4 17 -9q2 0 2 -1q8 -2 21.5 -3t18.5 -2q5 2 28 2q5 4 14 4q7 6 25 16q3 4 10.5 13t11.5 14t9 14t7 18q1 7 1.5 22t0.5 19q0 1 -1 1q0 2 -1 2z" />
<glyph unicode="&#xbb;" horiz-adv-x="370" d="M147 31q-2 10 2 18.5t14 7.5v5q-1 6 2 6q2 5 9 12.5t8 9.5q16 21 17 23q1 1 2 3.5t2 3.5t6.5 6t5.5 10q14 18 16 24q6 2 12 10t8 10q2 3 8 10.5t8 13.5q3 3 9 7l9 6q-1 7 1 15q0 5 -5 9.5t-6 8.5q-2 1 -7 6t-9 6q-1 4 -4.5 9.5t-4.5 8.5q-8 7 -28 34q-25 30 -45 60 q-2 2 -9 7t-11 9.5t-6 10.5q0 9 2 15t7.5 10.5t9.5 7t12 5.5q11 -4 24 -25q2 -6 4 -8q3 -3 8 -13q3 -5 10.5 -13.5t10.5 -13.5q2 -3 6.5 -6.5t5.5 -4.5q5 -10 17.5 -25t17.5 -24q2 -2 6.5 -5.5t6.5 -5.5q7 -15 16 -22q2 -2 7 -10t10 -10q1 -6 5.5 -12.5t5.5 -9.5q-1 -2 0 -3 t1 -2q0 -2 -2.5 -8.5t-1.5 -11.5l-16 -12q-3 -5 -15.5 -21t-14.5 -29l-33 -35q-3 -12 -19 -34q-2 -6 -11 -15.5t-11 -16.5q-7 -3 -17.5 -12.5t-17.5 -12.5q-5 0 -20 5q-6 2 -18 8zM65 18q-24 8 -29 35q1 5 7.5 12t7.5 13q4 2 8.5 6.5t7.5 5.5q8 20 38 48q0 2 1.5 5t1.5 6 q6 4 14.5 15.5t15.5 15.5q4 11 16.5 26.5t16.5 25.5q-3 8 -15 19t-15 18q-2 2 -8 7t-9.5 8t-7 8t-5.5 11q-23 21 -28 33q-3 1 -7.5 4t-6.5 4q-3 11 -8 19l-9 10q-9 10 -15 14q0 4 -4 9t-4 10q0 2 1.5 5t0.5 6q1 3 7 6t7 6q4 0 8 5.5t9 4.5q5 0 8 -2t5.5 -5.5t4.5 -5.5 q1 -1 8 -10.5t11 -14.5q12 -22 18 -24q2 -7 12 -17q24 -32 37 -47q10 -9 25.5 -31t25.5 -31q1 -4 4.5 -9t4.5 -8q1 0 1.5 -1.5t1.5 -1.5q1 -7 -1 -11.5t-8.5 -9.5t-7.5 -6q-1 -4 -5.5 -10t-5.5 -11q-8 -4 -18 -18t-15 -18q-1 -7 -8 -16.5t-8 -10.5q-2 -5 -8.5 -12t-8.5 -11 q-27 -36 -32 -51q-7 -3 -17.5 -14.5t-20.5 -13.5z" />
<glyph unicode="&#xbc;" horiz-adv-x="742" d="M686 7q-2 0 -7 -3t-10 -2q-14 2 -20 0q-12 3 -40 3q-4 -6 -5 -13.5t-1 -13t1 -16t1 -14.5v-13q0 -2 0.5 -4.5t0.5 -3.5v-35q0 -4 1.5 -13t2 -13t-0.5 -12q-4 -2 -9.5 -2.5t-10.5 0t-12 -0.5q-3 0 -9 -2t-8 -2q-2 1 -5.5 2l-7 2t-5.5 3l-8 13q5 20 6 22q1 8 -0.5 22 t-1.5 18q0 36 -2 41q5 19 2 29l-18 3q-29 2 -41 -2h-24h-23q-6 0 -20 -0.5t-21 -0.5q-4 0 -12.5 1t-12.5 1q-2 0 -8 -1t-8 -1t-6.5 0.5t-7.5 0.5h-6h-6.5h-5.5t-5.5 1t-4.5 2.5t-4 4.5q0 8 8.5 16t9.5 11q12 18 20 25q4 6 18.5 22.5t20.5 27.5q12 10 19 25q2 1 4.5 6t4.5 6 q1 3 5 6.5t5 5.5q5 4 11 12.5t10 11.5q11 16 21 23q0 2 5 9q1 0 2 3.5t3 4.5q3 3 9 10t9 10q2 4 8 11t8 12q3 4 10 11t9 10q0 1 1.5 3t2.5 4q2 2 6.5 6t6.5 7q2 2 4 8q6 2 8 4q1 5 4.5 10.5t4.5 7.5q1 1 5 5.5t5 8.5q3 2 9.5 13t16.5 12q8 -3 8 -27q-1 -4 -2 -15t-3 -15 l3 -13q-3 -96 0 -157l-3 -11q1 -10 2 -33t3 -35q13 -3 39 -2t38 -1q3 -4 4 -12t0.5 -15t0.5 -15q2 -2 2 -3q0 -7 -4 -15zM373 395l-28 -67q-8 -12 -23 -50q-1 -3 -7.5 -20t-11.5 -27q-1 -3 -6 -10t-6 -10l-8 -22q-2 -4 -12 -28.5t-16 -36.5q-1 -7 -16 -35q-1 -1 0 -2t0 -2 q-14 -31 -17 -43q-2 -4 -6 -9t-5 -8q-2 -5 -23 -54q-1 -3 -2 -10.5t-4 -10.5q-1 -1 -2 -8.5t-6 -11.5q-5 -6 -7 -9t-7 -4.5t-7 -1.5t-13 -1q-39 -2 -40 17l15 24q4 15 16 34q4 12 25.5 56.5t28.5 64.5q4 10 17 36.5t22 47t13 37.5q4 7 10.5 23.5t13.5 25.5q1 9 9 25t10 24 l3 15q5 4 15 25t20.5 47.5t11.5 27.5q3 7 8.5 19t7.5 17l6 15q17 34 37 88q19 45 20 50q2 4 4.5 14t6 17.5t9.5 13.5q9 3 25 3q33 0 37 -2q9 -12 -14 -42q-21 -53 -25 -69q-2 -5 -7 -10t-6 -9q-6 -14 -21 -45.5t-24 -53t-16 -43.5q0 -1 -2 -3.5t-3 -4.5t0 -4zM190 342 q-2 -1 -23 -1q-30 -2 -36 2q-2 5 -5 7q-1 6 1 25t-1 26q3 13 2.5 42t1.5 43q-6 37 -2 54q0 5 -2 19q2 7 1.5 19t0.5 19q-2 3 -4 17.5t-7 17.5q-11 1 -33 -2.5t-30 0.5q-1 3 -7 7q-2 10 0 31q2 23 5 27q8 3 34 3h35q6 0 17.5 1t17.5 1l3 -1q3 -1 5 0q22 0 24 -1q4 -6 4 -26 q0 -5 -0.5 -14.5t-0.5 -13.5v-113v-32q0 -4 1 -13t0.5 -16t-2.5 -12q2 -2 2 -25.5v-27.5q0 -1 1 -3.5t1 -4.5q0 -1 -1 -3t-1 -3l4 -23q-1 -1 0 -2t1 -2q2 -9 -7 -22zM536 110q4 24 0 92q-7 1 -11.5 -4t-5.5 -13q-10 -8 -11 -15q-7 -3 -14.5 -13.5t-10.5 -12.5q-9 -9 -12 -17 h-3l-6 -7q-10 -12 -13 -18q-1 0 -3 -2t-4 -2q-1 -6 -8.5 -13.5t-8.5 -14.5q3 -2 15.5 -1t16.5 1q18 -5 41 0q23 -6 36 2q7 9 2 38z" />
<glyph unicode="&#xbd;" horiz-adv-x="754" d="M709 8q-18 -3 -29 -4l-35 -4q-2 0 -5.5 0.5t-6.5 0.5q-17 0 -20 2q-3 -3 -13 -3t-12 -1q-4 1 -28 1h-23q-17 0 -30 3l-11 -4q-3 -1 -6 0.5t-5 1.5q-7 -1 -32 -0.5t-35 0.5q-2 0 -9 -1t-10.5 0t-6.5 4q0 6 6.5 10t7.5 6q4 2 12.5 8.5t13.5 9.5q1 1 3 2q3 1 4 2 q18 11 21 12q2 3 8.5 8t8.5 10q10 4 25.5 15.5t19.5 14.5q2 5 10.5 9t10.5 8l22 17q31 34 37 47q3 5 10 29q-2 27 -6 37q-1 3 -5.5 10t-5.5 12l-21 17q-4 0 -12.5 4.5t-12.5 5.5q-3 1 -33 1q-1 0 -3 0.5t-3 0.5q-6 -1 -23 -8q-5 -3 -12.5 -10t-10.5 -10q-3 -7 -13 -17 q-1 -6 -8 -21v-20q1 -4 3.5 -15.5t5 -21t2.5 -10.5q0 -8 -11 -10q-5 -2 -23.5 -6.5t-19.5 -3.5l-6 6q-1 2 -3.5 9.5t-4.5 9.5q0 7 -3 22t-2 23q3 21 2 23q3 7 5 27q5 8 6 18q4 3 19 28q10 10 19 22q32 17 37 19q9 3 15 9q3 0 19 5q3 0 16 2h22q6 -1 17.5 -5t20.5 -5 q3 -2 10.5 -6t9.5 -5q3 -1 8.5 -5t9.5 -6q3 -4 11 -11t11 -11q2 -4 11 -16t13 -19q0 -12 7 -24q0 -22 1 -36q0 -2 -0.5 -15.5t0.5 -18.5q0 -2 -2.5 -7t-2.5 -10q-4 -4 -8 -14t-6 -13q0 -2 -11 -10q-3 -6 -8 -11q-5 -2 -12 -7t-10 -7q-9 -8 -17 -17q-16 -4 -27 -15 q-7 -1 -13 -11q3 -4 17 -2q28 2 40 -1l3 2q4 1 6 0q32 0 41 1q7 0 20.5 2.5t19.5 1.5q4 -6 6 -21t2 -28v-12zM356 395l-28 -67q-8 -12 -23 -50q-1 -3 -7.5 -20t-11.5 -27q-2 -3 -6 -10t-6 -10l-8 -22q-2 -4 -12 -28.5t-16 -36.5q-1 -7 -16 -35v-2v-2q-14 -31 -17 -43 q-1 -4 -5 -9t-6 -8q-2 -5 -23 -54q-1 -3 -2 -10.5t-4 -10.5q-1 -1 -2 -8.5t-6 -11.5q-5 -6 -7 -9t-7 -4.5t-7 -1.5t-13 -1q-39 -2 -40 17l15 24q4 15 16 34q4 12 25.5 56.5t28.5 64.5q4 10 17 36.5t22 47t13 37.5q4 7 10.5 23.5t13.5 25.5q1 9 9 25t10 24l3 15q5 4 15 25 t20.5 47.5t11.5 27.5q3 7 8.5 19t7.5 17l6 15q17 34 37 88q19 45 20 50q2 4 4.5 14t6 17.5t9.5 13.5q9 3 25 3q33 0 37 -2q9 -12 -14 -42q-21 -53 -25 -69q-2 -5 -7 -10t-6 -9q-6 -14 -21 -45.5t-24 -53t-16 -43.5q0 -1 -2 -3.5t-3 -4.5t0 -4zM190 342q-2 -1 -23 -1 q-30 -2 -36 2q-2 5 -5 7q-1 6 1 25t-1 26q3 13 2.5 42t1.5 43q-6 37 -2 54q0 5 -2 19q2 7 1.5 19t0.5 19q-2 3 -4 17.5t-7 17.5q-11 1 -33 -2.5t-30 0.5q-1 3 -7 7q-2 10 0 31q2 23 5 27q8 3 34 3h35q6 0 17.5 1t17.5 1l3 -1q3 -1 5 0q22 0 24 -1q4 -6 4 -26 q0 -5 -0.5 -14.5t-0.5 -13.5v-113v-32q0 -4 1 -13t0.5 -16t-2.5 -12q2 -2 2 -25.5v-27.5q0 -1 1 -3.5t1 -4.5q0 -1 -1 -3t-1 -3l4 -23q-1 -1 0 -2t1 -2q2 -9 -7 -22z" />
<glyph unicode="&#xbe;" horiz-adv-x="897" d="M851 7q-2 0 -7 -3t-10 -2q-14 2 -20 0q-12 3 -40 3q-4 -6 -5 -13.5t-1 -13t1 -16t1 -14.5v-13q0 -2 0.5 -4.5t0.5 -3.5v-35q0 -4 1.5 -13t2 -13t-0.5 -12q-4 -2 -9.5 -2.5t-10.5 0t-12 -0.5q-3 0 -9 -2t-8 -2q-2 1 -5.5 2l-7 2t-5.5 3l-8 13q5 20 6 22q1 8 -0.5 22 t-1.5 18q0 36 -2 41q5 19 2 29l-18 3q-29 2 -41 -2h-24h-23q-6 0 -20 -0.5t-21 -0.5q-4 0 -12.5 1t-12.5 1q-3 0 -8 -1t-8 -1q-2 0 -6.5 0.5t-7.5 0.5h-6h-6.5h-5.5t-5.5 1t-4.5 2.5t-4 4.5q0 8 8.5 16t9.5 11q12 18 20 25q4 6 18.5 22.5t20.5 27.5q12 10 19 25q2 1 4.5 6 t4.5 6q2 3 5.5 6.5t4.5 5.5q5 4 11 12.5t10 11.5q11 16 21 23q0 2 5 9q1 0 2 3.5t3 4.5q4 3 9 10t9 10q2 4 8 11t8 12q3 4 10 11t9 10q0 1 1.5 3t2.5 4q2 2 6.5 6t6.5 7q2 2 4 8q6 2 8 4q1 5 4.5 10.5t4.5 7.5q1 1 5 5.5t5 8.5q3 2 9.5 13t16.5 12q8 -3 8 -27q-1 -4 -2 -15 t-3 -15l3 -13q-3 -96 0 -157l-3 -11q1 -10 2 -33t3 -35q13 -3 39 -2t38 -1q3 -4 4 -12t0.5 -15t0.5 -15q2 -2 2 -3q0 -7 -4 -15zM65 354q3 2 21 2h10.5h10t8.5 -1.5t6 -4.5q2 -4 2 -8.5t-1 -10.5t-1 -9q1 -4 3 -11.5t2 -11.5q2 -5 7.5 -12.5t7.5 -12.5l18 -16q8 -2 22 -7.5 t18 -7.5q33 3 60 14q3 1 8 6t10 6q2 3 9 11t9 15q2 6 4 20q3 18 3 20q0 9 -2.5 16t-6.5 14.5t-6 12.5q-11 17 -37 32q-4 0 -4 2q-18 2 -22 4q-12 -1 -19 4q-4 35 0 61q10 6 23 5l20 5q1 1 6 5.5t9 5.5q2 4 9.5 15.5t10.5 19.5l3 25q-1 8 -5 15.5t-10 15.5t-8 12 q-4 3 -12.5 8t-11.5 8q-19 5 -40 4q-18 -5 -30 -13q-21 -18 -32 -51q0 -7 2.5 -16.5t2.5 -15.5q-3 -7 -12 -8.5t-18.5 0t-19.5 -0.5q-2 2 -7 4t-7 3q-4 7 -4 30q6 35 6 37q6 7 10 28q6 7 14 21q7 4 17 16q11 2 25 16q26 10 32 11q7 0 19 2t17 2t15.5 -2t16.5 -2q6 -5 28 -11 q2 -2 9 -6t8 -5q2 -3 7.5 -7t7.5 -6q13 -16 14 -17l20 -40q1 -7 3.5 -18.5t3.5 -14.5q-1 -7 -1 -18t-1 -18q-11 -24 -11 -27q-21 -24 -28 -29q-6 -1 -7 -4q-17 -5 -21 -10q1 -5 9 -7t10 -4q2 -1 9.5 -4t9.5 -6q4 -1 6.5 -6.5t4.5 -7.5q3 0 5 -3q1 -2 2 -3q6 -6 21 -39 q2 -6 1.5 -17.5t0.5 -18.5q1 -4 3.5 -11.5t2.5 -10.5q0 -18 -2 -27q0 -3 -3.5 -9.5t-2.5 -12.5q-8 -10 -11 -21q-6 -4 -14 -16q-1 -1 -6 -7t-6 -10q-7 -1 -14.5 -7.5t-8.5 -6.5q-4 -2 -11.5 -7t-11.5 -7q-4 -1 -11.5 -4t-11.5 -3h-33q-3 0 -6.5 -2t-6.5 -2q-4 -1 -11 4 q-12 -4 -31 3q-6 2 -8 4q-8 6 -20 8q-12 14 -22 17q-3 6 -11.5 15t-11.5 13q-4 4 -9.5 15.5t-10.5 16.5q-4 20 -8 29q0 3 -1 6.5t-1 5.5q1 3 2 19t5 23zM534 395l-28 -67q-8 -12 -23 -50q-1 -3 -7.5 -20t-11.5 -27q-2 -3 -6 -10t-6 -10l-8 -22q-2 -4 -12 -28.5t-16 -36.5 q-1 -7 -16 -35v-2v-2q-14 -31 -17 -43q-1 -4 -5 -9t-6 -8q-2 -5 -23 -54q-1 -3 -2 -10.5t-4 -10.5q-1 -1 -2 -8.5t-6 -11.5q-5 -6 -7 -9t-7 -4.5t-7 -1.5t-13 -1q-39 -2 -40 17l15 24q4 15 16 34q4 12 25.5 56.5t28.5 64.5q4 10 17 36.5t22 47t13 37.5q4 7 10.5 23.5 t13.5 25.5q1 9 9 25t10 24l3 15q5 4 15 25t20.5 47.5t11.5 27.5q3 7 8.5 19t7.5 17l6 15q17 34 37 88q19 45 20 50q2 4 4.5 14t6 17.5t9.5 13.5q9 3 25 3q33 0 37 -2q9 -12 -14 -42q-21 -53 -25 -69q-2 -5 -7 -10t-6 -9q-6 -14 -21 -45.5t-24 -53t-16 -43.5q0 -1 -2 -3.5 t-3 -4.5t0 -4zM701 110q4 24 0 92q-7 1 -11.5 -4t-5.5 -13q-10 -8 -11 -15q-7 -3 -14.5 -13.5t-10.5 -12.5q-9 -9 -12 -17h-3l-6 -7q-10 -12 -13 -18q-1 0 -3 -2t-4 -2q-1 -6 -8.5 -13.5t-8.5 -14.5q3 -2 15.5 -1t16.5 1q18 -5 41 0q23 -6 36 2q7 9 2 38z" />
<glyph unicode="&#xbf;" horiz-adv-x="424" d="M279 379q-5 4 -7.5 16t-3.5 14q-3 3 -10 11t-11 11q-24 12 -35 11q-3 0 -12.5 -2.5t-15.5 -1.5q-39 -25 -33 -63q2 -5 11 -21q18 -14 39 -22q2 -1 17 -4t21 -7q24 -10 38 -13l35 -25q7 -2 16 -8.5t12 -7.5q2 -6 11.5 -15.5t12.5 -15.5q1 -3 2 -9.5t2 -9.5t3.5 -8.5 t3.5 -8.5q0 -4 -1 -10t-1 -9q0 -29 -1 -33q-2 -8 -6 -28t-7 -29q-7 -11 -19 -33q-3 -2 -9 -7t-7 -6t-3.5 -5t-5.5 -4q-1 -3 -7 -5l-6 -2q-1 -2 -1 -3h-4q-1 -2 -1 -3l-19 -12q-37 -12 -50 -13q-9 -1 -28 1t-28 2q-1 0 -7.5 3.5t-12.5 2.5q-6 8 -21 11q-28 28 -45 38 q-1 2 -6 10.5t-7 13.5q0 4 -5 12q-5 12 -6 13q0 3 -6 33v19q-1 3 -4.5 10t-3.5 12q6 11 19 18q7 0 15.5 -2.5t12.5 -2.5q37 5 41 -8q4 0 2.5 -10.5t-0.5 -13.5q1 -2 1.5 -8.5t1.5 -8.5q16 -35 33 -47q12 -4 17 -7q16 4 30 -3q12 5 24 5q16 13 20 14q3 6 14 17t13 21q0 1 2 3 q1 9 -0.5 17t-5.5 17t-5 13q-30 28 -33 29q-1 1 -29 9q-7 1 -16 5.5t-12 5.5q-5 0 -11.5 1.5t-10.5 1.5q-4 4 -10 6.5t-14 4.5t-12 4q-3 2 -8.5 5t-9.5 6t-6 7q-2 2 -5 6t-6 6q-10 5 -17.5 24t-11.5 24q1 6 -4 29q1 6 -0.5 15.5t-1.5 12.5q1 13 10.5 33.5t10.5 31.5 q3 2 8.5 11.5t11.5 11.5q3 4 6.5 8.5t8 8.5t7.5 7q7 3 68 22q19 1 55 -1q21 -5 24 -5q3 -3 20 -8q4 -5 26 -22q2 -4 6.5 -9t5.5 -8q2 -5 7.5 -9.5t6.5 -6.5q2 -2 3 -7t2 -6l6 -11q-1 -7 2 -15.5t3 -11.5q-1 -6 -0.5 -11t0 -10.5t-2.5 -8.5q-7 -4 -15.5 -4.5t-22 1.5t-16.5 2 q-24 0 -26 1zM269 654q-1 -16 -17 -56l-12 -8q-13 -8 -21 -9q-5 -1 -13.5 2t-13.5 3q-1 1 -8 7t-11 9q-1 2 -4 8.5t-4 11.5q-9 11 -9 19q1 9 15 35q1 1 9 5.5t14.5 7t13.5 2.5q6 1 39 -4q19 -21 22 -33z" />
<glyph unicode="&#xc0;" horiz-adv-x="615" d="M554 1q-5 5 -11.5 17t-10.5 16q-14 30 -19 37q-2 2 -2 7t-1 7q-5 9 -13 17q0 3 -1.5 8.5t-1.5 9.5q-1 1 -2.5 3t-3 4.5t-2.5 3.5l-5 4q-11 24 -17 27q-12 -1 -32.5 0.5t-28.5 1.5q-7 0 -19 -1t-21 -1t-17 2q-15 -3 -16 -3q-25 1 -67 -0.5t-56 -1.5h-38q-14 -5 -22 -39 l-12 -16q-1 -5 -4 -12t-3 -12q-5 -6 -12 -20t-11 -19q-1 -2 -3 -9t-4 -10q-2 -4 -22 -24q-6 1 -17 -2t-14 -3q-27 0 -36 16q-1 8 0 14t5 13.5t4 8.5q1 2 7 12.5t10 14.5q2 10 16 38l17 35q0 5 2.5 9.5t6 9.5t4.5 8q1 2 2 7t3 8l3 6t3 7q3 8 8 17q2 5 6 14t7 13l6 14 q1 1 3 2.5t2 2.5v4t1 4q1 2 4 6t4 6q1 3 3.5 10t4.5 11l5 6q5 7 4 13q12 20 16 36q4 6 11 20t11 20q0 3 2.5 9t2.5 9q3 4 7 12.5t6 11.5q2 4 7 11t7 11v4t1 4t3 2.5t2 2.5l2 8q1 2 4.5 8t5.5 12t2 11q4 4 8.5 13.5t5.5 11.5q10 22 13 26q11 35 25 50q0 4 4 9.5t4 9.5 q1 1 3 5t4 6.5t6 2.5t7.5 -1t6.5 -4.5t4.5 -4.5t4.5 -7l4 -5q1 -6 3 -11.5t6 -12t5 -9.5q2 -6 8 -16t8 -15q6 -15 17 -30q4 -23 19 -43q1 -6 5.5 -17t6.5 -18q1 -4 5.5 -8.5t5.5 -8.5l2 -8q1 -2 3.5 -5.5t4 -6.5t2.5 -7t1 -8q8 -9 13 -20q1 -1 1 -4v-4q5 -8 8 -16 q15 -25 21 -44q5 -9 13 -28t13 -27q8 -9 16.5 -30t10.5 -25q2 -5 7 -11.5t6 -7.5q1 -2 1 -8t2 -8q2 -4 6 -13.5t8 -17t8 -12.5q2 -7 9.5 -21t9.5 -23q4 -9 13 -20q0 -5 2 -14t2 -11q1 -6 -3 -12.5t-5 -8.5q-2 -1 -14 -8.5t-15.5 -7.5h-20.5zM433 250q-2 6 -2 7q-6 8 -28 49 q-7 22 -22 42q-3 10 -12 26.5t-12 22.5l-11 25q-1 1 -6 10.5t-7 14.5q-2 2 -4.5 8t-4.5 8q-2 15 -10 16q-11 -7 -11 -27q-3 -2 -6.5 -9.5t-5.5 -9.5q-3 -15 -16.5 -37.5t-16.5 -37.5q-8 -9 -18 -31.5t-12 -25.5l-15 -30q-8 -7 -12 -32q7 -3 14.5 -3t17 1t14.5 1t16 -1.5 t16.5 -2t17.5 0.5q18 7 49 0l31 4q4 0 10 -1.5t8 -1.5q33 2 38 7v7zM298 847q2 -2 7 -7.5t7 -9.5q11 -13 13 -19q11 -9 14 -17q5 -4 10 -9.5t11 -12.5t9 -11q3 -5 13.5 -16t14.5 -19q1 0 1.5 -1.5t1.5 -1.5q0 -14 -13 -22t-28 -5q-4 1 -7.5 4t-7 7t-5.5 6q-8 2 -18.5 11.5 t-17.5 10.5q-1 3 -5.5 7t-5.5 8q-9 5 -28.5 21.5t-33.5 22.5q-1 4 -8 10t-8 12q0 5 2 9t6 7.5t5 5.5q9 1 25 9q25 15 29 14q7 0 17 -14z" />
<glyph unicode="&#xc1;" horiz-adv-x="615" d="M554 1q-5 5 -11.5 17t-10.5 16q-14 30 -19 37q-2 2 -2 7t-1 7q-5 9 -13 17q0 3 -1.5 8.5t-1.5 9.5q-1 1 -2.5 3t-3 4.5t-2.5 3.5l-5 4q-11 24 -17 27q-12 -1 -32.5 0.5t-28.5 1.5q-7 0 -19 -1t-21 -1t-17 2q-15 -3 -16 -3q-25 1 -67 -0.5t-56 -1.5h-38q-14 -5 -22 -39 l-12 -16q-1 -5 -4 -12t-3 -12q-5 -6 -12 -20t-11 -19q-1 -2 -3 -9t-4 -10q-2 -4 -22 -24q-6 1 -17 -2t-14 -3q-27 0 -36 16q-1 8 0 14t5 13.5t4 8.5q1 2 7 12.5t10 14.5q2 10 16 38l17 35q0 5 2.5 9.5t6 9.5t4.5 8q1 2 2 7t3 8l3 6t3 7q3 8 8 17q2 5 6 14t7 13l6 14 q1 1 3 2.5t2 2.5v4t1 4q1 2 4 6t4 6q1 3 3.5 10t4.5 11l5 6q5 7 4 13q12 20 16 36q4 6 11 20t11 20q0 3 2.5 9t2.5 9q3 4 7 12.5t6 11.5q2 4 7 11t7 11v4t1 4t3 2.5t2 2.5l2 8q1 2 4.5 8t5.5 12t2 11q4 4 8.5 13.5t5.5 11.5q10 22 13 26q11 35 25 50q0 4 4 9.5t4 9.5 q1 1 3 5t4 6.5t6 2.5t7.5 -1t6.5 -4.5t4.5 -4.5t4.5 -7l4 -5q1 -6 3 -11.5t6 -12t5 -9.5q2 -6 8 -16t8 -15q6 -15 17 -30q4 -23 19 -43q1 -6 5.5 -17t6.5 -18q1 -4 5.5 -8.5t5.5 -8.5l2 -8q1 -2 3.5 -5.5t4 -6.5t2.5 -7t1 -8q8 -9 13 -20q1 -1 1 -4v-4q5 -8 8 -16 q15 -25 21 -44q5 -9 13 -28t13 -27q8 -9 16.5 -30t10.5 -25q2 -5 7 -11.5t6 -7.5q1 -2 1 -8t2 -8q2 -4 6 -13.5t8 -17t8 -12.5q2 -7 9.5 -21t9.5 -23q4 -9 13 -20q0 -5 2 -14t2 -11q1 -6 -3 -12.5t-5 -8.5q-2 -1 -14 -8.5t-15.5 -7.5h-20.5zM433 250q-2 6 -2 7q-6 8 -28 49 q-7 22 -22 42q-3 10 -12 26.5t-12 22.5l-11 25q-1 1 -6 10.5t-7 14.5q-2 2 -4.5 8t-4.5 8q-2 15 -10 16q-11 -7 -11 -27q-3 -2 -6.5 -9.5t-5.5 -9.5q-3 -15 -16.5 -37.5t-16.5 -37.5q-8 -9 -18 -31.5t-12 -25.5l-15 -30q-8 -7 -12 -32q7 -3 14.5 -3t17 1t14.5 1t16 -1.5 t16.5 -2t17.5 0.5q18 7 49 0l31 4q4 0 10 -1.5t8 -1.5q33 2 38 7v7zM399 833q2 -7 -0.5 -12t-11.5 -11t-10 -7q-3 -5 -12.5 -11.5t-12.5 -11.5q-7 -3 -15.5 -10.5t-13.5 -10.5q-4 -5 -13.5 -12t-12.5 -10q-2 -1 -3 -3t-2.5 -4.5t-2.5 -3.5q-6 -1 -14.5 -8.5t-14.5 -8.5 q-4 -1 -9 0t-11 3t-10 3q-16 3 -17 19q-1 6 4.5 11t5.5 9q7 6 19 23t20 23l10 12q10 13 14 21q5 3 11.5 15.5t13.5 16.5q7 1 26 -0.5t24 -1.5q14 -7 26 -11q1 -2 6.5 -7.5t5.5 -11.5z" />
<glyph unicode="&#xc2;" horiz-adv-x="615" d="M554 1q-5 5 -11.5 17t-10.5 16q-14 30 -19 37q-2 2 -2 7t-1 7q-5 9 -13 17q0 3 -1.5 8.5t-1.5 9.5q-1 1 -2.5 3t-3 4.5t-2.5 3.5l-5 4q-11 24 -17 27q-12 -1 -32.5 0.5t-28.5 1.5q-7 0 -19 -1t-21 -1t-17 2q-15 -3 -16 -3q-25 1 -67 -0.5t-56 -1.5h-38q-14 -5 -22 -39 l-12 -16q-1 -5 -4 -12t-3 -12q-5 -6 -12 -20t-11 -19q-1 -2 -3 -9t-4 -10q-2 -4 -22 -24q-6 1 -17 -2t-14 -3q-27 0 -36 16q-1 8 0 14t5 13.5t4 8.5q1 2 7 12.5t10 14.5q2 10 16 38l17 35q0 5 2.5 9.5t6 9.5t4.5 8q1 2 2 7t3 8l3 6t3 7q3 8 8 17q2 5 6 14t7 13l6 14 q1 1 3 2.5t2 2.5v4t1 4q1 2 4 6t4 6q1 3 3.5 10t4.5 11l5 6q5 7 4 13q12 20 16 36q4 6 11 20t11 20q0 3 2.5 9t2.5 9q3 4 7 12.5t6 11.5q2 4 7 11t7 11v4t1 4t3 2.5t2 2.5l2 8q1 2 4.5 8t5.5 12t2 11q4 4 8.5 13.5t5.5 11.5q10 22 13 26q11 35 25 50q0 4 4 9.5t4 9.5 q1 1 3 5t4 6.5t6 2.5t7.5 -1t6.5 -4.5t4.5 -4.5t4.5 -7l4 -5q1 -6 3 -11.5t6 -12t5 -9.5q2 -6 8 -16t8 -15q6 -15 17 -30q4 -23 19 -43q1 -6 5.5 -17t6.5 -18q1 -4 5.5 -8.5t5.5 -8.5l2 -8q1 -2 3.5 -5.5t4 -6.5t2.5 -7t1 -8q8 -9 13 -20q1 -1 1 -4v-4q5 -8 8 -16 q15 -25 21 -44q5 -9 13 -28t13 -27q8 -9 16.5 -30t10.5 -25q2 -5 7 -11.5t6 -7.5q1 -2 1 -8t2 -8q2 -4 6 -13.5t8 -17t8 -12.5q2 -7 9.5 -21t9.5 -23q4 -9 13 -20q0 -5 2 -14t2 -11q1 -6 -3 -12.5t-5 -8.5q-2 -1 -14 -8.5t-15.5 -7.5h-20.5zM433 250q-2 6 -2 7q-6 8 -28 49 q-7 22 -22 42q-3 10 -12 26.5t-12 22.5l-11 25q-1 1 -6 10.5t-7 14.5q-2 2 -4.5 8t-4.5 8q-2 15 -10 16q-11 -7 -11 -27q-3 -2 -6.5 -9.5t-5.5 -9.5q-3 -15 -16.5 -37.5t-16.5 -37.5q-8 -9 -18 -31.5t-12 -25.5l-15 -30q-8 -7 -12 -32q7 -3 14.5 -3t17 1t14.5 1t16 -1.5 t16.5 -2t17.5 0.5q18 7 49 0l31 4q4 0 10 -1.5t8 -1.5q33 2 38 7v7zM443 742q-11 -15 -20 -17q-8 -11 -25 -11q-9 1 -20.5 9.5t-14.5 9.5q-6 7 -19 20.5t-19 20.5q-4 1 -7 2.5t-6.5 3.5t-6.5 3q-6 0 -11 -8q-6 -6 -16 -12q-1 -5 -6.5 -11.5t-6.5 -12.5q-6 -2 -11 -9 q-7 -2 -18 -10.5t-18 -10.5q-39 5 -47 33q1 5 3.5 9t6 8t5.5 7q4 3 10.5 9.5t10.5 9.5q2 3 7 10t7 10q2 1 6 3.5t7 3.5l23 25q16 16 26 22q9 19 23 22q8 -2 24 -16q13 -13 17 -20q5 -2 11.5 -9t9.5 -9q10 -5 19 -18q4 -3 12 -7q2 -5 5 -8.5t9 -7.5t8 -6q11 -15 19 -20 q0 -1 1.5 -2.5t1.5 -2.5v-13z" />
<glyph unicode="&#xc3;" horiz-adv-x="615" d="M554 1q-5 5 -11.5 17t-10.5 16q-14 30 -19 37q-2 2 -2 7t-1 7q-5 9 -13 17q0 3 -1.5 8.5t-1.5 9.5q-1 1 -2.5 3t-3 4.5t-2.5 3.5l-5 4q-11 24 -17 27q-12 -1 -32.5 0.5t-28.5 1.5q-7 0 -19 -1t-21 -1t-17 2q-15 -3 -16 -3q-25 1 -67 -0.5t-56 -1.5h-38q-14 -5 -22 -39 l-12 -16q-1 -5 -4 -12t-3 -12q-5 -6 -12 -20t-11 -19q-1 -2 -3 -9t-4 -10q-2 -4 -22 -24q-6 1 -17 -2t-14 -3q-27 0 -36 16q-1 8 0 14t5 13.5t4 8.5q1 2 7 12.5t10 14.5q2 10 16 38l17 35q0 5 2.5 9.5t6 9.5t4.5 8q1 2 2 7t3 8l3 6t3 7q3 8 8 17q2 5 6 14t7 13l6 14 q1 1 3 2.5t2 2.5v4t1 4q1 2 4 6t4 6q1 3 3.5 10t4.5 11l5 6q5 7 4 13q12 20 16 36q4 6 11 20t11 20q0 3 2.5 9t2.5 9q3 4 7 12.5t6 11.5q2 4 7 11t7 11v4t1 4t3 2.5t2 2.5l2 8q1 2 4.5 8t5.5 12t2 11q4 4 8.5 13.5t5.5 11.5q10 22 13 26q11 35 25 50q0 4 4 9.5t4 9.5 q1 1 3 5t4 6.5t6 2.5t7.5 -1t6.5 -4.5t4.5 -4.5t4.5 -7l4 -5q1 -6 3 -11.5t6 -12t5 -9.5q2 -6 8 -16t8 -15q6 -15 17 -30q4 -23 19 -43q1 -6 5.5 -17t6.5 -18q1 -4 5.5 -8.5t5.5 -8.5l2 -8q1 -2 3.5 -5.5t4 -6.5t2.5 -7t1 -8q8 -9 13 -20q1 -1 1 -4v-4q5 -8 8 -16 q15 -25 21 -44q5 -9 13 -28t13 -27q8 -9 16.5 -30t10.5 -25q2 -5 7 -11.5t6 -7.5q1 -2 1 -8t2 -8q2 -4 6 -13.5t8 -17t8 -12.5q2 -7 9.5 -21t9.5 -23q4 -9 13 -20q0 -5 2 -14t2 -11q1 -6 -3 -12.5t-5 -8.5q-2 -1 -14 -8.5t-15.5 -7.5h-20.5zM433 250q-2 6 -2 7q-6 8 -28 49 q-7 22 -22 42q-3 10 -12 26.5t-12 22.5l-11 25q-1 1 -6 10.5t-7 14.5q-2 2 -4.5 8t-4.5 8q-2 15 -10 16q-11 -7 -11 -27q-3 -2 -6.5 -9.5t-5.5 -9.5q-3 -15 -16.5 -37.5t-16.5 -37.5q-8 -9 -18 -31.5t-12 -25.5l-15 -30q-8 -7 -12 -32q7 -3 14.5 -3t17 1t14.5 1t16 -1.5 t16.5 -2t17.5 0.5q18 7 49 0l31 4q4 0 10 -1.5t8 -1.5q33 2 38 7v7zM312 768q7 -4 13 -6.5t14 -6.5q18 -3 19 -3q2 0 12.5 -1t13.5 1q14 10 16 18l3 10q6 2 23.5 4t23.5 -3q1 -2 2 -11q0 -1 -5 -14.5t-8 -18.5q-2 -3 -6 -9.5t-7 -11t-7 -7.5q-10 -10 -27 -16q-39 -12 -94 12 q-9 6 -23.5 10t-20.5 7q0 -1 -2.5 -0.5t-5.5 0.5l-2 1q-3 -1 -5.5 -0.5t-5.5 -1.5q-13 -9 -17 -18q-1 -5 -14 -10.5t-25 -3t-10 16.5q6 29 7 30q16 25 25 32q5 5 28 13q33 11 85 -13z" />
<glyph unicode="&#xc4;" horiz-adv-x="615" d="M554 1q-5 5 -11.5 17t-10.5 16q-14 30 -19 37q-2 2 -2 7t-1 7q-5 9 -13 17q0 3 -1.5 8.5t-1.5 9.5q-1 1 -2.5 3t-3 4.5t-2.5 3.5l-5 4q-11 24 -17 27q-12 -1 -32.5 0.5t-28.5 1.5q-7 0 -19 -1t-21 -1t-17 2q-15 -3 -16 -3q-25 1 -67 -0.5t-56 -1.5h-38q-14 -5 -22 -39 l-12 -16q-1 -5 -4 -12t-3 -12q-5 -6 -12 -20t-11 -19q-1 -2 -3 -9t-4 -10q-2 -4 -22 -24q-6 1 -17 -2t-14 -3q-27 0 -36 16q-1 8 0 14t5 13.5t4 8.5q1 2 7 12.5t10 14.5q2 10 16 38l17 35q0 5 2.5 9.5t6 9.5t4.5 8q1 2 2 7t3 8l3 6t3 7q3 8 8 17q2 5 6 14t7 13l6 14 q1 1 3 2.5t2 2.5v4t1 4q1 2 4 6t4 6q1 3 3.5 10t4.5 11l5 6q5 7 4 13q12 20 16 36q4 6 11 20t11 20q0 3 2.5 9t2.5 9q3 4 7 12.5t6 11.5q2 4 7 11t7 11v4t1 4t3 2.5t2 2.5l2 8q1 2 4.5 8t5.5 12t2 11q4 4 8.5 13.5t5.5 11.5q10 22 13 26q11 35 25 50q0 4 4 9.5t4 9.5 q1 1 3 5t4 6.5t6 2.5t7.5 -1t6.5 -4.5t4.5 -4.5t4.5 -7l4 -5q1 -6 3 -11.5t6 -12t5 -9.5q2 -6 8 -16t8 -15q6 -15 17 -30q4 -23 19 -43q1 -6 5.5 -17t6.5 -18q1 -4 5.5 -8.5t5.5 -8.5l2 -8q1 -2 3.5 -5.5t4 -6.5t2.5 -7t1 -8q8 -9 13 -20q1 -1 1 -4v-4q5 -8 8 -16 q15 -25 21 -44q5 -9 13 -28t13 -27q8 -9 16.5 -30t10.5 -25q2 -5 7 -11.5t6 -7.5q1 -2 1 -8t2 -8q2 -4 6 -13.5t8 -17t8 -12.5q2 -7 9.5 -21t9.5 -23q4 -9 13 -20q0 -5 2 -14t2 -11q1 -6 -3 -12.5t-5 -8.5q-2 -1 -14 -8.5t-15.5 -7.5h-20.5zM433 250q-2 6 -2 7q-6 8 -28 49 q-7 22 -22 42q-3 10 -12 26.5t-12 22.5l-11 25q-1 1 -6 10.5t-7 14.5q-2 2 -4.5 8t-4.5 8q-2 15 -10 16q-11 -7 -11 -27q-3 -2 -6.5 -9.5t-5.5 -9.5q-3 -15 -16.5 -37.5t-16.5 -37.5q-8 -9 -18 -31.5t-12 -25.5l-15 -30q-8 -7 -12 -32q7 -3 14.5 -3t17 1t14.5 1t16 -1.5 t16.5 -2t17.5 0.5q18 7 49 0l31 4q4 0 10 -1.5t8 -1.5q33 2 38 7v7zM397 575q0 1 -1 5.5t-2 6.5q7 45 35 54q17 6 33 6q6 0 19 -9q10 -7 17 -18q10 -17 10 -56q-12 -23 -54 -32q-12 0 -27 10q-20 10 -30 33zM227 590q2 2 2 -1q-1 -4 -1.5 -12.5t-1.5 -12.5q-2 -5 -7 -10.5 t-6 -8.5q-21 -12 -22 -13q-6 2 -25 0q-5 1 -14 5t-15 5q-2 3 -7.5 11t-9.5 12q-4 18 5 41l6 18q16 14 30 20q63 2 66 -54z" />
<glyph unicode="&#xc5;" horiz-adv-x="615" d="M405 706q-1 -4 0 -12t0 -13q-2 -11 -5 -20l-2 -3q-3 -4 -2 -7q-3 -2 -5 -7l-4 -4q-5 -4 -6 -6q-2 -3 -6.5 -6t-5.5 -4q-6 -2 -8 -5q-6 -3 -7 -5q-4 0 -10 -2l10 -18q2 -6 8 -16t8 -15q6 -15 17 -30q4 -23 19 -43q1 -6 5.5 -17t6.5 -18q1 -4 5.5 -8.5t5.5 -8.5l2 -8 q1 -2 3.5 -5.5t4 -6.5t2.5 -7t1 -8q8 -9 13 -20q1 -1 1 -4v-4q5 -8 8 -16q15 -25 21 -44q5 -9 13 -28t13 -27q8 -9 16.5 -30t10.5 -25q2 -5 7 -11.5t6 -7.5q1 -2 1 -8t2 -8q2 -4 6 -13.5t8 -17t8 -12.5q2 -7 9.5 -21t9.5 -23q4 -9 13 -20q0 -5 2 -14t2 -11q1 -6 -3 -12.5 t-5 -8.5q-2 -1 -14 -8.5t-15.5 -7.5h-20.5q-5 5 -11.5 17t-10.5 16q-14 30 -19 37q-2 2 -2 7t-1 7q-5 9 -13 17q0 3 -1.5 8.5t-1.5 9.5q-1 1 -2.5 3t-3 4.5t-2.5 3.5l-5 4q-11 24 -17 27q-12 -1 -32.5 0.5t-28.5 1.5q-7 0 -19 -1t-21 -1t-17 2q-15 -3 -16 -3q-25 1 -67 -0.5 t-56 -1.5h-38q-14 -5 -22 -39l-12 -16q-1 -5 -4 -12t-3 -12q-5 -6 -12 -20t-11 -19q-1 -2 -3 -9t-4 -10q-2 -4 -22 -24q-6 1 -17 -2t-14 -3q-27 0 -36 16q-1 8 0 14t5 13.5t4 8.5q1 2 7 12.5t10 14.5q2 10 16 38l17 35q0 5 2.5 9.5t6 9.5t4.5 8q1 2 2 7t3 8l3 6t3 7 q3 8 8 17q2 5 6 14t7 13l6 14q1 1 3 2.5t2 2.5v4t1 4q1 2 4 6t4 6q1 3 3.5 10t4.5 11l5 6q5 7 4 13q12 20 16 36q4 6 11 20t11 20q0 3 2.5 9t2.5 9q3 4 7 12.5t6 11.5q2 4 7 11t7 11v4t1 4t3 2.5t2 2.5l2 8q1 2 4.5 8t5.5 12t2 11q4 4 8.5 13.5t5.5 11.5q10 22 13 26 q8 29 22 47q-2 1 -8 1q0 3 -2 4q-3 0 -7 3t-6 3q-5 5 -9 7l-11 13q-2 2 -4.5 7t-5.5 7q0 3 -2.5 9t-3.5 10q0 7 -1 9q1 4 1 20q0 3 1 8.5t1 8.5q0 2 0.5 5t0.5 5q3 3 4 7q1 1 2.5 3t2.5 3q0 3 3 6.5t3 6.5q2 1 6 5q1 0 3 2.5t4 3.5q1 1 5 4t5 5q8 3 10 6q4 0 19 3q18 2 24 2 q6 -3 19 -3q4 -3 11 -4q1 -1 2.5 -2t4.5 -2.5l5 -2.5l5 -5q3 -1 8 -6l8 -8q0 -1 2.5 -3t3.5 -4l10 -19q0 -4 1 -12.5t1 -12.5zM433 250q-2 6 -2 7q-6 8 -28 49q-7 22 -22 42q-3 10 -12 26.5t-12 22.5l-11 25q-1 1 -6 10.5t-7 14.5q-2 2 -4.5 8t-4.5 8q-2 15 -10 16 q-11 -7 -11 -27q-3 -2 -6.5 -9.5t-5.5 -9.5q-3 -15 -16.5 -37.5t-16.5 -37.5q-8 -9 -18 -31.5t-12 -25.5l-15 -30q-8 -7 -12 -32q7 -3 14.5 -3t17 1t14.5 1t16 -1.5t16.5 -2t17.5 0.5q18 7 49 0l31 4q4 0 10 -1.5t8 -1.5q33 2 38 7v7zM361 697v9q-2 4 -2 9q-3 0 -3 4l-1 1 q-1 2 -1 3l-8 9l-1 1q-4 2 -4 4q-3 0 -6 3q-5 2 -19 2h-9q-5 -5 -8 -6q-2 -2 -5.5 -4.5t-5.5 -4.5q-1 0 -2 -2t-3 -2l-3 -6q0 -3 -3 -7v-24q0 -1 3 -4q2 -2 2 -5l6 -6q1 0 1 -1h2q0 -1 1.5 -2.5t1.5 -2.5l6 -3t7 -2q5 0 6 -1q2 0 3 1h1l5 -1q5 0 8 1q1 0 3 0.5t3 0.5 q1 1 9 5l10 11q1 4 5 12q0 2 0.5 4.5t0.5 3.5z" />
<glyph unicode="&#xc6;" horiz-adv-x="965" d="M945 24q0 -3 -8 -14q-10 -1 -44.5 -2t-48.5 -6q-3 0 -8 2.5t-9 2.5q-4 1 -11 -0.5t-10 -1.5t-9.5 1.5t-10.5 1.5q-5 0 -26.5 -2t-25.5 2q-1 0 -6.5 -1.5t-7.5 -3.5q-15 4 -51 2q-58 -2 -82 -5q-6 4 -12 11q-2 3 -5.5 9.5t-5.5 9.5q-4 6 -8 21q-4 5 -10 17t-9 17 q-2 11 -8.5 27.5t-8.5 21.5q-2 3 -10 19.5t-17 20.5q-8 -1 -21 -3t-20 -2q-29 9 -57 -2q-7 3 -32 1t-33 -2q-3 0 -8.5 1.5t-8.5 1.5t-7 -1t-7 -1q-2 0 -8 2t-9 2q-2 0 -38 -1.5t-37 1.5q-14 -8 -15 -24q-5 -6 -13 -27q-1 -3 -7 -11t-7 -14l-14 -24q0 -2 -1.5 -8t-0.5 -11 q-6 -9 -12 -26q-10 -18 -15 -24q-11 -6 -33 -3q-3 1 -8 -1t-8 -2q-3 1 -21 1t-23 5q-2 10 1 19t9 19t8 15q3 6 7 16.5t8 18.5t8 14q0 2 11 26q24 48 33 75q2 2 13 19q7 22 14 32q1 2 5.5 14t8.5 16q3 10 14 28.5t13 32.5q3 3 7.5 12.5t8.5 12.5q1 9 13 32l14 28 q3 5 9.5 17.5t11 22.5t6.5 20q3 4 8.5 12t6.5 10q1 8 4 15.5t7.5 15.5t6.5 13q5 16 18 42t18 42q2 3 9 18t13 20q8 2 28.5 0t29.5 1q30 -3 33 -3t7 1t6 1q18 -3 19 -3q6 -1 17 0t14 1q131 3 147 2q15 -32 17 -40q1 -3 5.5 -7.5t5.5 -7.5q1 -2 4 -4.5t4 -5.5t0 -8 q0 -7 -9.5 -11t-10.5 -5q-9 0 -27 2t-27 2l-19 -4q-3 0 -9 1t-10 1q-11 0 -31 -2q-27 0 -33 -3q-3 1 -13 4t-16 3q-3 0 -9 -2t-8 -2q-4 0 -12 2t-12 2q-15 0 -23 1q-1 -2 6 -23q6 -11 16 -35q6 -16 16 -33q1 -5 4.5 -12t4.5 -12q3 -2 6 -10t7 -10q0 -4 9 -24q7 -17 13 -19 q1 -3 35.5 -2.5t39.5 0.5q3 0 8.5 -0.5t7.5 -0.5t7.5 1t8.5 0q43 0 49 2q7 -2 15.5 -2t19 1t17.5 1q5 0 17 -2q5 0 15 1.5t17.5 1t13.5 -3.5q5 -1 7.5 -8.5t3.5 -8.5q1 -4 4 -9.5t4 -9.5q8 -18 8 -21q9 -11 8 -19q-3 -12 -17 -13.5t-26 1.5q-48 3 -54 3q-8 0 -23 -1t-22 -1 q-5 0 -14.5 1.5t-14.5 1.5q-7 1 -19 0.5t-17 -0.5q-19 1 -33 -1q-4 0 -13 2t-15 1q-4 -11 9 -32q1 -4 6 -14.5t7 -16.5q4 -5 8.5 -16.5t5.5 -13.5q15 -27 27 -60q14 -27 22 -43q1 -2 4 -10.5t5 -12.5l2 -1q1 0 1 -1q1 -2 1.5 -4t1.5 -4l8 -8h78q8 2 11 2q27 0 31 2 q14 -4 50 -2.5t51 0.5q33 5 41 3q14 -7 22 -36q5 -5 11 -18t10 -18q-1 -2 0 -3t1 -2zM464 265q-4 8 -14 26t-14 29q-5 8 -13.5 26t-13.5 26q-1 4 -5.5 14.5t-5.5 18.5q-5 5 -10.5 17.5t-8.5 16.5v14q-11 16 -12 19q-6 22 -13 23q-5 -2 -9 -10t-7 -10q-1 -20 -19 -44 q1 -5 -3 -12t-3 -12q-12 -16 -14 -30q-3 -2 -6 -8t-5 -8q0 -3 -2 -7t-1 -7q-8 -8 -15 -27q-5 -5 -10.5 -16.5t-6.5 -14.5q-2 -4 -6 -10t-6 -12t-2 -14q4 -3 9.5 -3.5t12.5 0.5t11 1q2 0 6 -1t7 -1l77 4q4 0 10.5 -1t9.5 -1q6 0 32.5 2.5t30.5 -0.5q18 0 19 6v3v3z" />
<glyph unicode="&#xc7;" horiz-adv-x="626" d="M570 44q-8 -12 -33 -19q-10 -5 -19 -6q-26 -11 -49 -16q-30 -7 -53 -10q-22 -1 -88 4q-42 12 -65 17l-57 30q-5 2 -12 8.5t-13 8.5q-6 8 -24 18q-5 8 -18 21t-18 20q0 1 -8 12q-7 10 -25 32q-3 8 -12 28t-13 32q0 1 -0.5 3t-1.5 3q-5 16 -9 50l-2 19q0 2 -1 5.5t-1.5 6.5 t-0.5 6q0 5 2 36q0 6 0.5 18t0.5 18q10 43 11 51q3 3 6 10.5t5 9.5q0 4 8 24q12 11 19 33q3 3 14 17.5t19 20.5q2 2 8 8.5t9 10.5q10 6 18 17l16 9q4 7 15.5 14.5t13.5 9.5l29 13q12 6 27 11h5t4 1l17 7l54 12q13 -1 44 0.5t44 -0.5q6 -1 23.5 -5.5t27.5 -3.5q27 -12 41 -15 l19 -12l6 -3t7.5 -4t5.5 -6q4 -7 4 -49q0 -3 1 -9t1 -10t-0.5 -8.5t-2.5 -8t-5 -5.5q-14 -2 -30.5 12t-19.5 15q-30 12 -54 18q-6 1 -26 4t-32 5q-23 -1 -56.5 -9.5t-51.5 -9.5q-30 -10 -59 -36q-11 -7 -27.5 -23.5t-23.5 -22.5q-1 -4 -16 -24q-1 -1 -4 -12q-3 -6 -5 -8 q-3 -3 -7.5 -11t-6.5 -10q-2 -10 -10 -33q-2 -27 -5 -39q0 -24 2 -68q16 -37 19 -41q0 -3 9 -20q11 -26 29 -40q2 -4 8 -11t8 -11q5 -2 12 -9t11 -10q11 -6 24 -19q20 -5 25 -11q18 -6 25 -11q7 -1 35.5 -6t45.5 -6q12 -2 23 0q4 0 10 2t9 2q5 1 15 1t14 1q3 0 9 2.5t10 2.5 q2 1 11 6t17 5q2 1 10.5 6t14.5 6q5 2 15 12.5t21 11.5q4 0 5.5 -5t2.5 -6q0 -2 1.5 -7t0.5 -9q-2 -9 -2 -33q1 -2 1.5 -6t1.5 -6q-1 -3 -1 -11.5t-2 -12.5zM343 -94q-4 -8 -5 -13q-17 -15 -19 -25q-8 -6 -21.5 -21t-21.5 -22q-6 0 -20 2q-16 3 -17 3q-3 2 -8 8t-5 10 q0 6 5 13t4 15q10 4 18.5 19.5t13.5 19.5q-1 3 1 6t1 5q1 3 5.5 6.5t5.5 4.5q-1 9 0 11q13 15 14 26q18 12 19 12q5 -1 12.5 -6t9.5 -6q13 -3 25 -2q11 -2 14.5 -14.5t-3.5 -21.5q2 -3 -11 -16t-17 -14z" />
<glyph unicode="&#xc8;" horiz-adv-x="463" d="M59 641q2 4 6.5 6t10.5 4l9 3h142q8 0 22.5 -1t21.5 -1q4 0 11.5 2t9.5 2q4 0 11 -1t11 -1q61 0 82 -5q14 -13 9 -57q-1 -6 -5.5 -9t-15.5 -4.5t-13 -1.5q-7 2 -37 0t-37 -2q-97 0 -115 -3q-23 4 -30 -3q-4 -1 -6 -8.5t-4 -9.5q0 -47 -3 -55q3 -30 3 -31q-3 -35 3 -48 q10 -11 36.5 -11.5t45.5 2.5q4 0 10 -0.5t10 0t7 2.5q12 -3 42 -2.5t43 -4.5q56 0 68 -9q-1 -9 2.5 -31.5t-2.5 -28.5q-7 -6 -27.5 -9t-24.5 -4h-28q-6 0 -15.5 1t-14.5 1q-22 0 -78 -2q-1 0 -5 -0.5t-6 -0.5q-47 0 -58 -5q-9 -11 -6 -22q-3 -3 -3 -13.5t-2 -13.5 q-2 -28 0 -53l5 -30q0 -2 -1.5 -8.5t-1.5 -9.5l1 -7q0 -6 -3 -7q0 -6 -0.5 -19t0.5 -16q7 -18 22 -25q3 -2 14.5 0t13.5 2q3 0 9.5 -1t9.5 -1t9 1t9 1q4 0 10 -1.5t10 -1.5q4 -1 11.5 0t9.5 1t9 -1t10 0q3 0 9 1.5t9 1.5q4 0 13 -1t13 -1q62 0 74 -3q13 -13 6 -60 q-2 -8 -17 -12q-2 -3 -7 -3.5t-10 0t-10 -0.5q-4 1 -9 -1t-8 -2q-16 3 -48 2t-50 1q-13 -3 -44 -3q-8 0 -24 1t-24 1q-65 0 -77 3q-3 1 -19 14q-2 4 -2.5 9.5t0.5 12.5t1 11q-3 30 0 44q0 2 0.5 5.5t0.5 4.5q-1 3 -1.5 11t-1.5 11q5 7 -1 17q-1 4 1 7t2 7q-5 28 0 48 q-2 25 0 82q0 7 -1 21.5t-1 25t3 19.5q0 5 -2 11.5t-1 12.5q2 14 -3 23q-1 4 1 8t2 6q-5 19 -5 56q2 26 5 37q0 9 -0.5 30t-0.5 32q-2 52 0 61zM222 847q2 -2 7 -7.5t7 -9.5q11 -13 13 -19q11 -9 14 -17q5 -4 10 -9.5t11 -12.5t9 -11q3 -5 13.5 -16t14.5 -19q1 0 1.5 -1.5 t1.5 -1.5q0 -14 -13 -22t-28 -5q-4 1 -7.5 4t-7 7t-5.5 6q-8 2 -18.5 11.5t-17.5 10.5q-1 3 -5.5 7t-5.5 8q-9 5 -28.5 21.5t-33.5 22.5q-1 4 -8 10t-8 12q0 5 2 9t6 7.5t5 5.5q9 1 25 9q25 15 29 14q7 0 17 -14z" />
<glyph unicode="&#xc9;" horiz-adv-x="463" d="M59 641q2 4 6.5 6t10.5 4l9 3h142q8 0 22.5 -1t21.5 -1q4 0 11.5 2t9.5 2q4 0 11 -1t11 -1q61 0 82 -5q14 -13 9 -57q-1 -6 -5.5 -9t-15.5 -4.5t-13 -1.5q-7 2 -37 0t-37 -2q-97 0 -115 -3q-23 4 -30 -3q-4 -1 -6 -8.5t-4 -9.5q0 -47 -3 -55q3 -30 3 -31q-3 -35 3 -48 q10 -11 36.5 -11.5t45.5 2.5q4 0 10 -0.5t10 0t7 2.5q12 -3 42 -2.5t43 -4.5q56 0 68 -9q-1 -9 2.5 -31.5t-2.5 -28.5q-7 -6 -27.5 -9t-24.5 -4h-28q-6 0 -15.5 1t-14.5 1q-22 0 -78 -2q-1 0 -5 -0.5t-6 -0.5q-47 0 -58 -5q-9 -11 -6 -22q-3 -3 -3 -13.5t-2 -13.5 q-2 -28 0 -53l5 -30q0 -2 -1.5 -8.5t-1.5 -9.5l1 -7q0 -6 -3 -7q0 -6 -0.5 -19t0.5 -16q7 -18 22 -25q3 -2 14.5 0t13.5 2q3 0 9.5 -1t9.5 -1t9 1t9 1q4 0 10 -1.5t10 -1.5q4 -1 11.5 0t9.5 1t9 -1t10 0q3 0 9 1.5t9 1.5q4 0 13 -1t13 -1q62 0 74 -3q13 -13 6 -60 q-2 -8 -17 -12q-2 -3 -7 -3.5t-10 0t-10 -0.5q-4 1 -9 -1t-8 -2q-16 3 -48 2t-50 1q-13 -3 -44 -3q-8 0 -24 1t-24 1q-65 0 -77 3q-3 1 -19 14q-2 4 -2.5 9.5t0.5 12.5t1 11q-3 30 0 44q0 2 0.5 5.5t0.5 4.5q-1 3 -1.5 11t-1.5 11q5 7 -1 17q-1 4 1 7t2 7q-5 28 0 48 q-2 25 0 82q0 7 -1 21.5t-1 25t3 19.5q0 5 -2 11.5t-1 12.5q2 14 -3 23q-1 4 1 8t2 6q-5 19 -5 56q2 26 5 37q0 9 -0.5 30t-0.5 32q-2 52 0 61zM323 833q2 -7 -0.5 -12t-11.5 -11t-10 -7q-3 -5 -12.5 -11.5t-12.5 -11.5q-7 -3 -15.5 -10.5t-13.5 -10.5q-4 -5 -13.5 -12 t-12.5 -10q-2 -1 -3 -3t-2.5 -4.5t-2.5 -3.5q-6 -1 -14.5 -8.5t-14.5 -8.5q-4 -1 -9 0t-11 3t-10 3q-16 3 -17 19q-1 6 4.5 11t5.5 9q7 6 19 23t20 23l10 12q10 13 14 21q5 3 11.5 15.5t13.5 16.5q7 1 26 -0.5t24 -1.5q14 -7 26 -11q1 -2 6.5 -7.5t5.5 -11.5z" />
<glyph unicode="&#xca;" horiz-adv-x="463" d="M59 641q2 4 6.5 6t10.5 4l9 3h142q8 0 22.5 -1t21.5 -1q4 0 11.5 2t9.5 2q4 0 11 -1t11 -1q61 0 82 -5q14 -13 9 -57q-1 -6 -5.5 -9t-15.5 -4.5t-13 -1.5q-7 2 -37 0t-37 -2q-97 0 -115 -3q-23 4 -30 -3q-4 -1 -6 -8.5t-4 -9.5q0 -47 -3 -55q3 -30 3 -31q-3 -35 3 -48 q10 -11 36.5 -11.5t45.5 2.5q4 0 10 -0.5t10 0t7 2.5q12 -3 42 -2.5t43 -4.5q56 0 68 -9q-1 -9 2.5 -31.5t-2.5 -28.5q-7 -6 -27.5 -9t-24.5 -4h-28q-6 0 -15.5 1t-14.5 1q-22 0 -78 -2q-1 0 -5 -0.5t-6 -0.5q-47 0 -58 -5q-9 -11 -6 -22q-3 -3 -3 -13.5t-2 -13.5 q-2 -28 0 -53l5 -30q0 -2 -1.5 -8.5t-1.5 -9.5l1 -7q0 -6 -3 -7q0 -6 -0.5 -19t0.5 -16q7 -18 22 -25q3 -2 14.5 0t13.5 2q3 0 9.5 -1t9.5 -1t9 1t9 1q4 0 10 -1.5t10 -1.5q4 -1 11.5 0t9.5 1t9 -1t10 0q3 0 9 1.5t9 1.5q4 0 13 -1t13 -1q62 0 74 -3q13 -13 6 -60 q-2 -8 -17 -12q-2 -3 -7 -3.5t-10 0t-10 -0.5q-4 1 -9 -1t-8 -2q-16 3 -48 2t-50 1q-13 -3 -44 -3q-8 0 -24 1t-24 1q-65 0 -77 3q-3 1 -19 14q-2 4 -2.5 9.5t0.5 12.5t1 11q-3 30 0 44q0 2 0.5 5.5t0.5 4.5q-1 3 -1.5 11t-1.5 11q5 7 -1 17q-1 4 1 7t2 7q-5 28 0 48 q-2 25 0 82q0 7 -1 21.5t-1 25t3 19.5q0 5 -2 11.5t-1 12.5q2 14 -3 23q-1 4 1 8t2 6q-5 19 -5 56q2 26 5 37q0 9 -0.5 30t-0.5 32q-2 52 0 61zM368 742q-11 -15 -20 -17q-8 -11 -25 -11q-9 1 -21 9.5t-14 9.5q-6 7 -19 20.5t-19 20.5q-4 1 -7 2.5t-6.5 3.5t-6.5 3 q-6 0 -11 -8q-6 -6 -16 -12q-1 -5 -6.5 -11.5t-6.5 -12.5q-6 -2 -11 -9q-7 -2 -18 -10.5t-18 -10.5q-39 5 -47 33q1 5 3.5 9t6 8t5.5 7q4 3 10.5 9.5t10.5 9.5q2 3 7 10t7 10q2 1 6 3.5t7 3.5l23 25q16 16 26 22q9 19 23 22q8 -2 24 -16q13 -13 17 -20q5 -2 11.5 -9t9.5 -9 q10 -5 19 -18q4 -3 12 -7q2 -5 5 -8.5t9 -7.5t8 -6q11 -15 19 -20q0 -1 1.5 -2.5t1.5 -2.5v-13z" />
<glyph unicode="&#xcb;" horiz-adv-x="463" d="M59 641q2 4 6.5 6t10.5 4l9 3h142q8 0 22.5 -1t21.5 -1q4 0 11.5 2t9.5 2q4 0 11 -1t11 -1q61 0 82 -5q14 -13 9 -57q-1 -6 -5.5 -9t-15.5 -4.5t-13 -1.5q-7 2 -37 0t-37 -2q-97 0 -115 -3q-23 4 -30 -3q-4 -1 -6 -8.5t-4 -9.5q0 -47 -3 -55q3 -30 3 -31q-3 -35 3 -48 q10 -11 36.5 -11.5t45.5 2.5q4 0 10 -0.5t10 0t7 2.5q12 -3 42 -2.5t43 -4.5q56 0 68 -9q-1 -9 2.5 -31.5t-2.5 -28.5q-7 -6 -27.5 -9t-24.5 -4h-28q-6 0 -15.5 1t-14.5 1q-22 0 -78 -2q-1 0 -5 -0.5t-6 -0.5q-47 0 -58 -5q-9 -11 -6 -22q-3 -3 -3 -13.5t-2 -13.5 q-2 -28 0 -53l5 -30q0 -2 -1.5 -8.5t-1.5 -9.5l1 -7q0 -6 -3 -7q0 -6 -0.5 -19t0.5 -16q7 -18 22 -25q3 -2 14.5 0t13.5 2q3 0 9.5 -1t9.5 -1t9 1t9 1q4 0 10 -1.5t10 -1.5q4 -1 11.5 0t9.5 1t9 -1t10 0q3 0 9 1.5t9 1.5q4 0 13 -1t13 -1q62 0 74 -3q13 -13 6 -60 q-2 -8 -17 -12q-2 -3 -7 -3.5t-10 0t-10 -0.5q-4 1 -9 -1t-8 -2q-16 3 -48 2t-50 1q-13 -3 -44 -3q-8 0 -24 1t-24 1q-65 0 -77 3q-3 1 -19 14q-2 4 -2.5 9.5t0.5 12.5t1 11q-3 30 0 44q0 2 0.5 5.5t0.5 4.5q-1 3 -1.5 11t-1.5 11q5 7 -1 17q-1 4 1 7t2 7q-5 28 0 48 q-2 25 0 82q0 7 -1 21.5t-1 25t3 19.5q0 5 -2 11.5t-1 12.5q2 14 -3 23q-1 4 1 8t2 6q-5 19 -5 56q2 26 5 37q0 9 -0.5 30t-0.5 32q-2 52 0 61zM263 794q0 1 -1 5.5t-2 6.5q6 37 35 54q7 1 18.5 3t14.5 3q7 -1 19 -9q10 -7 17 -18q10 -17 10 -56q-12 -23 -54 -32 q-12 0 -27 10q-20 10 -30 33zM200 809q2 2 2 -1q-1 -4 -1.5 -12.5t-1.5 -12.5q-2 -5 -7 -10.5t-6 -8.5q-21 -12 -22 -13q-6 2 -25 0q-5 1 -14 5t-15 5q-2 3 -7.5 11t-9.5 12q-4 18 5 41l6 18q16 14 30 20q63 2 66 -54z" />
<glyph unicode="&#xcc;" horiz-adv-x="220" d="M140 27q-8 -8 -31 -8q-11 -7 -35 -2q-7 7 -8.5 16.5t1 27t2.5 21.5q-5 28 -8 33q7 13 4 46.5t4 47.5q0 4 -2.5 9t-2.5 7q0 5 1 14t0.5 16t-2.5 13q-1 4 2 8t3 8q-2 7 -2 44q0 46 3 55q-5 16 -5 50.5t-3 53.5q5 9 3 30q0 2 1 6.5t1 5.5q0 5 -3.5 23.5t-1.5 28.5 q1 4 1.5 15t0.5 14q0 2 -1 9t-0.5 13t2.5 11q9 11 33 12t37 -6q7 -7 9 -22q2 -4 2 -5q-1 -11 -1 -52t-4 -61q1 -3 2.5 -10.5t2.5 -10.5q-2 -8 -2 -52q0 -3 -1 -31.5t3 -29.5q-3 -26 -2 -71t-1 -68q5 -23 0 -58q3 -84 -2 -151zM101 847q1 -2 6.5 -7.5t7.5 -9.5q11 -13 13 -19 q11 -9 14 -17q5 -4 10 -9.5t11 -12.5t9 -11q3 -5 13.5 -16t14.5 -19q1 0 1.5 -1.5t1.5 -1.5q0 -14 -13 -22t-28 -5q-4 1 -7.5 4t-7 7t-5.5 6q-8 2 -18.5 11.5t-17.5 10.5q-1 3 -5.5 7t-5.5 8q-9 5 -28.5 21.5t-33.5 22.5q-1 4 -8 10t-8 12q0 5 2.5 9t6 7.5t4.5 5.5q9 1 25 9 q25 15 29 14q6 0 17 -14z" />
<glyph unicode="&#xcd;" horiz-adv-x="220" d="M140 27q-8 -8 -31 -8q-11 -7 -35 -2q-7 7 -8.5 16.5t1 27t2.5 21.5q-5 28 -8 33q7 13 4 46.5t4 47.5q0 4 -2.5 9t-2.5 7q0 5 1 14t0.5 16t-2.5 13q-1 4 2 8t3 8q-2 7 -2 44q0 46 3 55q-5 16 -5 50.5t-3 53.5q5 9 3 30q0 2 1 6.5t1 5.5q0 5 -3.5 23.5t-1.5 28.5 q1 4 1.5 15t0.5 14q0 2 -1 9t-0.5 13t2.5 11q9 11 33 12t37 -6q7 -7 9 -22q2 -4 2 -5q-1 -11 -1 -52t-4 -61q1 -3 2.5 -10.5t2.5 -10.5q-2 -8 -2 -52q0 -3 -1 -31.5t3 -29.5q-3 -26 -2 -71t-1 -68q5 -23 0 -58q3 -84 -2 -151zM201 833q2 -7 -0.5 -12t-11.5 -11t-10 -7 q-3 -5 -12.5 -11.5t-12.5 -11.5q-7 -3 -15.5 -10.5t-13.5 -10.5q-4 -5 -13.5 -12t-12.5 -10q-2 -1 -3 -3t-2.5 -4.5t-2.5 -3.5q-6 -1 -14.5 -8.5t-14.5 -8.5q-4 -1 -9 0t-11 3t-10 3q-16 3 -17 19q-1 6 4.5 11t5.5 9q7 6 19 23t20 23l10 12q10 13 14 21q5 3 11.5 15.5 t13.5 16.5q7 1 26 -0.5t24 -1.5q14 -7 26 -11q1 -2 6.5 -7.5t5.5 -11.5z" />
<glyph unicode="&#xce;" horiz-adv-x="220" d="M140 27q-8 -8 -31 -8q-11 -7 -35 -2q-7 7 -8.5 16.5t1 27t2.5 21.5q-5 28 -8 33q7 13 4 46.5t4 47.5q0 4 -2.5 9t-2.5 7q0 5 1 14t0.5 16t-2.5 13q-1 4 2 8t3 8q-2 7 -2 44q0 46 3 55q-5 16 -5 50.5t-3 53.5q5 9 3 30q0 2 1 6.5t1 5.5q0 5 -3.5 23.5t-1.5 28.5 q1 4 1.5 15t0.5 14q0 2 -1 9t-0.5 13t2.5 11q9 11 33 12t37 -6q7 -7 9 -22q2 -4 2 -5q-1 -11 -1 -52t-4 -61q1 -3 2.5 -10.5t2.5 -10.5q-2 -8 -2 -52q0 -3 -1 -31.5t3 -29.5q-3 -26 -2 -71t-1 -68q5 -23 0 -58q3 -84 -2 -151zM246 742q-11 -15 -20 -17q-8 -11 -25 -11 q-9 1 -21 9.5t-14 9.5q-6 7 -19 20.5t-19 20.5q-4 1 -7 2.5t-6.5 3.5t-6.5 3q-6 0 -11 -8q-6 -6 -16 -12q-1 -5 -6.5 -11.5t-6.5 -12.5q-6 -2 -11 -9q-7 -2 -18 -10.5t-18 -10.5q-39 5 -47 33q1 5 3.5 9t6 8t5.5 7q4 3 10.5 9.5t10.5 9.5q2 3 7 10t7 10q2 1 6 3.5t7 3.5 l23 25q16 16 26 22q9 19 23 22q8 -2 24 -16q13 -13 17 -20q5 -2 11.5 -9t9.5 -9q10 -5 19 -18q4 -3 12 -7q2 -5 5 -8.5t9 -7.5t8 -6q11 -15 19 -20q0 -1 1.5 -2.5t1.5 -2.5v-13z" />
<glyph unicode="&#xcf;" horiz-adv-x="220" d="M140 27q-8 -8 -31 -8q-11 -7 -35 -2q-7 7 -8.5 16.5t1 27t2.5 21.5q-5 28 -8 33q7 13 4 46.5t4 47.5q0 4 -2.5 9t-2.5 7q0 5 1 14t0.5 16t-2.5 13q-1 4 2 8t3 8q-2 7 -2 44q0 46 3 55q-5 16 -5 50.5t-3 53.5q5 9 3 30q0 2 1 6.5t1 5.5q0 5 -3.5 23.5t-1.5 28.5 q1 4 1.5 15t0.5 14q0 2 -1 9t-0.5 13t2.5 11q9 11 33 12t37 -6q7 -7 9 -22q2 -4 2 -5q-1 -11 -1 -52t-4 -61q1 -3 2.5 -10.5t2.5 -10.5q-2 -8 -2 -52q0 -3 -1 -31.5t3 -29.5q-3 -26 -2 -71t-1 -68q5 -23 0 -58q3 -84 -2 -151zM142 794q0 1 -1 5.5t-2 6.5q6 37 35 54 q7 1 18.5 3t14.5 3q7 -1 19 -9q10 -7 17 -18q10 -17 10 -56q-12 -23 -54 -32q-12 0 -27 10q-20 10 -30 33zM79 809q2 2 2 -1q-1 -4 -1.5 -12.5t-1.5 -12.5q-2 -5 -7 -10.5t-6 -8.5q-21 -12 -22 -13q-6 2 -25 0q-5 1 -14 5t-15 5q-2 3 -7.5 11t-9.5 12q-4 18 5 41l6 18 q16 14 30 20q63 2 66 -54z" />
<glyph unicode="&#xd0;" horiz-adv-x="614" d="M542 219q0 -1 3 -9.5t-1 -9.5q-8 -28 -30 -52q-5 -14 -13 -24q-2 -4 -8 -8t-8 -6q-1 -3 -5.5 -7.5t-6.5 -8.5q-12 -8 -32 -26q-12 -5 -28 -18q-12 -2 -28 -16q-13 -2 -36 -11t-34 -11q-20 -4 -82 -8q-3 0 -8 -1.5t-9 -1.5q-16 2 -79 0q-7 0 -26 -0.5t-29 -0.5 q-15 7 -22 22q1 15 -1 41.5t-2 35.5t1 28.5t0.5 33t-3.5 26.5v110l-15 -3q-3 2 -12.5 4.5t-13.5 5.5q-12 43 8 61l33 3q0 17 -1 24q6 33 0 74q0 10 3 16q-2 19 -2 151q2 3 5 10.5t6 10.5q6 0 23 2.5t26 2.5q4 0 12 -1.5t13 -1.5q4 -1 15.5 0t16.5 1h30q3 0 5.5 -0.5t6 -1.5 t5.5 -1q30 4 69 -6q21 1 60 -10l21 -12q10 -2 25.5 -10.5t24.5 -10.5q4 -3 11.5 -10t14 -12t14.5 -8q1 -1 11 -14q11 -7 12 -13q3 -3 12.5 -10.5t14.5 -12.5q5 -11 16.5 -31t16.5 -31q2 -3 0 -16q2 -4 7.5 -8t6.5 -7q1 -6 5 -16t5 -13q0 -13 -2 -17q3 -9 4 -19.5t1.5 -25.5 t1.5 -21q0 -5 -0.5 -20t0.5 -21q-3 -8 -7.5 -25.5t-7.5 -25.5q0 -7 -14 -9zM197 305q-48 -9 -50 -9h-5v-129q1 -3 1.5 -6t1 -7t0.5 -6q-5 -42 2 -58q6 -6 11 -7q12 -2 29 2q31 4 62 -2q14 6 25 5q17 7 57 17l28 16q3 2 8.5 6t10.5 7t10 4q7 8 22.5 22t22.5 21q8 15 13 17 q5 13 11 19q1 5 5 11.5t5 9.5q0 5 5 11.5t6 8.5v7l3 4q1 5 1 16v16q4 7 5 18t0.5 19.5t-2 22t-1.5 20.5q-7 14 -8 27q-5 6 -12.5 23t-14.5 24q-5 12 -16 21q-3 3 -7.5 11t-7.5 11q-6 3 -15.5 10.5t-13.5 9.5q-1 1 -5 2.5t-6 4.5q-6 5 -20.5 12.5t-20.5 12.5q-15 3 -28 11 q-10 -1 -32 8q-2 0 -52 3q-6 0 -17.5 1.5t-17 2t-15.5 -0.5q-3 -1 -16 -0.5t-14 -4.5q-4 -10 -4.5 -35t-1.5 -31q3 -11 1 -28q0 -2 1 -4t1 -4v-85q0 -3 -0.5 -8.5t-0.5 -7.5h7q7 0 23.5 0.5t22.5 -0.5q8 -4 14 -21q2 -19 -6 -33l-2 -3q-2 -3 -3 -5z" />
<glyph unicode="&#xd1;" horiz-adv-x="688" d="M624 1q-17 5 -36.5 26.5t-25.5 25.5q-4 6 -13.5 16t-12.5 14q-22 20 -27 30q-3 3 -9 7l-9 6q-3 3 -9.5 10.5t-10.5 11.5q-20 17 -22 20t-9 9.5t-9 11.5q-15 11 -31 27q-24 21 -28 28q-4 1 -6 3t-4.5 5.5t-4.5 5.5q-4 5 -12 12t-10 9t-6 7t-8 8t-8 5q-12 16 -58 57 q-4 7 -14 16t-13 14q-12 8 -14 14q-2 2 -6.5 7t-6.5 9q-3 2 -8.5 6t-9.5 8t-7 8q-5 2 -13 9.5t-14 9.5q-3 1 -3.5 -2.5t-2.5 -3.5q0 -2 -2.5 -3.5t-2.5 -3.5q-2 -10 -6 -15q2 -7 2 -24t1 -24q-7 -39 0 -63q-3 -11 -1 -41t1 -41q0 -4 -1.5 -12t-1.5 -11q0 -6 1 -18t1 -17 l-4 -24q0 -2 1 -5.5t1 -5.5q0 -6 -1 -22t-1 -30t2 -25q0 -4 2.5 -9.5t2.5 -9.5q-2 -23 -5 -31q-10 -9 -37 -9t-37 9q-8 30 -3 67q-7 31 3 59q-5 8 -3.5 33.5t-2.5 37.5q1 7 0.5 28.5t2.5 26.5q-2 7 0 36q0 5 -1 15t-1 15q0 6 2.5 16.5t2.5 14.5q1 15 -5 45q3 6 1 27.5 t-2 28.5v57q-2 12 -2 17q0 3 1 11t0.5 13.5t-3.5 10.5q4 10 4 41q-9 35 1 46q12 -1 20 -6.5t16 -14t13 -12.5q23 -23 39 -43l18 -11q2 -2 14.5 -15t16.5 -23q14 -10 52 -50q3 -3 8.5 -7.5t10 -8.5t8.5 -8l11 -11t11 -17q15 -7 18 -10q6 -7 26 -26.5t27 -33.5q18 -11 32 -26 q4 -5 14 -14t14 -15q5 -5 20.5 -18.5t23.5 -22.5q2 -2 6 -7.5t7 -7.5q3 -4 11 -10l12 -9q5 -2 12 -9.5t12 -9.5q4 -2 10 -1t10.5 5t1.5 8q3 6 3.5 24t2.5 24v30v28q1 4 -1 9t-2 8q3 12 1 39t2 37q0 3 -0.5 8t-1 9.5t-1.5 7.5q0 3 2 7t1 7q-2 9 -1 32.5t1 30.5q0 4 -2 9t-1 9 q3 34 2 39q0 1 -2 7.5t-1 11.5l1 2q-4 22 5 39q3 2 11 3.5t11 2.5q6 0 14 -1t14 0q19 -2 23 -7q3 -7 2.5 -31.5t3.5 -32.5q-3 -9 -3 -57q0 -3 -1 -9t-1 -10t1.5 -12.5t1.5 -12.5q0 -3 -0.5 -8t-0.5 -8q-1 -8 1 -23t2 -21q0 -3 -1.5 -11t-1.5 -11q-2 -6 -0.5 -34.5t1.5 -34.5 q0 -3 -0.5 -9t-0.5 -9q0 -2 1 -7t0 -8q0 -4 -1.5 -10t-1.5 -9q0 -12 3 -22v-29q0 -56 2 -64q-3 -7 -3 -15q1 -11 1 -52t5 -49q2 -35 -14 -44zM357 768q7 -4 13 -6.5t14 -6.5q18 -3 19 -3q2 0 12.5 -1t13.5 1q14 10 16 18l3 10q6 2 23.5 4t23.5 -3q1 -2 2 -11q0 -1 -5 -14.5 t-8 -18.5q-2 -3 -6 -9.5t-7 -11t-7 -7.5q-10 -10 -27 -16q-39 -12 -94 12q-9 6 -23.5 10t-20.5 7q0 -1 -2.5 -0.5t-4.5 0.5l-3 1q-3 -1 -5.5 -0.5t-5.5 -1.5q-13 -9 -17 -18q-1 -5 -14 -10.5t-25 -3t-10 16.5q6 29 7 30q16 25 25 32q5 5 28 13q33 11 85 -13z" />
<glyph unicode="&#xd2;" horiz-adv-x="787" d="M742 364q2 0 2 -2q-2 -66 -2 -77l-2 -10t-2 -11t-2 -10q0 -1 -1.5 -3.5t-1.5 -3.5q-1 -3 -1.5 -11t-2.5 -12q-2 -9 -11.5 -25.5t-11.5 -25.5q-45 -60 -49 -63q-3 -6 -14 -14.5t-14 -13.5l-32 -24q-7 -2 -19 -9.5t-19 -9.5q-12 -10 -38 -17q-7 -4 -42 -14q-12 -4 -27 -5.5 t-35 -2.5t-30 -2q-18 4 -41 3q-22 7 -34 5q-4 2 -12 5t-12 5h-5l-1 3q-6 2 -18 4q-2 1 -4 2.5t-3 1.5q-10 3 -45 23q-3 2 -15.5 10.5t-20.5 11.5q-4 7 -15.5 16.5t-14.5 13.5q-35 34 -74 104q-4 22 -14 44q2 9 -3 24t-5 21q0 8 2 26q0 45 4 78q3 7 10 37q14 40 25 54l3 5 l3 3l2 1q1 1 1 3.5v3.5l5 4q1 2 4 9t4 9q3 4 9.5 10t9.5 9t8 11t8 11q15 8 47 36q10 2 23 10.5t18 10.5q6 5 21 11t20 9q1 0 14 3q3 1 7 3t6 2t7.5 0.5t8.5 1.5q2 0 5.5 2t5.5 2q13 3 31 3q37 4 57 2q2 0 5.5 -1.5t5.5 -1.5h14q8 -1 24 -5q13 -2 23 -5q12 -4 24 -12 q19 0 41.5 -13.5t31.5 -15.5q11 -12 26 -20q11 -11 29 -19q5 -8 16.5 -22t16.5 -21q7 -7 16.5 -22t14.5 -20q1 -7 6.5 -17t6.5 -16q3 -5 7 -16t7 -16q-1 -13 3.5 -31.5t4.5 -26.5zM663 362q-1 9 -5.5 25t-5.5 27q-2 2 -1 3q-14 24 -16 30q-11 11 -19 29l-25 25t-37 30 q-3 3 -11 8t-11 9q-10 3 -25.5 10.5t-22.5 10.5q-11 2 -29 8q-6 0 -16 2t-15 2q-12 1 -35 -1q-4 0 -15.5 -0.5t-17.5 -1.5q-3 0 -10 -2t-9 -2l-19 -7q-5 -1 -13.5 -3t-15 -4t-10.5 -4q-6 -2 -16 -10t-16 -10q-3 -3 -10.5 -6.5t-8.5 -4.5q-8 -8 -11 -8q-15 -22 -31 -35 q-2 -7 -10.5 -17t-10.5 -14t-4.5 -14t-6.5 -15q-1 -2 -4.5 -13t-6.5 -15q-1 -9 -5 -27q0 -3 -2 -12.5t-2 -14.5q-1 -5 0 -15t1 -13l3 -33q4 -8 16 -40q2 -6 8 -18.5t8 -20.5q10 -13 11 -16q26 -24 35 -31q19 -19 20 -21q6 -2 25 -16q13 -3 33 -13t27 -12h18q33 -13 58 -5 q12 -3 34.5 0.5t28.5 3.5q17 9 35 7q15 16 37 19q15 12 29 18q4 6 25 20q9 13 19 19q6 17 24 33q7 18 11 24q3 3 7 11t7 11q0 25 8 49q0 2 3 36v21q0 1 -2 1v3zM384 847q2 -2 7 -7.5t7 -9.5q11 -13 13 -19q11 -9 14 -17q5 -4 10 -9.5t11 -12.5t9 -11q3 -5 13.5 -16t14.5 -19 q1 0 1.5 -1.5t1.5 -1.5q0 -14 -13 -22t-28 -5q-4 1 -7.5 4t-7 7t-5.5 6q-8 2 -18.5 11.5t-17.5 10.5q-1 3 -5.5 7t-5.5 8q-9 5 -28.5 21.5t-33.5 22.5q-1 4 -8 10t-8 12q0 5 2 9t6 7.5t5 5.5q9 1 25 9q25 15 29 14q7 0 17 -14z" />
<glyph unicode="&#xd3;" horiz-adv-x="787" d="M742 364q2 0 2 -2q-2 -66 -2 -77l-2 -10t-2 -11t-2 -10q0 -1 -1.5 -3.5t-1.5 -3.5q-1 -3 -1.5 -11t-2.5 -12q-2 -9 -11.5 -25.5t-11.5 -25.5q-45 -60 -49 -63q-3 -6 -14 -14.5t-14 -13.5l-32 -24q-7 -2 -19 -9.5t-19 -9.5q-12 -10 -38 -17q-7 -4 -42 -14q-12 -4 -27 -5.5 t-35 -2.5t-30 -2q-18 4 -41 3q-22 7 -34 5q-4 2 -12 5t-12 5h-5l-1 3q-6 2 -18 4q-2 1 -4 2.5t-3 1.5q-10 3 -45 23q-3 2 -15.5 10.5t-20.5 11.5q-4 7 -15.5 16.5t-14.5 13.5q-35 34 -74 104q-4 22 -14 44q2 9 -3 24t-5 21q0 8 2 26q0 45 4 78q3 7 10 37q14 40 25 54l3 5 l3 3l2 1q1 1 1 3.5v3.5l5 4q1 2 4 9t4 9q3 4 9.5 10t9.5 9t8 11t8 11q15 8 47 36q10 2 23 10.5t18 10.5q6 5 21 11t20 9q1 0 14 3q3 1 7 3t6 2t7.5 0.5t8.5 1.5q2 0 5.5 2t5.5 2q13 3 31 3q37 4 57 2q2 0 5.5 -1.5t5.5 -1.5h14q8 -1 24 -5q13 -2 23 -5q12 -4 24 -12 q19 0 41.5 -13.5t31.5 -15.5q11 -12 26 -20q11 -11 29 -19q5 -8 16.5 -22t16.5 -21q7 -7 16.5 -22t14.5 -20q1 -7 6.5 -17t6.5 -16q3 -5 7 -16t7 -16q-1 -13 3.5 -31.5t4.5 -26.5zM663 362q-1 9 -5.5 25t-5.5 27q-2 2 -1 3q-14 24 -16 30q-11 11 -19 29l-25 25t-37 30 q-3 3 -11 8t-11 9q-10 3 -25.5 10.5t-22.5 10.5q-11 2 -29 8q-6 0 -16 2t-15 2q-12 1 -35 -1q-4 0 -15.5 -0.5t-17.5 -1.5q-3 0 -10 -2t-9 -2l-19 -7q-5 -1 -13.5 -3t-15 -4t-10.5 -4q-6 -2 -16 -10t-16 -10q-3 -3 -10.5 -6.5t-8.5 -4.5q-8 -8 -11 -8q-15 -22 -31 -35 q-2 -7 -10.5 -17t-10.5 -14t-4.5 -14t-6.5 -15q-1 -2 -4.5 -13t-6.5 -15q-1 -9 -5 -27q0 -3 -2 -12.5t-2 -14.5q-1 -5 0 -15t1 -13l3 -33q4 -8 16 -40q2 -6 8 -18.5t8 -20.5q10 -13 11 -16q26 -24 35 -31q19 -19 20 -21q6 -2 25 -16q13 -3 33 -13t27 -12h18q33 -13 58 -5 q12 -3 34.5 0.5t28.5 3.5q17 9 35 7q15 16 37 19q15 12 29 18q4 6 25 20q9 13 19 19q6 17 24 33q7 18 11 24q3 3 7 11t7 11q0 25 8 49q0 2 3 36v21q0 1 -2 1v3zM484 833q2 -7 -0.5 -12t-11.5 -11t-10 -7q-3 -5 -12.5 -11.5t-12.5 -11.5q-7 -3 -15.5 -10.5t-13.5 -10.5 q-4 -5 -13.5 -12t-12.5 -10q-2 -1 -3 -3t-2.5 -4.5t-2.5 -3.5q-6 -1 -14.5 -8.5t-14.5 -8.5q-4 -1 -9 0t-11 3t-10 3q-16 3 -17 19q-1 6 4.5 11t5.5 9q8 6 20 23t19 23l10 12q10 13 14 21q5 3 11.5 15.5t13.5 16.5q7 1 26 -0.5t24 -1.5q14 -7 26 -11q1 -2 6.5 -7.5 t5.5 -11.5z" />
<glyph unicode="&#xd4;" horiz-adv-x="787" d="M742 364q2 0 2 -2q-2 -66 -2 -77l-2 -10t-2 -11t-2 -10q0 -1 -1.5 -3.5t-1.5 -3.5q-1 -3 -1.5 -11t-2.5 -12q-2 -9 -11.5 -25.5t-11.5 -25.5q-45 -60 -49 -63q-3 -6 -14 -14.5t-14 -13.5l-32 -24q-7 -2 -19 -9.5t-19 -9.5q-12 -10 -38 -17q-7 -4 -42 -14q-12 -4 -27 -5.5 t-35 -2.5t-30 -2q-18 4 -41 3q-22 7 -34 5q-4 2 -12 5t-12 5h-5l-1 3q-6 2 -18 4q-2 1 -4 2.5t-3 1.5q-10 3 -45 23q-3 2 -15.5 10.5t-20.5 11.5q-4 7 -15.5 16.5t-14.5 13.5q-35 34 -74 104q-4 22 -14 44q2 9 -3 24t-5 21q0 8 2 26q0 45 4 78q3 7 10 37q14 40 25 54l3 5 l3 3l2 1q1 1 1 3.5v3.5l5 4q1 2 4 9t4 9q3 4 9.5 10t9.5 9t8 11t8 11q15 8 47 36q10 2 23 10.5t18 10.5q6 5 21 11t20 9q1 0 14 3q3 1 7 3t6 2t7.5 0.5t8.5 1.5q2 0 5.5 2t5.5 2q13 3 31 3q37 4 57 2q2 0 5.5 -1.5t5.5 -1.5h14q8 -1 24 -5q13 -2 23 -5q12 -4 24 -12 q19 0 41.5 -13.5t31.5 -15.5q11 -12 26 -20q11 -11 29 -19q5 -8 16.5 -22t16.5 -21q7 -7 16.5 -22t14.5 -20q1 -7 6.5 -17t6.5 -16q3 -5 7 -16t7 -16q-1 -13 3.5 -31.5t4.5 -26.5zM663 362q-1 9 -5.5 25t-5.5 27q-2 2 -1 3q-14 24 -16 30q-11 11 -19 29l-25 25t-37 30 q-3 3 -11 8t-11 9q-10 3 -25.5 10.5t-22.5 10.5q-11 2 -29 8q-6 0 -16 2t-15 2q-12 1 -35 -1q-4 0 -15.5 -0.5t-17.5 -1.5q-3 0 -10 -2t-9 -2l-19 -7q-5 -1 -13.5 -3t-15 -4t-10.5 -4q-6 -2 -16 -10t-16 -10q-3 -3 -10.5 -6.5t-8.5 -4.5q-8 -8 -11 -8q-15 -22 -31 -35 q-2 -7 -10.5 -17t-10.5 -14t-4.5 -14t-6.5 -15q-1 -2 -4.5 -13t-6.5 -15q-1 -9 -5 -27q0 -3 -2 -12.5t-2 -14.5q-1 -5 0 -15t1 -13l3 -33q4 -8 16 -40q2 -6 8 -18.5t8 -20.5q10 -13 11 -16q26 -24 35 -31q19 -19 20 -21q6 -2 25 -16q13 -3 33 -13t27 -12h18q33 -13 58 -5 q12 -3 34.5 0.5t28.5 3.5q17 9 35 7q15 16 37 19q15 12 29 18q4 6 25 20q9 13 19 19q6 17 24 33q7 18 11 24q3 3 7 11t7 11q0 25 8 49q0 2 3 36v21q0 1 -2 1v3zM529 742q-11 -15 -20 -17q-8 -11 -25 -11q-9 1 -20.5 9.5t-14.5 9.5q-6 7 -19 20.5t-19 20.5q-4 1 -7 2.5 t-6.5 3.5t-6.5 3q-6 0 -11 -8q-6 -6 -16 -12q-1 -5 -6.5 -11.5t-6.5 -12.5q-6 -2 -11 -9q-7 -2 -18 -10.5t-18 -10.5q-39 5 -47 33q1 5 3.5 9t6 8t5.5 7q4 3 10.5 9.5t10.5 9.5q2 3 7 10t7 10q2 1 6 3.5t7 3.5l23 25q16 16 26 22q9 19 23 22q8 -2 24 -16q13 -13 17 -20 q5 -2 11.5 -9t9.5 -9q10 -5 19 -18q4 -3 12 -7q2 -5 5 -8.5t9 -7.5t8 -6q11 -15 19 -20q0 -1 1.5 -2.5t1.5 -2.5v-13z" />
<glyph unicode="&#xd5;" horiz-adv-x="787" d="M742 364q2 0 2 -2q-2 -66 -2 -77l-2 -10t-2 -11t-2 -10q0 -1 -1.5 -3.5t-1.5 -3.5q-1 -3 -1.5 -11t-2.5 -12q-2 -9 -11.5 -25.5t-11.5 -25.5q-45 -60 -49 -63q-3 -6 -14 -14.5t-14 -13.5l-32 -24q-7 -2 -19 -9.5t-19 -9.5q-12 -10 -38 -17q-7 -4 -42 -14q-12 -4 -27 -5.5 t-35 -2.5t-30 -2q-18 4 -41 3q-22 7 -34 5q-4 2 -12 5t-12 5h-5l-1 3q-6 2 -18 4q-2 1 -4 2.5t-3 1.5q-10 3 -45 23q-3 2 -15.5 10.5t-20.5 11.5q-4 7 -15.5 16.5t-14.5 13.5q-35 34 -74 104q-4 22 -14 44q2 9 -3 24t-5 21q0 8 2 26q0 45 4 78q3 7 10 37q14 40 25 54l3 5 l3 3l2 1q1 1 1 3.5v3.5l5 4q1 2 4 9t4 9q3 4 9.5 10t9.5 9t8 11t8 11q15 8 47 36q10 2 23 10.5t18 10.5q6 5 21 11t20 9q1 0 14 3q3 1 7 3t6 2t7.5 0.5t8.5 1.5q2 0 5.5 2t5.5 2q13 3 31 3q37 4 57 2q2 0 5.5 -1.5t5.5 -1.5h14q8 -1 24 -5q13 -2 23 -5q12 -4 24 -12 q19 0 41.5 -13.5t31.5 -15.5q11 -12 26 -20q11 -11 29 -19q5 -8 16.5 -22t16.5 -21q7 -7 16.5 -22t14.5 -20q1 -7 6.5 -17t6.5 -16q3 -5 7 -16t7 -16q-1 -13 3.5 -31.5t4.5 -26.5zM663 362q-1 9 -5.5 25t-5.5 27q-2 2 -1 3q-14 24 -16 30q-11 11 -19 29l-25 25t-37 30 q-3 3 -11 8t-11 9q-10 3 -25.5 10.5t-22.5 10.5q-11 2 -29 8q-6 0 -16 2t-15 2q-12 1 -35 -1q-4 0 -15.5 -0.5t-17.5 -1.5q-3 0 -10 -2t-9 -2l-19 -7q-5 -1 -13.5 -3t-15 -4t-10.5 -4q-6 -2 -16 -10t-16 -10q-3 -3 -10.5 -6.5t-8.5 -4.5q-8 -8 -11 -8q-15 -22 -31 -35 q-2 -7 -10.5 -17t-10.5 -14t-4.5 -14t-6.5 -15q-1 -2 -4.5 -13t-6.5 -15q-1 -9 -5 -27q0 -3 -2 -12.5t-2 -14.5q-1 -5 0 -15t1 -13l3 -33q4 -8 16 -40q2 -6 8 -18.5t8 -20.5q10 -13 11 -16q26 -24 35 -31q19 -19 20 -21q6 -2 25 -16q13 -3 33 -13t27 -12h18q33 -13 58 -5 q12 -3 34.5 0.5t28.5 3.5q17 9 35 7q15 16 37 19q15 12 29 18q4 6 25 20q9 13 19 19q6 17 24 33q7 18 11 24q3 3 7 11t7 11q0 25 8 49q0 2 3 36v21q0 1 -2 1v3zM406 768q7 -4 13 -6.5t14 -6.5q18 -3 19 -3q2 0 12.5 -1t13.5 1q14 10 16 18l3 10q6 2 23.5 4t23.5 -3 q1 -2 2 -11q0 -1 -5 -14.5t-8 -18.5q-2 -3 -6 -9.5t-7 -11t-7 -7.5q-10 -10 -27 -16q-39 -12 -94 12q-9 6 -23.5 10t-20.5 7q0 -1 -2.5 -0.5t-5.5 0.5l-2 1q-3 -1 -5.5 -0.5t-5.5 -1.5q-13 -9 -17 -18q-1 -5 -14 -10.5t-25 -3t-10 16.5q6 29 7 30q16 25 25 32q5 5 28 13 q33 11 85 -13z" />
<glyph unicode="&#xd6;" horiz-adv-x="787" d="M742 364q2 0 2 -2q-2 -66 -2 -77l-2 -10t-2 -11t-2 -10q0 -1 -1.5 -3.5t-1.5 -3.5q-1 -3 -1.5 -11t-2.5 -12q-2 -9 -11.5 -25.5t-11.5 -25.5q-45 -60 -49 -63q-3 -6 -14 -14.5t-14 -13.5l-32 -24q-7 -2 -19 -9.5t-19 -9.5q-12 -10 -38 -17q-7 -4 -42 -14q-12 -4 -27 -5.5 t-35 -2.5t-30 -2q-18 4 -41 3q-22 7 -34 5q-4 2 -12 5t-12 5h-5l-1 3q-6 2 -18 4q-2 1 -4 2.5t-3 1.5q-10 3 -45 23q-3 2 -15.5 10.5t-20.5 11.5q-4 7 -15.5 16.5t-14.5 13.5q-35 34 -74 104q-4 22 -14 44q2 9 -3 24t-5 21q0 8 2 26q0 45 4 78q3 7 10 37q14 40 25 54l3 5 l3 3l2 1q1 1 1 3.5v3.5l5 4q1 2 4 9t4 9q3 4 9.5 10t9.5 9t8 11t8 11q15 8 47 36q10 2 23 10.5t18 10.5q6 5 21 11t20 9q1 0 14 3q3 1 7 3t6 2t7.5 0.5t8.5 1.5q2 0 5.5 2t5.5 2q13 3 31 3q37 4 57 2q2 0 5.5 -1.5t5.5 -1.5h14q8 -1 24 -5q13 -2 23 -5q12 -4 24 -12 q19 0 41.5 -13.5t31.5 -15.5q11 -12 26 -20q11 -11 29 -19q5 -8 16.5 -22t16.5 -21q7 -7 16.5 -22t14.5 -20q1 -7 6.5 -17t6.5 -16q3 -5 7 -16t7 -16q-1 -13 3.5 -31.5t4.5 -26.5zM663 362q-1 9 -5.5 25t-5.5 27q-2 2 -1 3q-14 24 -16 30q-11 11 -19 29l-25 25t-37 30 q-3 3 -11 8t-11 9q-10 3 -25.5 10.5t-22.5 10.5q-11 2 -29 8q-6 0 -16 2t-15 2q-12 1 -35 -1q-4 0 -15.5 -0.5t-17.5 -1.5q-3 0 -10 -2t-9 -2l-19 -7q-5 -1 -13.5 -3t-15 -4t-10.5 -4q-6 -2 -16 -10t-16 -10q-3 -3 -10.5 -6.5t-8.5 -4.5q-8 -8 -11 -8q-15 -22 -31 -35 q-2 -7 -10.5 -17t-10.5 -14t-4.5 -14t-6.5 -15q-1 -2 -4.5 -13t-6.5 -15q-1 -9 -5 -27q0 -3 -2 -12.5t-2 -14.5q-1 -5 0 -15t1 -13l3 -33q4 -8 16 -40q2 -6 8 -18.5t8 -20.5q10 -13 11 -16q26 -24 35 -31q19 -19 20 -21q6 -2 25 -16q13 -3 33 -13t27 -12h18q33 -13 58 -5 q12 -3 34.5 0.5t28.5 3.5q17 9 35 7q15 16 37 19q15 12 29 18q4 6 25 20q9 13 19 19q6 17 24 33q7 18 11 24q3 3 7 11t7 11q0 25 8 49q0 2 3 36v21q0 1 -2 1v3zM652 598q0 1 -1 5.5t-2 6.5q6 37 35 54q7 1 18.5 3t14.5 3q7 -1 19 -9q10 -7 17 -18q10 -17 10 -56 q-12 -23 -54 -32q-12 0 -27 10q-20 10 -30 33zM136 613q2 2 2 -1q-1 -4 -1.5 -12.5t-1.5 -12.5q-2 -5 -7 -10.5t-6 -8.5q-21 -12 -22 -13q-6 2 -25 0q-5 1 -14 5t-15 5q-2 3 -7.5 11t-9.5 12q-4 18 5 41l6 18q16 14 30 20q63 2 66 -54z" />
<glyph unicode="&#xd7;" horiz-adv-x="368" d="M90 310q14 0 19 -12q4 -10 67 -67l4 5l41 43l16 16t17 16q9 3 24 -5q15 -12 20 -27q0 -6 2 -9q-2 -2 -5 -10t-7 -9q-9 -3 -66 -69q9 -9 12 -11t32 -25q6 -11 22 -25q2 -2 6 -4.5t6 -4t5 -4.5t3.5 -4.5t1.5 -5.5t-1 -7q-9 -14 -22 -26q-16 -12 -27 -11q-6 6 -14 11 q-3 2 -32 32t-35 34q-4 2 -6 4l-10 -10l-10 -15q-9 -4 -25 -22l-14 -19q-3 -7 -7 -9t-10.5 -2h-7.5q-14 7 -26 21q-12 15 -12 27q3 3 6.5 7.5t5.5 6.5q2 3 29 28.5t31 30.5l3 5l-4 4q-2 2 -12 14t-13 14q-5 6 -24.5 24t-24.5 24q-3 9 5 25q10 13 27 19q6 2 10 2z" />
<glyph unicode="&#xd8;" horiz-adv-x="787" d="M742 364q2 0 2 -2q-2 -66 -2 -77l-2 -10t-2 -11t-2 -10q0 -1 -1.5 -3.5t-1.5 -3.5q-1 -3 -1.5 -11t-2.5 -12q-2 -9 -11.5 -25.5t-11.5 -25.5q-45 -60 -49 -63q-3 -6 -14 -14.5t-14 -13.5l-32 -24q-7 -2 -19 -9.5t-19 -9.5q-12 -10 -38 -17q-7 -4 -42 -14q-12 -4 -27 -5.5 t-35 -2.5t-30 -2q-18 4 -41 3q-22 7 -34 5h-1q-1 1 -2 1l-5 -12q-1 -3 -2 -10.5t-4 -10.5q-1 -1 -2 -8.5t-6 -11.5q-5 -6 -7 -9t-7 -4.5t-7 -1.5t-13 -1q-39 -2 -40 17l15 24q4 15 16 34q1 6 6 15q-11 4 -41 22q-3 2 -15.5 10.5t-20.5 11.5q-4 7 -15.5 16.5t-14.5 13.5 q-35 34 -74 104q-4 22 -14 44q2 9 -3 24t-5 21q0 8 2 26q0 45 4 78q3 7 10 37q14 40 25 54l3 5l3 3l2 1q1 1 1 3.5v3.5l5 4q1 2 4 9t4 9q3 4 9.5 10t9.5 9t8 11t8 11q15 8 47 36q10 2 23 10.5t18 10.5q6 5 21 11t20 9q1 0 14 3q3 1 7 3t6 2t7.5 0.5t8.5 1.5q2 0 5.5 2t5.5 2 q13 3 31 3q37 4 57 2q2 0 5.5 -1.5t5.5 -1.5h14q8 -1 24 -5q13 -2 23 -5q12 -4 24 -12h4l6 17q2 4 4.5 14t6 17.5t9.5 13.5q9 3 25 3q33 0 37 -2q9 -12 -14 -42q-3 -9 -9.5 -23.5t-9.5 -21.5q7 -4 14 -5q11 -12 26 -20q11 -11 29 -19q5 -8 16.5 -22t16.5 -21q7 -7 16.5 -22 t14.5 -20q1 -7 6.5 -17t6.5 -16q3 -5 7 -16t7 -16q-1 -13 3.5 -31.5t4.5 -26.5zM261 116q13 -4 29 -11l11 29q4 10 17 36.5t22 47t13 37.5q4 7 10.5 23.5t13.5 25.5q1 9 9 25t10 24l3 15q5 4 15 25t20.5 47.5t11.5 27.5q3 7 8.5 19t7.5 17l6 15q15 32 21 48q-1 0 -5 2 q-11 2 -29 8q-6 0 -16 2t-15 2q-12 1 -35 -1q-4 0 -15.5 -0.5t-17.5 -1.5q-3 0 -10 -2t-9 -2l-19 -7q-5 -1 -13.5 -3t-15 -4t-10.5 -4q-6 -2 -16 -10t-16 -10q-3 -3 -10.5 -6.5t-8.5 -4.5q-8 -8 -11 -8q-15 -22 -31 -35q-2 -7 -10.5 -17t-10.5 -14t-4.5 -14t-6.5 -15 q-1 -2 -4.5 -13t-6.5 -15q-1 -9 -5 -27q0 -3 -2 -12.5t-2 -14.5q-1 -5 0 -15t1 -13l3 -33q4 -8 16 -40q2 -6 8 -18.5t8 -20.5q10 -13 11 -16q26 -24 35 -31q19 -19 20 -21q6 -2 25 -16zM489 419l-28 -67q-8 -12 -23 -50q-1 -3 -7.5 -20t-11.5 -27q-1 -3 -6 -10t-6 -10 l-8 -22q-2 -4 -12 -28.5t-16 -36.5q-1 -7 -16 -35q-1 -1 0 -2t0 -2q-4 -7 -10 -21q28 -9 52 -2q12 -3 34.5 0.5t28.5 3.5q17 9 35 7q15 16 37 19q15 12 29 18q4 6 25 20q9 13 19 19q6 17 24 33q7 18 11 24q3 3 7 11t7 11q0 25 8 49q0 2 3 36v21q0 1 -2 1v3q-1 9 -5.5 25 t-5.5 27q-2 2 -1 3q-14 24 -16 30q-11 11 -19 29l-25 25t-37 30q-4 4 -14 10q-38 -84 -46 -110q0 -1 -2 -3.5t-3 -4.5t0 -4z" />
<glyph unicode="&#xd9;" horiz-adv-x="590" d="M113 651q11 -11 13 -19v-29q-2 -34 -2 -58l3 -42q1 -8 0 -23t-1 -20q-1 -6 0 -16.5t1 -13.5q0 -2 -1 -6.5t0 -7.5q0 -26 -5 -35q0 -3 2.5 -23.5t3 -29.5t0 -24t-4.5 -25q1 -4 3.5 -16.5t3.5 -19.5q1 -14 1 -41q24 -54 32 -65q10 -11 42 -35q8 -2 40 -14q55 -5 68 -3 q6 2 20 5.5t20 6.5q6 2 15 7.5t14 7.5q4 6 20 15q2 4 8.5 11.5t7.5 14.5q2 5 8.5 12t8.5 11q2 13 7 18q-1 8 2 23.5t3 21.5q0 3 -1 11t-1 11q0 5 1.5 14.5t1.5 14.5q0 6 -0.5 17t-0.5 16q-1 20 -0.5 61t0.5 60q-3 46 0 65q-1 3 -2 9.5t-2 9.5l4 58q0 5 -0.5 14.5t-0.5 15.5 t1 13.5t4 13.5q14 8 37.5 8.5t35.5 -8.5q13 -28 0 -69q1 -7 4 -16.5t4 -13.5q-3 -13 -3.5 -29.5t0.5 -38.5t1 -29q-1 -5 -3 -26q1 -6 1.5 -24.5t3.5 -26.5q-4 -28 0 -47q-1 -2 0 -3t1 -2q-1 -5 -0.5 -20.5t-2.5 -20.5q1 -3 1 -13t2 -14q-7 -78 -14 -96q-5 -5 -9 -19.5 t-8 -19.5q-1 -2 -11 -18q-1 -3 -5 -9t-5 -9q-12 -9 -33.5 -26.5t-24.5 -19.5q-11 -3 -27.5 -11.5t-21.5 -10.5q-10 -3 -30 -7t-28 -6h-51q-8 3 -23.5 6.5t-20.5 4.5q-9 1 -22.5 6.5t-19.5 6.5q-20 14 -32 19q-22 17 -28 20q-3 4 -15 16t-17 20q-24 38 -27 41q-1 8 -5 25.5 t-5.5 31.5t-0.5 27q0 4 -3 9.5t-3 7.5q6 42 -2 87q5 17 3.5 52t1.5 52q0 1 -3 55q0 13 0.5 40t-0.5 41l2 6q-2 10 -2 16q0 2 1 7t1 7t-2.5 11t-1.5 14q0 2 0.5 3.5t2 3.5t2.5 3t2 3.5t3 3.5q8 7 63 7zM286 847q2 -2 7 -7.5t7 -9.5q11 -13 13 -19q11 -9 14 -17q5 -4 10 -9.5 t11 -12.5t9 -11q3 -5 13.5 -16t14.5 -19q1 0 1.5 -1.5t1.5 -1.5q0 -14 -13 -22t-28 -5q-4 1 -7.5 4t-7 7t-5.5 6q-8 2 -18.5 11.5t-17.5 10.5q-1 3 -5.5 7t-5.5 8q-9 5 -28.5 21.5t-33.5 22.5q-1 4 -8 10t-8 12q0 5 2 9t6 7.5t5 5.5q9 1 25 9q25 15 29 14q7 0 17 -14z" />
<glyph unicode="&#xda;" horiz-adv-x="590" d="M113 651q11 -11 13 -19v-29q-2 -34 -2 -58l3 -42q1 -8 0 -23t-1 -20q-1 -6 0 -16.5t1 -13.5q0 -2 -1 -6.5t0 -7.5q0 -26 -5 -35q0 -3 2.5 -23.5t3 -29.5t0 -24t-4.5 -25q1 -4 3.5 -16.5t3.5 -19.5q1 -14 1 -41q24 -54 32 -65q10 -11 42 -35q8 -2 40 -14q55 -5 68 -3 q6 2 20 5.5t20 6.5q6 2 15 7.5t14 7.5q4 6 20 15q2 4 8.5 11.5t7.5 14.5q2 5 8.5 12t8.5 11q2 13 7 18q-1 8 2 23.5t3 21.5q0 3 -1 11t-1 11q0 5 1.5 14.5t1.5 14.5q0 6 -0.5 17t-0.5 16q-1 20 -0.5 61t0.5 60q-3 46 0 65q-1 3 -2 9.5t-2 9.5l4 58q0 5 -0.5 14.5t-0.5 15.5 t1 13.5t4 13.5q14 8 37.5 8.5t35.5 -8.5q13 -28 0 -69q1 -7 4 -16.5t4 -13.5q-3 -13 -3.5 -29.5t0.5 -38.5t1 -29q-1 -5 -3 -26q1 -6 1.5 -24.5t3.5 -26.5q-4 -28 0 -47q-1 -2 0 -3t1 -2q-1 -5 -0.5 -20.5t-2.5 -20.5q1 -3 1 -13t2 -14q-7 -78 -14 -96q-5 -5 -9 -19.5 t-8 -19.5q-1 -2 -11 -18q-1 -3 -5 -9t-5 -9q-12 -9 -33.5 -26.5t-24.5 -19.5q-11 -3 -27.5 -11.5t-21.5 -10.5q-10 -3 -30 -7t-28 -6h-51q-8 3 -23.5 6.5t-20.5 4.5q-9 1 -22.5 6.5t-19.5 6.5q-20 14 -32 19q-22 17 -28 20q-3 4 -15 16t-17 20q-24 38 -27 41q-1 8 -5 25.5 t-5.5 31.5t-0.5 27q0 4 -3 9.5t-3 7.5q6 42 -2 87q5 17 3.5 52t1.5 52q0 1 -3 55q0 13 0.5 40t-0.5 41l2 6q-2 10 -2 16q0 2 1 7t1 7t-2.5 11t-1.5 14q0 2 0.5 3.5t2 3.5t2.5 3t2 3.5t3 3.5q8 7 63 7zM386 833q2 -7 -0.5 -12t-11.5 -11t-10 -7q-3 -5 -12.5 -11.5 t-12.5 -11.5q-7 -3 -15.5 -10.5t-13.5 -10.5q-4 -5 -13.5 -12t-12.5 -10q-2 -1 -3 -3t-2.5 -4.5t-2.5 -3.5q-6 -1 -14.5 -8.5t-14.5 -8.5q-4 -1 -9 0t-11 3t-10 3q-16 3 -17 19q-1 6 4.5 11t5.5 9q8 6 20 23t19 23l10 12q10 13 14 21q5 3 11.5 15.5t13.5 16.5q7 1 26 -0.5 t24 -1.5q14 -7 26 -11q1 -2 6.5 -7.5t5.5 -11.5z" />
<glyph unicode="&#xdb;" horiz-adv-x="590" d="M113 651q11 -11 13 -19v-29q-2 -34 -2 -58l3 -42q1 -8 0 -23t-1 -20q-1 -6 0 -16.5t1 -13.5q0 -2 -1 -6.5t0 -7.5q0 -26 -5 -35q0 -3 2.5 -23.5t3 -29.5t0 -24t-4.5 -25q1 -4 3.5 -16.5t3.5 -19.5q1 -14 1 -41q24 -54 32 -65q10 -11 42 -35q8 -2 40 -14q55 -5 68 -3 q6 2 20 5.5t20 6.5q6 2 15 7.5t14 7.5q4 6 20 15q2 4 8.5 11.5t7.5 14.5q2 5 8.5 12t8.5 11q2 13 7 18q-1 8 2 23.5t3 21.5q0 3 -1 11t-1 11q0 5 1.5 14.5t1.5 14.5q0 6 -0.5 17t-0.5 16q-1 20 -0.5 61t0.5 60q-3 46 0 65q-1 3 -2 9.5t-2 9.5l4 58q0 5 -0.5 14.5t-0.5 15.5 t1 13.5t4 13.5q14 8 37.5 8.5t35.5 -8.5q13 -28 0 -69q1 -7 4 -16.5t4 -13.5q-3 -13 -3.5 -29.5t0.5 -38.5t1 -29q-1 -5 -3 -26q1 -6 1.5 -24.5t3.5 -26.5q-4 -28 0 -47q-1 -2 0 -3t1 -2q-1 -5 -0.5 -20.5t-2.5 -20.5q1 -3 1 -13t2 -14q-7 -78 -14 -96q-5 -5 -9 -19.5 t-8 -19.5q-1 -2 -11 -18q-1 -3 -5 -9t-5 -9q-12 -9 -33.5 -26.5t-24.5 -19.5q-11 -3 -27.5 -11.5t-21.5 -10.5q-10 -3 -30 -7t-28 -6h-51q-8 3 -23.5 6.5t-20.5 4.5q-9 1 -22.5 6.5t-19.5 6.5q-20 14 -32 19q-22 17 -28 20q-3 4 -15 16t-17 20q-24 38 -27 41q-1 8 -5 25.5 t-5.5 31.5t-0.5 27q0 4 -3 9.5t-3 7.5q6 42 -2 87q5 17 3.5 52t1.5 52q0 1 -3 55q0 13 0.5 40t-0.5 41l2 6q-2 10 -2 16q0 2 1 7t1 7t-2.5 11t-1.5 14q0 2 0.5 3.5t2 3.5t2.5 3t2 3.5t3 3.5q8 7 63 7zM431 742q-11 -15 -20 -17q-8 -11 -25 -11q-9 1 -20.5 9.5t-14.5 9.5 q-6 7 -19 20.5t-19 20.5q-4 1 -7 2.5t-6.5 3.5t-6.5 3q-6 0 -11 -8q-6 -6 -16 -12q-1 -5 -6.5 -11.5t-6.5 -12.5q-6 -2 -11 -9q-7 -2 -18 -10.5t-18 -10.5q-39 5 -47 33q1 5 3.5 9t6 8t5.5 7q4 3 10.5 9.5t10.5 9.5q2 3 7 10t7 10q2 1 6 3.5t7 3.5l23 25q16 16 26 22 q9 19 23 22q8 -2 24 -16q13 -13 17 -20q5 -2 11.5 -9t9.5 -9q10 -5 19 -18q4 -3 12 -7q2 -5 5 -8.5t9 -7.5t8 -6q11 -15 19 -20q0 -1 1.5 -2.5t1.5 -2.5v-13z" />
<glyph unicode="&#xdc;" horiz-adv-x="590" d="M113 651q11 -11 13 -19v-29q-2 -34 -2 -58l3 -42q1 -8 0 -23t-1 -20q-1 -6 0 -16.5t1 -13.5q0 -2 -1 -6.5t0 -7.5q0 -26 -5 -35q0 -3 2.5 -23.5t3 -29.5t0 -24t-4.5 -25q1 -4 3.5 -16.5t3.5 -19.5q1 -14 1 -41q24 -54 32 -65q10 -11 42 -35q8 -2 40 -14q55 -5 68 -3 q6 2 20 5.5t20 6.5q6 2 15 7.5t14 7.5q4 6 20 15q2 4 8.5 11.5t7.5 14.5q2 5 8.5 12t8.5 11q2 13 7 18q-1 8 2 23.5t3 21.5q0 3 -1 11t-1 11q0 5 1.5 14.5t1.5 14.5q0 6 -0.5 17t-0.5 16q-1 20 -0.5 61t0.5 60q-3 46 0 65q-1 3 -2 9.5t-2 9.5l4 58q0 5 -0.5 14.5t-0.5 15.5 t1 13.5t4 13.5q14 8 37.5 8.5t35.5 -8.5q13 -28 0 -69q1 -7 4 -16.5t4 -13.5q-3 -13 -3.5 -29.5t0.5 -38.5t1 -29q-1 -5 -3 -26q1 -6 1.5 -24.5t3.5 -26.5q-4 -28 0 -47q-1 -2 0 -3t1 -2q-1 -5 -0.5 -20.5t-2.5 -20.5q1 -3 1 -13t2 -14q-7 -78 -14 -96q-5 -5 -9 -19.5 t-8 -19.5q-1 -2 -11 -18q-1 -3 -5 -9t-5 -9q-12 -9 -33.5 -26.5t-24.5 -19.5q-11 -3 -27.5 -11.5t-21.5 -10.5q-10 -3 -30 -7t-28 -6h-51q-8 3 -23.5 6.5t-20.5 4.5q-9 1 -22.5 6.5t-19.5 6.5q-20 14 -32 19q-22 17 -28 20q-3 4 -15 16t-17 20q-24 38 -27 41q-1 8 -5 25.5 t-5.5 31.5t-0.5 27q0 4 -3 9.5t-3 7.5q6 42 -2 87q5 17 3.5 52t1.5 52q0 1 -3 55q0 13 0.5 40t-0.5 41l2 6q-2 10 -2 16q0 2 1 7t1 7t-2.5 11t-1.5 14q0 2 0.5 3.5t2 3.5t2.5 3t2 3.5t3 3.5q8 7 63 7zM327 794q0 1 -1 5.5t-2 6.5q6 37 35 54q7 1 18.5 3t14.5 3q7 -1 19 -9 q10 -7 17 -18q10 -17 10 -56q-12 -23 -54 -32q-12 0 -27 10q-20 10 -30 33zM264 809q2 2 2 -1q-1 -4 -1.5 -12.5t-1.5 -12.5q-2 -5 -7 -10.5t-6 -8.5q-21 -12 -22 -13q-6 2 -25 0q-5 1 -14 5t-15 5q-2 3 -7.5 11t-9.5 12q-4 18 5 41l6 18q16 14 30 20q63 2 66 -54z" />
<glyph unicode="&#xdd;" horiz-adv-x="578" d="M338 11q-23 -15 -67 -8q-19 2 -23 6q-1 1 -2 3.5t-3 3.5q-4 5 -0.5 28.5t3.5 29.5v39q0 2 1.5 8.5t1.5 10.5q0 9 -4 24.5t-4 22.5q7 40 7 104q-2 5 -7 12.5l-7 10.5q-5 11 -15 22l-6 15q-5 6 -15.5 22.5t-17.5 23.5q0 1 -1.5 6t-1.5 8l-16 18q-5 13 -20 35.5t-21 36.5 q-4 7 -16 19q-10 28 -22 47q-3 3 -12 13t-14 18t-8 17q-2 5 -9.5 13t-9.5 13v23q4 5 19.5 7t19.5 4q8 -3 29 -4t29 -4q4 -1 7 -8t6 -8q1 -2 4.5 -8t4.5 -9q13 -22 23 -32q1 -1 1 -6t2 -7q23 -37 25 -42q2 -1 5 -5.5t6 -5.5q1 -6 4.5 -13.5t4.5 -11.5q3 -6 10.5 -14t8.5 -10 q4 -8 3 -14q2 -3 5.5 -6t4.5 -5q1 -1 2.5 -6t5.5 -5q10 -18 19 -21q1 -1 2.5 -5.5t3 -7t5.5 -3.5q9 0 17.5 10t10.5 11l3 14q6 4 13 17.5t11 17.5q1 8 10 22.5t17 25.5l8 10q11 24 19 33q5 24 17 33q8 19 19 30q0 8 2.5 13.5t7 12t6.5 9.5q29 8 53 2q24 2 38 1q1 -2 4 -5 t4 -6q1 -13 -7.5 -27.5t-9.5 -19.5q-1 -1 -16 -25q-17 -36 -32 -51q-9 -22 -20 -33q-18 -28 -22 -31q-11 -30 -37 -62l-6 -9q-1 -1 -4.5 -5t-4.5 -6q-2 -4 -4.5 -11.5t-3.5 -9.5q-4 -6 -5 -9q-1 -2 -5 -9.5t-4 -8.5q-13 -13 -16 -22q-2 -8 -8.5 -20.5t-7.5 -15.5 q-1 -13 -0.5 -40.5t1 -43.5t-0.5 -25q4 -19 -2 -42q14 -51 5 -73q0 -3 1.5 -12t1.5 -13q0 -16 -4 -22zM380 833q2 -7 -0.5 -12t-11.5 -11t-10 -7q-3 -5 -12.5 -11.5t-12.5 -11.5q-7 -3 -15.5 -10.5t-13.5 -10.5q-4 -5 -13.5 -12t-12.5 -10q-2 -1 -3 -3t-2.5 -4.5t-2.5 -3.5 q-6 -1 -14.5 -8.5t-14.5 -8.5q-4 -1 -9 0t-11 3t-10 3q-16 3 -17 19q-1 6 4.5 11t5.5 9q8 6 20 23t19 23l10 12q10 13 14 21q5 3 11.5 15.5t13.5 16.5q7 1 26 -0.5t24 -1.5q14 -7 26 -11q1 -2 6.5 -7.5t5.5 -11.5z" />
<glyph unicode="&#xde;" />
<glyph unicode="&#xdf;" />
<glyph unicode="&#xe0;" horiz-adv-x="499" d="M457 30q-6 -8 -42 -27q-21 2 -30 0q-8 6 -8 27q0 3 1 10t0 11t-4 6q-6 -1 -13 -9.5t-9 -9.5q-1 -1 -9.5 -8t-11.5 -12q-13 -3 -23 -11q-16 -5 -51 -10l-15 -3q-12 -1 -35.5 2t-34.5 3q-18 6 -28 8q-12 10 -21 12q-14 12 -20 13q-3 9 -16 16q-7 15 -16 20q-5 20 -17 28 q-1 15 -13 35q-2 9 -3.5 35t-4.5 38q7 30 4 42q4 6 5 23t2 21q1 3 5 12t5 15q8 8 11 24q3 3 9 11.5t7 10.5q16 19 17 20q7 4 33 26q6 1 17 6t16 6l11 2q1 0 11.5 3t15.5 3q2 0 7.5 -0.5t8.5 -0.5q7 0 27 1t26 -1l8 -4l16 -4q5 -2 44 -24q2 -3 6 -8.5t6.5 -9t7.5 -7t10 -5.5 q7 4 6.5 22.5t1.5 27.5q22 14 71 5q19 -35 6 -104q4 -22 0 -82l3 -19q-3 -4 -0.5 -26t2.5 -27q0 -6 -1.5 -18t-1.5 -21.5t3 -17.5q-2 -13 -1.5 -38.5t-0.5 -37.5zM372 279l-9 15q-10 13 -10 14q-7 4 -18 14t-16 14q-20 7 -24 11q-7 0 -19 3t-20 3q-9 1 -23.5 -1.5 t-17.5 -2.5q-8 -2 -21.5 -8.5t-15.5 -7.5q-28 -26 -33 -28q-1 -6 -6 -15t-6 -12q-11 -29 -11 -30q0 -9 -2.5 -22.5t-2.5 -18.5q4 -16 3 -25q2 -4 6 -13.5t5 -12.5q0 -5 0.5 -9.5t2 -7.5t3 -7t2.5 -7q4 -4 15 -11.5t15 -12.5q8 -8 32 -22q4 0 26 -5q6 1 13.5 -1.5t13.5 -2.5 q4 0 7 0.5t6 1.5t6 1t7.5 3.5t8.5 2.5q1 1 4 1.5t6 0t6 0.5q6 5 15 6q3 4 19 13q2 2 5.5 8t5.5 9q34 21 32 120q0 2 -2 1q0 15 -8 41zM240 650q2 -2 7 -7.5t7 -9.5q11 -13 13 -19q11 -9 14 -17q5 -4 10 -9.5t11 -12.5t9 -11q3 -5 13.5 -16t14.5 -19q1 0 1.5 -1.5t1.5 -1.5 q0 -14 -13 -22t-28 -5q-4 1 -7.5 4t-7 7t-5.5 6q-8 2 -18.5 11.5t-17.5 10.5q-1 2 -5.5 6.5t-5.5 8.5q-9 5 -28.5 21.5t-33.5 22.5q-1 4 -8 10t-8 12q0 5 2 9t6 7.5t5 5.5q9 1 25 9q25 15 29 14q7 0 17 -14z" />
<glyph unicode="&#xe1;" horiz-adv-x="499" d="M457 30q-6 -8 -42 -27q-21 2 -30 0q-8 6 -8 27q0 3 1 10t0 11t-4 6q-6 -1 -13 -9.5t-9 -9.5q-1 -1 -9.5 -8t-11.5 -12q-13 -3 -23 -11q-16 -5 -51 -10l-15 -3q-12 -1 -35.5 2t-34.5 3q-18 6 -28 8q-12 10 -21 12q-14 12 -20 13q-3 9 -16 16q-7 15 -16 20q-5 20 -17 28 q-1 15 -13 35q-2 9 -3.5 35t-4.5 38q7 30 4 42q4 6 5 23t2 21q1 3 5 12t5 15q8 8 11 24q3 3 9 11.5t7 10.5q16 19 17 20q7 4 33 26q6 1 17 6t16 6l11 2q1 0 11.5 3t15.5 3q2 0 7.5 -0.5t8.5 -0.5q7 0 27 1t26 -1l8 -4l16 -4q5 -2 44 -24q2 -3 6 -8.5t6.5 -9t7.5 -7t10 -5.5 q7 4 6.5 22.5t1.5 27.5q22 14 71 5q19 -35 6 -104q4 -22 0 -82l3 -19q-3 -4 -0.5 -26t2.5 -27q0 -6 -1.5 -18t-1.5 -21.5t3 -17.5q-2 -13 -1.5 -38.5t-0.5 -37.5zM372 279l-9 15q-10 13 -10 14q-7 4 -18 14t-16 14q-20 7 -24 11q-7 0 -19 3t-20 3q-9 1 -23.5 -1.5 t-17.5 -2.5q-8 -2 -21.5 -8.5t-15.5 -7.5q-28 -26 -33 -28q-1 -6 -6 -15t-6 -12q-11 -29 -11 -30q0 -9 -2.5 -22.5t-2.5 -18.5q4 -16 3 -25q2 -4 6 -13.5t5 -12.5q0 -5 0.5 -9.5t2 -7.5t3 -7t2.5 -7q4 -4 15 -11.5t15 -12.5q8 -8 32 -22q4 0 26 -5q6 1 13.5 -1.5t13.5 -2.5 q4 0 7 0.5t6 1.5t6 1t7.5 3.5t8.5 2.5q1 1 4 1.5t6 0t6 0.5q6 5 15 6q3 4 19 13q2 2 5.5 8t5.5 9q34 21 32 120q0 2 -2 1q0 15 -8 41zM341 636q2 -7 -0.5 -12t-11.5 -11t-10 -7q-3 -5 -12.5 -11.5t-12.5 -11.5q-7 -3 -15.5 -10.5t-13.5 -10.5q-4 -5 -13.5 -12t-12.5 -10 q-2 -1 -3 -3t-2.5 -4.5t-2.5 -3.5q-6 -1 -14.5 -8.5t-14.5 -8.5q-4 -1 -9 0t-11 3t-10 3q-16 3 -17 19q-1 6 4.5 11t5.5 9q7 7 19 23t20 23l10 13q10 12 14 20q5 3 11.5 15.5t13.5 16.5q7 1 26 -0.5t24 -1.5q14 -7 26 -11q1 -2 6.5 -7.5t5.5 -11.5z" />
<glyph unicode="&#xe2;" horiz-adv-x="499" d="M457 30q-6 -8 -42 -27q-21 2 -30 0q-8 6 -8 27q0 3 1 10t0 11t-4 6q-6 -1 -13 -9.5t-9 -9.5q-1 -1 -9.5 -8t-11.5 -12q-13 -3 -23 -11q-16 -5 -51 -10l-15 -3q-12 -1 -35.5 2t-34.5 3q-18 6 -28 8q-12 10 -21 12q-14 12 -20 13q-3 9 -16 16q-7 15 -16 20q-5 20 -17 28 q-1 15 -13 35q-2 9 -3.5 35t-4.5 38q7 30 4 42q4 6 5 23t2 21q1 3 5 12t5 15q8 8 11 24q3 3 9 11.5t7 10.5q16 19 17 20q7 4 33 26q6 1 17 6t16 6l11 2q1 0 11.5 3t15.5 3q2 0 7.5 -0.5t8.5 -0.5q7 0 27 1t26 -1l8 -4l16 -4q5 -2 44 -24q2 -3 6 -8.5t6.5 -9t7.5 -7t10 -5.5 q7 4 6.5 22.5t1.5 27.5q22 14 71 5q19 -35 6 -104q4 -22 0 -82l3 -19q-3 -4 -0.5 -26t2.5 -27q0 -6 -1.5 -18t-1.5 -21.5t3 -17.5q-2 -13 -1.5 -38.5t-0.5 -37.5zM372 279l-9 15q-10 13 -10 14q-7 4 -18 14t-16 14q-20 7 -24 11q-7 0 -19 3t-20 3q-9 1 -23.5 -1.5 t-17.5 -2.5q-8 -2 -21.5 -8.5t-15.5 -7.5q-28 -26 -33 -28q-1 -6 -6 -15t-6 -12q-11 -29 -11 -30q0 -9 -2.5 -22.5t-2.5 -18.5q4 -16 3 -25q2 -4 6 -13.5t5 -12.5q0 -5 0.5 -9.5t2 -7.5t3 -7t2.5 -7q4 -4 15 -11.5t15 -12.5q8 -8 32 -22q4 0 26 -5q6 1 13.5 -1.5t13.5 -2.5 q4 0 7 0.5t6 1.5t6 1t7.5 3.5t8.5 2.5q1 1 4 1.5t6 0t6 0.5q6 5 15 6q3 4 19 13q2 2 5.5 8t5.5 9q34 21 32 120q0 2 -2 1q0 15 -8 41zM412 545q-11 -15 -20 -17q-8 -11 -25 -11q-9 1 -21 9.5t-14 9.5q-6 7 -19 20.5t-19 20.5q-4 1 -7 2.5t-6.5 3.5t-6.5 3q-6 0 -11 -8 q-6 -6 -16 -12q-1 -5 -6.5 -11.5t-6.5 -12.5q-6 -2 -11 -9q-7 -2 -18 -10.5t-18 -10.5q-39 5 -47 33q1 5 3.5 9t6 8t5.5 7q4 3 10.5 9.5t10.5 9.5q2 4 7 10t7 10q2 1 6 3.5t7 3.5l23 25q16 16 26 22q9 19 23 22q8 -2 24 -16q13 -13 17 -20q5 -2 11.5 -9t9.5 -9q10 -5 19 -18 q4 -3 12 -7q2 -5 5 -8.5t9 -7.5t8 -6q11 -15 19 -20q0 -1 1.5 -2.5t1.5 -2.5v-13z" />
<glyph unicode="&#xe3;" horiz-adv-x="499" d="M457 30q-6 -8 -42 -27q-21 2 -30 0q-8 6 -8 27q0 3 1 10t0 11t-4 6q-6 -1 -13 -9.5t-9 -9.5q-1 -1 -9.5 -8t-11.5 -12q-13 -3 -23 -11q-16 -5 -51 -10l-15 -3q-12 -1 -35.5 2t-34.5 3q-18 6 -28 8q-12 10 -21 12q-14 12 -20 13q-3 9 -16 16q-7 15 -16 20q-5 20 -17 28 q-1 15 -13 35q-2 9 -3.5 35t-4.5 38q7 30 4 42q4 6 5 23t2 21q1 3 5 12t5 15q8 8 11 24q3 3 9 11.5t7 10.5q16 19 17 20q7 4 33 26q6 1 17 6t16 6l11 2q1 0 11.5 3t15.5 3q2 0 7.5 -0.5t8.5 -0.5q7 0 27 1t26 -1l8 -4l16 -4q5 -2 44 -24q2 -3 6 -8.5t6.5 -9t7.5 -7t10 -5.5 q7 4 6.5 22.5t1.5 27.5q22 14 71 5q19 -35 6 -104q4 -22 0 -82l3 -19q-3 -4 -0.5 -26t2.5 -27q0 -6 -1.5 -18t-1.5 -21.5t3 -17.5q-2 -13 -1.5 -38.5t-0.5 -37.5zM372 279l-9 15q-10 13 -10 14q-7 4 -18 14t-16 14q-20 7 -24 11q-7 0 -19 3t-20 3q-9 1 -23.5 -1.5 t-17.5 -2.5q-8 -2 -21.5 -8.5t-15.5 -7.5q-28 -26 -33 -28q-1 -6 -6 -15t-6 -12q-11 -29 -11 -30q0 -9 -2.5 -22.5t-2.5 -18.5q4 -16 3 -25q2 -4 6 -13.5t5 -12.5q0 -5 0.5 -9.5t2 -7.5t3 -7t2.5 -7q4 -4 15 -11.5t15 -12.5q8 -8 32 -22q4 0 26 -5q6 1 13.5 -1.5t13.5 -2.5 q4 0 7 0.5t6 1.5t6 1t7.5 3.5t8.5 2.5q1 1 4 1.5t6 0t6 0.5q6 5 15 6q3 4 19 13q2 2 5.5 8t5.5 9q34 21 32 120q0 2 -2 1q0 15 -8 41z" />
<glyph unicode="&#xe4;" horiz-adv-x="499" d="M457 30q-6 -8 -42 -27q-21 2 -30 0q-8 6 -8 27q0 3 1 10t0 11t-4 6q-6 -1 -13 -9.5t-9 -9.5q-1 -1 -9.5 -8t-11.5 -12q-13 -3 -23 -11q-16 -5 -51 -10l-15 -3q-12 -1 -35.5 2t-34.5 3q-18 6 -28 8q-12 10 -21 12q-14 12 -20 13q-3 9 -16 16q-7 15 -16 20q-5 20 -17 28 q-1 15 -13 35q-2 9 -3.5 35t-4.5 38q7 30 4 42q4 6 5 23t2 21q1 3 5 12t5 15q8 8 11 24q3 3 9 11.5t7 10.5q16 19 17 20q7 4 33 26q6 1 17 6t16 6l11 2q1 0 11.5 3t15.5 3q2 0 7.5 -0.5t8.5 -0.5q7 0 27 1t26 -1l8 -4l16 -4q5 -2 44 -24q2 -3 6 -8.5t6.5 -9t7.5 -7t10 -5.5 q7 4 6.5 22.5t1.5 27.5q22 14 71 5q19 -35 6 -104q4 -22 0 -82l3 -19q-3 -4 -0.5 -26t2.5 -27q0 -6 -1.5 -18t-1.5 -21.5t3 -17.5q-2 -13 -1.5 -38.5t-0.5 -37.5zM372 279l-9 15q-10 13 -10 14q-7 4 -18 14t-16 14q-20 7 -24 11q-7 0 -19 3t-20 3q-9 1 -23.5 -1.5 t-17.5 -2.5q-8 -2 -21.5 -8.5t-15.5 -7.5q-28 -26 -33 -28q-1 -6 -6 -15t-6 -12q-11 -29 -11 -30q0 -9 -2.5 -22.5t-2.5 -18.5q4 -16 3 -25q2 -4 6 -13.5t5 -12.5q0 -5 0.5 -9.5t2 -7.5t3 -7t2.5 -7q4 -4 15 -11.5t15 -12.5q8 -8 32 -22q4 0 26 -5q6 1 13.5 -1.5t13.5 -2.5 q4 0 7 0.5t6 1.5t6 1t7.5 3.5t8.5 2.5q1 1 4 1.5t6 0t6 0.5q6 5 15 6q3 4 19 13q2 2 5.5 8t5.5 9q34 21 32 120q0 2 -2 1q0 15 -8 41zM281 597q0 1 -1 5.5t-2 6.5q6 37 35 54q7 1 18.5 3t14.5 3q7 -1 19 -9q10 -7 17 -18q10 -17 10 -56q-12 -23 -54 -32q-12 0 -27 10 q-20 10 -30 33zM218 612q2 2 2 -1q-1 -4 -1.5 -12.5t-1.5 -12.5q-2 -5 -7 -10.5t-6 -8.5q-21 -12 -22 -13q-6 2 -25 0q-5 1 -14 5t-15 5q-2 3 -7.5 11t-9.5 12q-4 18 5 41l6 18q16 14 30 20q63 2 66 -54z" />
<glyph unicode="&#xe5;" horiz-adv-x="499" d="M457 30q-6 -8 -42 -27q-21 2 -30 0q-8 6 -8 27q0 3 1 10t0 11t-4 6q-6 -1 -13 -9.5t-9 -9.5q-1 -1 -9.5 -8t-11.5 -12q-13 -3 -23 -11q-16 -5 -51 -10l-15 -3q-12 -1 -35.5 2t-34.5 3q-18 6 -28 8q-12 10 -21 12q-14 12 -20 13q-3 9 -16 16q-7 15 -16 20q-5 20 -17 28 q-1 15 -13 35q-2 9 -3.5 35t-4.5 38q7 30 4 42q4 6 5 23t2 21q1 3 5 12t5 15q8 8 11 24q3 3 9 11.5t7 10.5q16 19 17 20q7 4 33 26q6 1 17 6t16 6l11 2q1 0 11.5 3t15.5 3q2 0 7.5 -0.5t8.5 -0.5q7 0 27 1t26 -1l8 -4l16 -4q5 -2 44 -24q2 -3 6 -8.5t6.5 -9t7.5 -7t10 -5.5 q7 4 6.5 22.5t1.5 27.5q22 14 71 5q19 -35 6 -104q4 -22 0 -82l3 -19q-3 -4 -0.5 -26t2.5 -27q0 -6 -1.5 -18t-1.5 -21.5t3 -17.5q-2 -13 -1.5 -38.5t-0.5 -37.5zM372 279l-9 15q-10 13 -10 14q-7 4 -18 14t-16 14q-20 7 -24 11q-7 0 -19 3t-20 3q-9 1 -23.5 -1.5 t-17.5 -2.5q-8 -2 -21.5 -8.5t-15.5 -7.5q-28 -26 -33 -28q-1 -6 -6 -15t-6 -12q-11 -29 -11 -30q0 -9 -2.5 -22.5t-2.5 -18.5q4 -16 3 -25q2 -4 6 -13.5t5 -12.5q0 -5 0.5 -9.5t2 -7.5t3 -7t2.5 -7q4 -4 15 -11.5t15 -12.5q8 -8 32 -22q4 0 26 -5q6 1 13.5 -1.5t13.5 -2.5 q4 0 7 0.5t6 1.5t6 1t7.5 3.5t8.5 2.5q1 1 4 1.5t6 0t6 0.5q6 5 15 6q3 4 19 13q2 2 5.5 8t5.5 9q34 21 32 120q0 2 -2 1q0 15 -8 41zM340 609v-13v-12q-2 -11 -5 -20l-3 -4q-2 -3 -1 -6q-3 -2 -5 -7l-4 -4q-5 -4 -6 -6q-2 -3 -6.5 -6t-5.5 -4q-6 -2 -8 -5q-6 -3 -7 -5 q-3 0 -5.5 -0.5t-6 -1.5t-5.5 -1h-14q-1 0 -6 -0.5t-7 -0.5t-6 1t-6 0q-1 0 -6.5 1.5t-10.5 1.5q0 3 -2 4l-6 3t-7 3q-5 5 -9 7l-11 13q-2 2 -4.5 7t-5.5 7q0 3 -2.5 9t-3.5 10q0 7 -1 9q1 3 1 20q0 3 1 8.5t1 8.5q0 2 0.5 5t0.5 5q2 2 4 7q1 1 2.5 3t2.5 3q1 3 3 6.5t3 6.5 q2 1 6 5q1 0 3 2.5t4 3.5q1 1 5 4t5 5q8 3 10 6q4 0 19 3q18 2 24 2q6 -3 19 -3q4 -3 11 -4q1 -1 2.5 -2t4.5 -2.5l5 -2.5l5 -5q3 -1 8 -6l8 -8q0 -1 2.5 -3t3.5 -4l10 -19q0 -4 1 -12.5t1 -12.5zM296 600v9q-2 4 -2 9q-3 0 -3 4l-1 2q-1 1 -1 2l-8 9l-1 1q-4 2 -4 4 q-3 0 -6 3q-5 2 -19 2h-9q-5 -5 -8 -6q-2 -2 -5.5 -4.5t-5.5 -4.5q-1 0 -2 -2t-3 -2l-3 -6q0 -2 -3 -7v-24q0 -1 3 -4q2 -2 2 -5l6 -6q1 0 1 -1h2q0 -1 1.5 -2.5t1.5 -2.5q3 0 7 -2l6 -3q5 0 6 -1q2 0 3 1h1l5 -1q5 0 8 1q1 0 3 0.5t3 0.5q1 1 9 5l10 11q1 4 5 12 q0 2 0.5 4.5t0.5 3.5z" />
<glyph unicode="&#xe6;" horiz-adv-x="769" d="M733 205q-8 -5 -16.5 -6t-20.5 0.5t-19 1.5q-14 -2 -24 -2q-2 0 -6 1t-7 1q-6 0 -20 -3t-21 -4q-6 0 -20.5 2t-21.5 2q-22 -2 -32 -2t-28 2q-3 0 -7 -1t-7 -1q-6 0 -20.5 1.5t-22.5 1.5q-40 0 -61 2q-5 0 -2.5 -12.5t2.5 -16.5q2 -7 26 -52q35 -29 37 -31q29 -13 49 -19 q49 -2 72 1q3 2 11.5 4.5t10.5 6.5q3 2 11 5t11 5q18 12 33 27q8 13 18 27q3 6 8 6q1 0 19 -6q13 -8 15 -10q21 -6 25 -14v-11q0 -7 -6 -16q-3 -6 -13.5 -17t-13.5 -14l-20 -27q-12 -6 -25 -19q-22 -8 -30 -14q-12 0 -30 -8q-18 -1 -52.5 -4t-51.5 -4q-12 4 -40 8 q-8 6 -26 16q-16 12 -26 17q-3 5 -11 12.5t-11 12.5q-1 3 -5.5 7t-5.5 6q-1 1 -1.5 3.5t-1 4t-2.5 3t-4 1.5q-4 0 -6 -1.5t-3 -5.5t-2 -5q-5 -11 -14 -20t-20.5 -19t-17.5 -16q-4 -1 -10 -5t-9 -5q-4 -1 -10 -4.5t-9 -4.5q-47 -7 -87 -7q-9 1 -24 5.5t-23 5.5q-8 7 -17 8 q-3 3 -10 8.5t-11.5 10.5t-7.5 11q-4 3 -11 8t-11 8q-4 16 -14 31q-2 26 -8 40q2 8 2 24t1 22q1 7 5 19.5t5 19.5q8 10 17 30q9 5 14 14q3 1 9 5.5t7 5.5q2 2 7.5 5t8.5 6q49 16 60 18q12 -1 22 0t20 0t16 -5q3 0 2 -16l-2 -17q0 -3 2.5 -14.5t0.5 -17.5q-5 -5 -14.5 -6 t-23.5 0t-20 1q-6 -1 -14.5 -7t-14.5 -7q-13 -10 -30 -34q-6 -22 -4 -37q21 -76 108 -72l18 5q17 5 28 12q1 0 2.5 0.5t2.5 1.5q1 0 1 3q1 1 5.5 3t6.5 5l1 3q1 2 2 3t4.5 4t4.5 4q1 2 2.5 6.5t2.5 6.5q9 18 11 30q-1 6 0 17.5t1 15.5v63q0 5 1 15.5t0.5 18.5t-2.5 16v32 q0 24 -2 28q-6 2 -8.5 1.5t-7.5 -2.5t-7 -2l-16 3q-15 -2 -66 0q-4 1 -8.5 -1t-7.5 -2q-6 1 -27 -1t-24 2q-3 5 -1 30q0 5 -1 14.5t-0.5 16t2.5 10.5q4 4 8 5t11.5 0t9.5 -1q11 -1 33.5 0t29.5 1q5 0 15 -1.5t15 -1.5q11 0 63.5 2.5t62.5 -0.5q7 -17 3 -45q7 -4 16 8l16 11 l30 22q6 2 23 9t29 9q6 1 14.5 -3t10.5 -4q3 0 18 1.5t21 3.5q5 -2 17 -3t16 -2q8 -2 46 -20q3 -1 10 -8l1 -1q4 -5 5 -5q6 -3 19 -16q7 -5 16 -17.5t14 -17.5q2 -6 8.5 -17.5t8.5 -18.5q1 -4 6 -18.5t8 -20.5q0 -3 2.5 -29t0.5 -38zM631 308q-1 1 -1 2q-1 2 -1 3l-11 9 q-1 1 -2 4l-1 2q-1 1 -9 5l-1 1l-1 2q-3 2 -9.5 4t-9.5 4q-21 11 -23 11q-5 0 -16.5 3t-17.5 3q-41 4 -94 -23q-24 -27 -32 -32q-2 -4 -10 -15t-9 -21q5 -4 11.5 -5t15.5 -0.5t13 0.5q7 0 23 -1.5t23 -1.5q8 0 24 1.5t24 1.5q4 0 10 -0.5t9 -0.5q6 0 21.5 1t24.5 0h44 q21 2 22 8v5q-4 14 -17 30z" />
<glyph unicode="&#xe7;" horiz-adv-x="415" d="M289 5q-25 -7 -93 -3q-31 9 -40 10q-10 6 -28 11q-4 2 -9.5 8.5t-7.5 8.5q-1 0 -2.5 0.5t-2.5 1.5q-1 0 -1 1l-1 2l-8 3l-1 1l-2 2q-7 4 -16.5 20t-17.5 21q0 2 -1.5 6t-2.5 7q-20 28 -26 58q-2 61 1 91q6 35 18 67q4 4 10.5 15.5t11.5 15.5q1 4 4.5 9t4.5 8q8 4 11 15 q14 4 25 25q8 1 14 9q13 5 35.5 15t28.5 12q9 0 25 2.5t22 2.5q2 0 5.5 -1t5.5 -1q3 0 11 1t11 1q5 0 19 -3t23 -2q1 -1 10 -3q2 -1 7.5 -4t9.5 -4q15 -4 18 -6q6 -6 11 -18q0 -3 -2.5 -7t-2.5 -7q0 -2 2 -6t1 -8q1 -3 -2 -16q0 -5 4.5 -25.5t-0.5 -23.5q-11 -3 -24 5 q-2 2 -9.5 5t-9.5 6q-7 11 -11 11q-2 4 -8.5 4t-8.5 2q-30 8 -63 7q-3 -1 -11.5 -4.5t-15.5 -2.5q-3 -1 -10.5 -6t-14.5 -5q-11 -5 -25 -19.5t-18 -17.5q-1 -2 -1.5 -5.5t-1.5 -6.5t-3 -4q-1 -4 -6.5 -8t-6.5 -6q-1 -6 -4.5 -16.5t-4.5 -15.5v-46q18 -42 23 -48 q5 -7 17.5 -17.5t17.5 -17.5q8 -3 30 -16q9 1 27 -6h60q18 6 19 6q12 8 23 14q3 2 8 8t8 9t10 5.5t14 -1.5q3 -6 1.5 -27t2.5 -28q-2 -5 -1.5 -16.5t0.5 -17.5q-7 -13 -18 -17q0 -5 -31 -13t-36 -6zM278 -86q-4 -8 -5 -13q-17 -15 -19 -25q-8 -6 -21.5 -21t-21.5 -22 q-6 0 -20 2l-17 3q-3 2 -8 8t-5 10q0 6 5 13t4 15q10 4 18.5 19.5t13.5 19.5q0 3 1 6t1 5q1 3 5.5 6.5t5.5 4.5q-1 9 0 11q13 15 14 26q17 12 19 12q5 -1 12.5 -6t9.5 -6q13 -3 25 -2q11 -2 14.5 -14.5t-3.5 -21.5q2 -3 -11 -16t-17 -14z" />
<glyph unicode="&#xe8;" horiz-adv-x="483" d="M444 203q-14 -1 -26.5 -0.5t-27.5 0t-24 -2.5q-11 3 -46 1t-48 -1q-4 0 -9 1.5t-9 1.5q-15 -1 -45.5 -1.5t-45.5 -1.5q-4 0 -11 0.5t-12.5 0t-9.5 -3.5q-3 -5 2 -21q-7 -13 4 -38q3 -7 14.5 -18.5t15.5 -18.5q11 -5 27 -19q38 -14 41 -14q33 -2 57 4q16 8 27 10 q23 16 50 42l13 26q14 0 31 -15q13 -5 27 -17q1 -20 -16.5 -39t-19.5 -24q-34 -28 -52 -39q-35 -12 -40 -15q-5 0 -15.5 -2t-17.5 -2q-4 -1 -13.5 0t-13.5 1t-13.5 -1t-14.5 0q-7 0 -20 2t-19 2q-7 4 -24.5 10.5t-24.5 11.5q-24 27 -30 30q-11 18 -16 22l-8 8 q-6 8 -14.5 31.5t-12.5 30.5q-1 5 -2 13.5t-2 15.5t-2 13v37q-1 5 2 9t3 6q-5 13 -2 30l5 21q6 19 14 23q-3 14 9 32t13 24q4 2 9.5 7.5t9.5 7.5q2 4 8 9.5t8 8.5q6 1 16 8t17 9q5 4 19 7.5t19 5.5q6 -2 14 0t14 0q8 2 21 2t20 1q3 -1 24.5 -4t30.5 -7q5 -1 8.5 -6.5 t5.5 -6.5q3 -1 26 -5q3 -2 7.5 -7.5t9.5 -8.5t11 -4l6 -12t5 -12q13 -14 27 -36q2 -11 16 -46q1 -5 1 -15.5t1 -18.5t4 -13q0 -26 -6 -30zM363 282q-1 3 -4.5 11t-3.5 14q-13 19 -30 36q-14 8 -20 13q-15 1 -28 8q-7 -1 -19 1t-16 2q-8 0 -22 -4t-21 -4q-3 -3 -10 -6t-9 -5 q-7 -7 -11 -8q-2 -5 -5.5 -9t-8.5 -8.5t-8 -7.5q0 -1 -6.5 -16t-5.5 -28q6 -5 30 -5q3 0 13.5 -1t16.5 0q4 0 12 1.5t10 1.5q1 0 4 -1t5 -1t5 1t5 1q30 0 42 -3q3 1 40 1q33 0 44 8q-1 3 0 4.5t1 3.5zM232 650q2 -2 7 -7.5t7 -9.5q11 -13 13 -19q11 -9 14 -17q5 -4 10 -9.5 t11 -12.5t9 -11q3 -5 13.5 -16t14.5 -19q1 0 1.5 -1.5t1.5 -1.5q0 -14 -13 -22t-28 -5q-4 1 -7.5 4t-7 7t-5.5 6q-8 2 -18.5 11.5t-17.5 10.5q-1 2 -5.5 6.5t-5.5 8.5q-9 5 -28.5 21.5t-33.5 22.5q-1 4 -8 10t-8 12q0 5 2 9t6 7.5t5 5.5q9 1 25 9q25 15 29 14q7 0 17 -14z " />
<glyph unicode="&#xe9;" horiz-adv-x="483" d="M444 203q-14 -1 -26.5 -0.5t-27.5 0t-24 -2.5q-11 3 -46 1t-48 -1q-4 0 -9 1.5t-9 1.5q-15 -1 -45.5 -1.5t-45.5 -1.5q-4 0 -11 0.5t-12.5 0t-9.5 -3.5q-3 -5 2 -21q-7 -13 4 -38q3 -7 14.5 -18.5t15.5 -18.5q11 -5 27 -19q38 -14 41 -14q33 -2 57 4q16 8 27 10 q23 16 50 42l13 26q14 0 31 -15q13 -5 27 -17q1 -20 -16.5 -39t-19.5 -24q-34 -28 -52 -39q-35 -12 -40 -15q-5 0 -15.5 -2t-17.5 -2q-4 -1 -13.5 0t-13.5 1t-13.5 -1t-14.5 0q-7 0 -20 2t-19 2q-7 4 -24.5 10.5t-24.5 11.5q-24 27 -30 30q-11 18 -16 22l-8 8 q-6 8 -14.5 31.5t-12.5 30.5q-1 5 -2 13.5t-2 15.5t-2 13v37q-1 5 2 9t3 6q-5 13 -2 30l5 21q6 19 14 23q-3 14 9 32t13 24q4 2 9.5 7.5t9.5 7.5q2 4 8 9.5t8 8.5q6 1 16 8t17 9q5 4 19 7.5t19 5.5q6 -2 14 0t14 0q8 2 21 2t20 1q3 -1 24.5 -4t30.5 -7q5 -1 8.5 -6.5 t5.5 -6.5q3 -1 26 -5q3 -2 7.5 -7.5t9.5 -8.5t11 -4l6 -12t5 -12q13 -14 27 -36q2 -11 16 -46q1 -5 1 -15.5t1 -18.5t4 -13q0 -26 -6 -30zM363 282q-1 3 -4.5 11t-3.5 14q-13 19 -30 36q-14 8 -20 13q-15 1 -28 8q-7 -1 -19 1t-16 2q-8 0 -22 -4t-21 -4q-3 -3 -10 -6t-9 -5 q-7 -7 -11 -8q-2 -5 -5.5 -9t-8.5 -8.5t-8 -7.5q0 -1 -6.5 -16t-5.5 -28q6 -5 30 -5q3 0 13.5 -1t16.5 0q4 0 12 1.5t10 1.5q1 0 4 -1t5 -1t5 1t5 1q30 0 42 -3q3 1 40 1q33 0 44 8q-1 3 0 4.5t1 3.5zM333 636q2 -7 -0.5 -12t-11.5 -11t-10 -7q-3 -5 -12.5 -11.5 t-12.5 -11.5q-7 -3 -15.5 -10.5t-13.5 -10.5q-4 -5 -13.5 -12t-12.5 -10q-2 -1 -3 -3t-2.5 -4.5t-2.5 -3.5q-6 -1 -14.5 -8.5t-14.5 -8.5q-4 -1 -9 0t-11 3t-10 3q-16 3 -17 19q-1 6 4.5 11t5.5 9q7 7 19 23t20 23l10 13q10 12 14 20q5 3 11.5 15.5t13.5 16.5q7 1 26 -0.5 t24 -1.5q14 -7 26 -11q1 -2 6.5 -7.5t5.5 -11.5z" />
<glyph unicode="&#xea;" horiz-adv-x="483" d="M444 203q-14 -1 -26.5 -0.5t-27.5 0t-24 -2.5q-11 3 -46 1t-48 -1q-4 0 -9 1.5t-9 1.5q-15 -1 -45.5 -1.5t-45.5 -1.5q-4 0 -11 0.5t-12.5 0t-9.5 -3.5q-3 -5 2 -21q-7 -13 4 -38q3 -7 14.5 -18.5t15.5 -18.5q11 -5 27 -19q38 -14 41 -14q33 -2 57 4q16 8 27 10 q23 16 50 42l13 26q14 0 31 -15q13 -5 27 -17q1 -20 -16.5 -39t-19.5 -24q-34 -28 -52 -39q-35 -12 -40 -15q-5 0 -15.5 -2t-17.5 -2q-4 -1 -13.5 0t-13.5 1t-13.5 -1t-14.5 0q-7 0 -20 2t-19 2q-7 4 -24.5 10.5t-24.5 11.5q-24 27 -30 30q-11 18 -16 22l-8 8 q-6 8 -14.5 31.5t-12.5 30.5q-1 5 -2 13.5t-2 15.5t-2 13v37q-1 5 2 9t3 6q-5 13 -2 30l5 21q6 19 14 23q-3 14 9 32t13 24q4 2 9.5 7.5t9.5 7.5q2 4 8 9.5t8 8.5q6 1 16 8t17 9q5 4 19 7.5t19 5.5q6 -2 14 0t14 0q8 2 21 2t20 1q3 -1 24.5 -4t30.5 -7q5 -1 8.5 -6.5 t5.5 -6.5q3 -1 26 -5q3 -2 7.5 -7.5t9.5 -8.5t11 -4l6 -12t5 -12q13 -14 27 -36q2 -11 16 -46q1 -5 1 -15.5t1 -18.5t4 -13q0 -26 -6 -30zM378 545q-11 -15 -20 -17q-8 -11 -25 -11q-9 1 -21 9.5t-14 9.5q-6 7 -19 20.5t-19 20.5q-4 1 -7 2.5t-6.5 3.5t-6.5 3q-6 0 -11 -8 q-6 -6 -16 -12q-1 -5 -6.5 -11.5t-6.5 -12.5q-6 -2 -11 -9q-7 -2 -18 -10.5t-18 -10.5q-39 5 -47 33q1 5 3.5 9t6 8t5.5 7q4 3 10.5 9.5t10.5 9.5q2 4 7 10t7 10q2 1 6 3.5t7 3.5l23 25q16 16 26 22q9 19 23 22q8 -2 24 -16q13 -13 17 -20q5 -2 11.5 -9t9.5 -9q10 -5 19 -18 q4 -3 12 -7q2 -5 5 -8.5t9 -7.5t8 -6q11 -15 19 -20q0 -1 1.5 -2.5t1.5 -2.5v-13zM363 282q-1 3 -4.5 11t-3.5 14q-13 19 -30 36q-14 8 -20 13q-15 1 -28 8q-7 -1 -19 1t-16 2q-8 0 -22 -4t-21 -4q-3 -3 -10 -6t-9 -5q-7 -7 -11 -8q-2 -5 -5.5 -9t-8.5 -8.5t-8 -7.5 q0 -1 -6.5 -16t-5.5 -28q6 -5 30 -5q3 0 13.5 -1t16.5 0q4 0 12 1.5t10 1.5q1 0 4 -1t5 -1t5 1t5 1q30 0 42 -3q3 1 40 1q33 0 44 8q-1 3 0 4.5t1 3.5z" />
<glyph unicode="&#xeb;" horiz-adv-x="483" d="M444 203q-14 -1 -26.5 -0.5t-27.5 0t-24 -2.5q-11 3 -46 1t-48 -1q-4 0 -9 1.5t-9 1.5q-15 -1 -45.5 -1.5t-45.5 -1.5q-4 0 -11 0.5t-12.5 0t-9.5 -3.5q-3 -5 2 -21q-7 -13 4 -38q3 -7 14.5 -18.5t15.5 -18.5q11 -5 27 -19q38 -14 41 -14q33 -2 57 4q16 8 27 10 q23 16 50 42l13 26q14 0 31 -15q13 -5 27 -17q1 -20 -16.5 -39t-19.5 -24q-34 -28 -52 -39q-35 -12 -40 -15q-5 0 -15.5 -2t-17.5 -2q-4 -1 -13.5 0t-13.5 1t-13.5 -1t-14.5 0q-7 0 -20 2t-19 2q-7 4 -24.5 10.5t-24.5 11.5q-24 27 -30 30q-11 18 -16 22l-8 8 q-6 8 -14.5 31.5t-12.5 30.5q-1 5 -2 13.5t-2 15.5t-2 13v37q-1 5 2 9t3 6q-5 13 -2 30l5 21q6 19 14 23q-3 14 9 32t13 24q4 2 9.5 7.5t9.5 7.5q2 4 8 9.5t8 8.5q6 1 16 8t17 9q5 4 19 7.5t19 5.5q6 -2 14 0t14 0q8 2 21 2t20 1q3 -1 24.5 -4t30.5 -7q5 -1 8.5 -6.5 t5.5 -6.5q3 -1 26 -5q3 -2 7.5 -7.5t9.5 -8.5t11 -4l6 -12t5 -12q13 -14 27 -36q2 -11 16 -46q1 -5 1 -15.5t1 -18.5t4 -13q0 -26 -6 -30zM363 282q-1 3 -4.5 11t-3.5 14q-13 19 -30 36q-14 8 -20 13q-15 1 -28 8q-7 -1 -19 1t-16 2q-8 0 -22 -4t-21 -4q-3 -3 -10 -6t-9 -5 q-7 -7 -11 -8q-2 -5 -5.5 -9t-8.5 -8.5t-8 -7.5q0 -1 -6.5 -16t-5.5 -28q6 -5 30 -5q3 0 13.5 -1t16.5 0q4 0 12 1.5t10 1.5q1 0 4 -1t5 -1t5 1t5 1q30 0 42 -3q3 1 40 1q33 0 44 8q-1 3 0 4.5t1 3.5zM273 597q0 1 -1 5.5t-2 6.5q6 37 35 54q7 1 18.5 3t14.5 3q7 -1 19 -9 q10 -7 17 -18q10 -17 10 -56q-12 -23 -54 -32q-12 0 -27 10q-20 10 -30 33zM210 612q2 2 2 -1q-1 -4 -1.5 -12.5t-1.5 -12.5q-2 -5 -7 -10.5t-6 -8.5q-21 -12 -22 -13q-6 2 -25 0q-5 1 -14 5t-15 5q-2 3 -7.5 11t-9.5 12q-4 18 5 41l6 18q16 14 30 20q63 2 66 -54z" />
<glyph unicode="&#xec;" horiz-adv-x="199" d="M61 16q2 15 0 75q0 5 2 15t2 15q0 9 -1 26.5t-1 32.5t2 28l-4 20q0 5 1 15t1 15q0 11 -2 33q0 5 -1.5 16t-1.5 16q0 9 1 25.5t1 24.5q0 40 3 49q63 8 77 -5q3 -3 1 -34.5t-2 -35.5q0 -11 1.5 -33.5t1.5 -34.5q0 -36 -2 -104q0 -4 1 -10t1 -9q0 -4 -1 -10t-1 -9 q0 -7 1.5 -21t1.5 -20q1 -2 0 -3t-1 -2q0 -2 0.5 -16t1 -23t-0.5 -14q-2 -2 0.5 -17t1.5 -17q-2 -5 -18.5 -6t-19.5 -2q-25 -5 -46 20zM91 650q1 -2 6.5 -7.5t7.5 -9.5q11 -13 13 -19q11 -9 14 -17q5 -4 10 -9.5t11 -12.5t9 -11q3 -5 13.5 -16t14.5 -19q1 0 1.5 -1.5 t1.5 -1.5q0 -14 -13 -22t-28 -5q-4 1 -7.5 4t-7 7t-5.5 6q-8 2 -18.5 11.5t-17.5 10.5q-1 2 -5.5 6.5t-5.5 8.5q-9 5 -28.5 21.5t-33.5 22.5q-1 4 -8 10t-8 12q0 5 2.5 9t6 7.5t4.5 5.5q9 1 25 9q25 15 29 14q6 0 17 -14z" />
<glyph unicode="&#xed;" horiz-adv-x="199" d="M61 7q3 17 0 84q0 5 2 15t2 15q0 9 -1 26.5t-1 32.5t2 28l-4 20q0 5 1 15t1 15q0 11 -2 33q0 5 -1.5 16t-1.5 16q0 9 1 25.5t1 24.5q0 40 3 49q63 8 77 -5q3 -3 1 -34.5t-2 -35.5q0 -11 1.5 -33.5t1.5 -34.5q0 -36 -2 -104q0 -4 1 -10t1 -9q0 -4 -1 -10t-1 -9 q0 -7 1.5 -21t1.5 -20q1 -2 0 -3t-1 -2q0 -3 1.5 -12t2.5 -16.5t0 -9.5q-2 -2 -2 -53q-4 -3 -20 0t-20 1q-14 -4 -24.5 -3.5t-18.5 9.5zM191 636q2 -7 -0.5 -12t-11.5 -11t-10 -7q-3 -5 -12.5 -11.5t-12.5 -11.5q-7 -3 -15.5 -10.5t-13.5 -10.5q-4 -5 -13.5 -12t-12.5 -10 q-2 -1 -3 -3t-2.5 -4.5t-2.5 -3.5q-6 -1 -14.5 -8.5t-14.5 -8.5q-4 -1 -9 0t-11 3t-10 3q-16 3 -17 19q-1 6 4.5 11t5.5 9q7 7 19 23t20 23l10 13q10 12 14 20q5 3 11.5 15.5t13.5 16.5q7 1 26 -0.5t24 -1.5q14 -7 26 -11q1 -2 6.5 -7.5t5.5 -11.5z" />
<glyph unicode="&#xee;" horiz-adv-x="199" d="M61 16q2 15 0 75q0 5 2 15t2 15q0 9 -1 26.5t-1 32.5t2 28l-4 20q0 5 1 15t1 15q0 11 -2 33q0 5 -1.5 16t-1.5 16q0 9 1 25.5t1 24.5q0 40 3 49q63 8 77 -5q3 -3 1 -34.5t-2 -35.5q0 -11 1.5 -33.5t1.5 -34.5q0 -36 -2 -104q0 -4 1 -10t1 -9q0 -4 -1 -10t-1 -9 q0 -7 1.5 -21t1.5 -20q1 -2 0 -3t-1 -2q0 -2 1 -16.5t1 -23t-1 -13.5q-1 -3 0 -8.5t2 -13t1 -8.5q-1 -16 -55 -8q-15 2 -18 3.5t-12 12.5zM236 545q-11 -15 -20 -17q-8 -11 -25 -11q-9 1 -21 9.5t-14 9.5q-6 7 -19 20.5t-19 20.5q-4 1 -7 2.5t-6.5 3.5t-6.5 3q-6 0 -11 -8 q-6 -6 -16 -12q-1 -5 -6.5 -11.5t-6.5 -12.5q-6 -2 -11 -9q-7 -2 -18 -10.5t-18 -10.5q-39 5 -47 33q1 5 3.5 9t6 8t5.5 7q4 3 10.5 9.5t10.5 9.5q2 4 7 10t7 10q2 1 6 3.5t7 3.5l23 25q16 16 26 22q9 19 23 22q8 -2 24 -16q13 -13 17 -20q5 -2 11.5 -9t9.5 -9q10 -5 19 -18 q4 -3 12 -7q2 -5 5 -8.5t9 -7.5t8 -6q11 -15 19 -20q0 -1 1.5 -2.5t1.5 -2.5v-13z" />
<glyph unicode="&#xef;" horiz-adv-x="199" d="M59 3q4 28 2 88q0 5 2 15t2 15q0 9 -1 26.5t-1 32.5t2 28l-4 20q0 5 1 15t1 15q0 11 -2 33q0 5 -1.5 16t-1.5 16q0 9 1 25.5t1 24.5q0 40 3 49q63 8 77 -5q3 -3 1 -34.5t-2 -35.5q0 -11 1.5 -33.5t1.5 -34.5q0 -36 -2 -104q0 -4 1 -10t1 -9q0 -4 -1 -10t-1 -9 q0 -7 1.5 -21t1.5 -20q1 -2 0 -3t-1 -2q0 -2 0.5 -16t1 -23t-0.5 -14q-2 -2 0 -18t1 -18q-4 -7 -55 -1q-2 0 -7.5 -2.5t-11.5 -2t-11 6.5zM131 597q0 1 -1 5.5t-2 6.5q6 37 35 54q7 1 18.5 3t14.5 3q7 -1 19 -9q10 -7 17 -18q10 -17 10 -56q-12 -23 -54 -32q-12 0 -27 10 q-20 10 -30 33zM68 612q2 2 2 -1q-1 -4 -1.5 -12.5t-1.5 -12.5q-2 -5 -7 -10.5t-6 -8.5q-21 -12 -22 -13q-6 2 -25 0q-5 1 -14 5t-15 5q-2 3 -7.5 11t-9.5 12q-4 18 5 41l6 18q16 14 30 20q63 2 66 -54z" />
<glyph unicode="&#xf0;" horiz-adv-x="491" d="M200 -167q-23 3 -31 17q-20 5 -27 19q0 10 9 21q1 2 1.5 6.5t2.5 5.5q0 3 1.5 5t5.5 4l5 2q3 13 11 21q2 4 6 10.5t5 9.5q0 3 3.5 5.5t3.5 4.5l6 9q7 12 14 18q5 15 17 28q2 5 7 13t6 12q16 12 22 33q-4 3 -10 0t-9 -3h-47q-27 7 -38 6q-40 20 -57 32q-3 3 -15.5 17.5 t-20.5 20.5q-1 4 -14 25q-20 68 -21 73v45q8 41 16 71q7 7 8 16q18 18 24 35q10 11 38 31q7 7 9 8q1 1 14 7.5t19 11.5q21 3 33 11q10 -1 24 5q9 -1 17.5 -0.5t17.5 -0.5t14 -4q3 -1 7 0.5t7 1.5q11 -2 31.5 -10.5t33.5 -10.5q11 -9 18 -9q9 -8 46 -41v-13q2 -3 8 -6t8 -5 q7 -22 11 -27q-2 -12 -2 -20q2 -6 8 -15.5t8 -16.5q0 -3 -1.5 -7.5t-1.5 -8.5q5 -41 5 -50q-1 -17 -7 -33.5t-15 -34.5t-13 -28q-4 -4 -10 -14.5t-10 -14.5q-19 -24 -21 -26q-2 -7 -8 -19q-4 -1 -5.5 -7.5t-3.5 -8.5q0 -3 -8 -8q-14 -20 -19 -31l-14 -15q-2 -7 -10 -17 l-19 -35q-21 -17 -26 -42q-3 -2 -9 -9t-9 -10q-1 -3 -3 -8t-2 -8q-7 -5 -14.5 -18t-11.5 -17zM375 309q-2 2 -9.5 15t-13.5 17q0 2 -2 11q-12 8 -17 19l-27 18q-9 2 -23 9t-23 9q-9 -3 -30 -6.5t-30 -6.5q-25 -16 -26 -16q-8 -9 -26 -25q-1 -3 -20 -33q0 -2 2 -6.5t1 -7.5 q-1 -2 -4 -5t-4 -5q-4 -7 -4 -13.5t1.5 -17t1.5 -17.5q12 -28 14 -35l19 -21q1 -1 8 -9t11 -13q6 -1 14 -6t12 -6q33 -5 40 -7q10 2 31 0q36 12 41 15q7 3 16.5 11.5t15.5 11.5q3 6 19 24q1 10 9 24q-1 5 2 11.5t3 8.5q-1 7 -0.5 17t0.5 16q4 0 0 2q1 4 -1 9t-1 8z" />
</font>
</defs>
</svg>
