<?xml version="1.0" standalone="no"?>
<!DOCTYPE svg PUBLIC "-//W3C//DTD SVG 1.1//EN" "http://www.w3.org/Graphics/SVG/1.1/DTD/svg11.dtd" >
<svg xmlns="http://www.w3.org/2000/svg">
<metadata>
This is a custom SVG webfont generated by Font Squirrel.
Copyright   : Copyright c 2009 by BSozoo All rights reserved3
Designer    : BSozoo
Foundry     : BSozoo
</metadata>
<defs>
<font id="KarmaRegular" horiz-adv-x="1705" >
<font-face units-per-em="2048" ascent="1536" descent="-512" />
<missing-glyph horiz-adv-x="546" />
<glyph unicode=" "  horiz-adv-x="546" />
<glyph unicode="&#x09;" horiz-adv-x="546" />
<glyph unicode="&#xa0;" horiz-adv-x="546" />
<glyph unicode="!" horiz-adv-x="829" d="M305 -20v288h289v-288h-289zM330 844v784h239v-784l-45 -453h-149z" />
<glyph unicode="&#x22;" horiz-adv-x="819" d="M141 1536q0 45 30 77t67 27q43 0 73.5 -30.5t30.5 -75.5l-27 -186q-4 -25 -9 -52.5t-7 -45t-6 -36t-6 -31t-5 -23.5t-7.5 -18t-9.5 -12.5t-11 -7.5t-14 -2q-25 0 -35 27q-17 47 -64 389zM461 1540q0 45 29.5 77t66.5 28q43 0 74 -31t31 -76l-27 -186q-4 -25 -9 -52.5 t-7.5 -45t-6.5 -36t-6 -30.5t-5 -23.5t-7 -18.5t-9 -12.5t-11.5 -7.5t-14.5 -2q-25 0 -35 27q-16 47 -63 389z" />
<glyph unicode="#" d="M43 354v193h272l119 403h-274v191h329l119 395h201l-119 -395h447l118 395h201l-119 -395h275v-193h-332l-119 -403h322v-191h-377l-107 -354h-198l104 354h-446l-107 -354h-198l104 354h-215zM514 545h449l118 405h-448z" />
<glyph unicode="$" horiz-adv-x="1398" d="M156 520h213q18 -291 264 -325v538q-449 90 -449 455q0 201 124 322.5t325 140.5v73h176v-73q397 -47 397 -488v-28h-205q0 150 -46 225.5t-144 91.5v-508q270 -61 371.5 -166.5t101.5 -283.5q0 -213 -124 -338t-349 -150v-180h-176v178q-223 8 -351 154.5t-128 361.5z M422 1223q0 -190 213 -240v477q-213 -34 -213 -237zM811 193q246 45 246 264q0 100 -54.5 156.5t-191.5 82.5v-503z" />
<glyph unicode="%" horiz-adv-x="1531" d="M6 1110q0 145 92 251.5t221 106.5q127 0 220.5 -104t93.5 -252q0 -150 -92 -252t-219 -102l-3 -2q-125 0 -219 103.5t-94 250.5zM57 -2l1250 1460h161l-1251 -1460h-160zM115 1114q0 -109 64.5 -179.5t142.5 -70.5q82 0 141 72t59 178q0 115 -61.5 184.5t-141.5 69.5 q-82 0 -143 -72q-61 -84 -61 -182zM850 348q0 143 90 254t225 111q131 0 221 -111l-2 -2q90 -102 91 -252q0 -135 -90.5 -246.5t-223.5 -111.5q-123 0 -217 104t-94 254zM952 346q0 -111 65.5 -180.5t143.5 -69.5q80 0 146 72q55 76 55 178q0 111 -60.5 181.5t-142.5 70.5 q-84 0 -145.5 -73t-61.5 -179z" />
<glyph unicode="&#x26;" horiz-adv-x="1703" d="M115 494q0 195 126 335t308 226q-59 135 -60 229q0 143 101.5 245.5t243.5 102.5q137 0 240.5 -100t103.5 -240q0 -57 -20.5 -104t-46.5 -81t-63.5 -56.5t-62 -33.5t-79 -28.5t-81.5 -27.5q18 -29 56 -91l209 -342q76 231 204 439h248v-238h-90q-164 -25 -264 -362 l88 -138h254v-237h-328l-123 194q0 -4 -2 -6q-178 -215 -434 -215q-215 0 -371.5 155t-156.5 374zM313 492q0 -141 102.5 -240.5t241.5 -99.5q162 0 310 182l-344 547l-33 -17q-277 -139 -277 -372zM668 1266q0 -51 43 -142q4 0 6 2l94 33q156 47 166 129q0 61 -43 104.5 t-107 43.5q-72 0 -115.5 -52t-43.5 -118z" />
<glyph unicode="'" horiz-adv-x="464" d="M57 1415v223h224v-301q0 -100 -60.5 -144t-142.5 -44h-15v90q53 0 77 35t24 65v76h-107z" />
<glyph unicode="(" horiz-adv-x="780" d="M106 719q0 147 34 302t98.5 297t176 238.5t251.5 106.5v-145q-369 -172 -369 -764v-74q0 -272 91 -477t278 -275v-155q-164 12 -294 151t-198 349t-68 446z" />
<glyph unicode=")" horiz-adv-x="860" d="M133 -76q373 174 373 766v74q0 272 -92 477t-277 275v149l-4 2q162 -12 292 -150.5t198.5 -348.5t68.5 -445q0 -147 -33.5 -302t-98 -297t-176.5 -238.5t-251 -106.5v145z" />
<glyph unicode="*" horiz-adv-x="1021" d="M86 1288l53 156l156 -53l190 -146l-75 225v166h163v-166l-77 -225l190 146l156 53l53 -156l-156 -53h-239l186 -150l88 -139l-137 -90l-88 141l-57 230l-60 -230l-90 -141l-137 90l88 139l190 150h-243z" />
<glyph unicode="+" horiz-adv-x="1431" d="M166 465v166h465v467h168v-467h467v-166h-467v-467h-168v467h-465z" />
<glyph unicode="," horiz-adv-x="262" d="M12 0v223h224v-301q0 -100 -60.5 -144t-142.5 -44h-15v90q53 0 77 35t24 65v76h-107z" />
<glyph unicode="-" horiz-adv-x="854" d="M117 686v207h622v-207h-622z" />
<glyph unicode="." horiz-adv-x="405" d="M84 0v223h223v-223h-223z" />
<glyph unicode="/" horiz-adv-x="954" d="M76 0l661 1640h183l-662 -1640h-182z" />
<glyph unicode="0" horiz-adv-x="1681" d="M96 809q0 348 213 596t522 248q207 0 377 -117t264.5 -309.5t94.5 -413.5q0 -340 -212 -594t-521 -254h-3q-205 0 -375.5 118t-265 311.5t-94.5 414.5zM317 813q0 -258 158 -442l-2 -2q139 -170 346 -170t355.5 177t150.5 437q0 262 -151.5 437t-352 175t-348.5 -170 q-156 -186 -156 -442z" />
<glyph unicode="1" horiz-adv-x="993" d="M86 1247l395 395h197v-1400h184v-238h-557v238h176v1122l-116 -117h-279z" />
<glyph unicode="2" horiz-adv-x="1433" d="M137 -8v160q0 504 529 741l159 72q129 57 167 103t38 138q0 59 -32.5 102.5t-85 64t-101.5 28.5t-100 8q-115 0 -187.5 -43t-101.5 -106l-16 -37h-254q119 428 571 428q104 0 197.5 -23.5t176.5 -73t132 -138.5t49 -208q0 -123 -41 -211t-118 -144t-153.5 -92t-185 -82 t-174.5 -87q-98 -59 -154.5 -163.5t-56.5 -192.5h717v247h188v-491h-1163z" />
<glyph unicode="3" horiz-adv-x="1357" d="M4 473h244v-10q0 -18 6 -41t31.5 -57.5t65.5 -61.5t118 -47t180 -20h8q61 0 115.5 8t113 31.5t94.5 72.5t36 121q-16 215 -314 238h-178v243q57 0 96 2t95.5 9.5t94.5 25t74 45t54 72.5t18 106.5t-32.5 104.5t-86 63.5t-99.5 28.5t-91 8h-20q-90 -2 -151.5 -32.5 t-87.5 -64.5t-58 -95h-254q18 63 48 122.5t91 136.5t169 124t247 47h20q100 0 192.5 -22.5t177.5 -72t136 -140.5t51 -212q0 -113 -43 -207t-127 -141q90 -47 157 -149.5t67 -227.5q0 -127 -53.5 -223t-125 -145.5t-165 -80t-155 -37.5t-110.5 -7h-18q-158 0 -278.5 45 t-184 103.5t-103.5 135t-51.5 120.5t-13.5 81z" />
<glyph unicode="4" horiz-adv-x="1249" d="M61 520v199l717 917h197v-917h166v-199h-166v-280h186v-238h-559v238h176v280h-717zM322 719h456v598z" />
<glyph unicode="5" horiz-adv-x="1337" d="M186 465h195q18 -117 105 -193.5t202 -76.5q131 0 223.5 92t92.5 217q0 133 -93.5 224t-222.5 91q-172 0 -270 -90h-201l86 913h875v-483h-195v250h-508l-45 -481q119 80 270 80q213 2 361.5 -149.5t148.5 -364.5q0 -211 -151.5 -361.5t-360.5 -150.5q-205 0 -352.5 139 t-159.5 344z" />
<glyph unicode="6" horiz-adv-x="1183" d="M33 645q0 260 106.5 533.5t333.5 466.5h334q-70 -35 -129 -86q-293 -262 -383 -654q111 98 293 99q207 0 356.5 -147.5t149.5 -356.5q0 -215 -166 -361.5t-373 -146.5q-258 0 -390 179t-132 474zM258 559q0 -135 81 -245.5t239 -110.5q125 2 214 93t89 214 q0 125 -91.5 216t-214.5 91q-121 0 -219 -81t-98 -177z" />
<glyph unicode="7" horiz-adv-x="1171" d="M106 1153v489h1113v-161l-2 -62q-4 -4 -60.5 -51t-103.5 -92q-59 -55 -119 -135t-130.5 -208t-120.5 -311.5t-62 -388.5h184v-237h-555v237h176q49 731 492 1192h-617v-272h-195z" />
<glyph unicode="8" horiz-adv-x="1419" d="M90 473q0 119 63.5 223.5t155.5 155.5q-68 45 -108.5 139t-40.5 199q0 233 147.5 345t380.5 112q94 0 187.5 -24t178.5 -71t138 -131t53 -192q0 -279 -174 -379q88 -51 153.5 -150.5t65.5 -226.5q0 -133 -50 -230.5t-116.5 -145.5t-163 -76.5t-157 -33.5t-129.5 -5 q-268 0 -426 124.5t-158 366.5zM297 453q12 -258 385 -258q172 0 283.5 57t109.5 197q-8 145 -117.5 219.5t-269.5 74.5q-375 1 -391 -290zM342 1194q6 -145 103.5 -217t234.5 -72q51 0 97 9.5t105.5 35t97.5 89t42 155.5q0 229 -350 233l6 -2q-322 0 -336 -231z" />
<glyph unicode="9" horiz-adv-x="1193" d="M82 1139q0 209 158.5 360.5t365.5 151.5q258 0 390 -179.5t132 -474.5q0 -164 -38.5 -331.5t-141 -352t-258.5 -315.5h-319q70 35 127 86q295 264 387 653q-104 -100 -299 -104q-211 0 -357.5 149.5t-146.5 356.5zM291 1126q0 -125 91 -216t214 -91q147 0 229 90t82 183 q0 135 -76.5 238.5t-234.5 103.5q-125 0 -215 -92.5t-90 -215.5z" />
<glyph unicode=":" horiz-adv-x="391" d="M84 0v223h223v-223h-223zM84 670v223h223v-223h-223z" />
<glyph unicode=";" horiz-adv-x="391" d="M84 0h106v-76q0 -8 -4 -21.5t-13 -31.5t-30.5 -31.5t-52.5 -13.5v-90h14q76 0 139.5 41t63.5 147v299h-223v-223zM84 670v223h223v-223h-223z" />
<glyph unicode="&#x3c;" horiz-adv-x="1292" d="M160 539v131l1018 426v-158l-820 -334l820 -336v-157z" />
<glyph unicode="=" horiz-adv-x="1255" d="M147 270v136h951v-136h-951zM147 682v135h951v-135h-951z" />
<glyph unicode="&#x3e;" horiz-adv-x="1249" d="M121 125v158l819 333l-819 336v158l1018 -428v-131z" />
<glyph unicode="?" horiz-adv-x="1357" d="M98 1221q10 41 25.5 81.5t58.5 108.5t98.5 117t152.5 86t214 37h23q82 0 166 -18.5t176 -63.5t150.5 -139.5t60.5 -225.5q0 -117 -40 -205t-101.5 -131t-122 -62.5t-115.5 -19.5h-60l-39 -383h-192v541q6 0 17.5 -1t17.5 -1q383 0 395 260q0 61 -32.5 105.5t-86 64 t-101.5 26.5t-101 7q-231 0 -293 -145l-17 -39h-254zM530 -4v285h283v-285h-283z" />
<glyph unicode="@" horiz-adv-x="2162" d="M109 627q0 422 266 737q264 313 749 313q385 0 629 -231.5t244 -566.5q0 -182 -89 -353.5t-232.5 -277t-295.5 -105.5q-100 0 -143 39t-53 133l-2 -4q-145 -170 -314 -170q-156 0 -264 130t-108 329q0 238 164.5 444.5t367.5 206.5q197 0 309 -186l33 158h184l-147 -686 q-29 -131 -29 -160q0 -31 20.5 -49.5t49.5 -18.5q119 0 259 176.5t140 393.5q0 279 -211 462t-520 183q-373 0 -613.5 -254t-240.5 -627q0 -375 234.5 -581.5t646.5 -206.5q233 0 424.5 80.5t294.5 230.5h186q-88 -186 -328.5 -323.5t-574.5 -137.5q-487 0 -761.5 249 t-274.5 673zM682 582q0 -127 64.5 -209t154.5 -82q139 0 257 157.5t118 358.5q0 133 -65.5 213t-168.5 80q-152 0 -254 -167t-106 -351z" />
<glyph unicode="A" horiz-adv-x="1546" d="M35 0v221h129l422 1112h-267v203h601l2 2l399 -1317h195v-221h-496v221h108l-137 447h-463l-168 -447h170v-221h-495zM612 889h318l-137 444h-11z" />
<glyph unicode="B" horiz-adv-x="1288" d="M49 -2v219h160v1092h-160v221h639q180 0 304 -131t124 -305q0 -154 -96 -277q102 -59 164.5 -163.5t62.5 -225.5q0 -182 -126 -306t-300 -124h-772zM397 1305l4 -422h283q84 0 143.5 60.5t59.5 141.5q0 72 -26.5 119t-76 66.5t-93.5 27t-105 7.5h-189zM401 215h414 q82 0 141.5 66.5t59.5 148.5q0 90 -55.5 162t-165.5 72h-394v-449z" />
<glyph unicode="C" horiz-adv-x="1468" d="M53 768q0 328 221.5 549t524.5 221q109 0 229.5 -45t185.5 -121v162h187v-432h-191q-160 213 -415 213q-213 0 -369 -161t-156 -388q0 -225 156 -387t371 -162q246 0 417 211h187v-426h-187v162q-63 -82 -175.5 -123t-239.5 -41q-309 0 -527.5 228.5t-218.5 539.5z" />
<glyph unicode="D" horiz-adv-x="1466" d="M53 0v221h164v1090h-164v225h615q342 0 543.5 -209t213.5 -565q0 -313 -220 -537.5t-537 -224.5h-615zM395 221h269q221 6 372.5 165t151.5 378q0 256 -131 401.5t-391 145.5h-271v-1090z" />
<glyph unicode="E" horiz-adv-x="1378" d="M41 -2v223h166v1096h-166v221h1253v-434h-184v213h-719v-426h524v-223h-524v-447h717v236h186v-459h-1253z" />
<glyph unicode="F" horiz-adv-x="1341" d="M63 0v221h164v1094h-164v221h1207v-432h-185v211h-673v-424h479v-223h-479v-447h145v-221h-494z" />
<glyph unicode="G" horiz-adv-x="1568" d="M25 764q0 313 221 539.5t528 226.5q231 0 416 -133v131h184v-430h-184q-76 98 -184.5 155.5t-231.5 57.5q-213 0 -368.5 -161t-155.5 -388q0 -225 155.5 -387t370.5 -162q195 0 350.5 135t155.5 322h-506v217l727 -2q13 -70 13 -138q0 -152 -63 -295 q-91 -208 -276.5 -334t-408.5 -126q-313 0 -528 229.5t-215 542.5z" />
<glyph unicode="H" horiz-adv-x="1480" d="M47 0v221h164v1094h-164v221h350v-645h682v424h-164v221h349v-1315h133v-221h-523v221h205v445h-682v-445h144v-221h-494z" />
<glyph unicode="I" horiz-adv-x="612" d="M39 2v223h166v1090h-139v221h466v-221h-145v-1090h174v-223h-522z" />
<glyph unicode="J" horiz-adv-x="1183" d="M70 395q0 53 8 78l2 4h176l-8 -74q0 -94 66.5 -155.5t177.5 -61.5q121 0 190.5 70t69.5 209v852h-242v221h651v-217h-229v-846q0 -227 -132 -349t-308 -122q-180 0 -301 103.5t-121 287.5z" />
<glyph unicode="K" horiz-adv-x="1413" d="M53 1315v221h353v-664l462 443h-127v221h392v-221l-465 -445l690 -647v-223h-494v223h217l-675 645v-645h145v-223h-494v223h164v1092h-168z" />
<glyph unicode="L" horiz-adv-x="1107" d="M61 2v223h164v1090h-162v223h482v-223h-135v-1090h428v236h184v-459h-961z" />
<glyph unicode="M" horiz-adv-x="1697" d="M80 0v223h168v1096h-168v219h352l424 -854l424 850l2 6h352v-221h-168v-1096h168v-223h-495v223h141v897l-319 -643h-207l-322 643v-897h143v-223h-495z" />
<glyph unicode="N" horiz-adv-x="1517" d="M55 0v223h162v1092h-137v221h407l654 -1153v1153h350v-221h-164v-1311h-215l-711 1190l2 -971h146v-223h-494z" />
<glyph unicode="O" horiz-adv-x="1560" d="M23 768q0 313 220 539.5t527 226.5q309 0 529.5 -227.5t220.5 -538.5q0 -315 -219.5 -540.5t-526.5 -225.5q-311 0 -528 227.5t-223 538.5zM242 768q0 -229 152.5 -390t369.5 -161q213 0 369.5 161t156.5 388q0 229 -155.5 390t-368.5 161t-368.5 -161t-155.5 -388z" />
<glyph unicode="P" horiz-adv-x="1208" d="M55 0v221h154v1092h-154v223h676q180 -2 306 -132t126 -308q0 -182 -132 -304t-308 -122h-330v-449h158v-221h-496zM389 887h338q88 2 145.5 55t57.5 151.5t-62.5 157t-150.5 58.5h-328v-422z" />
<glyph unicode="Q" horiz-adv-x="1583" d="M49 772q6 322 221 543h-219v221h742q303 0 522 -225.5t219 -538.5q-4 -317 -213 -531t-498 -233q129 -29 215 -28q109 0 193 40v-194q-88 -37 -193 -37q-92 0 -269 39t-273 39q-104 0 -187 -37v193q90 37 209 36q-209 86 -339 279.5t-130 433.5zM260 772 q0 -223 154.5 -383t367.5 -162q213 0 370 161t157 384q0 225 -156 385t-369 160t-368.5 -160t-155.5 -385z" />
<glyph unicode="R" horiz-adv-x="1382" d="M39 -4v221h156v1094h-156v221h762q182 0 309 -128t127 -308q0 -162 -102.5 -273.5t-253.5 -142.5l284 -459h162v-221l-530 -4v221h155l-276 447h-297v-447h160v-221h-500zM379 889l422 4q205 0 205 203q0 199 -215 215h-412v-422z" />
<glyph unicode="S" horiz-adv-x="1372" d="M74 1083q0 182 141 314.5t367 132.5q252 0 467 -133v135h184v-436h-186q-160 213 -465 213q-279 0 -279 -219q0 -47 10.5 -80t41 -68t99 -52.5t173.5 -17.5q178 0 307 -26.5t201.5 -65.5t114.5 -101.5t54.5 -117.5t12.5 -129q-4 -63 -20.5 -119.5t-59.5 -120 t-110.5 -107.5t-183.5 -73.5t-267 -29.5q-221 0 -412 135v-129h-184v450l184 -2q68 -109 193 -170t245 -61q180 0 281.5 60.5t101.5 154.5q0 39 -1 55.5t-23.5 56t-65.5 60t-135 39t-225 18.5q-299 0 -430 118.5t-131 315.5z" />
<glyph unicode="T" horiz-adv-x="1384" d="M37 1104v436h1296v-436h-186v213h-367v-1094h154v-225h-494v225h156v1094h-375v-213h-184z" />
<glyph unicode="U" horiz-adv-x="1398" d="M35 1317v217h545v-217h-164v-791q0 -164 74.5 -241.5t240.5 -77.5q106 0 179 32.5t106 87t46 103.5t13 105v784h-190v217h415v-997v-37q0 -16 -5 -58.5t-14 -76t-27.5 -80.5t-44 -84t-66.5 -77t-92.5 -65.5t-125 -42t-159.5 -16.5q-115 0 -206 18.5t-149.5 47 t-101.5 73.5t-65.5 86t-34.5 98.5t-15.5 97.5t-3.5 93v801h-155z" />
<glyph unicode="V" horiz-adv-x="1351" d="M39 1313v223h496v-223h-140l283 -983l287 983h-144v223h496v-223h-164l-377 -1315h-194l-379 1315h-164z" />
<glyph unicode="W" horiz-adv-x="1703" d="M74 0v221h168v1092h-168v223h493v-223h-141v-893l319 639h205l336 -641v895h-145v223h493v-223h-164v-1092h136v-221h-320l-430 825l-434 -825h-348z" />
<glyph unicode="X" horiz-adv-x="1482" d="M63 0v223h160l410 547l-410 543h-160v223h494v-223h-102l293 -389l290 389h-102v223h494v-223h-160l-408 -543l412 -547h156v-223h-494v223h108l-296 393l-293 -393h102v-223h-494z" />
<glyph unicode="Y" horiz-adv-x="1482" d="M63 1313v223h494v-223h-102l293 -387l290 387h-102v223h494v-223h-160l-430 -572v-518h141v-223h-492v223h166v518l-432 572h-160z" />
<glyph unicode="Z" horiz-adv-x="1439" d="M57 0v223l977 1088h-786v-209h-182v434h1241v-225l-975 -1088h854v230h184v-453h-1313z" />
<glyph unicode="[" horiz-adv-x="786" d="M143 -449v2261h615v-172h-410v-1916h410v-173h-615z" />
<glyph unicode="\" horiz-adv-x="1087" d="M-6 1640h182l901 -1640h-182z" />
<glyph unicode="]" horiz-adv-x="862" d="M143 -276h410v1916h-410v172h615v-2261h-615v173z" />
<glyph unicode="^" horiz-adv-x="1302" d="M61 1020l476 627h213l475 -627h-211l-371 487l-371 -487h-211z" />
<glyph unicode="_" horiz-adv-x="1374" d="M0 -117h1374v-133h-1374v133z" />
<glyph unicode="`" d="M635 1640h246l147 -325h-201z" />
<glyph unicode="a" horiz-adv-x="1122" d="M27 326q0 55 20.5 104t70.5 97t150.5 77t241.5 29q135 0 186.5 22.5t51.5 92.5q0 20 -5.5 39.5t-26 53t-76.5 54t-140 20.5q-123 0 -182.5 -42t-67.5 -103h-184v2q-4 12 18 72q12 33 34.5 64.5t68.5 73.5t132.5 67.5t196.5 25.5q88 0 160 -18.5t117 -45t77.5 -67.5 t48 -75.5t24.5 -82t10 -73t1 -58.5v-442h140v-213h-322v98q-102 -113 -289 -112q-94 0 -167.5 13t-143.5 47t-107.5 105t-37.5 175zM205 313q0 -78 78.5 -112.5t185.5 -34.5q125 0 214 50t89 175v117q-49 -31 -100 -38t-160 -7q-174 0 -240.5 -35t-66.5 -115z" />
<glyph unicode="b" horiz-adv-x="1349" d="M59 0v223h183v1088h-183v225h369v-565q139 127 338 127q229 0 379 -162q154 -150 153 -399q0 -242 -155.5 -404t-376.5 -162q-197 0 -338 123v-94h-369zM430 541q6 -172 96 -267.5t219 -95.5q139 0 234 98q92 111 92 254q0 154 -96 258.5t-230 104.5q-127 0 -221 -96 t-94 -256z" />
<glyph unicode="c" horiz-adv-x="1087" d="M31 549q0 236 152.5 391.5t377.5 155.5q131 0 234 -52v54h178v-301h-178q-106 102 -234 102q-141 0 -229 -102.5t-88 -249.5q0 -152 93 -260.5t224 -108.5q113 0 181.5 29t146.5 98l137 -131q-109 -96 -204 -138t-267 -42q-233 0 -378.5 162t-145.5 393z" />
<glyph unicode="d" horiz-adv-x="1292" d="M35 535q0 254 151.5 408.5t374.5 154.5q205 0 344 -123v342h-178v219h363v-1313h178v-223h-359v98q-143 -125 -344 -125q-225 0 -377.5 160t-152.5 402zM264 535q0 -156 93.5 -258.5t230.5 -102.5q145 0 230 96.5t85 239.5v45q-8 154 -97 245t-220 91q-137 0 -229.5 -102 t-92.5 -254z" />
<glyph unicode="e" horiz-adv-x="1044" d="M58 560v19q0 91 27 177q30 94 81 167.5t145.5 117.5t218.5 44q262 0 367 -141q87 -118 87 -356q0 -47 -3 -99h-739v-22q0 -125 75.5 -210t208.5 -85q102 0 169 20.5t175 92.5l148 -131q-129 -106 -238.5 -140t-255.5 -34q-119 0 -208 39.5t-137 104t-71.5 121 t-33.5 115.5q-13 99 -16 200zM238 657h561q0 139 -70 194.5t-205 55.5q-88 0 -146.5 -22.5t-86 -67.5t-36.5 -76t-17 -84z" />
<glyph unicode="f" horiz-adv-x="804" d="M80 -2v223h180v643h-149v199h149v72q0 23 3 54.5t24.5 101t59.5 122.5t118 96t188 43q127 -4 215 -63l-67 -158q-57 29 -152 29q-205 -16 -205 -225v-72h185v-199h-185v-643h181v-223h-545z" />
<glyph unicode="g" horiz-adv-x="1263" d="M33 542.5q0 237.5 151.5 393.5t366.5 156q182 0 332 -121v92h360v-199h-182q0 -846 -10 -968q-16 -190 -112.5 -285.5t-342.5 -95.5q-283 0 -416 120l146 136q90 -57 252 -58q168 0 236.5 57.5t68.5 229.5v115q-137 -119 -332 -119q-217 0 -367.5 154.5t-150.5 392z M256 538.5q0 -151.5 93 -248.5t220 -97q131 0 221.5 92t90.5 225q0 176 -87 277.5t-225 101.5q-141 0 -227 -99.5t-86 -251z" />
<glyph unicode="h" horiz-adv-x="1351" d="M41 0v221h180v1092h-180v223h362v-563q145 125 330 125h6q211 0 329 -142q120 -143 120 -348v-387h143v-221h-325v608q0 113 -67 201q-65 86 -203 86h-7q-133 0 -228 -98.5t-98 -245.5v-330h181v-221h-543z" />
<glyph unicode="i" horiz-adv-x="624" d="M39 0v221h178v641h-147v203h327v-844h185v-221h-543zM168 1415q0 55 40 95t95 40t95 -40t40 -95t-40 -95t-95 -40t-95 40t-40 95z" />
<glyph unicode="j" horiz-adv-x="585" d="M-80 -424l143 133q27 -6 70 -6q82 0 132 44t62.5 89t12.5 94v932h-150v201h332l2 -1126q0 -182 -104.5 -298t-286.5 -116q-117 0 -213 53zM293 1415q0 55 40 95t95 40t95 -40t40 -95t-40 -95t-95 -40t-95 40t-40 95z" />
<glyph unicode="k" horiz-adv-x="1193" d="M39 0v221h180v1092h-180v223h362v-1536h-362zM406 676l409 391h315v-205h-262l-198 -186l485 -455v-221h-475v221h203z" />
<glyph unicode="l" horiz-adv-x="606" d="M41 0v221h182v1092h-180v223h360v-1315h183v-221h-545z" />
<glyph unicode="m" horiz-adv-x="2131" d="M37 -6v221h182v647h-180v197h362v-88q154 125 330 125q125 0 223.5 -60.5t153.5 -142.5l20 25q59 80 169 130t223 50q111 0 197.5 -43t132.5 -102.5t75 -133.5t37 -124t8 -85v-389h144v-221h-328v600q0 133 -72 210t-209 77t-226 -98.5t-95 -241.5v-334h145v-221h-325 v610q0 135 -71 211t-210 76t-230.5 -100.5t-91.5 -241.5v-332h183v-221h-547z" />
<glyph unicode="n" horiz-adv-x="1366" d="M37 2v223h182v645h-182v199h362v-113q131 145 336 146q195 0 322 -144.5t127 -347.5v-387h145v-223h-328v612q0 131 -70.5 208t-205.5 77q-141 0 -233.5 -99.5t-92.5 -244.5v-328h183v-223h-545z" />
<glyph unicode="o" horiz-adv-x="1101" d="M14 535v2q0 240 155 392t378 152t376.5 -151.5t153.5 -395t-153.5 -396t-376.5 -152.5q-227 0 -380 152.5t-153 396.5zM225 537q0 -150 89 -251.5t231 -101.5q133 0 227 99.5t94 251.5q0 145 -92 247.5t-229 102.5t-228.5 -100.5t-91.5 -247.5z" />
<glyph unicode="p" horiz-adv-x="1265" d="M6 -248h176v1116h-155v199h335v-92q139 121 332 121q215 0 367 -154q152 -162 151 -399q0 -240 -150.5 -393.5t-367.5 -153.5q-190 0 -332 123v-367h177v-217h-533v217zM362 561q0 -172 91.5 -271.5t220.5 -99.5t225 99v-2q88 100 88 254q0 147 -88 247.5t-225 100.5 q-123 0 -217.5 -93.5t-94.5 -234.5z" />
<glyph unicode="q" horiz-adv-x="1271" d="M35 545q0 242 150.5 396.5t367.5 154.5q190 0 334 -121v92h356v-199h-178v-1116h178v-221h-534v221h178v365q-143 -121 -334 -121q-231 0 -374.5 159t-143.5 390zM258 549q0 -156 92 -255t221 -99q133 0 226 100v2q90 100 90 264q0 147 -93.5 245.5t-222.5 98.5 q-139 0 -226 -107.5t-87 -248.5z" />
<glyph unicode="r" horiz-adv-x="843" d="M27 2v225h182v639h-182v203h364v-88q2 8 20.5 23.5t59.5 37t88 33.5q35 10 92 10q37 0 78 -5t62 -11l22 -4v-203q-74 37 -149 37q-137 0 -205 -94t-68 -246v-332h178v-225h-542z" />
<glyph unicode="s" horiz-adv-x="1038" d="M53 -10v319h185q98 -145 313 -145q270 0 270 143q0 94 -65.5 125t-241.5 31q-215 0 -336 79t-121 232q0 317 422 318q172 0 285 -95v66h182v-287h-182q-55 74 -116.5 106.5t-164.5 32.5q-248 0 -247.5 -135t276.5 -135q137 0 235.5 -27.5t146.5 -63.5t74.5 -91t31 -88 t4.5 -78q0 -92 -46.5 -159.5t-118 -102.5t-140 -50.5t-132.5 -15.5q-180 0 -334 101v-80h-180z" />
<glyph unicode="t" horiz-adv-x="729" d="M57 860v201h152v424h203v-424h168v-201h-168v-567q0 -29 9 -50.5t31.5 -33.5t41 -20.5t56.5 -11.5t55 -3h59h24v-178q-38 -2 -73 -2q-198 0 -293 68q-113 81 -113 184v614h-152z" />
<glyph unicode="u" horiz-adv-x="1329" d="M16 868v195h330v-602q0 -131 68.5 -205t212.5 -74q141 0 231 95.5t90 244.5v348h-151v193h331v-840h181v-223h-363v88q-141 -121 -330 -121q-119 0 -206.5 41t-133 96.5t-73 130t-33.5 126t-6 100.5l2 407h-150z" />
<glyph unicode="v" horiz-adv-x="1284" d="M20 862v203h537v-203h-174l258 -626l262 626h-184v203h538v-203h-157l-361 -862h-194l-359 862h-166z" />
<glyph unicode="w" horiz-adv-x="2037" d="M49 862v203h537v-203h-176l260 -624l262 624h-141v203h473v-203h-136l263 -624l258 624h-181v203h537v-203h-160l-358 -862h-199l-258 623l-258 -623h-199l-358 862h-166z" />
<glyph unicode="x" horiz-adv-x="1277" d="M80 0v223h196l259 307l-273 330h-176v201h369v-201l176 -211l176 211v201h373v-201h-179l-272 -328l258 -309h197v-223h-385v213l-168 201l-166 -201v-213h-385z" />
<glyph unicode="y" horiz-adv-x="1347" d="M55 862v203h537v-203h-176l260 -620l258 620h-180v203h536v-203h-157l-474 -1130h152v-219h-537v219h191l110 272l-356 858h-164z" />
<glyph unicode="z" horiz-adv-x="1142" d="M39 0v221l747 639h-538v-80h-182v283h999v-203l-743 -639h596v98h182v-319h-1061z" />
<glyph unicode="{" horiz-adv-x="651" d="M0 522v158q16 0 26.5 1t40 8t50 26.5t45 51.5t37 88t12.5 132q6 344 114.5 511t325.5 167v-158q-39 -2 -70.5 -9t-77.5 -37.5t-77 -82t-54.5 -152t-23.5 -235.5q-10 -262 -143 -381q223 -176 231 -606q0 -80 15.5 -139.5t39 -89t51 -47t52 -22.5t43.5 -7h10v-156 q-59 0 -116.5 21.5t-117 71t-95 144.5t-35.5 224q0 272 -65.5 392t-209.5 126h-8z" />
<glyph unicode="|" horiz-adv-x="145" d="M4 6v1626h137v-1626h-137z" />
<glyph unicode="}" horiz-adv-x="651" d="M-6 1497v158q229 0 331.5 -173t108.5 -501q0 -94 21.5 -159.5t57.5 -95.5t67.5 -41t64.5 -11v-158h-8q-131 -6 -203 -112.5t-72 -364.5q0 -129 -29.5 -225.5t-71.5 -146.5t-97 -80.5t-93 -38t-73 -7.5v156q115 14 161 90t50 219q8 436 231 610q-82 76 -108.5 176.5 t-33.5 231.5t-32 209q-45 152 -104 206t-168 58z" />
<glyph unicode="~" horiz-adv-x="1507" d="M47 651v189q133 106 303 106q121 0 398.5 -106.5t420.5 -106.5q166 0 304 107v-193q-137 -106 -304 -106q-94 0 -240.5 54t-302 108.5t-276.5 54.5q-170 -1 -303 -107z" />
<glyph unicode="&#xa1;" horiz-adv-x="622" d="M147 -20v288h289v-288h-289zM172 844v784h240v-784l-45 -453h-150z" />
<glyph unicode="&#xa2;" horiz-adv-x="1136" d="M88 506q0 180 107.5 321.5t275.5 173.5v138h168v-131q68 -6 149 -41v20h168v-250h-168v2q-68 72 -147 86v-632q76 14 160 98h227l-2 -8q-55 -117 -156.5 -191t-228.5 -90v-156h-168v162q-170 33 -277.5 174.5t-107.5 323.5zM283 504q0 -141 86 -234v-4q53 -53 104 -67 v606q-90 -27 -140 -112t-50 -189z" />
<glyph unicode="&#xa3;" horiz-adv-x="1093" d="M137 -6v196h162v392h-111v178h111v512q0 164 144.5 267t306.5 103q39 0 88 -8v-188q-53 14 -93 14q-117 0 -201.5 -93t-86.5 -230v-381h479v-178h-479v-392h594v-192h-914z" />
<glyph unicode="&#xa4;" horiz-adv-x="1181" d="M-4 180l145 146q-66 113 -65 264q0 147 67 262l-147 147l143 144l142 -139q125 88 284 88q145 0 266 -78l130 129l145 -144l-129 -131q78 -121 78 -278l-2 2q0 -162 -78 -283l129 -129l-146 -145l-129 129q-121 -78 -266 -78q-164 0 -282 88l-142 -139zM258 596 q0 -137 89 -237.5t214 -100.5q123 0 213 99.5t90 238.5q0 135 -90 235.5t-215 100.5t-213 -101.5t-88 -234.5z" />
<glyph unicode="&#xa5;" horiz-adv-x="1531" d="M82 1313v223h493v-223h-102l293 -387l291 387h-103v223h494v-223h-160l-373 -496h326v-135h-391l-19 -135h408v-135h-424l-24 -189h141v-223h-492v223h164l25 189h-340v135h358l19 135h-375v135h325l-374 496h-160z" />
<glyph unicode="&#xa6;" horiz-adv-x="260" d="M66 37v694h129v-694h-129zM66 901v694h129v-694h-129z" />
<glyph unicode="&#xa7;" horiz-adv-x="1345" d="M80 831q4 115 71.5 203t188.5 121q-33 63 -33 152q0 139 109.5 239.5t279.5 100.5q205 0 357 -97v97h141v-334h-143q-123 164 -357 164q-205 0 -205 -172q0 -86 51.5 -127t198.5 -41q137 0 237.5 -21.5t155 -53.5t87 -80t41 -91t8.5 -98q-27 -231 -269 -301 q35 -68 35 -170q0 -43 -10 -83t-42 -87.5t-83 -82t-141 -58t-209 -23.5q-162 0 -318 98v-98h-141v346l141 -2q49 -78 146.5 -128t189.5 -50q139 0 216 47t77 121q0 27 -1 33.5t-8 34.5t-28.5 40t-57.5 30.5t-100.5 26t-152.5 7.5q-227 0 -329.5 92.5t-102.5 244.5zM252 831 q0 -86 51 -126.5t199 -40.5q164 0 286 -31q135 4 207 51t72 117q0 68 -27 98q-68 74 -315 74q-57 0 -141 15.5t-127 15.5q-205 -1 -205 -173z" />
<glyph unicode="&#xa8;" horiz-adv-x="1492" d="M399 1450q0 59 43 102t102.5 43t102.5 -43t43 -102t-43 -102t-102.5 -43t-102.5 43t-43 102zM866 1450q0 59 43 102t102.5 43t102.5 -43t43 -102t-43 -102t-102.5 -43t-102.5 43t-43 102z" />
<glyph unicode="&#xa9;" horiz-adv-x="757" d="M-6 1153q0 158 114.5 270.5t270.5 112.5q162 0 273.5 -114.5t111.5 -268.5q0 -160 -113.5 -272.5t-271.5 -112.5q-160 0 -272.5 113.5t-112.5 271.5zM39 1155q0 -139 101.5 -238.5t238.5 -99.5l-4 -2q141 0 240.5 101.5t99.5 238.5q0 139 -100.5 238.5t-237.5 99.5 q-139 0 -238.5 -100.5t-99.5 -237.5zM152 1157q0 90 67.5 157.5t155.5 67.5q63 0 115.5 -32.5t80.5 -87.5h-77q-45 55 -111 55h-10q-66 0 -111 -47t-45 -115q0 -70 46 -117t112 -47q72 0 119 53h77q-63 -119 -196 -118q-92 0 -157.5 69.5t-65.5 161.5z" />
<glyph unicode="&#xaa;" horiz-adv-x="1202" d="M731 760q0 96 100 114q45 8 103.5 8.5t77 8.5t18.5 43q0 72 -102 72q-90 0 -105 -60h-75v6q0 43 48 85t140 42q53 0 92 -15t56.5 -32.5t26.5 -48.5t10 -43t1 -35v-276h-86v37q-41 -47 -116 -48q-189 1 -189 142zM803 758q0 -59 106 -60q117 0 127 93v49q-25 -14 -45 -17 q-35 -4 -74.5 -7t-56 -4t-33 -6t-20.5 -16.5t-4 -31.5z" />
<glyph unicode="&#xab;" horiz-adv-x="1271" d="M0 547v92l698 291v-107l-563 -229l563 -234v-108zM575 547v92l699 291v-107l-563 -229l563 -234v-108z" />
<glyph unicode="&#xac;" d="M459 715v164h770v-533h-117v369h-653z" />
<glyph unicode="&#xad;" d="M459 715v164h766v-164h-766z" />
<glyph unicode="&#xae;" horiz-adv-x="770" d="M0 1147q0 160 113.5 272.5t271.5 112.5t269.5 -114.5t111.5 -270.5q0 -160 -112.5 -272.5t-268.5 -112.5q-160 0 -272.5 113.5t-112.5 271.5zM45 1151q0 -139 101.5 -238.5t238.5 -99.5l-2 -2q139 0 238.5 100.5t99.5 237.5q0 139 -100.5 239.5t-237.5 100.5 q-139 0 -238.5 -100.5t-99.5 -237.5zM236 909v459h200q51 0 89 -39t38 -92q0 -49 -28.5 -83t-73.5 -44l125 -203h-64l-125 201h-106v-199h-55zM291 1171h143q25 0 43.5 17.5t18.5 44.5q0 25 -18.5 43t-45.5 20h-141v-125z" />
<glyph unicode="&#xaf;" horiz-adv-x="423" />
<glyph unicode="&#xb0;" horiz-adv-x="464" d="M16 1329q0 86 61.5 147.5t147.5 61.5t147.5 -61.5t61.5 -147.5t-61.5 -147.5t-147.5 -61.5t-147.5 61.5t-61.5 147.5z" />
<glyph unicode="&#xb1;" horiz-adv-x="1183" d="M109 59v164h946v-164h-946zM131 793v135h383v385h135v-385h385v-135h-385v-383h-135v383h-383z" />
<glyph unicode="&#xb2;" horiz-adv-x="1433" d="M899 1096v51q0 166 176 242l53 22q41 16 53.5 31.5t12.5 48.5q0 37 -30.5 53.5t-67.5 16.5h-9q-70 0 -94 -52l-6 -12h-84q14 61 61.5 100t120.5 39h9q74 0 128 -34.5t54 -110.5q0 -94 -80 -137l-56 -31q-34 -18 -48.5 -26.5t-37 -21.5t-31.5 -22.5t-19.5 -24t-13.5 -29.5 t-3 -34h236v82h59v-151h-383z" />
<glyph unicode="&#xb3;" horiz-adv-x="1357" d="M850 1264h84q0 -31 31.5 -55.5t107.5 -24.5h21q104 0 104 78q0 35 -31.5 57t-76.5 22h-62v82q143 0 143 84q0 72 -106 72h-8q-70 0 -101 -63h-86q16 68 67.5 104.5t125.5 36.5h6q84 0 135 -38t51 -112q0 -61 -43 -108q72 -49 72 -133q0 -57 -27.5 -94t-70.5 -50.5 t-65.5 -16.5t-43.5 -3h-6q-119 0 -170 56.5t-51 105.5z" />
<glyph unicode="&#xb4;" d="M635 1315l147 325h246l-192 -325h-201z" />
<glyph unicode="&#xb5;" horiz-adv-x="1460" d="M98 864v219h537v-219h-178v-325q6 -152 97 -245t220 -93h8q262 16 262 278v602h324v-217h-137v-878h-180v108q-123 -94 -267 -94q-180 0 -327 121v-737h-181v1480h-178z" />
<glyph unicode="&#xb6;" horiz-adv-x="1218" d="M47 1241q0 172 111.5 288t261.5 116h702v-205h-172v-1444h-155v1444h-142v-1444h-155v854h-78q-150 0 -261.5 112.5t-111.5 278.5z" />
<glyph unicode="&#xb7;" horiz-adv-x="407" d="M90 694v224h223v-224h-223z" />
<glyph unicode="&#xb8;" horiz-adv-x="1435" d="M455 98h409l-145 -104l-8 -74q82 -6 117.5 -62.5t35.5 -97.5q0 -119 -110.5 -169t-261.5 -50h-27v103q203 0 203 92q0 55 -109 61l35 203z" />
<glyph unicode="&#xb9;" horiz-adv-x="993" d="M610 1511l133 134h68v-474h61v-81h-188v81h59v379l-38 -39h-95z" />
<glyph unicode="&#xba;" horiz-adv-x="1138" d="M567 1366q0 113 70 193.5t172 80.5q98 0 169 -80.5t71 -193.5t-70 -196t-170 -83h-4q-104 0 -171 84t-67 195zM647 1366q0 -82 47 -139.5t112.5 -57.5t113 57.5t47.5 139.5q0 80 -47.5 137.5t-112.5 57.5q-66 0 -111 -56q-49 -55 -49 -139z" />
<glyph unicode="&#xbb;" horiz-adv-x="1277" d="M2 250v106l563 230l-563 233v109l698 -295v-92zM578 250v106l563 230l-563 233v109l698 -295v-92z" />
<glyph unicode="&#xbc;" horiz-adv-x="1943" d="M47 1384l258 258h129v-917h121v-156h-365v156h115v735l-76 -76h-182zM356 0l662 1640h182l-661 -1640h-183zM1098 342v131l473 606h129v-606h110v-131h-110v-184h123v-158h-369v158h117v184h-473zM1268 475h301v395z" />
<glyph unicode="&#xbd;" horiz-adv-x="2238" d="M61 1382l261 260h129v-921h118v-156h-366v156h116v737l-75 -76h-183zM432 0l662 1640h182l-662 -1640h-182zM1315 -18v106q0 330 346 487l104 48q82 37 109 68.5t27 90.5q0 70 -68 105t-137 35h-8l-5 -2q-139 0 -184 -97l-12 -24h-166q12 47 34.5 89t62.5 91t107.5 77.5 t155.5 28.5h15q61 0 121.5 -14t117 -46t91 -91.5t34.5 -138.5q0 -113 -59 -186.5t-144 -112.5t-170 -76t-144.5 -101.5t-59.5 -162.5h469v161h125v-335h-762z" />
<glyph unicode="&#xbe;" horiz-adv-x="2240" d="M88 844h162q16 -68 53 -99q66 -55 209 -55h6q33 0 65.5 5t74.5 19.5t69 48.5t27 83q0 137 -207 160h-117v159q285 0 285 172q0 70 -65.5 104t-139.5 34h-12q-82 0 -126 -32t-71 -89h-166q33 115 122 199.5t245 84.5h14q39 0 81 -6t95 -24.5t93 -49t68 -85t28 -126 t-31 -137t-82 -92.5l-8 -26q66 -33 108.5 -102.5t42.5 -155.5q0 -74 -25.5 -130.5t-70.5 -87t-88 -51t-96 -27t-72.5 -8.5t-40.5 -2h-12q-78 0 -142.5 16.5t-105.5 37t-73.5 56.5t-48 59.5t-28 62.5t-14.5 49t-6 35zM614 -27l662 1641h182l-661 -1641h-183zM1346 315v131 l473 607h129v-607h108v-131h-108v-184h123v-158h-369v158h117v184h-473zM1518 449h301v395z" />
<glyph unicode="&#xbf;" horiz-adv-x="1357" d="M98 1221q10 41 25.5 81.5t59.5 108.5t102.5 117t159 86t225.5 37q63 0 128.5 -10.5t143.5 -40t137.5 -76.5t99.5 -129t40 -187q0 -94 -35 -172t-83 -122t-104.5 -74.5t-95.5 -42t-57 -11.5h-60l-39 -383h-192v541q6 0 17.5 -1t17.5 -1q383 0 395 260q0 63 -35 107.5 t-89 64t-99 26.5t-90 7h-13q-225 0 -288 -147l-17 -39h-254zM530 -4v285h283v-285h-283z" />
<glyph unicode="&#xc0;" horiz-adv-x="1546" d="M35 0v221h129l422 1112h-267v203h601l2 2l399 -1317h195v-221h-496v221h108l-137 447h-463l-168 -447h170v-221h-495zM578 2111h245l148 -325h-201zM612 889h318l-137 444h-11z" />
<glyph unicode="&#xc1;" horiz-adv-x="1546" d="M35 0v221h129l422 1112h-267v203h601l2 2l399 -1317h195v-221h-496v221h108l-137 447h-463l-168 -447h170v-221h-495zM578 1786l147 325h246l-193 -325h-200zM612 889h318l-137 444h-11z" />
<glyph unicode="&#xc2;" horiz-adv-x="1546" d="M35 0v221h129l422 1112h-267v203h601l2 2l399 -1317h195v-221h-496v221h108l-137 447h-463l-168 -447h170v-221h-495zM389 1698l256 411h262l252 -411h-172l-213 268l-215 -268h-170zM612 889h318l-137 444h-11z" />
<glyph unicode="&#xc3;" horiz-adv-x="1546" d="M35 0v221h129l422 1112h-267v203h601l2 2l399 -1317h195v-221h-496v221h108l-137 447h-463l-168 -447h170v-221h-495zM324 1858v178q90 100 192 100q74 0 251 -100.5t265 -100.5q100 0 193 101v-178h-8q-90 -100 -191 -101q-59 0 -237.5 100.5t-274.5 100.5 q-100 0 -190 -100zM612 889h318l-137 444h-11z" />
<glyph unicode="&#xc4;" horiz-adv-x="1546" d="M35 0v221h129l422 1112h-267v203h601l2 2l399 -1317h195v-221h-496v221h108l-137 447h-463l-168 -447h170v-221h-495zM395 1921q0 59 43 102t102.5 43t102.5 -43t43 -102t-43 -102t-102.5 -43t-102.5 43t-43 102zM612 889h318l-137 444h-11zM862 1921q0 59 43 102 t102.5 43t102.5 -43t43 -102t-43 -102t-102.5 -43t-102.5 43t-43 102z" />
<glyph unicode="&#xc5;" horiz-adv-x="1546" d="M35 0v221h129l422 1112h-267v203h601l2 2l399 -1317h195v-221h-496v221h108l-137 447h-463l-168 -447h170v-221h-495zM602 1931q2 72 51 123t119 51q72 0 122 -52t50 -123.5t-50 -123t-122 -51.5q-70 0 -120 53t-50 123zM612 889h318l-137 444h-11zM672 1925 q0 -45 29.5 -75.5t74.5 -30.5q41 0 72 30.5t31 75.5t-31 76t-72 31q-45 0 -74.5 -31t-29.5 -76z" />
<glyph unicode="&#xc6;" horiz-adv-x="2289" d="M55 -2v223h129l416 1096h-266v223h1841v-434h-184v211h-824v-426h629v-223h-629v-447h822v234h184v-457h-1188v670h-434l-172 -447h172v-223h-496zM635 891h346v426h-184z" />
<glyph unicode="&#xc7;" horiz-adv-x="1468" d="M53 768q0 328 221.5 549t524.5 221q109 0 229.5 -45t185.5 -121v162h187v-432h-191q-160 213 -415 213q-213 0 -369 -161t-156 -388q0 -225 156 -387t371 -162q246 0 417 211h187v-426h-187v162q-63 -82 -175.5 -123t-237.5 -41l-8 -6l-9 -74q82 -6 118 -62.5t36 -97.5 q0 -119 -110.5 -169t-262.5 -50h-26v103q203 0 202 92q0 55 -108 61l35 203l-25 16q-256 57 -423 270.5t-167 481.5z" />
<glyph unicode="&#xc8;" horiz-adv-x="1378" d="M41 -2v223h166v1096h-166v221h1253v-434h-184v213h-719v-426h524v-223h-524v-447h717v236h186v-459h-1253zM494 2111h245l148 -325h-201z" />
<glyph unicode="&#xc9;" horiz-adv-x="1378" d="M41 -2v223h166v1096h-166v221h1253v-434h-184v213h-719v-426h524v-223h-524v-447h717v236h186v-459h-1253zM494 1786l147 325h246l-193 -325h-200z" />
<glyph unicode="&#xca;" horiz-adv-x="1378" d="M41 -2v223h166v1096h-166v221h1253v-434h-184v213h-719v-426h524v-223h-524v-447h717v236h186v-459h-1253zM305 1698l256 411h262l252 -411h-172l-213 268l-215 -268h-170z" />
<glyph unicode="&#xcb;" horiz-adv-x="1378" d="M41 -2v223h166v1096h-166v221h1253v-434h-184v213h-719v-426h524v-223h-524v-447h717v236h186v-459h-1253zM311 1921q0 59 43 102t102.5 43t102.5 -43t43 -102t-43 -102t-102.5 -43t-102.5 43t-43 102zM778 1921q0 59 43 102t102.5 43t102.5 -43t43 -102t-43 -102 t-102.5 -43t-102.5 43t-43 102z" />
<glyph unicode="&#xcc;" horiz-adv-x="612" d="M39 2v223h166v1090h-139v221h466v-221h-145v-1090h174v-223h-522zM111 2111h245l148 -325h-201z" />
<glyph unicode="&#xcd;" horiz-adv-x="612" d="M39 2v223h166v1090h-139v221h466v-221h-145v-1090h174v-223h-522zM111 1786l147 325h246l-193 -325h-200z" />
<glyph unicode="&#xce;" horiz-adv-x="612" d="M-78 1698l256 411h262l252 -411h-172l-213 268l-215 -268h-170zM39 2v223h166v1090h-139v221h466v-221h-145v-1090h174v-223h-522z" />
<glyph unicode="&#xcf;" horiz-adv-x="612" d="M-72 1921q0 59 43 102t102.5 43t102.5 -43t43 -102t-43 -102t-102.5 -43t-102.5 43t-43 102zM39 2v223h166v1090h-139v221h466v-221h-145v-1090h174v-223h-522zM395 1921q0 59 43 102t102.5 43t102.5 -43t43 -102t-43 -102t-102.5 -43t-102.5 43t-43 102z" />
<glyph unicode="&#xd0;" horiz-adv-x="1546" d="M-6 686v238h252v471h-174v239h626q115 0 267 -32q31 -6 84 -26t69 -26q-2 0 4 -2l4 -2q66 -29 91 -53q10 -10 59 -55t72 -72h2l-2 -8q197 -227 202 -545q0 -225 -112.5 -415.5t-302 -299t-406.5 -108.5h-657v237h174v459h-252zM449 223h303q211 0 362.5 148.5 t181.5 359.5v-4q6 37 7 80q0 117 -43 221l-13 29q0 4 -6 12q-68 139 -204 230.5t-289 91.5h-299v-471h270v-238h-270v-459z" />
<glyph unicode="&#xd1;" horiz-adv-x="1517" d="M55 0v223h162v1092h-137v221h407l654 -1153v1153h350v-221h-164v-1311h-215l-711 1190l2 -971h146v-223h-494zM309 1858v178q90 100 193 100q74 0 251 -100.5t265 -100.5q100 0 192 101v-178h-8q-90 -100 -190 -101q-59 0 -237.5 100.5t-274.5 100.5q-101 0 -191 -100z " />
<glyph unicode="&#xd2;" horiz-adv-x="1560" d="M23 768q0 313 220 539.5t527 226.5q309 0 529.5 -227.5t220.5 -538.5q0 -315 -219.5 -540.5t-526.5 -225.5q-311 0 -528 227.5t-223 538.5zM242 768q0 -229 152.5 -390t369.5 -161q213 0 369.5 161t156.5 388q0 229 -155.5 390t-368.5 161t-368.5 -161t-155.5 -388z M584 2111h245l148 -325h-201z" />
<glyph unicode="&#xd3;" horiz-adv-x="1560" d="M23 768q0 313 220 539.5t527 226.5q309 0 529.5 -227.5t220.5 -538.5q0 -315 -219.5 -540.5t-526.5 -225.5q-311 0 -528 227.5t-223 538.5zM242 768q0 -229 152.5 -390t369.5 -161q213 0 369.5 161t156.5 388q0 229 -155.5 390t-368.5 161t-368.5 -161t-155.5 -388z M584 1786l147 325h246l-193 -325h-200z" />
<glyph unicode="&#xd4;" horiz-adv-x="1560" d="M23 768q0 313 220 539.5t527 226.5q309 0 529.5 -227.5t220.5 -538.5q0 -315 -219.5 -540.5t-526.5 -225.5q-311 0 -528 227.5t-223 538.5zM242 768q0 -229 152.5 -390t369.5 -161q213 0 369.5 161t156.5 388q0 229 -155.5 390t-368.5 161t-368.5 -161t-155.5 -388z M395 1698l256 411h262l252 -411h-172l-213 268l-215 -268h-170z" />
<glyph unicode="&#xd5;" horiz-adv-x="1560" d="M23 768q0 313 220 539.5t527 226.5q309 0 529.5 -227.5t220.5 -538.5q0 -315 -219.5 -540.5t-526.5 -225.5q-311 0 -528 227.5t-223 538.5zM242 768q0 -229 152.5 -390t369.5 -161q213 0 369.5 161t156.5 388q0 229 -155.5 390t-368.5 161t-368.5 -161t-155.5 -388z M330 1858v178q90 100 192 100q74 0 251 -100.5t265 -100.5q100 0 193 101v-178h-8q-90 -100 -191 -101q-59 0 -237.5 100.5t-274.5 100.5q-100 0 -190 -100z" />
<glyph unicode="&#xd6;" horiz-adv-x="1560" d="M23 768q0 313 220 539.5t527 226.5q309 0 529.5 -227.5t220.5 -538.5q0 -315 -219.5 -540.5t-526.5 -225.5q-311 0 -528 227.5t-223 538.5zM242 768q0 -229 152.5 -390t369.5 -161q213 0 369.5 161t156.5 388q0 229 -155.5 390t-368.5 161t-368.5 -161t-155.5 -388z M401 1921q0 59 43 102t102.5 43t102.5 -43t43 -102t-43 -102t-102.5 -43t-102.5 43t-43 102zM868 1921q0 59 43 102t102.5 43t102.5 -43t43 -102t-43 -102t-102.5 -43t-102.5 43t-43 102z" />
<glyph unicode="&#xd7;" horiz-adv-x="1460" d="M215 4l430 541l-430 538h174l342 -430l340 430h174l-428 -538l428 -541h-174l-340 432l-342 -432h-174z" />
<glyph unicode="&#xd8;" horiz-adv-x="1658" d="M109 815q0 201 82.5 386t248.5 311t373 126q145 0 283 -63l34 63h181l-82 -153q143 -96 221 -280.5t84 -387.5q0 -217 -90 -404.5t-254 -303t-363 -115.5q-186 0 -346 100l-51 -92h-180l104 193q-8 6 -45 51q-200 233 -200 569zM352 811q0 -238 123 -395l506 938 q-76 37 -166 37q-184 0 -323.5 -169t-139.5 -411zM590 301q111 -68 211 -68q213 0 352 175.5t139 400.5q0 260 -184 448z" />
<glyph unicode="&#xd9;" horiz-adv-x="1398" d="M35 1317v217h545v-217h-164v-791q0 -164 74.5 -241.5t240.5 -77.5q106 0 179 32.5t106 87t46 103.5t13 105v784h-190v217h415v-997v-37q0 -16 -5 -58.5t-14 -76t-27.5 -80.5t-44 -84t-66.5 -77t-92.5 -65.5t-125 -42t-159.5 -16.5q-115 0 -206 18.5t-149.5 47 t-101.5 73.5t-65.5 86t-34.5 98.5t-15.5 97.5t-3.5 93v801h-155zM504 2111h246l147 -325h-201z" />
<glyph unicode="&#xda;" horiz-adv-x="1398" d="M35 1317v217h545v-217h-164v-791q0 -164 74.5 -241.5t240.5 -77.5q106 0 179 32.5t106 87t46 103.5t13 105v784h-190v217h415v-997v-37q0 -16 -5 -58.5t-14 -76t-27.5 -80.5t-44 -84t-66.5 -77t-92.5 -65.5t-125 -42t-159.5 -16.5q-115 0 -206 18.5t-149.5 47 t-101.5 73.5t-65.5 86t-34.5 98.5t-15.5 97.5t-3.5 93v801h-155zM504 1786l147 325h246l-192 -325h-201z" />
<glyph unicode="&#xdb;" horiz-adv-x="1398" d="M35 1317v217h545v-217h-164v-791q0 -164 74.5 -241.5t240.5 -77.5q106 0 179 32.5t106 87t46 103.5t13 105v784h-190v217h415v-997v-37q0 -16 -5 -58.5t-14 -76t-27.5 -80.5t-44 -84t-66.5 -77t-92.5 -65.5t-125 -42t-159.5 -16.5q-115 0 -206 18.5t-149.5 47 t-101.5 73.5t-65.5 86t-34.5 98.5t-15.5 97.5t-3.5 93v801h-155zM315 1698l256 411h263l251 -411h-172l-213 268l-215 -268h-170z" />
<glyph unicode="&#xdc;" horiz-adv-x="1398" d="M35 1317v217h545v-217h-164v-791q0 -164 74.5 -241.5t240.5 -77.5q106 0 179 32.5t106 87t46 103.5t13 105v784h-190v217h415v-997v-37q0 -16 -5 -58.5t-14 -76t-27.5 -80.5t-44 -84t-66.5 -77t-92.5 -65.5t-125 -42t-159.5 -16.5q-115 0 -206 18.5t-149.5 47 t-101.5 73.5t-65.5 86t-34.5 98.5t-15.5 97.5t-3.5 93v801h-155zM322 1921q0 59 43 102t102 43t102 -43t43 -102t-43 -102t-102 -43t-102 43t-43 102zM788 1921q0 59 43 102t102.5 43t102.5 -43t43 -102t-43 -102t-102.5 -43t-102.5 43t-43 102z" />
<glyph unicode="&#xdd;" horiz-adv-x="1482" d="M647 1659l147 325h246l-192 -325h-201zM63 1313v223h494v-223h-102l293 -387l290 387h-102v223h494v-223h-160l-430 -572v-518h141v-223h-492v223h166v518l-432 572h-160z" />
<glyph unicode="&#xde;" horiz-adv-x="1382" d="M76 -260h178v1573h180v-334q143 125 338 125q219 0 375 -156v-2q152 -170 151 -401q0 -256 -155.5 -405.5t-368.5 -149.5q-193 0 -340 123v-373h176v-219h-534v219zM434 535q6 -162 96.5 -255.5t225.5 -93.5q133 0 223 103l-4 -8q96 113 96 254q0 154 -91 257t-224 103 q-139 0 -225.5 -95t-96.5 -241v-24z" />
<glyph unicode="&#xdf;" d="M98 -2v227h164v963q0 84 31 159.5t98.5 142t189 106.5t287.5 40q221 0 363.5 -117.5t142.5 -320.5q0 -190 -117 -321l-6 -11q145 -51 228.5 -157.5t83.5 -257.5q0 -127 -44 -218.5t-101.5 -135.5t-146.5 -69.5t-144.5 -29.5t-131.5 -4h-209v192h209q72 0 111 2t97.5 16.5 t88 41t53 80t23.5 131.5q0 61 -26.5 108t-74.5 74t-93.5 44t-106.5 23.5t-88 7.5t-61 1h-46v192h7q133 16 192 58q98 68 103 225q-4 121 -98.5 183.5t-207.5 62.5q-131 0 -220 -27t-128 -71t-52 -78.5t-13 -71.5v-963h151v-227h-508z" />
<glyph unicode="&#xe0;" horiz-adv-x="1122" d="M27 326q0 55 20.5 104t70.5 97t150.5 77t241.5 29q135 0 186.5 22.5t51.5 92.5q0 20 -5.5 39.5t-26 53t-76.5 54t-140 20.5q-123 0 -182.5 -42t-67.5 -103h-184v2q-4 12 18 72q12 33 34.5 64.5t68.5 73.5t132.5 67.5t196.5 25.5q88 0 160 -18.5t117 -45t77.5 -67.5 t48 -75.5t24.5 -82t10 -73t1 -58.5v-442h140v-213h-322v98q-102 -113 -289 -112q-94 0 -167.5 13t-143.5 47t-107.5 105t-37.5 175zM205 313q0 -78 78.5 -112.5t185.5 -34.5q125 0 214 50t89 175v117q-49 -31 -100 -38t-160 -7q-174 0 -240.5 -35t-66.5 -115zM365 1640h245 l148 -325h-201z" />
<glyph unicode="&#xe1;" horiz-adv-x="1122" d="M27 326q0 55 20.5 104t70.5 97t150.5 77t241.5 29q135 0 186.5 22.5t51.5 92.5q0 20 -5.5 39.5t-26 53t-76.5 54t-140 20.5q-123 0 -182.5 -42t-67.5 -103h-184v2q-4 12 18 72q12 33 34.5 64.5t68.5 73.5t132.5 67.5t196.5 25.5q88 0 160 -18.5t117 -45t77.5 -67.5 t48 -75.5t24.5 -82t10 -73t1 -58.5v-442h140v-213h-322v98q-102 -113 -289 -112q-94 0 -167.5 13t-143.5 47t-107.5 105t-37.5 175zM205 313q0 -78 78.5 -112.5t185.5 -34.5q125 0 214 50t89 175v117q-49 -31 -100 -38t-160 -7q-174 0 -240.5 -35t-66.5 -115zM365 1315 l147 325h246l-193 -325h-200z" />
<glyph unicode="&#xe2;" horiz-adv-x="1122" d="M27 326q0 55 20.5 104t70.5 97t150.5 77t241.5 29q135 0 186.5 22.5t51.5 92.5q0 20 -5.5 39.5t-26 53t-76.5 54t-140 20.5q-123 0 -182.5 -42t-67.5 -103h-184v2q-4 12 18 72q12 33 34.5 64.5t68.5 73.5t132.5 67.5t196.5 25.5q88 0 160 -18.5t117 -45t77.5 -67.5 t48 -75.5t24.5 -82t10 -73t1 -58.5v-442h140v-213h-322v98q-102 -113 -289 -112q-94 0 -167.5 13t-143.5 47t-107.5 105t-37.5 175zM176 1227l256 411h262l252 -411h-172l-213 268l-215 -268h-170zM205 313q0 -78 78.5 -112.5t185.5 -34.5q125 0 214 50t89 175v117 q-49 -31 -100 -38t-160 -7q-174 0 -240.5 -35t-66.5 -115z" />
<glyph unicode="&#xe3;" horiz-adv-x="1122" d="M27 326q0 55 20.5 104t70.5 97t150.5 77t241.5 29q135 0 186.5 22.5t51.5 92.5q0 20 -5.5 39.5t-26 53t-76.5 54t-140 20.5q-123 0 -182.5 -42t-67.5 -103h-184v2q-4 12 18 72q12 33 34.5 64.5t68.5 73.5t132.5 67.5t196.5 25.5q88 0 160 -18.5t117 -45t77.5 -67.5 t48 -75.5t24.5 -82t10 -73t1 -58.5v-442h140v-213h-322v98q-102 -113 -289 -112q-94 0 -167.5 13t-143.5 47t-107.5 105t-37.5 175zM111 1386v179q90 100 192 100q74 0 251 -100.5t265 -100.5q100 0 193 101v-179h-8q-90 -100 -191 -100q-59 0 -237.5 100.5t-274.5 100.5 q-100 -1 -190 -101zM205 313q0 -78 78.5 -112.5t185.5 -34.5q125 0 214 50t89 175v117q-49 -31 -100 -38t-160 -7q-174 0 -240.5 -35t-66.5 -115z" />
<glyph unicode="&#xe4;" horiz-adv-x="1122" d="M27 326q0 55 20.5 104t70.5 97t150.5 77t241.5 29q135 0 186.5 22.5t51.5 92.5q0 20 -5.5 39.5t-26 53t-76.5 54t-140 20.5q-123 0 -182.5 -42t-67.5 -103h-184v2q-4 12 18 72q12 33 34.5 64.5t68.5 73.5t132.5 67.5t196.5 25.5q88 0 160 -18.5t117 -45t77.5 -67.5 t48 -75.5t24.5 -82t10 -73t1 -58.5v-442h140v-213h-322v98q-102 -113 -289 -112q-94 0 -167.5 13t-143.5 47t-107.5 105t-37.5 175zM182 1450q0 59 43 102t102.5 43t102.5 -43t43 -102t-43 -102t-102.5 -43t-102.5 43t-43 102zM205 313q0 -78 78.5 -112.5t185.5 -34.5 q125 0 214 50t89 175v117q-49 -31 -100 -38t-160 -7q-174 0 -240.5 -35t-66.5 -115zM649 1450q0 59 43 102t102.5 43t102.5 -43t43 -102t-43 -102t-102.5 -43t-102.5 43t-43 102z" />
<glyph unicode="&#xe5;" horiz-adv-x="1122" d="M27 326q0 55 20.5 104t70.5 97t150.5 77t241.5 29q135 0 186.5 22.5t51.5 92.5q0 20 -5.5 39.5t-26 53t-76.5 54t-140 20.5q-123 0 -182.5 -42t-67.5 -103h-184v2q-4 12 18 72q12 33 34.5 64.5t68.5 73.5t132.5 67.5t196.5 25.5q88 0 160 -18.5t117 -45t77.5 -67.5 t48 -75.5t24.5 -82t10 -73t1 -58.5v-442h140v-213h-322v98q-102 -113 -289 -112q-94 0 -167.5 13t-143.5 47t-107.5 105t-37.5 175zM205 313q0 -78 78.5 -112.5t185.5 -34.5q125 0 214 50t89 175v117q-49 -31 -100 -38t-160 -7q-174 0 -240.5 -35t-66.5 -115zM391 1460 q2 72 51.5 123t118.5 51q72 0 122 -52t50 -124t-50 -123t-122 -51q-70 0 -120 53t-50 123zM461 1454q0 -45 29.5 -75.5t74.5 -30.5q41 0 72 30.5t31 75.5t-31 76t-72 31q-45 0 -74.5 -31t-29.5 -76z" />
<glyph unicode="&#xe6;" horiz-adv-x="1828" />
<glyph unicode="&#xe7;" horiz-adv-x="1087" d="M31 549q0 236 152.5 391.5t377.5 155.5q131 0 234 -52v54h178v-301h-178q-106 102 -234 102q-141 0 -229 -102.5t-88 -249.5q0 -152 93 -260.5t224 -108.5q113 0 181.5 29t146.5 98l137 -131q-102 -90 -189 -131t-233 -47v-2l-8 -74q82 -6 118 -62.5t36 -97.5 q0 -119 -111 -169t-262 -50h-27v103q203 0 203 92q0 55 -109 61l35 203q-203 25 -325.5 181.5t-122.5 367.5z" />
<glyph unicode="&#xe8;" horiz-adv-x="1044" d="M58 560.5q-3 101.5 27 195.5t81 167.5t145.5 117.5t218.5 44q262 0 366.5 -141t84.5 -455h-739v-22q0 -125 75.5 -210t208.5 -85q102 0 169 20.5t175 92.5l148 -131q-129 -106 -238.5 -140t-255.5 -34q-119 0 -208 39.5t-137 104t-71.5 121t-33.5 115.5q-13 99 -16 200.5 zM238 657h561q0 139 -70 194.5t-205 55.5q-88 0 -146.5 -22.5t-86 -67.5t-36.5 -76t-17 -84zM326 1640h245l148 -325h-201z" />
<glyph unicode="&#xe9;" horiz-adv-x="1044" d="M58 560.5q-3 101.5 27 195.5t81 167.5t145.5 117.5t218.5 44q262 0 366.5 -141t84.5 -455h-739v-22q0 -125 75.5 -210t208.5 -85q102 0 169 20.5t175 92.5l148 -131q-129 -106 -238.5 -140t-255.5 -34q-119 0 -208 39.5t-137 104t-71.5 121t-33.5 115.5q-13 99 -16 200.5 zM238 657h561q0 139 -70 194.5t-205 55.5q-88 0 -146.5 -22.5t-86 -67.5t-36.5 -76t-17 -84zM326 1315l147 325h246l-193 -325h-200z" />
<glyph unicode="&#xea;" horiz-adv-x="1044" d="M58 560.5q-3 101.5 27 195.5t81 167.5t145.5 117.5t218.5 44q262 0 366.5 -141t84.5 -455h-739v-22q0 -125 75.5 -210t208.5 -85q102 0 169 20.5t175 92.5l148 -131q-129 -106 -238.5 -140t-255.5 -34q-119 0 -208 39.5t-137 104t-71.5 121t-33.5 115.5q-13 99 -16 200.5 zM137 1227l256 411h262l252 -411h-172l-213 268l-215 -268h-170zM238 657h561q0 139 -70 194.5t-205 55.5q-88 0 -146.5 -22.5t-86 -67.5t-36.5 -76t-17 -84z" />
<glyph unicode="&#xeb;" horiz-adv-x="1044" d="M58 560.5q-3 101.5 27 195.5t81 167.5t145.5 117.5t218.5 44q262 0 366.5 -141t84.5 -455h-739v-22q0 -125 75.5 -210t208.5 -85q102 0 169 20.5t175 92.5l148 -131q-129 -106 -238.5 -140t-255.5 -34q-119 0 -208 39.5t-137 104t-71.5 121t-33.5 115.5q-13 99 -16 200.5 zM143 1450q0 59 43 102t102.5 43t102.5 -43t43 -102t-43 -102t-102.5 -43t-102.5 43t-43 102zM238 657h561q0 139 -70 194.5t-205 55.5q-88 0 -146.5 -22.5t-86 -67.5t-36.5 -76t-17 -84zM610 1450q0 59 43 102t102.5 43t102.5 -43t43 -102t-43 -102t-102.5 -43t-102.5 43 t-43 102z" />
<glyph unicode="&#xec;" horiz-adv-x="618" d="M39 0v221h178v641h-147v203h327v-844h185v-221h-543zM113 1640h245l148 -325h-201z" />
<glyph unicode="&#xed;" horiz-adv-x="382" d="M-4 1315l147 325h246l-192 -325h-201zM39 0v221h178v641h-147v203h327v-844h185v-221h-543z" />
<glyph unicode="&#xee;" horiz-adv-x="618" d="M-76 1227l256 411h262l252 -411h-172l-213 268l-215 -268h-170zM39 0v221h178v641h-147v203h327v-844h185v-221h-543z" />
<glyph unicode="&#xef;" horiz-adv-x="618" d="M-70 1450q0 59 43 102t102.5 43t102.5 -43t43 -102t-43 -102t-102.5 -43t-102.5 43t-43 102zM39 0v221h178v641h-147v203h327v-844h185v-221h-543zM397 1450q0 59 43 102t102.5 43t102.5 -43t43 -102t-43 -102t-102.5 -43t-102.5 43t-43 102z" />
<glyph unicode="&#xf0;" horiz-adv-x="2721" d="M193 -10v239h194v1176h-194v237h391v-604q158 133 364 133q233 0 416 -182l12 -12q86 193 428 192q184 0 303 -96v64h197v-308h-195l-2 5q-53 78 -121.5 111.5t-175.5 33.5q-78 0 -132 -12.5t-79.5 -28.5t-40 -40t-15.5 -36t-1 -31v-4q0 -147 299 -147v-4 q145 0 251 -27.5t158 -64.5t81.5 -94.5t35 -93.5t5.5 -85q0 -82 -36 -147.5t-88.5 -102t-120 -61.5t-121.5 -33t-103 -8q-295 0 -498 234l-53 -62q-168 -168 -406 -168q-211 0 -362 133l-2 -106h-389zM586 547q2 -164 101 -268.5t241 -104.5q150 0 248 113v-2q96 115 96 276 q0 164 -98.5 274.5t-245.5 110.5q-143 0 -242.5 -107.5t-99.5 -271.5v-20zM1542 428q0 -104 79 -185t267 -81l2 -4q291 0 291 157q0 96 -72.5 133t-263.5 37q-178 0 -297 50q-6 -44 -6 -107zM2400 -16v200h201v-200h-201z" />
<glyph unicode="&#xf1;" horiz-adv-x="1366" d="M37 2v223h182v645h-182v199h362v-113q131 145 336 146q195 0 322 -144.5t127 -347.5v-387h145v-223h-328v612q0 131 -70.5 208t-205.5 77q-141 0 -233.5 -99.5t-92.5 -244.5v-328h183v-223h-545zM233 1386v179q90 100 193 100q74 0 251 -100.5t265 -100.5q100 0 193 101 v-179h-9q-90 -100 -190 -100q-59 0 -237.5 100.5t-274.5 100.5q-101 -1 -191 -101z" />
<glyph unicode="&#xf2;" horiz-adv-x="1101" d="M14 535v2q0 240 155 392t378 152t376.5 -151.5t153.5 -395t-153.5 -396t-376.5 -152.5q-227 0 -380 152.5t-153 396.5zM225 537q0 -150 89 -251.5t231 -101.5q133 0 227 99.5t94 251.5q0 145 -92 247.5t-229 102.5t-228.5 -100.5t-91.5 -247.5zM354 1640h246l148 -325 h-201z" />
<glyph unicode="&#xf3;" horiz-adv-x="1101" d="M14 535v2q0 240 155 392t378 152t376.5 -151.5t153.5 -395t-153.5 -396t-376.5 -152.5q-227 0 -380 152.5t-153 396.5zM225 537q0 -150 89 -251.5t231 -101.5q133 0 227 99.5t94 251.5q0 145 -92 247.5t-229 102.5t-228.5 -100.5t-91.5 -247.5zM354 1315l148 325h246 l-193 -325h-201z" />
<glyph unicode="&#xf4;" horiz-adv-x="1101" d="M14 535v2q0 240 155 392t378 152t376.5 -151.5t153.5 -395t-153.5 -396t-376.5 -152.5q-227 0 -380 152.5t-153 396.5zM166 1227l256 411h262l252 -411h-172l-213 268l-215 -268h-170zM225 537q0 -150 89 -251.5t231 -101.5q133 0 227 99.5t94 251.5q0 145 -92 247.5 t-229 102.5t-228.5 -100.5t-91.5 -247.5z" />
<glyph unicode="&#xf5;" horiz-adv-x="1101" d="M14 535v2q0 240 155 392t378 152t376.5 -151.5t153.5 -395t-153.5 -396t-376.5 -152.5q-227 0 -380 152.5t-153 396.5zM100 1386v179q90 100 193 100q74 0 251 -100.5t265 -100.5q100 0 192 101v-179h-8q-90 -100 -190 -100q-59 0 -237.5 100.5t-274.5 100.5 q-101 -1 -191 -101zM225 537q0 -150 89 -251.5t231 -101.5q133 0 227 99.5t94 251.5q0 145 -92 247.5t-229 102.5t-228.5 -100.5t-91.5 -247.5z" />
<glyph unicode="&#xf6;" horiz-adv-x="1101" d="M14 535v2q0 240 155 392t378 152t376.5 -151.5t153.5 -395t-153.5 -396t-376.5 -152.5q-227 0 -380 152.5t-153 396.5zM172 1450q0 59 43 102t102.5 43t102.5 -43t43 -102t-43 -102t-102.5 -43t-102.5 43t-43 102zM225 537q0 -150 89 -251.5t231 -101.5q133 0 227 99.5 t94 251.5q0 145 -92 247.5t-229 102.5t-228.5 -100.5t-91.5 -247.5zM639 1450q0 59 43 102t102.5 43t102.5 -43t43 -102t-43 -102t-102.5 -43t-102.5 43t-43 102z" />
<glyph unicode="&#xf7;" horiz-adv-x="772" d="M6 420h766v78h-766v-78zM279 0v223h223v-223h-223zM279 670v223h223v-223h-223z" />
<glyph unicode="&#xf8;" horiz-adv-x="1138" d="M102 545q0 193 130 352.5t329 159.5q92 0 184 -41l23 41h117l-54 -99q20 -16 31 -26l31 -31q123 -158 129 -373q0 -221 -131 -375.5t-324 -154.5q-115 0 -223 65l-33 -59h-116l67 125l-14 12l-15 19q-131 149 -131 385zM256 522q0 -141 80 -254l328 606q-49 25 -109 25 q-121 0 -210 -109.5t-89 -267.5zM412 197q70 -45 135 -45q139 0 223 104v-2q92 113 92 272q0 174 -114 289z" />
<glyph unicode="&#xf9;" horiz-adv-x="1329" d="M16 868v195h330v-602q0 -131 68.5 -205t212.5 -74q141 0 231 95.5t90 244.5v348h-151v193h331v-840h181v-223h-363v88q-141 -121 -330 -121q-119 0 -206.5 41t-133 96.5t-73 130t-33.5 126t-6 100.5l2 407h-150zM469 1640h246l147 -325h-200z" />
<glyph unicode="&#xfa;" horiz-adv-x="1329" d="M16 868v195h330v-602q0 -131 68.5 -205t212.5 -74q141 0 231 95.5t90 244.5v348h-151v193h331v-840h181v-223h-363v88q-141 -121 -330 -121q-119 0 -206.5 41t-133 96.5t-73 130t-33.5 126t-6 100.5l2 407h-150zM469 1315l147 325h246l-192 -325h-201z" />
<glyph unicode="&#xfb;" horiz-adv-x="1329" d="M16 868v195h330v-602q0 -131 68.5 -205t212.5 -74q141 0 231 95.5t90 244.5v348h-151v193h331v-840h181v-223h-363v88q-141 -121 -330 -121q-119 0 -206.5 41t-133 96.5t-73 130t-33.5 126t-6 100.5l2 407h-150zM281 1227l256 411h262l252 -411h-172l-213 268l-215 -268 h-170z" />
<glyph unicode="&#xfc;" horiz-adv-x="1329" d="M16 868v195h330v-602q0 -131 68.5 -205t212.5 -74q141 0 231 95.5t90 244.5v348h-151v193h331v-840h181v-223h-363v88q-141 -121 -330 -121q-119 0 -206.5 41t-133 96.5t-73 130t-33.5 126t-6 100.5l2 407h-150zM287 1450q0 59 43 102t102.5 43t102.5 -43t43 -102 t-43 -102t-102.5 -43t-102.5 43t-43 102zM754 1450q0 59 43 102t102 43t102 -43t43 -102t-43 -102t-102 -43t-102 43t-43 102z" />
<glyph unicode="&#xfd;" horiz-adv-x="1402" d="M82 862v203h536v-203h-176l260 -620l259 620h-181v203h537v-203h-158l-473 -1130h152v-219h-537v219h191l110 272l-356 858h-164zM592 1192l131 299h258l-266 -299h-123z" />
<glyph unicode="&#xfe;" horiz-adv-x="1392" d="M76 -260h178v1573h180v-334q143 125 338 125q219 0 375 -156v-2q152 -170 151 -401q0 -256 -155.5 -405.5t-368.5 -149.5q-193 0 -340 123v-373h176v-219h-534v219zM434 535q6 -162 96.5 -255.5t225.5 -93.5q133 0 223 103l-4 -8q96 113 96 254q0 154 -91 257t-224 103 q-139 0 -225.5 -95t-96.5 -241v-24z" />
<glyph unicode="&#xff;" horiz-adv-x="1402" d="M82 862v203h536v-203h-176l260 -620l259 620h-181v203h537v-203h-158l-473 -1130h152v-219h-537v219h191l110 272l-356 858h-164z" />
<glyph unicode="&#x152;" horiz-adv-x="2371" d="M90 768q0 317 214 537.5t513 232.5h1444v-432h-184l-2 205h-820v-426h625v-221h-625v-447h818v236h186v-457h-1370q-342 0 -570.5 218t-228.5 554zM305 766q0 -225 155.5 -387t370.5 -162q127 0 236 59l-2 984q-90 51 -254 55q-213 0 -358.5 -163t-145.5 -390z" />
<glyph unicode="&#x153;" horiz-adv-x="2131" d="M90 535q0 225 151.5 378.5t368.5 153.5q221 0 365 -149l53 -56q47 88 153.5 150.5t256.5 62.5q225 0 354 -94q2 -2 30.5 -28.5t43 -46t37 -55.5t34 -83t11.5 -102v-172h-811v-21q0 -27 6 -74q4 -37 15 -65.5t41 -62t92.5 -53t152.5 -19.5q119 0 190.5 17t204.5 93 l143 -131l-8 -6q-162 -109 -282.5 -141.5t-276.5 -32.5q-137 0 -235.5 61.5t-151.5 145.5q-166 -207 -418 -207q-221 0 -370.5 152t-149.5 385zM307 524q0 -147 91 -244.5t225 -97.5q131 0 221 99h2q90 96 90 243q0 145 -91 242.5t-222 97.5q-141 0 -228.5 -100.5 t-87.5 -239.5zM1137 657h620q-10 111 -86 164h-2q-84 51 -233 51l10 -6q-286 0 -309 -209z" />
<glyph unicode="&#x178;" horiz-adv-x="1531" d="M82 1313v223h493v-223h-102l293 -387l291 387h-103v223h494v-223h-160l-430 -572l-67 -518h141v-223h-492v223h164l70 518l-432 572h-160zM440 1862q0 49 37 83.5t84 34.5q49 0 84 -32.5t35 -81.5q0 -47 -34 -81t-81 -34l-6 -4q-45 0 -82 35t-37 80zM836 1858 q0 49 36.5 83.5t83.5 34.5q49 0 84 -32.5t35 -81.5q0 -47 -33.5 -81t-80.5 -34l-7 -4q-45 0 -81.5 35t-36.5 80z" />
<glyph unicode="&#x2c6;" d="M477 1227l256 411h262l252 -411h-172l-213 268l-215 -268h-170z" />
<glyph unicode="&#x2dc;" d="M453 1386v179q90 100 192 100q74 0 251 -100.5t265 -100.5q100 0 193 101v-179h-8q-90 -100 -191 -100q-59 0 -237.5 100.5t-274.5 100.5q-100 -1 -190 -101z" />
<glyph unicode="&#x2000;" horiz-adv-x="1067" />
<glyph unicode="&#x2001;" horiz-adv-x="2136" />
<glyph unicode="&#x2002;" horiz-adv-x="1067" />
<glyph unicode="&#x2003;" horiz-adv-x="2136" />
<glyph unicode="&#x2004;" horiz-adv-x="710" />
<glyph unicode="&#x2005;" horiz-adv-x="532" />
<glyph unicode="&#x2006;" horiz-adv-x="354" />
<glyph unicode="&#x2007;" horiz-adv-x="354" />
<glyph unicode="&#x2008;" horiz-adv-x="266" />
<glyph unicode="&#x2009;" horiz-adv-x="425" />
<glyph unicode="&#x200a;" horiz-adv-x="116" />
<glyph unicode="&#x2010;" horiz-adv-x="854" d="M117 686v207h622v-207h-622z" />
<glyph unicode="&#x2011;" horiz-adv-x="854" d="M117 686v207h622v-207h-622z" />
<glyph unicode="&#x2012;" horiz-adv-x="854" d="M117 686v207h622v-207h-622z" />
<glyph unicode="&#x2013;" d="M362 522v90h986v-90h-986z" />
<glyph unicode="&#x2014;" horiz-adv-x="1744" d="M104 522v135h1504v-135h-1504z" />
<glyph unicode="&#x2018;" horiz-adv-x="423" d="M39 1427q-2 100 59.5 144.5t143.5 44.5h16v-90q-53 0 -76.5 -35t-23.5 -64v-75h106v-224h-223z" />
<glyph unicode="&#x2019;" horiz-adv-x="507" d="M55 1415v223h224v-301q0 -100 -60.5 -144t-142.5 -44h-15v90q53 0 77 35t24 65v76h-107z" />
<glyph unicode="&#x201a;" horiz-adv-x="311" d="M84 0v223h223v-301q0 -100 -60.5 -144t-142.5 -44h-14v90q53 0 76.5 35t23.5 65v76h-106z" />
<glyph unicode="&#x201c;" horiz-adv-x="786" d="M72 1427q0 100 60.5 144.5t141.5 44.5h17v-90q-53 0 -77 -35t-24 -64v-75h107v-224h-223zM418 1427q-2 100 59.5 144.5t143.5 44.5h16v-90q-53 0 -76.5 -35t-23.5 -64v-75h106v-224h-223z" />
<glyph unicode="&#x201d;" horiz-adv-x="763" d="M66 1415v223h223v-301q0 -100 -60.5 -144t-142.5 -44h-14v90q53 0 76.5 35t23.5 65v76h-106zM399 1413v223h224v-301q0 -100 -60.5 -144t-142.5 -44h-14v90q53 0 76.5 35t23.5 65v76h-107z" />
<glyph unicode="&#x201e;" horiz-adv-x="661" d="M84 -2v223h223v-301q0 -100 -60.5 -144t-142.5 -44h-14v90q53 0 76.5 34.5t23.5 65.5v76h-106zM434 0v223h223v-301q0 -100 -60 -144t-142 -44h-15v90q53 0 77 35t24 65v76h-107z" />
<glyph unicode="&#x2022;" d="M606 700.5q0 118.5 84 202.5t203 84t203 -84t84 -202.5t-84 -202.5t-203 -84t-203 84t-84 202.5z" />
<glyph unicode="&#x2026;" horiz-adv-x="1216" d="M84 0v223h223v-223h-223zM489 0v223h224v-223h-224zM895 0v223h223v-223h-223z" />
<glyph unicode="&#x202f;" horiz-adv-x="425" />
<glyph unicode="&#x2039;" horiz-adv-x="980" d="M131 547v92l696 293v-109l-561 -231l561 -227v-109z" />
<glyph unicode="&#x203a;" horiz-adv-x="1005" d="M150 252v108l565 230l-565 233v109l700 -295v-92z" />
<glyph unicode="&#x205f;" horiz-adv-x="532" />
<glyph unicode="&#x20ac;" horiz-adv-x="1681" d="M53 588v178h170q-2 10 -2 35v35q0 57 4 86h-127v180h160q70 254 261.5 415.5t436.5 161.5q176 0 328 -87t256 -236h-348q-106 74 -231 74q-141 0 -257 -90.5t-176 -235.5h469v-180h-516q-2 -14 -2 -86v-33q0 -23 2 -33h514v-178h-473q55 -156 176 -251t267 -95 q111 0 209 59.5t165 163.5h283l-6 -14q-92 -211 -268.5 -340t-391.5 -129q-252 0 -444.5 170t-259.5 430h-199z" />
<glyph unicode="&#x2122;" horiz-adv-x="2066" d="M229 1294v127h742v-127h-316v-755h-106v755h-320zM1102 539v880h106l244 -487l244 485v4h104v-882h-104v641l-185 -367h-118l-183 367v-641h-108z" />
<glyph unicode="&#xe000;" horiz-adv-x="1060" d="M0 1060h1060v-1060h-1060v1060z" />
<glyph unicode="&#xfb01;" horiz-adv-x="1499" d="M82 -6v223h180v645h-149v199h149v113q0 27 9.5 67.5t36 97t67.5 103.5t114.5 79.5t165.5 32.5h9q119 -14 210 -61l-145 -139q-45 8 -67 8h-9q-205 -16 -204 -229v-66h690v-846h182v-221h-543v221h178v647h-323v-6h-184v-645h180v-223h-547zM940 1389q0 47 34 80.5 t81 33.5t79.5 -32.5t32.5 -81.5q0 -45 -32.5 -79t-79.5 -36q-45 0 -80 35t-35 80z" />
<glyph unicode="&#xfb02;" horiz-adv-x="1406" d="M59 0v223h181v639h-150v199h150q0 68 10 164q4 43 25.5 92t62.5 102.5t116.5 89t170.5 35.5h24q104 0 182 -38t116 -88t60.5 -115.5t26.5 -101.5t4 -64v-910h250v-227h-618v223h180v910q0 104 -54.5 165.5t-164.5 61.5q-55 0 -96 -19.5t-61.5 -46t-33 -61.5t-15.5 -57.5 t-3 -42.5v-72h182v-199h-182v-639h180v-223h-543z" />
<glyph unicode="&#xfb03;" horiz-adv-x="2234" d="M1649 0v221h178v641h-147v203h327v-844h185v-221h-543zM1778 1415q0 55 40 95t95 40t95 -40t40 -95t-40 -95t-95 -40t-95 40t-40 95zM885 -2v223h180v643h-149v199h149v72q0 23 3 54.5t24.5 101t59.5 122.5t118 96t188 43q127 -4 215 -63l-67 -158q-57 29 -152 29 q-205 -16 -205 -225v-72h185v-199h-185v-643h181v-223h-545zM80 -2v223h180v643h-149v199h149v72q0 23 3 54.5t24.5 101t59.5 122.5t118 96t188 43q127 -4 215 -63l-67 -158q-57 29 -152 29q-205 -16 -205 -225v-72h185v-199h-185v-643h181v-223h-545z" />
<glyph unicode="&#xfb04;" horiz-adv-x="2215" d="M1651 0v221h182v1092h-180v223h360v-1315h183v-221h-545zM885 -2v223h180v643h-149v199h149v72q0 23 3 54.5t24.5 101t59.5 122.5t118 96t188 43q127 -4 215 -63l-67 -158q-57 29 -152 29q-205 -16 -205 -225v-72h185v-199h-185v-643h181v-223h-545zM80 -2v223h180v643 h-149v199h149v72q0 23 3 54.5t24.5 101t59.5 122.5t118 96t188 43q127 -4 215 -63l-67 -158q-57 29 -152 29q-205 -16 -205 -225v-72h185v-199h-185v-643h181v-223h-545z" />
</font>
</defs>
</svg>
