<?xml version="1.0" standalone="no"?>
<!DOCTYPE svg PUBLIC "-//W3C//DTD SVG 1.1//EN" "http://www.w3.org/Graphics/SVG/1.1/DTD/svg11.dtd" >
<!--
This is version 1.0 of "Ruji's Handwriting Font," based on the handwriting of Ruji Chapnik. It has been used in the Don Depresso webcomic (http://dondepresso.rujic.net) and printed comic books.

For more information, visit http://rujic.net.
-->
<svg>
<metadata>
Created by FontForge 20120731 at Tue Aug 20 02:32:36 2013

Ruji Chapnik (C) 2012
</metadata>
<defs>
<font id="RujisHandwritingFont" horiz-adv-x="756" >
  <font-face 
    font-family="Ruji's Handwriting Font"
    font-weight="400"
    font-stretch="normal"
    units-per-em="2048"
    panose-1="0 0 0 0 0 0 0 0 0 0"
    ascent="1638"
    descent="-410"
    x-height="945"
    cap-height="1637"
    bbox="-17 -629 1879 2121"
    underline-thickness="119"
    underline-position="-73"
    unicode-range="U+000D-2026"
  />
<missing-glyph horiz-adv-x="500" 
d="M63 0v800h375v-800h-375zM125 63h250v675h-250v-675z" />
    <glyph glyph-name=".notdef" horiz-adv-x="500" 
d="M63 0v800h375v-800h-375zM125 63h250v675h-250v-675z" />
    <glyph glyph-name="NULL" horiz-adv-x="0" 
 />
    <glyph glyph-name="NULL" horiz-adv-x="0" 
 />
    <glyph glyph-name="nonmarkingreturn" unicode="&#xd;" horiz-adv-x="0" 
 />
    <glyph glyph-name="space" unicode=" " horiz-adv-x="840" 
 />
    <glyph glyph-name="exclam" unicode="!" horiz-adv-x="571" 
d="M273 399l63 -21h21l42 -189l-21 -21l-42 -42l-63 -21h-21l-21 273zM231 1134l-21 -42l42 714v21l84 21l21 -42v-714l-21 -126l-21 -252l-84 -21h-21l-21 294z" />
    <glyph glyph-name="numbersign" unicode="#" horiz-adv-x="1365" 
d="M472 1302l-21 -63l-21 -42l252 -21l21 42l21 21l21 42l21 21l21 42h-63l-105 -21l-63 -21h-63h-21zM52 1176h84l42 21l84 -21l42 21v21l42 84l-105 21l-21 42v21l21 21l63 21l42 21l63 21l21 42l42 84v21l42 84h84v-126l-21 -63l-21 -21l21 -21l84 21l252 21l21 42l21 42
l21 21l42 63l42 21l63 -21l21 -105l147 -21l21 -42v-84l-21 -21l-294 -42l-21 -21l-42 -42l-21 -42l-21 -21l-21 -42l336 -21h21v-21l21 -84v-21l-504 -42l-21 -21l-21 -63l-21 -42l-21 -42v-21l-21 -63l-105 -21l-21 84v42l21 42l42 84l-231 21l-21 -42l-21 -42l-21 -42
l-21 -42v-21l-21 -63l-63 -21l-21 21v126l21 42l21 42l42 63h-42v21h-105h-21l-21 105v21z" />
    <glyph glyph-name="dollar" unicode="$" 
d="M430 924v-378v-21l42 42h21v252l-21 42l-21 63h-21zM325 1449l-42 -21l-21 -42v-84l21 -63l21 42zM73 693l21 21l63 -21l21 -42l21 -42l42 -21l21 441l21 21l-42 21l-42 21l-42 21l-21 84v-42l-21 252v21l42 84l21 21l42 63l21 21h21l21 21l21 21l21 21l42 105l21 63
l63 21l21 -42l21 -63l21 -42h42l42 -42l42 -21l42 -21l21 -42v-126l-21 -42l-63 -21l-21 21l-21 42l-21 84l-84 21v-84l-21 -378l21 -42l42 -21l21 -42l42 -21l21 -42l21 -63v-378l-21 -42l-21 -21l-42 -21l-63 -21l-42 -42v-189l-21 -63l-105 -42l-21 21v-21l-21 252
l-21 63h-21v21l-84 21v42l-42 21l-21 42v-21l-21 168z" />
    <glyph glyph-name="percent" unicode="%" horiz-adv-x="966" 
d="M682 819v21l210 21l21 -21v-84l-21 -105l-21 -63l-168 -21h-21l-21 231zM94 504l21 21l21 42l42 42l21 21l42 63l21 21l42 63l21 21l42 63l21 21l21 42l21 42l21 42l21 42l42 42v21h-21h21h-21l-21 -21l-210 -42l-21 21v-21l-21 168l21 63v21l126 21l42 -21l42 -42h21
l42 -105v-42l42 63h21l21 42l21 63l42 42l21 21l21 42l42 63v21l21 21l84 21l21 -21l21 -42v-63l-21 -63l-42 -42l-21 -42l-42 -42l-21 -63v-21l-42 -42l-21 -21l-42 -42v-21l-42 -42l-21 -42l-21 -63l-21 -21l-42 -42v-21l-42 -42l-21 -42l-21 -21l-42 -42v-21l-42 -42
l-21 -21l-42 -42v-21l-42 -42l-21 -21l-42 -42l-63 -21h-21l-21 126z" />
    <glyph glyph-name="ampersand" unicode="&#x26;" horiz-adv-x="1113" 
d="M619 1071l21 21l42 42l21 21l21 42l21 42l21 21v273l-21 63h-105l-84 -21l-21 -42v21l-21 -273v-42l21 -105l21 -84h42zM430 462l42 21l42 42l21 21l42 42l42 21l-42 21l-21 63l-42 21l-21 42h-21l-42 -21l-84 -42l-21 -42l-42 -42l-21 -42l-42 -42l-21 -84h189zM73 588
l21 42l42 84l21 21l42 42l21 21l42 42l63 21l42 21l21 21v168l-21 84v-21l-21 378v21l21 42l42 84l21 21l42 42l42 21h273l42 -21l42 -21l21 -42l21 -63v-399v-21l-42 -42l-21 -42v-21l-42 -42l-21 -42l-21 -21l-63 -42l-21 -21h-21l-21 -63l21 -21l21 -42l21 -42l21 -42
l42 -21h21l42 63l21 21l21 42l42 42h42l42 -21l21 -42v-21l-21 -63l-42 -42l-21 -42l-42 -42l-21 -21l-42 -21l21 -42l42 -21l21 -42l42 -21l21 -42l21 -42h21v-21l42 -105l-42 -42l-21 -21l-63 21l-21 42l-42 21l-21 42l-21 42l-63 21v42l-42 21l-21 42l-63 21l-21 -21
l-42 -42l-21 -21l-63 -42l-21 -21l-42 -21l-252 -21v21l-84 21l-21 21v-21l-21 252z" />
    <glyph glyph-name="quotesingle" horiz-adv-x="2048" 
d="M933 1489l-48 209l-57 113q56 54 97 81q18 12 34 19t28 5t18 -15.5t3 -41.5q-7 -57 -19.5 -122t-24.5 -120q-15 -65 -31 -128z" />
    <glyph glyph-name="parenleft" unicode="(" horiz-adv-x="714" 
d="M73 1071l21 147l21 63l21 126l21 42l42 84l21 21l21 63l42 63l21 21l21 42l42 42l21 21l42 42l42 21h21l21 21l63 21l63 -21l21 -63l-42 -42l-21 -21l-63 -42l-21 -21l-42 -21l-21 -42l-42 -42l-21 -63l-21 -42l-21 -42l-21 -42l-21 -84l-21 -42l-21 -105v42l-21 -189
v105l-21 -798v-42l42 -63l21 -42l21 -42l21 -42l21 -42l21 -42l21 -41l42 -42l21 -42l21 -42l-21 -84h-105l-42 21l-21 42l-42 21l-21 42v42l-42 21l-21 41v84l-42 21l-21 63v21h-21l-21 861z" />
    <glyph glyph-name="parenright" unicode=")" 
d="M73 2100l42 21h63l63 -21l21 -42l42 -21l42 -21l21 -42l42 -42l21 -42l42 -42h-21l42 -105l21 -21l21 -42l21 -42l42 -63l21 -42l21 -42l21 -84l21 -42l21 -63v-462l-21 -231l-21 -126l-21 -105l-21 -63l-21 -105l-21 -42l-21 -63l-42 -42l-21 -42l-21 -41l-21 -63v-21
l-42 -42l-21 -42l-42 -42l-21 -21l-63 -42l-21 -21l-63 -21v21h-21l-21 84l21 21l42 42h21l21 42l42 42l21 21l21 42l21 41l21 63l21 42l21 42l21 42l21 63l21 63l21 63l21 126l21 126l21 252v336l-21 42l-21 63l-21 63l-21 42v42l-42 21v63l-42 21l-21 42l-21 42l-21 42
l-21 84l-42 21l-21 42l-21 42h-42l-21 42l-42 21l-42 21l-21 63z" />
    <glyph glyph-name="asterisk" unicode="*" horiz-adv-x="840" 
d="M73 1218l63 21l-21 21v105h84l63 -21l42 -42l42 147h63l21 -42l21 -126l42 42l21 21l42 42l105 21l21 -21l21 -21l-21 -63l-21 -21l21 -21l63 -21h21l21 -42v-21l-21 -21l-189 -42l21 -21l21 -42l21 -42l21 -42v-21l-21 -21h-63l-63 21l-21 42l-42 21l-21 -21l-84 -42
l-21 63l-21 -21l-42 -42l-21 -42l-42 -21l-21 21l-21 42l21 63l21 21l21 42l42 42l42 21h-231l-21 63z" />
    <glyph glyph-name="plus" unicode="+" horiz-adv-x="945" 
d="M73 1029l105 21h84l42 -21h63h21l21 63l21 189l21 21l42 21h21l21 -21l21 -42v-168v-42l294 -21l21 -21l21 -42v-63l-21 -21l-357 -21l-21 -126l-21 -168l-21 -21l-63 -21l-21 21l-21 42v147l21 63l21 63l-126 21l-42 21h-126v21h-21l-21 84z" />
    <glyph glyph-name="comma" unicode="," horiz-adv-x="546" 
d="M73 -146l42 21l42 42l42 21l21 42l21 41l21 21l21 42l21 42l21 42l21 231l42 84l21 21l84 -21v-357l-21 -21l-42 -42l-21 -42l-21 -62l-21 -21v-21v-21l-21 -21l-21 -21l-21 -21l-21 -21l-21 -21l-84 -42l-84 -21h-21l-21 105z" />
    <glyph glyph-name="period" unicode="." horiz-adv-x="670" 
d="M230 231l42 21h21h21l168 -42h21v-21l42 -189l-63 -41l-21 -21l-84 -21l-147 -21v21h-21l-21 293z" />
    <glyph glyph-name="slash" unicode="/" horiz-adv-x="1159" 
d="M235 504l21 42l21 42l21 42l42 84l42 21l21 42l21 42l21 42l21 42l21 42l42 63v21l42 84l21 21l21 42l21 63l21 42l21 42l42 84l21 21l21 42l21 42l21 42l21 42l42 63l21 21l42 63l105 21l42 -63l-21 21v-84l-42 -42l-21 -42l-21 -42l-42 -42l-21 -63l-21 -42v-21
l-42 -42v-21l-42 -42l-21 -63l-21 -42l-21 -63l-42 -42l-21 -63l-42 -42l-21 -42l-21 -42l-21 -42l-21 -42l-21 -63l-21 -42l-21 -21l-42 -42l-21 -42l-21 -63l-42 -42l-21 -105v-63l-84 -21h-21l-21 231z" />
    <glyph glyph-name="zero" unicode="0" horiz-adv-x="1260" 
d="M388 1596l-21 -63l-42 -42l-21 -105v-21l21 -42l42 -21l21 -42l42 -21l21 -42l42 -21l21 -42l21 -42l21 -42l42 -42l21 -42l21 -21l21 -42l21 -21l21 -42l42 -21l42 -42l42 -42l42 -21l42 -42l21 63l21 420v189l-21 42l-21 42v63l-42 21l-21 42l-21 42l-63 21l-21 42
l-42 21h-21l-63 -42l-21 -21l-84 -21h-105h-21zM262 1155l-21 -105v-504l21 -63l21 -63l42 -42l21 -42l42 -21l42 -21l84 -21l168 -21h63l42 21l21 21l21 42l21 42l21 63v21l-21 42l-42 21l-21 42l-63 21l-21 42l-42 21l-21 42l-42 21l-21 42l-42 21l-21 63l-42 21l-21 42
l-21 42l-21 63l-21 42l-42 21l-21 42l-42 42h-21zM73 1617h84l42 -21h21l21 21l21 42l21 42l21 21l42 42l42 21l126 -21h21l21 21l126 21l126 -21l42 -21l63 -42l42 -21l21 -42l21 -42l21 -63l21 -21l21 -42l21 -21l21 -42v-336l-21 -420v-63l21 -126l21 -42l42 -42l42 -42
v-147l-21 -21h-63l-42 21l-21 42l-21 42l-42 21v-21l-42 -42l-21 -63l-42 -21l-21 -21l-42 -21l-42 -21h-189l-147 21l-84 21l-42 21l-63 21l-21 63l-63 21l-21 84l-21 42l-21 63v-21l-21 420l21 378v21l42 105l-21 21l-42 21l-21 42l-21 147z" />
    <glyph glyph-name="one" unicode="1" horiz-adv-x="945" 
d="M73 126l63 21h-63l252 21l42 84l-21 -84l42 357v21v567l21 525l-63 -21l-21 -21l-147 -42l-21 63l21 21l42 42l42 21l42 21l42 21h21l21 21l63 21h21l42 -168l-21 147l42 -567v-357v-357l-21 -273v-21l336 -21l21 -42l21 -84l-42 -21h-735h-42l-21 84z" />
    <glyph glyph-name="two" unicode="2" horiz-adv-x="1302" 
d="M73 1407l21 63l42 63l21 21l42 42l21 21l42 63l42 21l42 21l231 21l63 -21h42l63 -42l42 -21l21 -42l21 -42l42 -84l21 -42l21 -42l21 -42v-441l-21 -42l-21 -42v-21l-42 -42v-21l-42 -42l-21 -21l-42 -42v-21l-42 -42l-21 -42l-42 -42l-21 -21l-42 -42l-21 -21l-42 -42
l-21 -42l105 -42l567 21l63 -21l21 -42v-42l-21 -42l21 21l-189 -42l147 21l-714 -42h-21l-210 -21l-63 21l-21 63l21 63l21 21l42 42l21 21l42 63l21 21l42 42l21 21l21 42l42 42l21 21l42 42v21l42 42l21 21l42 63l21 21l21 42l21 21l42 42l21 63l21 21v294l-21 105
l-42 21l-21 42l-21 63l-42 21l-21 42l-42 21h-105l-42 -21l-42 -21l-42 -21l-42 -21l-42 -42l-21 -42l-42 -42l-21 -42l-42 -21h-63l-21 84h21z" />
    <glyph glyph-name="three" unicode="3" horiz-adv-x="1134" 
d="M73 1701l126 21h483l63 -21l42 -21l63 -21l84 -21l42 -42l21 -42v-84v-21l-42 -21l-42 -21l-42 -21l-42 -42l-21 -21l-63 -21l-21 -21l-42 -21l-126 -42v-21l63 -21l63 -21l42 -21l42 -42l42 -21l21 -42l42 -21l42 -42l21 -42l42 -42l21 -42l42 -21h-21l42 -126l-21 84
l42 -462l-21 -42l-21 -21l-42 -42l-21 -21l-42 -21l-42 -21l-105 -42l42 21l-441 -42l-21 21l-126 21l-21 42l-63 21l-21 21v-21l-21 147l21 21h63l63 -21l42 -21l63 -21l42 -21l63 -21h210l63 21l84 21l42 21l21 21l21 42v210l-21 126l-21 63l-42 21l-21 42l-42 21v42
l-42 21l-21 42l-63 21l-42 21l-63 21l-42 21l-42 21h-63l-21 42h-42v21h-21l-21 126l21 21l42 21l42 21l63 21l42 21l42 21l42 21l42 21h42l42 42l42 21v42l-84 21h42l-609 21l-21 21l-21 63z" />
    <glyph glyph-name="four" unicode="4" horiz-adv-x="1113" 
d="M73 1197l21 147l21 105l21 63l21 42l21 63l21 126l21 42l42 84l42 21h21l21 -42v-105l-21 -63l-21 -84l-21 -105l-21 -63l-21 -42l-21 -126v-63l42 -21l63 -42v21l168 -42l42 546v21l63 21l42 -63l-21 63l42 -546l336 -42h42l21 -42v-63l-21 -21l-399 -21l-21 -231v-630
l-21 -63l-42 -21h-84l-21 42v651l21 63l21 189l-189 21l-84 21l-42 21l-42 21h-42v21h-21l-21 84z" />
    <glyph glyph-name="five" unicode="5" horiz-adv-x="987" 
d="M94 1344l21 21l42 189l-21 -84l42 273v21l21 21l651 21l63 -21l21 -42v-21l-21 -63h-63h-504l-21 -126l-21 -63l-21 -147l-21 -42l-21 -42l-21 -63v-105h63l168 21l42 21h168l42 -42l42 -21l21 -42l42 -21l21 -42l21 -42l21 -84l21 -105l21 -63l-21 -252l-42 -42l-21 -42
l-42 -42l-21 -42l-21 -42l-21 -42l-42 -21l-84 -21l21 21l-252 -42l-21 42l-63 21l-42 21l-63 21l-21 42l-42 21l-21 84l21 63h84l42 -21l21 -21l42 -21l42 -21l42 -42v21l126 -42l-84 21h189l42 42l21 63v21l42 42h21l21 84v105l-21 63l-21 147h-42l-21 42l-21 42l-84 21
h-21l-294 -42l-21 -21h-21l-105 -42l-21 42v-21l-21 357z" />
    <glyph glyph-name="six" unicode="6" horiz-adv-x="966" 
d="M241 735v-252v-21l42 -105v-42l42 -63l84 -21h168l42 21l21 21l42 42l21 21l21 42l42 126l-21 -42v105l-42 21l-21 63l-42 21l-21 42l-42 21h21l-210 21l-21 -21h-105h-21zM73 987l21 84l21 105l21 84l21 42l21 21l42 63l-21 -21l42 126l21 21l21 42l21 42l42 63l21 21
l42 42l21 21l210 21h21v-21l21 -42v-21l-126 -42l-21 -21l-21 -21l-42 -21l-21 -42l-21 -42l-21 -42l-21 -42l-21 -42l-21 -63l-21 -42l-21 -42l-21 -84l-21 -105l-21 -42l-21 -63v-63v-21l21 21l21 21l21 21l336 21l42 -21l42 -42l21 -21l21 -42l42 -21l42 -42l21 -42
l21 -42l21 -42l21 -42v-168l-21 -63l-21 -84l-42 -42l-21 -21l-42 -42l-21 -21l-42 -21l-42 -21h-336l-84 21h-42v21h-21l-21 84l-21 21l-21 147v-84l-21 357l-21 84v-21l-21 231z" />
    <glyph glyph-name="seven" unicode="7" horiz-adv-x="1323" 
d="M73 1806l105 21l126 21h546l189 -21l147 -21l42 -21l42 -42v-126l-21 -21l-42 -21l-21 -42l-42 -42l-21 -21l-42 -42l-21 -21l-42 -42l-21 -21l-42 -42l-21 -21l-42 -21l-21 -42l-42 -42l-21 -42l-21 -42l-21 -42l-42 -42l-21 -63l-21 -63l-42 -42l-21 -63l-21 -63
l-21 -42l-21 -63l-21 -42l-21 -63l-21 -105l-21 -84l-21 -42l-21 -147l-21 -21h-63l-42 21v231l21 84l21 105l21 84l21 42l21 42l21 42l21 42l21 63l21 42l21 42l42 105l21 21l21 21l42 84l21 21l21 42l42 63l21 21l21 42l42 42l42 21l42 42l21 21l42 42l21 21l42 42l21 21
l-21 21h42l-252 21h189l-630 21h-21l-168 -21v21h-84h-21l-21 105z" />
    <glyph glyph-name="eight" unicode="8" horiz-adv-x="966" 
d="M451 945l-63 -21l-21 -21l-42 -42l-21 -42l-21 -42l-21 -63l-21 -42l-21 -42l-21 -126l21 -21l42 -21l21 -21l42 -21l63 -42l42 -21l42 -21h168l21 21l21 42l21 21l21 42l21 42l21 42v105l-21 42l-21 42l-21 63l-42 21l-21 42l-42 21h-42l-21 42l-63 21h-21zM514 1218
l42 21l42 21l21 21l42 42l21 21l42 147l-21 -84v168l-42 21l-21 42h-84l-168 -21l-63 -42l-21 -21l-21 -168l21 -42l42 -63l21 -42l42 -21l63 -21zM73 693l21 84l21 21l21 42l21 42l42 105l21 21l42 42l21 21v21v42l-42 21l-42 21l-21 42l-21 42l-21 63v-21l-21 210v21
l21 42l21 42l21 21l21 42l21 21l42 42l147 21l84 21l168 21h21v-21h21l63 -42l42 -63l21 -42l21 -63l21 -42v-147l-21 -42l-21 -84l-21 -21l-42 -42l-21 -21l-42 -42l-21 -21l-63 -42v-21l42 -21l42 -21l42 -21l21 -42l42 -21l21 -42l42 -63l21 -42l21 -42v-273v-42l-42 -42
l-21 -42l-42 -42l-21 -42v-21l-42 -21h-21l-231 -42l-21 -21l-21 21l-126 21l-21 21l-21 42l-42 21h-21v21l-84 21l-21 42l-42 21v-21l-21 252z" />
    <glyph glyph-name="nine" unicode="9" horiz-adv-x="777" 
d="M472 987l21 21l21 42l21 21l42 42l-21 -21l42 315l-42 21l-21 42l-126 21h-21l-63 -42l-21 -42v-21l-42 -42l-21 -42l-21 -294l21 -21l42 -21h168zM73 1344l21 42l21 42l21 21l42 84l21 21l42 42h21l42 42h315l21 -42l42 -21l21 -42l21 -42v-378l-21 -168l-21 -42
l-21 -126l-21 -105v-21l-21 -126l-42 -42l-21 -84l-21 -42l-21 -42l-21 -42l-42 -42l-21 -42l-21 -42h-42l-21 126l21 21l21 42l21 42l21 42l21 84l21 42l21 42l21 126l21 84h-42h-252l-42 21l-42 21l-63 21l-21 42v-21l-21 420z" />
    <glyph glyph-name="colon" unicode=":" horiz-adv-x="603" 
d="M230 1353h126h21l42 -210l-42 -21l-63 -21l-63 21l-21 210v21zM209 366h126l63 -21l21 -126l-21 -63l-147 -21v21h-21l-21 189v21z" />
    <glyph glyph-name="semicolon" unicode=";" horiz-adv-x="622" 
d="M313 1458h105l21 -21v-168l-84 -21h-21l-21 189v21zM208 282l42 42v21l42 84l21 63v21l21 21l84 21l21 -21v-105l-21 -105v-21l-42 -42l-21 -21l-42 -42l-21 -42l-63 -21h-21l-21 105z" />
    <glyph glyph-name="less" unicode="&#x3c;" horiz-adv-x="903" 
d="M73 1029l21 21l42 42l21 21l42 42l42 21l21 21l42 42h63l42 42h42l42 42l42 21l42 21l42 21l126 21l84 -21v-84l-21 -21l-147 -42l-21 -21l-63 -42l-21 -21l-84 -21l-21 -21l-42 -21l-42 -21l-21 -21l-42 -42l-21 -21l-42 -42l21 -21l21 -21l42 -21l63 -42l42 -21l42 -21
l21 -42l42 -21l42 -42l42 -21l63 -21l42 -21l21 -21l42 -21l21 -42l42 -63l-21 -21v-21l-105 -42l-21 21l-21 42l-42 21h21l-147 21l-21 21l-21 42l-42 21l-21 42h-42l-21 42h-21v21l-84 21l-21 42l-63 21l-21 42l-42 21l-21 42v-21l-21 147z" />
    <glyph glyph-name="equal" unicode="=" horiz-adv-x="1029" 
d="M115 798l42 21h777l21 -42l21 -21l-21 -63l-42 -21l-651 -21v21h-126h-21l-21 105zM94 1344h609l189 -21l42 -21l42 -21v-42v-63l-42 -21h-294l-21 21l-441 21h-21l-63 -21l-21 21l-21 84z" />
    <glyph glyph-name="greater" unicode="&#x3e;" horiz-adv-x="966" 
d="M94 1512h105l105 -42l42 -42l21 -21l42 -21l21 -21l42 -21l63 -42l42 -21l42 -21l42 -42l42 -21l42 -21l42 -21l42 -21l42 -42h21v-21l21 -84v-21l-21 -21l-147 -42l-21 -21l-42 -21l-105 -21l-42 -21l-84 -42l-21 -21l-42 -42l-21 -21l-84 -21l-42 -21h-84l-42 21v84
l42 42l42 21l63 21l42 21l42 42l42 21l42 21l42 21l42 21l126 21v21l-21 42l-42 21l-63 21l-21 42l-63 21l-42 21l-21 42h-42l-21 42l-42 21l-42 21l-21 42h-63v21h-42h-21l-21 105z" />
    <glyph glyph-name="question" unicode="?" 
d="M283 399h105l21 -21v-84l-21 -105l-63 -21h-21l-21 210v21zM73 1701l42 21l42 42l21 21l399 21l42 -21l42 -42l21 -42l21 -126l-21 -126l-42 -42l-21 -21l-42 -42l-21 -42l-21 -21l-42 -42l-21 -21l-21 -21v-42v-21l-21 -21l-21 -63l-21 -42l-21 -126v63l-21 -231
l-21 -21l-42 -21h-42l-42 21v231l21 63l21 63l21 42l21 105l21 63l42 42v21l21 21l21 21l21 21l21 21l21 21l21 21l21 21l21 21l42 147h-42l-21 42h-126l-126 -21l-42 -21h-21l-21 -21l-21 -63l-63 -42l-21 168z" />
    <glyph glyph-name="at" unicode="@" horiz-adv-x="1239" 
d="M619 567l21 42l42 63l21 21l21 63l21 189l21 126h-63l-63 -21l-42 -21l-42 -42l-21 -42l-21 -21l-42 -42l-21 -42l-21 -42l-21 -189l21 -21l42 -21h126h21zM73 882l21 105l21 105l21 42l21 42l21 21l42 84l42 21l42 63l21 21l21 42l42 42h21l42 42l42 21l42 21l378 21h42
l42 -42l42 -21l21 -42l42 -21l21 -42l21 -42l21 -42l21 -42v-525l-21 -42l-21 -84l-21 -42l-21 -42l-21 -63l-21 -63l-21 -42l-42 -21h-126h-42l-21 42l-21 84l-42 -21l-21 -21l-42 -21l-42 -21h-189l-42 21h-42l-63 21l-21 42l-21 42v294l21 63l21 42l42 63l21 21l42 42
l21 21l42 42l21 21l42 42l42 21l84 21l189 21l63 -21l42 -63l-42 -42l-21 -273v-147l21 -126l21 -21l21 63l21 42l42 84l-21 -42l42 588l-42 21l-21 42l-21 42l-42 21h21l-273 21h-21l-42 -21l-42 -21l-21 -21l-63 -42l-21 -42l-42 -42l-21 -21l-42 -42l-21 -42l-42 -42
l-21 -42l-21 -168v63l-21 -399v-42l21 -21l21 -42l21 -42l21 -42l21 -42l21 -21l21 -42l42 -21l21 -42h21v-21h21l63 -42l-42 21l357 -42l63 -21l63 21h21l42 -125l-21 -21h-168l-294 21h-84l-63 20l-21 42l-42 21l-21 42l-42 21l-21 42l-42 21l-21 42l-21 42v42l-42 21v42
l-42 21l-21 84v-42l-21 357z" />
    <glyph glyph-name="A" unicode="A" horiz-adv-x="924" 
d="M556 1407l-21 -42l-21 -105l-21 -42l-21 -105l-21 -42l-21 -126l168 -21v273l-21 210h-21zM73 231l21 63l21 42l21 42l21 63l21 63l21 63l21 105l21 147l21 42l21 105l42 126v21l42 189l21 21l21 105l21 42l21 42l21 42l42 105l84 21l42 -21l21 -42l21 -105v-21h21
l21 -84h-21l42 -126l-21 84l42 -420l63 -42h21v-21h21l-21 -63l-63 -42v-42l21 -105l21 -42l21 -189v-189l-21 -21h-63l-42 21l-21 126l-21 231l-21 42l-21 168h-252l-21 -105l-21 -42l-21 -105l-21 -42l-21 -84l-21 -42l-21 -42l-21 -42l-21 -42l-21 -84l-21 -21v-21v-21
l-84 -42l-21 105z" />
    <glyph glyph-name="B" unicode="B" horiz-adv-x="966" 
d="M409 882h-126l-21 -126l-21 -231l-21 -105v-84l-21 -63l210 -42l63 21l42 42l42 21l42 42l21 21l21 42l21 21l42 42l21 21l21 42l42 84l-42 21l-42 21l-21 63l-42 21l-21 63l-42 21l-84 21l-63 21h-21zM304 1512v-231v-63l-21 -42v-105h168l84 21h21l42 42l63 21l42 42
l21 21l21 42l42 105l-42 21h21l-126 21l-21 42l-42 21l-63 21l-189 21h-21zM94 546v21l42 231l-21 -105l42 315l21 315l21 441v21l63 21l21 -21l21 -147l273 -21l63 -21l42 -21l63 -21l42 -21l42 -21l42 -21l21 -42l21 -42v-63l-21 -105l-21 -63v-21l-42 -42l-21 -21
l-42 -42l-21 -21l-84 -21l-21 -42l42 -21l42 -21l21 -42l21 -63l42 -21l21 -42l42 -21l21 -42l21 -42v-63l-21 -42l-21 -42l-21 -42l-21 -42l-21 -42l-42 -42l-21 -42l-42 -42l-21 -21l-63 -42l-21 -21l-42 -42l-462 -21h-21l-21 210z" />
    <glyph glyph-name="C" unicode="C" horiz-adv-x="945" 
d="M94 1029l21 63l21 63l21 63l21 21l21 42l21 63l42 42l21 21l42 63l21 21l42 42l21 21l42 42l42 21l42 21h231l63 -21l42 -21l21 -42v-84l-21 -21h-63l-42 21l-42 21h-126l-84 -42l-21 -21l-42 -42l-21 -42l-21 -21l-42 -42l-21 -84l-21 -42l-42 -42l-21 -42l-21 -126v84
l-21 -378v-42l42 -63l21 -42l21 -42l21 -42l21 -42l21 -42l21 -21l21 -42l42 -42h210l21 21l42 21v21l21 21l84 21h21l42 -84v63l-21 -126l-42 -42l-21 -21l-42 -21l-21 -21h-378l-42 21l-42 21v63l-42 21l-21 105h-21v21h-21l-21 84l-21 21l-42 21l-21 84v-21l-21 420z" />
    <glyph glyph-name="D" unicode="D" horiz-adv-x="987" 
d="M325 294h21l42 42l42 21l42 42l63 21l42 63l42 21l42 42l21 21l21 42l42 105l21 21l21 63v336l-21 42l-42 21l-21 42l-21 42v42l-42 21l-42 21l-63 21h-63l-147 21v-168l21 -336v-63l-21 -42l-21 -147v-21l-21 -84l-21 -294h21zM73 252l21 252l21 42l42 147l-21 -63
l42 210l-21 -126l42 504l-21 21l21 357v21l63 21l21 -21l42 -21l42 -21l42 -21l147 -21l63 -21l63 -21l42 -42l42 -21l21 -42l21 -42l42 -42l21 -42l42 -21l21 -42v-462l-21 -42l-21 -42l-42 -42l-21 -84l-42 -42l-21 -42l-21 -21l-42 -21l-21 -21l-42 -42l-21 -21l-42 -21
l-21 -21l-42 -42l-21 -21l-42 -21l-42 -21l-42 -42l-21 -21l-42 -21l-63 -42l21 21l-168 -42l-21 21v-21l-21 126z" />
    <glyph glyph-name="E" unicode="E" horiz-adv-x="1008" 
d="M94 252l-21 -63l42 462l21 84l-21 -21l42 357l-21 441l21 84l42 21h21v-21l42 -63h63l42 21l147 21l126 21h-21l273 21h21v-21l42 -84l-21 -21l-42 -21l-231 -21l-168 -21l-84 -21l-126 -42l21 -378h378l63 -21h21l42 -84l-42 -42l21 21l-315 -42l-42 21h-84l-42 -21
l-21 -126l-21 -420l-21 -84l336 -42l63 21l84 -21v-105l-21 -21l-609 -21v21h-21l-21 84z" />
    <glyph glyph-name="F" unicode="F" horiz-adv-x="1008" 
d="M73 1491l21 21l42 42l651 21h42l21 -42v-42l-21 -42l-630 -42v-357l735 -21l21 -42v-63l-21 -42l21 21l-756 -42l-21 21l-21 -735v-105l-63 -21h-21l-21 903z" />
    <glyph glyph-name="G" unicode="G" horiz-adv-x="1302" 
d="M73 1113l21 105l21 63l21 42l21 63l42 42l21 21l42 42l21 21l42 42l42 21l42 42l42 21l42 21l399 21h21v-21l42 -126l-42 -21l-42 -21l-21 21l-21 42l-273 -21l-21 -21l-42 -21l-42 -42l-21 -21l-63 -42l-21 -42l-42 -42l-21 -63l-21 -42l-21 -84v42l-21 -525v-42l21 -42
l21 -42l21 -42l21 -42l42 -21l42 -21h252l21 21l42 63l21 21l21 84l21 63l21 63l21 42v42l-21 42l-21 63l-147 21l-105 21l-21 21l-63 21l-21 42v42l21 42l147 21l42 -21h147h63l63 -21l126 -21l63 -21l63 -21l42 -21l42 -42l21 -21l-21 -63l-42 -21l-126 -21l-21 42l-42 21
h-42v-42v-168l-21 -42l-21 -42l-21 -63l-21 -105l-21 -42l-21 -21l-42 -42l-21 -21l-42 -42l-21 -21l-42 -21h-315l-42 21l-42 21l-42 21l-21 42l-42 21l-21 42l-21 63l-21 42l-21 105v-42l-21 483z" />
    <glyph glyph-name="H" unicode="H" horiz-adv-x="1092" 
d="M73 840l-21 -483l42 1407v21l21 21l63 21l21 -21l21 -42l21 -798h147h378v441l-21 315v63l42 42h63l21 -42l21 -294l21 -504l42 -42l21 -21l-21 -63l-42 -42v-147l21 -63l21 -189l21 -42l21 -105l21 -168v-21l21 -84v-20l-105 -42l-21 21l-21 62l-21 189l-21 63l-21 126
v-63l-21 252v-168l-21 399h-294v21h-21h21h-21l-252 -42l-21 -21l-21 -483l-21 -314l-63 -21h-21l-21 398z" />
    <glyph glyph-name="I" unicode="I" horiz-adv-x="1281" 
d="M792 1618l252 19l63 -19h21v-19l21 -38v-19l-21 -18l-84 -38l63 19l-525 -38l16 -1234h147l42 19l399 19l21 -19l21 -38v-19l-21 -37l-63 -19l-42 -19l-42 -19l-315 -19l105 19l-315 -38h-21h-21h-252l-63 19l-21 113l252 19l42 776l-21 18l5 459l-210 19h-42v19h-84h-21
l-21 94z" />
    <glyph glyph-name="J" unicode="J" horiz-adv-x="1113" 
d="M94 819h42l42 -21h-21l42 -147v-42l42 -126l21 -42l42 -42l21 -42l42 -21l21 -42l42 -21l21 -21l21 21l21 42l42 84l-21 -21l42 630v21l21 525l-63 21l-63 21l-42 21h-168v21h-21l-21 84v21l21 21l336 21h42l42 -21l21 -21l42 -21l126 -42l126 21l63 -21h21v-21l21 -63
v-21l-21 -21l-294 -42l-21 -504l-21 -42v-420l-21 -252l-42 -42l-21 -42l-21 -42l-21 -42l-21 -21h-147l-63 21l-21 42l-63 21l-21 42l-42 21l-21 42l-21 42l-42 21l-21 42l-21 126v-63l-21 315z" />
    <glyph glyph-name="K" unicode="K" horiz-adv-x="966" 
d="M73 1680l42 21l63 -21l42 -63h-21l42 -252l-21 210l42 -609v-21l21 42l21 42l21 42l42 42l42 21l21 42l42 63l42 21l42 42v21l21 21l21 21l21 21l21 21l21 21l21 21l21 21l21 21l21 21l126 21l21 -21l21 -42v-21l-21 -42l-21 -21l-42 -42l-21 -21l-63 -42l-21 -21
l-42 -42l-21 -42l-21 -21l-42 -42l-21 -21l-42 -42l-21 -21l-42 -42l-21 -42l-42 -42l-21 -42l-21 -21l-42 -21l21 -21l21 -42l21 -21l21 -42l21 -42l21 -21l21 -42l21 -42l21 -21l21 -42l21 -42l21 -42l21 -42l21 -42l21 -21l21 -42l21 -42l21 -42l42 -126l-21 -21l-42 -21
h-63l-63 21l-21 126l-42 21l-21 42l-21 42l-21 63l-21 42v42l-42 21l-21 42l-21 42l-21 42l-21 42l-21 42l-21 -483v-21l-84 -21h-21l-21 882l-21 441l-21 84v-21l-21 147z" />
    <glyph glyph-name="L" unicode="L" horiz-adv-x="1197" 
d="M52 1764h84l42 -42l-21 42l42 -399v-42l21 -1113h147h21l21 -21v21l504 -42h42l21 -21l21 21l42 42h42l21 -42l21 -42l21 -42l-21 -63l-42 -21h-189l-42 21l-483 21l-210 21h-21v21h-21h-21l-21 273l-21 1386v21z" />
    <glyph glyph-name="M" unicode="M" horiz-adv-x="1323" 
d="M73 210l21 147l21 126l21 42l21 231l21 567l21 42l21 126l21 126l21 42l21 42l21 42l42 42h42l42 -21l21 -42l42 -126v-42l42 -84l21 -42l21 -42l21 -63l21 -126l21 -63l42 -63l21 -21l21 105l21 147l21 42l21 84l21 84l21 105l42 63l21 63v21l105 21l21 -21l21 -42
l21 -126l21 -63l21 -294l21 -105l21 -336l21 -63l21 -168l21 -231l21 -21v-21l42 -126l-21 105v-231l-21 -21l-42 -21h-21l-42 21l-21 105l-21 84v-21l-21 273l-42 21l-21 210l-21 42l-21 399l-21 231l-21 -84l-21 -42l-21 -168l-21 -63l-21 -126l-21 -63l-21 -42l-21 -42
l-42 -21h-42l-42 21l-42 21l-21 84l-21 84l-21 84l-21 42l-21 42l-21 63l-21 105l-21 84l-21 42v42l-42 -21l-21 -84l-21 -42l-21 -567l-21 -42v-42l-21 -252v63l-21 -231l-42 -42l-21 -126l-21 -42l-63 -20v20h-21l-21 84z" />
    <glyph glyph-name="N" unicode="N" 
d="M73 1449v21l42 63h105l21 -42l21 -126l21 -126l21 -84l21 -63l21 -63l21 -105l21 -84l21 -84l21 -42l21 -42l21 -63l21 -105l21 42l21 84l-21 -21l42 168l-21 -126l42 945v21l105 21l21 -21v-861l-21 -147v-210l-21 -84l-21 -168l-42 -21l-63 -21v21h-21l-21 84l-42 21
l-21 63l-21 42l-42 21l-21 63l-21 126l-21 42l-21 63l-21 63l-21 63l-21 168l-21 21l-21 -861l-42 -21l-42 -21v21h-21l-21 420z" />
    <glyph glyph-name="O" unicode="O" horiz-adv-x="1176" 
d="M577 1470h-42l-42 -42l-21 -21l-42 -42l-21 -21l-42 -42l-21 -42l-21 -63l-42 -42l-21 -63l-21 -63l-21 -63l-21 -63v-147l21 -126l21 -42l21 -84l42 -21l63 -21l42 -21l63 -42l-21 21l168 -42l21 21l42 42l42 21l21 21l42 42l21 21l42 63l21 21l21 42l42 63l-21 -21
l42 126l-21 -84l42 462l-21 63l-42 21l-21 42l-42 21l-21 42l-42 21l-42 21l-147 21h-21zM73 1050l21 63l21 63l42 84l21 21l21 63l42 42l21 21l21 42l42 42l21 21h21l21 21l21 21l21 21l21 21l21 21l21 21l21 21l63 21l126 -21l42 -21l63 -21l42 -21l42 -21l42 -42l42 -21
l21 -42l42 -21l21 -42l42 -21l21 -42v-525l-21 -105l-21 -84l-21 -21v-21l-21 -21l-21 -21l-21 -63l-42 -42l-21 -21l-42 -42l-21 -21l-42 -21l-21 -21l-42 -21l-21 -21l-42 -42l21 21l-273 -42l-21 42l-63 21l-42 21l-63 21l-42 21l-42 21l-21 42l-42 21l-21 42l-21 84v-21
l-21 441z" />
    <glyph glyph-name="P" unicode="P" horiz-adv-x="1008" 
d="M535 1113l42 21l63 21l42 42l63 21l21 63l21 21v84l-21 126l-21 42l-21 42l-84 21l-21 42l-42 21l-63 21h-231l-63 -21l-21 -588h294zM94 1806l63 21h-21l378 21l63 -21l63 -21l63 -21l42 -21l21 -21l42 -21l21 -21l42 -21l21 -42l21 -42l21 -126l21 -231l-42 -42
l-21 -63l-21 -21l-63 -42l-21 -21l-21 -21l-42 -21l-42 -21l-63 -21l-21 -21l-399 -21v-252v-609v-21l-21 -21l-84 21l-21 588v-252l-21 1365z" />
    <glyph glyph-name="Q" unicode="Q" horiz-adv-x="1512" 
d="M682 1554l-42 -21l-21 -21l-63 -42l-21 -21l-42 -42l-21 -42l-21 -21l-42 -42l-21 -42l-21 -21l-42 -42l-21 -42l-42 -42l-21 -105v42l-21 -504l-21 -21l21 -84h-21l42 -105l21 -42l42 -21l42 -21l63 -42l21 -42l21 -42l42 -21l42 -21l63 -21h294l63 21l21 21l42 42
l63 21l21 21v21l-21 84l-42 21l-21 42l-42 21v84l42 42h42l21 -42l42 -21l42 -21l21 -42l42 126l21 21l21 63l21 105v210l-21 63l-21 126l-21 42l-21 105l-21 42l-21 84l-21 84l-42 21l-84 21l-252 21l-63 42h-21zM73 1092l42 126l21 21l42 63l21 21l42 42l21 21l42 42
l21 21l42 63l21 21l42 42l21 21l42 42l42 21l42 42h252l42 -21l210 -21l105 -21l21 -42l42 -21l42 -42l21 -42l21 -84l21 -42l21 -42l21 -147l21 -105l21 -63l21 -84v-252l-21 -126l-21 -63l-21 -42l-21 -168l-21 -21l-42 -42v-21l21 -21l21 -42l21 -42l21 -42v-146l-21 -21
h-63l-42 21l-21 42l-21 42v41l-42 21l-21 -21l-63 -41l-21 -21l-42 -21l-42 -21h-462l-84 21l-42 21l-42 21h-42l-21 41l-42 21l-21 63l-84 21l-21 42l-21 42l-42 21l-21 42l21 84l-21 -21l42 609l-21 21l-21 105z" />
    <glyph glyph-name="R" unicode="R" horiz-adv-x="903" 
d="M430 903l42 21l21 21l42 42l42 21l42 42l21 21l42 63l-21 -21l42 126l-21 21l-21 189l-42 21l-21 42h-42l-21 42l-42 21h-42v21h-189h-21l-21 -231l-21 -42l21 -441h147zM73 1680l42 42l42 21h336l63 -21l21 -21l42 -21l42 -42l42 -21l21 -42l42 -21l21 -42l21 -63
l21 -126l21 -105v-84l-21 -42l-21 -42l-21 -42v-21l-42 -42l-21 -42l-42 -21l-63 -42v-21l-42 -21l-84 -42h-21l-63 -42l21 -21l42 -21l21 -42l42 -21l21 -42l42 -42l21 -42l42 -21l21 -42l21 -42l42 -21l21 -42l21 -42l21 -84l42 -63l-21 -21v-21v-21l-105 -42l-21 42
l-42 21l-21 63l-21 42l-21 42l-21 63l-42 21l-21 42l-21 42l-42 21l-21 42l-42 21l-21 42l-42 21l-21 42h-42l-21 42h-21v-546v-21l-105 -42l-21 21v-21l-21 840l-21 504z" />
    <glyph glyph-name="S" unicode="S" horiz-adv-x="1155" 
d="M73 1617l21 42l21 63l42 21l42 42l63 21h252l126 -21l42 -21l21 -21l42 -21l42 -42l42 -42l42 -42l42 -21l21 -42l21 -42l42 -42l42 -42l42 -42l21 -42v-42v-21l-84 -42l-21 21l-63 21l-21 42l-21 42l-42 21l-21 42l-21 42l-42 21l-21 42l-42 21l-21 42l-42 21l-42 21
l-126 21l-42 21l-105 -21l-21 -21h-21l-21 -42l-21 -42l-21 -126v63l21 -147l21 -42l42 -42l42 -42l42 -21l21 -42l42 -42l42 -21l42 -42l42 -21l42 -21l21 -42l42 -42l21 -42l21 -63h21v-21l42 -84l21 -42l21 -126v-210v-42l-42 -42l-21 -21l-42 -42l-21 -21l-105 -21
l-315 -21l-63 21l-21 42l-42 21v63l-63 21l-21 42l-21 84v21v-63l21 105l21 84h42l21 -42l21 -42l21 -42l42 -21l42 -42l42 -42l126 -42l126 21l63 21l21 42v105l-21 147l-21 42l-21 42v42l-42 21l-21 42l-21 42l-42 21l-21 42l-42 21l-63 21l-21 42l-42 21l-21 42l-42 21
l-21 42l-42 21l-21 42h-21v21h-21l-21 84v-63l-21 294z" />
    <glyph glyph-name="T" unicode="T" horiz-adv-x="1323" 
d="M52 1764h84h-63l420 21h42h-357l525 -21l126 -21l-21 21l399 -42h42l21 -42v-63v-21l-42 -21h-420l-42 21h-126l-21 -672l-21 -252l-21 -210v-273l-42 -42l-21 -21l-84 21l-21 105l21 378l21 84l-21 -21l42 273l-21 -231l42 672l21 189l-42 21h-336l-63 21l-21 105v21z
" />
    <glyph glyph-name="U" unicode="U" horiz-adv-x="1029" 
d="M73 1491l42 252l21 21h105l21 -42v-21l-21 -42l-21 -63v-21v-105l-21 -63v-252l21 -567l21 -126l21 -63l21 -42l42 -42l42 -21l21 -21l42 -21l42 -21l42 -21l21 -21l42 42l21 21l42 42l21 21l21 63l21 126l21 42l21 378l21 273l42 294l21 126l42 21h63l42 -42v-84
l-21 -168l-21 -189l-21 -42l-21 -252l-21 -399l-21 -147l-21 -63l-42 -42l-21 -21l-42 -42l-21 -42l-21 -21l-42 -21h-231l-42 21l-63 21l-21 42l-63 21l-21 42l-42 21l-21 42l-21 42l-21 42l-21 126v-63l-21 1008z" />
    <glyph glyph-name="V" unicode="V" horiz-adv-x="1155" 
d="M52 1827h63l42 -21l21 -42l21 -168l21 -168l21 -42l21 -63l21 -126l21 -105l21 -84l21 -63l21 -42l21 -147l21 -126l21 -84l21 -42l42 -147h21l21 21l21 63l21 84l21 42l21 42l21 126l21 42l21 42v21v84l21 63l21 84l42 168l21 21l21 21l21 42l21 42l42 84v21l42 63
l21 63l21 63v21l105 21l21 -42v-126l-21 -63l-21 -42l-21 -42l-21 -42l-21 -42l-21 -42l-21 -42l-42 -42l-21 -63l-21 -84l-21 -126l-21 -126l-21 -42l-21 -42l-21 -126l-21 -42l-21 -84l-21 -42l-21 -84l-42 -42l-21 -63l-21 -42l-21 -42l-21 -42l-21 -21l-84 -21l-21 42
l-42 21l-21 42l-21 63l-21 126l-21 63l-21 105l-21 63l-21 147l-21 147l-21 63l-21 105l-21 84l-21 63l-21 147l-21 63l-21 168l-21 252v21z" />
    <glyph glyph-name="W" unicode="W" horiz-adv-x="1932" 
d="M73 1701l42 21h21l42 -21h-21l42 -105l21 -42l21 -84l21 -63l21 -84l21 -42l21 -42l21 -84l21 -294l21 -42l21 -189l21 -147l21 -126l21 105l21 42l21 84l21 42l21 63l21 105l21 42l21 42l21 21l21 42l42 84l42 21h84l42 -21l21 -42l21 -63l21 -42l21 -63l21 -126l21 -42
l21 -147l21 -105l21 -63l21 -63l42 -21h21l21 21l21 42l21 42l21 42l21 42l21 42l21 21l21 42l21 63l21 21l21 42l42 84l21 21l21 63l21 147l21 42l21 42l21 63l21 42l21 63l21 42l21 42l21 42l21 63l21 21l21 42l42 42v21l84 21l21 -21l21 -42v-84l-21 -63l-42 -42l-21 -42
l-21 -63l-21 -42l-21 -42l-21 -42l-21 -42l-21 -42l-21 -42l-21 -147l-21 -63l-21 -63l-42 -42l-21 -42l-21 -42l-21 -63l-21 -42l-21 -42l-42 -42l-21 -63l-21 -42l-21 -42v-21l-42 -42l-21 -42l-42 -42l-21 -21h-168l-42 21l-21 63l-42 21l-21 63l-21 42l-21 84l-21 105
l-21 168l-21 126v63l-42 -21l-21 -42l-21 -42l-21 -84l-21 -105l-21 -63l-21 -42l-21 -84l-21 -42l-21 -42l-42 -42l-21 -42l-21 -42l-42 -21l-63 -21l-21 42l-42 21l-21 126l-21 42l-21 126l-21 168l-21 168l-21 315l-21 84l-21 84l-21 84l-21 84l-21 63l-21 42l-21 147z
" />
    <glyph glyph-name="X" unicode="X" horiz-adv-x="1155" 
d="M94 336l21 21l42 63l42 21l42 63l42 21l21 42l42 84l21 21l42 63l21 21l21 42l21 42l21 42v42l-21 42l-21 42l-21 63l-21 42l-21 63l-42 21l-21 105l-42 21l-21 63l-21 42l-21 84l-42 21l-21 42l-21 63l-21 42l-21 42l-21 42l21 105l42 21l42 -21l21 -42l42 -63l21 -42
l21 -84l21 -21l21 -42l42 -63l21 -42l21 -42l21 -63l21 -42l42 -42l21 -42l21 -42l42 -42l21 -21l42 63l21 21l21 42l21 63l21 42l21 42l21 42l21 42l21 42l21 21l21 42l21 63l42 63v21l21 21l105 21l21 -21v-84l-21 -63l-21 -42l-21 -63l-42 -42l-21 -42l-21 -42l-21 -42
l-21 -42l-21 -42l-21 -42l-21 -63l-21 -42l-21 -42l-42 -42l-21 -105l21 -21l21 -42l42 -21l21 -42l21 -63l42 -63v-42l42 -42l21 -42l21 -63l21 -63l21 -42l21 -42l21 -42l21 -21l21 -42l21 -63l-21 -63h-84l-84 21l-21 105l-21 42l-21 42l-21 42l-21 126l-42 21l-21 42
l-21 42l-21 42l-21 63l-21 63h-63l-21 -42l-21 -42l-42 -42l-21 -42l-42 -42l-21 -42l-21 -42l-42 -42l-21 -21l-42 -42l-21 -21l-42 -21l-21 -42l-42 -42l-21 -42l-63 -21l-21 21l-21 84z" />
    <glyph glyph-name="Y" unicode="Y" horiz-adv-x="1134" 
d="M52 1743h105l21 -42l21 -42l21 -42l21 -42l42 -21l21 -42l21 -21v-21l42 -63v-42l42 -42l21 -42l42 -63l21 -42l42 -63h21l21 21l42 63l21 21l21 42l21 42l21 42l21 42l42 42l21 21l21 42l21 21l21 42l21 21l42 84v21h21l21 21l63 21h21v-21l42 -105l-21 -21l-42 -42
l-21 -63l-42 -42l-21 -42l-42 -42l-21 -21l-42 -42l-21 -42l-21 -42l-21 -42l-21 -42l-21 -21l-42 -42l-21 -42l-21 -21l-42 -42l-21 -42l-21 -273l-21 -42l-21 -378l-21 -210l-63 -20h-21l-21 272v21l42 693l-21 21l-21 105l-21 21l-42 21l-21 42l-21 42v42l-42 21l-21 84
l-21 21l-21 63l-42 21l-21 42l-42 21l-21 189v21z" />
    <glyph glyph-name="Z" unicode="Z" horiz-adv-x="1449" 
d="M73 483l21 42l42 63l21 21l21 63l21 42l21 42l21 42l42 42l21 21l21 42l42 42l21 21l42 42l21 21l42 42l21 21l21 42l42 42l21 21l42 42l42 21l42 42l42 21l42 42l84 21l42 63l21 21l42 42l21 21l42 42l-84 21l-105 21l-84 21l-147 21l-42 21l-84 21l-210 21l-84 21v63
l21 21l126 21h210l105 -21l105 -21l42 -21l147 -21l84 -21l126 -21l42 -21l21 -42l21 -42l-21 -84l-63 -42l-21 -42l-21 -21l-63 -42v-21l-42 -42l-21 -42l-42 -21l-42 -21l-42 -21l-63 -42l-21 -21l-63 -42l-21 -42l-63 -42l-21 -42l-21 -21l-42 -42l-21 -42l-63 -42v-21
l-42 -42l-21 -42l-42 -42l-21 -42l-21 -42l-21 -42l-21 -42l-21 -42l189 -42l-189 21l798 -42l84 -21v21l105 -42l42 21l21 -21h21l42 -105l-42 -21h-252l-651 21h-168l-84 21h21l-126 21l-21 21v-21l-21 126z" />
    <glyph glyph-name="bracketleft" unicode="[" horiz-adv-x="861" 
d="M73 1848l21 21l147 21l42 21l378 -21l63 -21h21v-21l21 -21v-21l-21 -21l-357 -42l-21 21l-168 -21l21 -105l-21 63l42 -378l-21 273v-567v252l-21 -966l105 -42l-105 21l462 -42l126 -21l21 -84l-42 -21h-483h-147l-63 21l-21 861v21l42 483l-21 -189v315v-105l-21 294z
" />
    <glyph glyph-name="backslash" unicode="\" horiz-adv-x="1029" 
d="M94 1911l42 -21l42 -42l21 -42l21 -63l21 -42l21 -63l21 -84l21 -84l21 -63l21 -42l21 -63l21 -42l21 -42l42 -105v-42l42 -42l21 -42l21 -63l21 -84l42 -42l21 -42l21 -63v-21l42 -63l21 -42l42 -63l21 -42l21 -42l21 -42l21 -42l21 -42l42 -42l21 -42l21 -42l42 -42
l-21 21v-84l-84 -21l-63 21l-21 42v21h-21l-21 84l-42 21l-21 42l-21 42l-21 42l-21 63l-42 21l-21 63l-21 42l-21 42l-21 105l-42 21l-21 42l-21 42l-21 126l-42 21l-21 42l-21 84l-21 42l-21 42l-21 63l-21 63l-21 63l-21 63l-21 84l-21 42l-21 63l-21 168v21h-21l-21 84z
" />
    <glyph glyph-name="bracketright" unicode="]" horiz-adv-x="1008" 
d="M73 1911h84l651 -21l63 -21l21 -42l21 -84l42 -420l-21 -42v-546l-21 -567l-21 -21h-105l-63 21l-147 21l-42 21h-84l-126 21l-21 42v21l21 42l231 21h42l42 -42v21l105 -42l42 1008v21v399l-42 21h-42v21h-609h-21l-21 126z" />
    <glyph glyph-name="asciicircum" unicode="^" horiz-adv-x="798" 
d="M73 1302l21 42l21 63l42 63l21 21l21 42l21 42l21 84l21 42l42 63l21 21l21 42l105 21l21 -21l21 -42l21 -42l21 -42l21 -63l21 -42l21 -105l21 -63l21 -42l21 -42l21 -42l21 -63l21 -42v-21l21 -105v-21l-105 -42l-21 21l-21 42l-21 42l-21 84l-21 63l-21 42l-21 42
l-21 84v-42l-21 168l-42 21l-21 84l-21 -63l-21 -42l-21 -42l-21 -42l-21 -42l-42 -42l-21 -42l-21 -42l-21 -42l-21 -42l-21 -21l-63 -42l-21 126z" />
    <glyph glyph-name="underscore" unicode="_" horiz-adv-x="1764" 
d="M94 1071l609 21h42l42 -21l861 -42l21 -21l42 -42l-21 -21v-21l-483 -42l-21 21l-882 21l-21 21h-210l-21 63z" />
    <glyph glyph-name="a" unicode="a" horiz-adv-x="945" 
d="M430 231l42 42l21 21l42 105v21v336h-147l-21 -21l-42 -42l-21 -21l-42 -21l-21 -42l-21 -42l-21 -84l-21 -63v-147l42 -21l63 -21h126h21zM73 546l21 63l21 21l42 63v21l21 21l21 21l21 21l21 21l21 21l21 21l21 21l231 21h21l42 -63l21 -42l21 -42l21 -294l21 -84
l42 -21l21 -42l42 -42l42 -42h21l42 -84l-21 -21h-84l-63 21l-21 42l-42 21v42l-42 21l-21 -42l-42 -21l-42 -42l-21 -21l-42 -21h-210l-84 21l-63 21l-21 42v-21l-21 294z" />
    <glyph glyph-name="b" unicode="b" horiz-adv-x="735" 
d="M325 756l-105 -21l-21 -273v-42l21 -84l63 -21l42 -21h126l42 21l21 21l42 63l-21 -42l42 189l-42 21l-21 42l-21 63l-42 21l-21 21l-84 42h-21zM73 1743h63l21 -189l21 -525l21 -126l210 -21l42 -21l42 -21l21 -21l42 -21l42 -42l21 -42l42 -42l21 -42v-273v-21l-21 -63
l-42 -42l-21 -21l-42 -21l-42 -21l-84 -21l-210 21l-21 21l-63 21l-21 42l-21 84v-42l-21 567v-504l-21 1344z" />
    <glyph glyph-name="c" unicode="c" horiz-adv-x="777" 
d="M73 630l21 84l21 42l21 42l21 42l42 84l42 21l21 21l147 21h42l231 -42l21 -21v-21l21 -21v-21l-84 -42l-21 21h84h-126l-63 21h-63l-84 -21l-63 -42l-21 -63l-21 -42l-21 -42l-21 -42l-21 -42v-126l21 -63l21 -42l42 -21l21 -21l42 -21l84 -42l126 21l63 -21l21 -42
l-21 -63l-42 -21l-84 -21l-189 21l-21 42l-42 21l-63 21l-21 42l-63 21l-21 42v-21l-21 336z" />
    <glyph glyph-name="d" unicode="d" 
d="M472 315l42 378l-42 21h-21l-42 -42l-21 -21l-42 -21l-42 -42l-21 -21l-42 -42v-21l-42 -42v-63l21 -42l42 -21l42 -21l42 -21h105zM73 567l42 42l21 21l42 63l42 21l42 42l42 21l21 21l168 21l42 336v21l42 147l-21 -126l42 336v21l84 21l21 -21v-273l-21 -147l-21 -168
v-693l-42 -42l-21 -21l-42 -42l-21 -21h-273l-42 21l-42 21l-42 21l-21 42h-21v21h-21l-21 273z" />
    <glyph glyph-name="e" unicode="e" horiz-adv-x="987" 
d="M241 588h105h-63l336 21l21 21v105l-21 42l-21 42l-21 42h-84l-126 -21l-21 -21l-63 -21l-42 -42l-21 -42l-21 -84v-42v84l21 -105h21v21zM73 756l21 42l21 63l42 42l42 21h21l42 42l21 21l294 21h42l42 -21l42 -21l21 -42l21 -42l21 -63l21 -42v-210l-21 -21l-42 -42
l-21 -21l-273 -21l-63 -21l-84 -42v-21l42 -21l21 -42l42 -42l42 -42l42 -21l126 -21h42l63 21h21l21 21l63 21l42 42l42 21l21 -21l21 -42v-84l-21 -21l-42 -21l-42 -21l-42 -21l-63 -21l-126 -21h-147h-42l-21 42l-42 21h-42l-21 42l-42 21l-21 63h-42l-21 63l-42 21
l-21 126l-21 84v-21l-21 210z" />
    <glyph glyph-name="f" unicode="f" horiz-adv-x="882" 
d="M73 861h84l21 -21l21 210l21 42l21 63l21 42l42 63l21 21l84 21l147 21l126 -21l42 -21l42 -21l21 -42l21 -21v-21l21 -42v-21l-105 -42l-21 42l-42 21l-21 42l-42 21h-105l-84 -21l-21 -42l-21 -42l-21 -63l-21 -42v-147l273 -21l21 -42v-63l-21 -21l-273 -21v-315
l21 -63v-294l-42 -20h-21l-21 209l-21 21l-21 105v-63l-21 462h-105v21h-21l-21 105z" />
    <glyph glyph-name="g" unicode="g" horiz-adv-x="840" 
d="M472 231l63 21l42 63l21 21l21 42l21 84v210l-21 63v84h-84l-42 -21l-63 -21l-21 -21l-42 -42l-21 -42l-21 -21l-42 -42l-21 -63l-21 -42l-21 -63l-21 -42v-126l21 -42l147 -21h63zM73 483l21 42l21 42l21 63l21 42l21 21l21 42l42 42l21 21l42 42l21 21l42 42l42 21
l63 21h189l42 -21h21h42l21 -21v-420l-21 -399l-21 -104l-21 -189l-21 -84l-21 -126v-21l-42 -21l-42 -21l-63 -21l-252 -21l-21 42l-42 21l-42 21l-42 21l-21 42l21 63l-21 63v21v-42l21 63l42 21l21 -21h21v-21l42 -63l21 -42h21h21l84 -42l-63 21h168l21 21l21 42l21 105
l21 42l21 188l21 63h-84l-42 -21h-210h-147l-21 42h-21v21h-21l-21 84v-63l-21 273z" />
    <glyph glyph-name="h" unicode="h" horiz-adv-x="735" 
d="M73 1764l21 21h42h-42l42 -21l42 -987v-21l21 42l21 42l42 42h210l42 -21l21 -42l21 -63l21 -42l21 -42l21 -63l21 -210l21 -273l21 -42v-42l-21 -21l-63 -21l-21 42l-42 21l-21 273l-21 210l-21 84l-21 84v21l-126 21l-21 -42l-21 -42l-21 -63l-21 -21v-21l-21 -21
l-21 -126v105l-21 -399v-42v-63l-84 -41l-21 20v-20l-21 1427z" />
    <glyph glyph-name="i" unicode="i" horiz-adv-x="336" 
d="M136 798h42l21 -42l21 -735l-42 -41l-42 -21h-21l-21 797zM73 1197l21 21l84 21l63 -21h21v-21l21 -147v-21l-210 -42l-21 189z" />
    <glyph glyph-name="j" unicode="j" horiz-adv-x="630" 
d="M409 1323l42 21l63 -21l42 -21l21 -42v-84l-21 -21h-84h-42v21h-21l-21 84zM52 378h63l21 -21l21 -42l21 -42l21 -42l42 -21l105 -42l42 84l-21 -84l42 504l21 252l21 21h42l21 -21l21 -105v-567l-21 -42l-21 -105l-21 -42l-231 -21l-21 42l-42 21h-42l-21 42l-42 21
l-21 189v21z" />
    <glyph glyph-name="k" unicode="k" horiz-adv-x="945" 
d="M178 861h21h-21zM94 1785h63l21 -42l21 -861h21l42 42l42 21l42 21l42 42l42 21l21 21l42 42l21 21l42 42l42 21l21 21l42 42l21 21h21l21 21l21 21l63 21l84 -21v-84l-21 -21l-63 -21l-21 -21l-42 -21l-42 -42l-21 -21l-42 -21v-63l21 -126l21 -42l21 -399v-21l21 -273
v-21l-105 -42l-21 42v-21l-21 252v-210l-21 546v21v252h-42l-21 -21l-21 -21l-63 -42l-21 -21l-42 -21l-21 -21l-42 -21l-21 -21l-42 -21l-42 -42l-21 -147l-21 -483v-42l-42 -41l-21 20v-20l-21 209l21 630l-21 -210v1113z" />
    <glyph glyph-name="l" unicode="l" horiz-adv-x="661" 
d="M267 1743l42 -21l21 -42l21 -420l21 -42l21 -147l21 -42l21 -441l-21 126l42 -609l-84 -42l-21 21v-21l-21 378l-21 21l-21 315l-21 378v-126l-21 378l-21 315z" />
    <glyph glyph-name="m" unicode="m" horiz-adv-x="1260" 
d="M94 987h21l21 -21l42 -42h-21l42 -126h21l21 21l42 42l42 21l21 21l147 21l63 -21l42 -21l21 -42l21 -21l21 -42l21 -21h21v21l21 21l21 21l21 21l21 21l147 21h42l42 -21l21 -42l42 -21l21 -42l21 -42l21 -63l21 -105l21 -168v-21l21 -377v-21l-105 -42l-21 21l-21 377
l-21 168l-21 189l-63 21l-21 42l-63 21l-21 -21l-42 -42l-21 -105l-21 -504v-21l-63 -21h-21l-21 210v-189l-21 462l-42 21l-21 105v42l-42 21l-21 42l-21 42h-84l-42 -42l-21 -21l-42 -42l-21 -42l-21 -42l-21 -63l-21 -84v-84l21 -189l21 -147l-21 -62l-84 -42l-21 21v-21
l-21 167l-21 315v-105l-21 441l-21 189z" />
    <glyph glyph-name="n" unicode="n" 
d="M94 441l-21 -42l42 525l21 63l21 21h21l42 -168l21 -21l42 42l21 21h21l21 21l105 21l42 21h21l42 -21l42 -21l21 -42l21 -42l21 -84l21 -42l21 -441v-210l-21 -21h-63l-42 21l-21 168l-21 441l-21 63l-21 63h-42l-63 -21l-42 -42l-21 -42l-21 -42l-21 -42l-21 -42
l-21 -105l-21 -231v-105l-42 -42l-84 -21h-21l-21 252z" />
    <glyph glyph-name="o" unicode="o" horiz-adv-x="819" 
d="M451 231h21l21 63l42 63l21 21l21 63l21 84l21 294l-42 21l-42 21l-42 21h-63l-42 -42l-21 -42l-21 -21l-42 -42l-21 -42l-21 -63l-21 -42v-21v-21l-21 -105l-21 -42v-42l42 -84l42 -42l42 -21h84zM73 546l21 126l21 42l21 42l21 42l42 42l21 21l21 42l42 63l42 21l42 42
l42 21h126l21 -21l42 -21l42 -21l42 -42l42 -21l21 -42l21 -42v-336v-21l-21 -21l-21 -126l-42 -42l-21 -42l-21 -42l-21 -42l-21 -21l-42 -42l-21 -21l-42 -21h-231l-42 21l-42 21l-63 21l-21 42l-21 84v-21l-21 252z" />
    <glyph glyph-name="p" unicode="p" horiz-adv-x="882" 
d="M346 588l-21 -105v84l-21 -378l84 -42l63 -21l63 21l42 84l42 21l21 42l21 21l21 42l21 42v84l-21 105l-21 84l-42 21h21l-168 21l-21 -84l-21 -21l-42 -21h-21zM73 -461l21 84l21 105l21 84l21 335l42 504l21 21v126l42 21h-21l399 21l42 -21l42 -42l21 -42l21 -42
l21 -42l21 -42l21 -84v-168l-21 -42l-21 -21v-21v-21l-21 -21l-21 -63l-63 -42l-21 -63l-42 -42l-21 -21h-252l-63 21l-21 -251l-21 -63l-21 -84l-21 -63l-21 -84l-21 -42l-63 -21v21h-21l-21 84z" />
    <glyph glyph-name="q" unicode="q" horiz-adv-x="1050" 
d="M472 189l42 42l21 21l21 42l42 63l21 21v231v42l-42 21v63h-147l-42 -21l-63 -42l-21 -21l-42 -42l-21 -63l-42 -42l-21 -84v-168l21 -84h252zM94 588l21 21l42 63l21 21l42 42l21 21l42 42l21 21l273 21l42 -42l42 -21l42 -42l21 -42l21 -42l21 -84l21 -42v-231
l-21 -147l-21 -147l-21 -83l-21 -42l-21 -189l-21 -63v-126l42 42l21 21l42 42l21 21l42 42l21 21l42 42l42 21h21l42 -42v-84l-21 -21l-42 -21l-42 -42l-21 -42l-63 -42l-21 -21l-42 -42l-168 -21h-21l-21 273v21l42 252l21 21l21 104v105l-21 -21l-42 -42l-21 -42
l-252 -21l-189 21l-21 42v-21l-21 399z" />
    <glyph glyph-name="r" unicode="r" 
d="M73 966l42 21h21l21 -42l21 -189v-21l21 21l21 21l21 21l21 21l210 21l63 -21l42 -21l63 -21l21 -42h21v-21h21l-21 -84h-63l-42 21l-63 21v42h-147l-42 -42l-21 -42l-42 -42l-21 -63l-21 -126l-21 -105v-231l-42 -42l-63 -21h-21l-21 630z" />
    <glyph glyph-name="s" unicode="s" horiz-adv-x="714" 
d="M73 294h63l42 -21l21 -21l21 -42l21 -42l42 -21h42l42 21l42 42l-21 -21l42 168l-21 21l-21 63h-21v21l-84 21l-21 42v42l-42 21l-63 21v210l21 84l42 42l21 21l63 21h147l42 -21l84 -42l42 -21l21 -42l21 -42v-21l-21 -63l-42 -21l-21 21v63l-42 21l-63 21l-42 21h-63
l-63 -42l-21 -105l42 -42l42 -42l42 -21l21 -21l42 -21l21 -42l21 -63l21 -42v-252v-21l-42 -42l-21 -21l-42 -42l-21 -21l-63 -21h-105l-42 21l-42 21l-42 21v63l-42 21v-21l-21 147z" />
    <glyph glyph-name="t" unicode="t" horiz-adv-x="798" 
d="M73 1071l147 21l42 168l-21 -168l42 420l21 21l42 -42l-21 42l42 -420l336 -42l21 -21v-21l21 -21v-21l-378 -42l-21 -147v-42l21 -630l-21 -63l-42 -21h-42l-21 21l-21 21l21 840v21l-147 21l-21 21l-21 63z" />
    <glyph glyph-name="u" unicode="u" horiz-adv-x="945" 
d="M73 672l21 231l42 42l21 21h42h-42l42 -21l42 -42l-21 -21l-21 -42l21 -210l-21 -42v-273l21 -42l21 -42l21 -42h42l63 -42l42 42l21 21l42 84l21 21l21 42l21 63l21 84l21 84l21 42l21 231l21 105l42 21h42l21 -21l21 -504l21 -126l21 -63l21 -42l21 -63l21 -42l21 -42
l-21 -84h-84l-42 21l-21 42l-21 84l-21 21l-21 105l-21 -21l-42 -42l-21 -42l-21 -21l-42 -42l-21 -42l-42 -21h-147l-84 21l-42 21l-42 21l-21 105h-21v21h-21l-21 357z" />
    <glyph glyph-name="v" unicode="v" horiz-adv-x="777" 
d="M73 1008h63l21 -42l21 -105l21 -105l21 -84l21 -42l21 -126l21 -84l21 -105l21 -105l21 42l21 84l21 63l21 42l21 42l21 42l21 42l21 63l21 63l21 42l21 42l21 42l42 63v21l63 21l21 -21l21 -42v-84l-21 -42l-21 -42l-21 -42l-21 -63l-21 -105l-42 -42l-21 -42l-21 -63
l-21 -63l-21 -42l-21 -63l-21 -42l-21 -42l-21 -42l-21 -62l-21 -21h-84l-42 21l-21 41l-21 63l-21 63l-21 189l-21 21l-21 231l-21 21l-21 189v-84l-21 252z" />
    <glyph glyph-name="w" unicode="w" horiz-adv-x="1323" 
d="M73 987l84 21l21 -42l21 -63l21 -147v-42l42 -252l21 -42l21 -105l21 -42h21l21 42l21 63l42 63l21 21l42 84l-21 -21l42 126l21 21l42 42h84l21 -42l42 -42l21 -42l21 -42l21 -21l21 -42l42 -42l21 -42l21 -21l21 -42l21 42l21 21l42 168l21 21l21 84l21 42l21 84l42 63
v21l21 21l84 21l42 -42l-21 42v-126l-42 -42l-21 -105l-21 -42l-21 -63l-21 -42l-21 -42v-21l-21 -84l-21 -105l-42 -42l-21 -63l-21 -21l-147 -21l-21 42l-21 84l-21 63l-21 42l-42 21v42l-42 21v63l-42 21l-21 -63l-21 -42l-21 -42l-42 -42v-42l-42 -42l-21 -42l-21 -42
l-21 -21l-168 -42l-21 63l-42 21l-21 189l-21 21l-21 231l-21 63l-21 84v-21l-21 231z" />
    <glyph glyph-name="x" unicode="x" horiz-adv-x="987" 
d="M73 1050h63l21 -42l42 -42l42 -42l21 -42l42 -21l21 -42l21 -42l42 -21l42 -21l21 -42l42 -21l21 -42l42 -21l21 -21l42 63l21 21l42 63l21 21l42 63l21 21l42 63l21 21l84 -21v-147l-21 -21l-42 -42l-21 -21l-42 -42l-21 -42l-21 -21l-21 -21v-21l-21 -21l-21 -63
l21 -42l21 -42l42 -42l21 -42l21 -42l42 -42l21 -42l21 -84l21 -21v-21l21 -62v-21l-105 -42l-21 63l-42 21l-21 104l-21 21l-42 21l-21 63l-21 42l-21 63l-63 21l-21 -21l-21 -21l-42 -42l-21 -21l-42 -42l-21 -21l-42 -42l-21 -21l-42 -42l-21 -42l-105 -41l-21 62v-62
l21 125l21 21l21 42l42 42l21 21l42 63l21 21l42 42l21 21l42 42l21 21l21 42v42l-42 21l-21 42l-42 21l-21 42h-42l-21 42l-42 21l-21 63l-42 21l-21 63l-42 21l-21 42l-21 42l-21 63z" />
    <glyph glyph-name="y" unicode="y" horiz-adv-x="1008" 
d="M94 -146l21 21l42 42l21 21l42 42l21 20l42 42l21 21l21 42l42 63l21 21v126l-21 63v42l-42 21l-21 105l-21 21l-21 63h-21v21h-21l-21 126v21l63 21h42l21 -42l21 -42l42 -63l21 -42l21 -42l21 -63l21 -42l42 -21l21 -42l21 42l21 42l21 63l21 21l21 42l21 42l21 42
l21 21l21 42l21 42l42 42v21l21 21l21 21l63 21h21l42 -126l-42 -42l-21 -42l-42 -42l-21 -63l-42 -42l-21 -42l-21 -42l-21 -63l-42 -42l-21 -63l-21 -63l-42 -42l-21 -42l-42 -42l-21 -42l-42 -42l-21 -42l-21 -41l-21 -21l-42 -42l-21 -21l-42 -42l-21 -21l-42 -21
l-21 -42l-42 -21l-105 -21l-21 63z" />
    <glyph glyph-name="z" unicode="z" horiz-adv-x="861" 
d="M52 966h42h-21l294 21l126 -21l84 -21v21l126 -42h21l42 -105l-42 -42l-21 -21l-42 -42l-21 -21l-42 -42l-21 -21l-42 -21l-21 -42l-42 -42l-21 -21l-42 -42l-21 -21l-21 -21v-21l-21 -21l-21 -21l-21 -84l399 -42l42 21h21l21 -21l21 -42v-63l-21 -21h-525l-42 21
l-42 21h-63v21h-21h-21l-21 126l21 21l42 21l21 21l42 42l21 21l21 42l21 21l42 63l21 21l42 42l42 21l21 42l21 42l42 21l21 21l42 63l-84 21h-357v21h-21l-21 84v21z" />
    <glyph glyph-name="braceleft" unicode="{" horiz-adv-x="861" 
d="M94 1050l63 21l42 42l42 21l42 42l-42 21l-21 42l-21 42l-21 42l-21 126v-42l-21 210v21l21 84l21 21l21 42l21 42l21 42l42 42l42 21l42 21l42 21h231l42 -42v-63l-21 -21l-189 -21l-42 -21l-42 -21l-42 -21l-21 -63l-21 -42l-21 -42l-21 -42v-21l42 -42h-21l42 -126
l21 -42l21 -63l21 -42l21 -42l21 -21l-21 -126l-42 -21l-42 -21l-63 -42l21 -21l21 -42l21 -42l21 -441l21 -63l21 -21l21 -42l42 -21l63 -21l252 -21l42 -42v-63l-21 -21l-147 -21l-252 21l-21 42l-42 21l-42 21l-21 42l-21 42l-21 63v-21l-21 378l-21 126l-42 21l-21 42
h-21v21h-21l-21 105z" />
    <glyph glyph-name="braceright" unicode="}" horiz-adv-x="777" 
d="M73 147h84l42 42h21l42 42l21 21l21 42l21 42l21 42l42 84v21v294l21 63l21 21l42 42l42 21v42l-21 42h-21v21h-21l-21 147l21 63l21 21l42 63l21 21l21 105v231l-21 42l-21 42l-21 42l-42 21l-42 21l-63 21l-84 21l-21 42v63l21 21h126l42 -21l63 -21l63 -21l21 -42
l42 -21l21 -42l21 -42l21 -63l21 -42l21 -273l-42 -42l-21 -105l-21 -42l-42 -42l-21 -63l21 -21l21 -42h21v-21l42 -168l-42 -42l-21 -21l-42 -21l-21 -21l-42 -42v-42v-273l-21 -42l-21 -42l-21 -42l-21 -63l-21 -42l-21 -21l-42 -21l-42 -42l-21 -21l-42 -21l-168 -21
l-21 63z" />
    <glyph glyph-name="asciitilde" unicode="~" horiz-adv-x="1092" 
d="M73 1281l21 21l21 42l21 21l21 42l42 42v21l21 21l21 21l21 21l21 21l189 21h42l21 -42l42 -21l21 -42l21 -63l21 -42l42 -21l42 -21h84l21 21h21l21 21l42 168v21l63 21l21 -21l21 -42l21 -105l-21 -63l-42 -42l-21 -21l-42 -42l-21 -21l-42 -21l-21 -21l-105 -21v21
h-21l-63 21l-21 42l-42 21l-21 42l-42 21l-21 84h-21v21l-84 21h63l-126 -21l-21 -63l-42 -21l-21 -42l-21 -21l-21 -21v-21l-21 -21l-21 -63l-63 -42l-21 21v-21l-21 126z" />
    <glyph glyph-name="uni007F" horiz-adv-x="840" 
 />
    <glyph glyph-name="uni2010" unicode="&#x2010;" horiz-adv-x="903" 
d="M-17 2017h210h315h84v0h147h21v0h21v0h-231h-21h-420v0h-84h-21h-21v0z" />
    <glyph glyph-name="quoteleft" unicode="&#x2018;" horiz-adv-x="252" 
d="M73 957l21 126v21l63 21l21 -21l21 -42v-336l-21 -63v-21l-84 -21h-21l-21 147z" />
    <glyph glyph-name="quotesingle.001" unicode="'" horiz-adv-x="252" 
d="M62 1400l21 126v21l63 21l21 -21l21 -42v-336l-21 -63v-21l-84 -21h-21l-21 147z" />
    <glyph glyph-name="quotedblleft" unicode="&#x201c;" horiz-adv-x="651" 
d="M483 1512h84l21 -42l21 -273l-21 -126l-63 -21v21h-21l-21 420v21zM73 1542l42 42h21l21 -21l21 -42v-231v-63l-21 -126l-42 -21l-21 -21v21h-21l-21 252z" />
    <glyph glyph-name="quotedbl" unicode="&#x22;" horiz-adv-x="651" 
d="M483 1512h84l21 -42l21 -273l-21 -126l-63 -21v21h-21l-21 420v21zM73 1542l42 42h21l21 -21l21 -42v-231v-63l-21 -126l-42 -21l-21 -21v21h-21l-21 252z" />
    <glyph glyph-name="hyphen" unicode="-" horiz-adv-x="903" 
d="M38 426h210l315 21l84 -21v21l147 -42h21v-21l21 -63v-21l-231 -42l-21 21h-420v21h-84h-21l-21 105v21z" />
    <glyph glyph-name="agrave" unicode="&#xe0;" horiz-adv-x="945" 
d="M430 231l42 42l21 21l42 105v21v336h-147l-21 -21l-42 -42l-21 -21l-42 -21l-21 -42l-21 -42l-21 -84l-21 -63v-147l42 -21l63 -21h126h21zM73 546l21 63l21 21l42 63v21l21 21l21 21l21 21l21 21l21 21l21 21l21 21l231 21h21l42 -63l21 -42l21 -42l21 -294l21 -84
l42 -21l21 -42l42 -42l42 -42h21l42 -84l-21 -21h-84l-63 21l-21 42l-42 21v42l-42 21l-21 -42l-42 -21l-42 -42l-21 -21l-42 -21h-210l-84 21l-63 21l-21 42v-21l-21 294z" />
    <glyph glyph-name="ccedilla" unicode="&#xe7;" horiz-adv-x="777" 
d="M73 630l21 84l21 42l21 42l21 42l42 84l42 21l21 21l147 21h42l231 -42l21 -21v-21l21 -21v-21l-84 -42l-21 21h84h-126l-63 21h-63l-84 -21l-63 -42l-21 -63l-21 -42l-21 -42l-21 -42l-21 -42v-126l21 -63l21 -42l42 -21l21 -21l42 -21l84 -42l126 21l63 -21l21 -42
l-21 -63l-42 -21l-84 -21l-189 21l-21 42l-42 21l-63 21l-21 42l-63 21l-21 42v-21l-21 336z" />
    <glyph glyph-name="eacute" unicode="&#xe9;" horiz-adv-x="987" 
d="M241 588h105h-63l336 21l21 21v105l-21 42l-21 42l-21 42h-84l-126 -21l-21 -21l-63 -21l-42 -42l-21 -42l-21 -84v-42v84l21 -105h21v21zM73 756l21 42l21 63l42 42l42 21h21l42 42l21 21l294 21h42l42 -21l42 -21l21 -42l21 -42l21 -63l21 -42v-210l-21 -21l-42 -42
l-21 -21l-273 -21l-63 -21l-84 -42v-21l42 -21l21 -42l42 -42l42 -42l42 -21l126 -21h42l63 21h21l21 21l63 21l42 42l42 21l21 -21l21 -42v-84l-21 -21l-42 -21l-42 -21l-42 -21l-63 -21l-126 -21h-147h-42l-21 42l-42 21h-42l-21 42l-42 21l-21 63h-42l-21 63l-42 21
l-21 126l-21 84v-21l-21 210z" />
    <glyph glyph-name="quotedblright" unicode="&#x201d;" horiz-adv-x="651" 
d="M461 1162h84l21 -42l21 -273l-21 -126l-63 -21v21h-21l-21 420v21zM51 1192l42 42h21l21 -21l21 -42v-231v-63l-21 -126l-42 -21l-21 -21v21h-21l-21 252z" />
    <glyph glyph-name="quoteright" unicode="&#x2019;" horiz-adv-x="252" 
d="M73 957l21 126v21l63 21l21 -21l21 -42v-336l-21 -63v-21l-84 -21h-21l-21 147z" />
    <glyph glyph-name="endash" unicode="&#x2013;" horiz-adv-x="903" 
d="M27 426h210l315 21l84 -21v21l147 -42h21v-21l21 -63v-21l-231 -42l-21 21h-420v21h-84h-21l-21 105v21z" />
    <glyph glyph-name="ellipsis" unicode="&#x2026;" horiz-adv-x="903" 
d="M27 426h210l315 21l84 -21v21l147 -42h21v-21l21 -63v-21l-231 -42l-21 21h-420v21h-84h-21l-21 105v21z" />
  </font>
</defs>
</svg>
