<?xml version="1.0" standalone="no"?>
<!DOCTYPE svg PUBLIC "-//W3C//DTD SVG 1.1//EN" "http://www.w3.org/Graphics/SVG/1.1/DTD/svg11.dtd" >
<svg>
<metadata>
Created by FontForge 20120731 at Thu Oct 17 15:39:32 2013
 By ruji
Created by Ruji Chapnik (http://rujic.net) with the Open Font License.
</metadata>
<defs>
<font id="RujisHandwritingFontv.2.0" horiz-adv-x="453" >
  <font-face 
    font-family="Ruji's Handwriting Font v.2.0"
    font-weight="500"
    font-stretch="normal"
    units-per-em="1000"
    panose-1="2 0 6 3 0 0 0 0 0 0"
    ascent="800"
    descent="-200"
    x-height="475.5"
    cap-height="687"
    bbox="18.8049 -249.72 798 881.28"
    underline-thickness="50"
    underline-position="-100"
    unicode-range="U+0020-201D"
  />
<missing-glyph horiz-adv-x="364" 
d="M33 0v666h265v-666h-265zM66 33h199v600h-199v-600z" />
    <glyph glyph-name=".notdef" horiz-adv-x="364" 
d="M33 0v666h265v-666h-265zM66 33h199v600h-199v-600z" />
    <glyph glyph-name=".null" horiz-adv-x="0" 
 />
    <glyph glyph-name="nonmarkingreturn" horiz-adv-x="333" 
 />
    <glyph glyph-name="space" unicode=" " 
 />
    <glyph glyph-name="exclam" unicode="!" horiz-adv-x="231" 
d="M55 69q8 35 29 45l9 4q12 7 26 4l5 1q16 5 30.5 -3.5t18.5 -24.5q2 -8 1 -15q6 -15 4 -25q-4 -18 -19.5 -30.5t-33.5 -13.5l-9 -1q-11 -4 -22 -3q-17 3 -31 20.5t-9 38.5q1 1 0.5 1t0.5 2zM132.5 217q-16.5 -2 -30 8.5t-15.5 26.5l-2 15q-2 15 -3 31t-2 55q-1 40 2 65
q2 23 6 58q3 33 4 61t1 35q0 5 -1 19q-1 13 -2 24q-1 10 -1 18l-2 3q-9 14 -5 30.5t18 25t30.5 4.5t25.5 -18l4 -6q9 -16 9 -34q0 -5 1 -14q2 -12 3 -28t1 -24q0 -7 -1 -38t-4.5 -66.5t-6.5 -57.5q-2 -20 -1 -56q1 -37 2 -50q1 -14 2 -27l2 -14q2 -17 -8 -30.5t-26.5 -15.5z
" />
    <glyph glyph-name="quotedbl" unicode="&#x22;" horiz-adv-x="421" 
d="M145 528q-13 -4 -23 -4q-15 -1 -32 11t-19 32q-2 19 13 45q9 17 15 26q9 12 25 22q13 10 32.5 9.5t33.5 -10.5q18 -14 26 -37q4 -10 7 -22q9 14 22 23q3 2 7 4q14 8 28 10q14 1 30 -3l8 -2q14 -4 23 -15q13 -14 11 -33v-1q9 -15 13 -29q8 -27 -1 -53q-5 -16 -14 -36
q-8 -20 -15 -31q-7 -13 -24 -33q-16 -19 -31 -33q-12 -12 -15 -16l-5 -6q-11 -13 -27.5 -15t-29.5 8.5t-15 27.5t8 29l5 7q7 8 23 24q13 11 25 27q9 10 14 18q-15 6 -22 21l-4 8l-4 8q-4 6 -6 11h-1v-3q-6 -28 -20 -51q-13 -21 -34 -41q-17 -17 -35 -32l-18 -15
q-12 -10 -29 -9t-27.5 14t-9 29.5t13.5 27.5l17 15q16 13 32 28q13 13 21 26q6 8 8 19z" />
    <glyph glyph-name="numbersign" unicode="#" horiz-adv-x="759" 
d="M69 181.5q-3 16.5 7 30t26 16.5l27 4q22 4 73 13q15 50 34 96q9 23 19 46h-3q-104 -14 -130 -16l-25 -2q-17 -2 -29.5 9t-14 27.5t9.5 29.5t27 15l25 2q25 2 126 15q25 3 49 6q16 38 23 55q8 19 18 50q9 27 10 35l1 8q2 16 15.5 26.5t30 8.5t27 -15.5t8.5 -29.5l-1 -9
q-2 -12 -14 -49q-11 -34 -21 -57q-3 -8 -8 -19q35 -1 68 -3q31 -2 54 -4q7 18 14 33q31 72 35 83l4 11q7 15 22.5 22t31 1t22 -22t0.5 -31l-5 -11q-5 -12 -36 -85q-2 -4 -3 -8h16q21 -1 29 -1h9q17 1 29 -11t12 -28.5t-11.5 -28.5t-28.5 -13h-8q-10 0 -33 1q-23 0 -43 2
q-13 -44 -26 -97q-5 -19 -9 -36q57 -7 86 -13q32 -7 47 -13q13 -5 21 -9l7 -4q15 -6 21 -22t-1 -31t-23 -21t-31 1l-7 3q-6 3 -17 8q-9 3 -34 9q-27 5 -85 12h-1q-6 -33 -9 -54q-6 -54 -6 -91l-1 -38q0 -17 -12.5 -28.5t-29 -11.5t-28 12.5t-11.5 28.5l1 39q0 40 7 98
q2 22 8 51q-23 1 -48 2q-55 1 -109 -6q-11 -47 -19 -87l-10 -51q-3 -16 -17 -25.5t-30.5 -6.5t-26 17t-6.5 30l10 51q6 28 13 58q-25 -4 -39 -6l-26 -5q-17 -3 -30.5 7t-16.5 26.5zM475 391q-15 1 -34 2q-47 4 -96 2l-34 -84q-11 -27 -20 -54q43 4 87 3q32 -1 63 -2
q5 22 11 48q11 46 23 85z" />
    <glyph glyph-name="dollar" unicode="$" horiz-adv-x="538" 
d="M400.5 692q15.5 -4 24 -19t4.5 -31l-3 -10q-2 -7 -9 -36q7 -5 13 -12q19 -19 32 -57q12 -32 16 -51l4 -16q3 -16 -6 -30.5t-25.5 -17.5t-30.5 6t-18 25l-3 16q-2 8 -6 22q-5 -27 -10 -59q-11 -77 -17 -122q13 -6 23 -13q20 -13 37 -30t34 -44q19 -31 23 -58q5 -27 -1 -49
q-5 -20 -18 -37.5t-36 -32.5q-22 -15 -48 -24q-13 -5 -31 -9v-3q0 -18 -1 -41q-1 -22 -1 -32q-1 -10 -1 -21v-21l-1 -7q-1 -16 -14 -27.5t-29.5 -10t-27.5 14t-10 29.5l1 6v16q0 13 1 24q0 11 1 33q1 14 1 25q-6 0 -12 -1h-11q0 -9 -1 -14q-1 -10 -1 -27v-20
q0 -17 -12 -28.5t-28.5 -11.5t-28.5 12t-12 28v20q0 21 2 35q0 5 1 23q-12 5 -26 14q-36 21 -51 40q-16 19 -25 54q-8 29 -9 40l-1 9q-2 16 9 29t27.5 15t29.5 -8.5t15 -27.5l1 -8q0 -6 6 -28q5 -18 10 -24q3 -4 16 -13q1 1 1 3q1 31 5 99q2 46 6 108q-31 22 -45 39
q-14 18 -25 40q-10 24 -12 46q-2 21 5 48q8 28 31 57q21 27 46 45q9 7 19 13q2 37 3 59l2 34q1 16 13.5 27.5t29 10.5t28 -13.5t10.5 -28.5l-2 -34q0 -8 -1 -19q7 0 14 1q23 0 46 -4q5 19 7 26l3 11q4 16 19 24t30.5 4zM258 260q-3 -37 -4 -66q-4 -68 -6 -99q0 -13 -1 -27h4
q8 1 19 2q2 39 4 98q2 46 6 82q-12 5 -22 10zM358 210q-2 -21 -3 -46q-2 -43 -3 -76q1 0 1 1q17 5 30 14q11 8 15 13.5t6 11.5q1 4 0 14q-2 11 -13 28q-12 20 -23 30zM289 334q5 40 14 100q10 68 19 114q-13 2 -27 2q-7 0 -19 -6v-1v-2q-4 -73 -11 -177l-2 -16
q17 -10 26 -14zM187 412q2 34 4 66q-8 -11 -11 -20q-3 -13 -3 -20q1 -8 6 -20z" />
    <glyph glyph-name="percent" unicode="%" horiz-adv-x="583" 
d="M422 159q-1 -3 -1.5 -8.5t-0.5 -9.5q1 0 1 -1q1 -1 4 -1q5 -2 10 -1q4 1 6 3q3 4 6 11q1 1 1 3l-9 3q-5 2 -8 2l-6 -1h-3zM464 235q21 -6 36 -18t24 -30q14 -28 -2 -66q-14 -32 -33 -46q-17 -12 -38.5 -16t-44.5 1q-26 6 -43 24q-17 17 -21 38q-4 15 -2 34q1 19 8 35
q6 15 18 28q13 13 34 22l14 7q13 6 27 2.5t23 -15.5zM147 482l-3 -3q-1 -4 -2 -7q1 3 2 4q2 3 3 6zM157 561q34 3 55 -20q20 -21 20 -44q0 -10 -3 -24t-13 -34q-9 -17 -15 -27q-12 -15 -32 -25q-23 -11 -43 -7q-21 4 -39 25q-13 15 -19 31t-7 32q-1 20 9 42q11 26 35 41
l13 8q19 12 39 2zM76 -24.5q-15 7.5 -20.5 23.5t1.5 31l11 22q11 23 46 91t94 165t102.5 160.5t57.5 83.5q15 20 26 32q8 10 19.5 26t17.5 26t9 18l3 6l1 6q4 16 18 25t30 5.5t25.5 -18t5.5 -30.5l-2 -7q-2 -11 -8 -22q-5 -11 -12 -24q-8 -13 -21.5 -31.5t-23.5 -31.5
q-9 -11 -23 -29q-13 -18 -55 -80t-101 -157q-57 -95 -91 -161t-45 -88l-11 -23q-7 -15 -23 -20.5t-31 2z" />
    <glyph glyph-name="ampersand" unicode="&#x26;" horiz-adv-x="565" 
d="M200 265q-9 -11 -14 -18q-13 -18 -28 -48q-14 -29 -18 -48q-5 -21 -6 -33q-1 -9 5 -31q5 -23 10 -32l2 -2q14 4 49 22q48 23 85 47q10 6 19 14q-18 22 -32 38q-26 31 -47 58q-12 15 -25 33zM213 393q9 7 16 13q21 15 45 34q26 19 39 29q9 6 19 17q9 10 14 19q3 5 5 23
q3 23 2 37q0 10 -7 23q-7 16 -11 21l-2 2q-11 2 -43 7q-39 5 -53 4q-15 -2 -27 -6q-12 -3 -23 -9q-7 -4 -9 -7l-12 -20q-5 -9 -9 -16q-1 -4 -2 -14q0 -13 2 -26t9 -32q8 -22 21 -47q12 -27 23 -46q1 -3 3 -6zM363 192q21 27 39 60q16 30 21 43v12v7q0 16 12 28t28.5 12
t28.5 -12t12 -28v-7q0 -8 -1 -19q0 -8 -1 -14.5t-4.5 -13.5l-6 -12t-8.5 -16t-10 -18q-25 -48 -58 -85q28 -33 53 -59l34 -36q11 -12 10.5 -28.5t-12.5 -28t-29 -11t-28 12.5l-34 35q-25 27 -53 59q-13 -10 -27 -19q-41 -27 -93 -52q-57 -28 -78 -30q-26 -2 -47 9
q-19 11 -33 35q-10 19 -18 52q-8 35 -7 56q2 18 8 45q6 28 24 66q18 36 35 59q12 16 33 40q-9 16 -15 27q-11 21 -24 49q-14 28 -23 53q-11 27 -14 48q-4 22 -3 43q2 23 9 40q5 13 12.5 26t15.5 25q13 20 37 33q19 10 38 16q20 6 42 8q24 3 73.5 -4t62.5 -12q19 -8 33 -25
q11 -13 23 -39q12 -27 14 -52q1 -22 -2 -51q-4 -34 -15 -54q-10 -17 -26 -34q-15 -17 -31 -29q-12 -8 -36 -26q-25 -20 -47 -36q-9 -6 -19 -16q17 -24 31 -42q20 -26 44 -55q13 -15 30 -35z" />
    <glyph glyph-name="quotesingle" unicode="'" horiz-adv-x="258" 
d="M93 560q-18 4 -32 25t-4 43q9 18 29 33q27 21 53 16q20 -5 35 -20q10 -10 17.5 -24t11 -34t2.5 -33q-1 -9 -4 -19t-6 -17t-12 -25l-15 -30l-32 -69q-7 -15 -23 -21t-31 1t-20.5 23t1.5 31l32 69q14 29 22 48q-10 0 -24 3z" />
    <glyph glyph-name="parenleft" unicode="(" 
d="M393.5 753q9.5 -14 6 -30.5t-17.5 -25.5l-11 -7q-11 -8 -23 -16q-11 -7 -31 -22q-19 -14 -38 -31q-20 -18 -35 -33q-14 -14 -29 -36q-16 -22 -28.5 -47.5t-19.5 -44.5q-6 -21 -12 -40q-5 -16 -9 -38t-9 -68q-4 -46 -3 -66q1 -23 3.5 -42.5t8.5 -51t12 -54.5t13 -43
q6 -19 11 -31q6 -12 15 -25q11 -16 22 -29q10 -13 17 -18q11 -11 26 -31q11 -16 19 -25q7 -9 13 -15l12 -10q7 -7 14 -13l7 -5q12 -11 13 -28t-10 -29.5t-28 -13.5t-29 10l-7 6q-6 5 -13 11q-9 8 -17 16q-7 7 -16 18q-10 11 -24 30q-10 14 -16 19q-10 10 -23 26t-26 34
q-14 20 -22 38q-8 17 -15 41q-7 21 -14 46t-13.5 60t-9.5 57.5t-4 47.5q-1 26 4 77q4 50 9 76t11 47q6 19 13 41q8 25 24 56t35 58q19 28 38 46q16 17 38 36q22 20 44 36q21 16 34 25q12 8 24 15l10 7q14 10 30.5 6.5t26 -17.5z" />
    <glyph glyph-name="parenright" unicode=")" horiz-adv-x="425" 
d="M106.5 -242.5q-13.5 9.5 -16 26.5t7.5 30l19 27q18 26 33 51t36 66t31 59q10 17 32 55q20 36 24 46q3 10 6 23q2 15 5 38t5 53q3 29 3 46q-1 19 -1 42q0 22 -2 44q-1 21 -4 38q-4 20 -10 43q-6 21 -16 41q-13 25 -22 46q-7 16 -17 29q-12 17 -28 38q-16 20 -24 28l-21 21
q-12 11 -30.5 25.5t-30.5 22.5l-14 8q-14 9 -18 25t4.5 30.5t25 18.5t31.5 -5l13 -8q16 -10 38.5 -27.5t36.5 -31.5q13 -12 23 -23q11 -11 29 -34t30 -40q15 -20 26 -44q8 -19 20 -42q14 -28 22 -58q7 -26 11 -46q4 -23 6 -49q2 -25 2 -49q0 -23 1 -42q0 -21 -3 -54
q-3 -31 -6 -56t-6 -42q-3 -20 -9 -37q-7 -17 -30 -58q-22 -37 -31 -55q-10 -16 -30 -57q-22 -41 -38 -69t-37 -57l-20 -27q-9 -13 -26 -16t-30.5 6.5z" />
    <glyph glyph-name="asterisk" unicode="*" horiz-adv-x="538" 
d="M264 340l10 4q12 5 24 11q-1 3 -1 7h-2q-7 1 -16 1q-7 -11 -15 -23zM103 152q-22 -5 -39 11q-11 12 -11 29t12 29l12 11q6 6 14 12q12 9 31 21q9 16 21 36q-15 10 -21 13q-16 7 -32 18q-19 14 -21 30.5t9 29.5t21 21t14 10q34 14 92 19q15 1 31 2q3 5 6 8q15 19 25 32
q9 10 12 15q5 7 14 17l0.5 1.5t1.5 3t3 4t4.5 4t6.5 3t9.5 2.5t11.5 1q24 -1 34 -13t8 -24l-2 -12q-1 -9 0 -38q0 -6 1 -13q29 -4 48 -10l35 -10q22 -6 28.5 -17.5t0.5 -23.5t-15 -23t-18 -18l-8 -7q-19 -8 -54 -22l6 -38l10 -60q2 -11 3 -20q2 -23 -15.5 -32.5t-37 -7.5
t-23.5 7q-7 7 -25 24t-33 30q-13 11 -37 30q-3 -1 -4 -2q-25 -13 -48 -27l-3 -6l-16 -35q-7 -15 -23 -20.5t-31 1.5q-3 1 -8 4z" />
    <glyph glyph-name="plus" unicode="+" horiz-adv-x="549" 
d="M53 282.5q0 16.5 12 28.5t29 11h15q13 0 92 10q23 3 44 6q1 31 0 55q-1 53 -4 94l-4 43q-1 16 10 29t27.5 14.5t29.5 -9.5t14 -28l4 -42q3 -44 4 -100q1 -22 0 -49h11q51 2 85 2l33 1q17 1 29 -11t12.5 -28.5t-11.5 -28.5t-28 -13l-34 -1q-33 0 -83 -2q-8 0 -17 -1
q-1 -6 -1 -12q-6 -88 -12 -122q-6 -31 -7 -37l-2 -7q-3 -17 -17 -26.5t-30 -6t-25.5 17.5t-6.5 30l1 7q1 7 7 38q6 28 11 111q-14 -2 -30 -4q-84 -11 -103 -11h-15q-16 1 -28 13t-12 28.5z" />
    <glyph glyph-name="comma" unicode="," horiz-adv-x="296" 
d="M129 0v1l-22 25q-11 11 -11 27q-2 5 -3 10q-3 21 10 45q14 25 40 34q18 7 37 6q28 -2 47 -26q18 -22 16 -55q-1 -27 -27 -77q-24 -45 -44 -71q-18 -23 -32 -42l-14 -20q-9 -13 -26 -16t-30.5 7t-16 26.5t6.5 30.5l15 19q14 20 33 44q9 13 21 32z" />
    <glyph glyph-name="hyphen" unicode="-" horiz-adv-x="474" 
d="M53.5 266.5q-2.5 16.5 7.5 30t26 16.5l31 5q34 6 94 7q59 1 104 -3q41 -4 52 -5h14q16 0 28 -12t12 -28.5t-12.5 -28.5t-28.5 -12h-13q-16 1 -60 5q-40 4 -94 3t-83 -6l-31 -5q-16 -3 -30 7t-16.5 26.5z" />
    <glyph glyph-name="period" unicode="." horiz-adv-x="267" 
d="M60 72q5 24 28 31l13 4q20 7 41 5q29 -2 50 -23q24 -24 22 -49q-2 -20 -19 -41q-19 -21 -49 -26t-57 13q-25 16 -32 37q-10 25 3 49z" />
    <glyph glyph-name="slash" unicode="/" horiz-adv-x="512" 
d="M88.5 -152q-16.5 2 -27 15t-8.5 30l4 31q4 34 24 105q19 71 48.5 140.5t77.5 153.5q47 81 70 126q24 45 36.5 73.5t16.5 40.5q6 14 17.5 41t19.5 43q7 13 10 23l5 11q5 15 20.5 22t31 1.5t22.5 -21t1 -31.5l-4 -11q-5 -13 -13 -30q-8 -15 -18.5 -39.5t-15.5 -36.5
q-5 -14 -18.5 -45t-38.5 -78q-24 -47 -71 -129q-46 -80 -73.5 -145t-45.5 -130t-22 -93l-3 -32q-2 -16 -15.5 -26.5t-30 -8.5z" />
    <glyph glyph-name="zero" unicode="0" horiz-adv-x="647" 
d="M61 126q-10 13 -7.5 30t15.5 27l29 21q9 6 20 14v5q-3 18 -4.5 34.5t-2.5 33.5q-1 18 -1 37q1 18 4 51q3 31 5 47q2 19 8 38q5 16 12 36q8 21 12 30q6 13 27 37q19 21 42 42q16 14 32 25l12 8q11 11 23 16q5 2 12 4q6 4 11 6l17 8q15 7 31 1.5t23 -20.5q7 -3 13 -5
q14 -6 29 -14q16 -9 37 -24q26 -20 37 -40q8 -15 13 -32q4 -15 10 -48q6 -32 9 -55l1 1q13 9 30 6.5t26.5 -15.5t7 -30t-15.5 -27l-12 -9q-11 -7 -27 -18q0 -6 1 -11q2 -15 4 -37q3 -23 4 -45v-39v-33q-1 -17 -3 -33q-2 -18 -7 -41q-6 -26 -15.5 -45t-30.5 -42
q-18 -20 -32 -33q-15 -15 -29 -23q-12 -8 -25 -13q-12 -5 -26 -9q-16 -4 -38 -6q-24 -2 -44 3q-19 5 -31 12q-8 5 -25 17q-20 13 -36 30q-19 18 -30 39l-15 30q-7 16 -12 31t-10 32q0 1 -1 2l-21 -15q-13 -10 -29.5 -7.5t-26.5 15.5zM317 580l-7 -10q-11 -14 -30 -16l-6 -6
q-19 -17 -35 -35q-11 -12 -15 -18q-3 -7 -9 -22q-6 -18 -10 -33q-4 -12 -6 -25q-2 -14 -5 -44q-3 -29 -3 -45t1 -30q1 -15 2 -31v-3q10 5 20 11q83 45 166 83q43 21 72 35q-2 19 -4 39t-7 50q-6 29 -9 39q-2 9 -7 17q-3 5 -13 12q-17 13 -29 19q-11 6 -19 10l-21 7
q-9 2 -14 3q-3 -2 -7 -4q-2 -1 -5 -3zM462 306q-20 -10 -48 -23q-81 -37 -162 -81q-23 -13 -42 -24q3 -14 7 -25q4 -15 8 -27t10 -24l13 -26q5 -10 15 -20q11 -11 25 -21q15 -10 21 -13q2 -2 9 -3q7 -2 18 -1q15 1 22 3q10 3 17 6t14 7q6 4 15 12q12 11 28 30q14 15 18.5 24
t8.5 25q4 19 5 33q2 14 3 28v29v36q-1 20 -3 39q-1 9 -2 16z" />
    <glyph glyph-name="one" unicode="1" horiz-adv-x="399" 
d="M53 11.5q-1 16.5 10 29.5t28 14l40 3q12 1 24 1q2 11 3.5 55t3.5 83q1 37 5 75q4 37 10 74q5 37 11 81.5t11 89.5q3 22 4 41q-13 -6 -28 -14l-29 -15q-14 -7 -30.5 -2t-24 20t-2 31t19.5 23l29 15q31 16 54 25q17 6 22 9q20 11 33 9t20.5 -13t11.5 -23.5t5 -22.5l1 -10
q1 -35 -5 -83l-12 -90t-11 -82q-5 -36 -9 -72q-4 -35 -5 -69q-2 -37 -3 -83q-2 -39 -4 -54q14 -1 24 -2q15 -1 23 -1q14 0 24 -2l6 -1q17 -3 26.5 -17t6.5 -30.5t-17 -26t-31 -6.5l-6 2h-9q-11 0 -30 2q-15 1 -42 2q-13 -8 -28 -6q-10 1 -18 7q-14 0 -28 -1l-41 -3
q-16 -1 -29 10t-14 27.5z" />
    <glyph glyph-name="two" unicode="2" horiz-adv-x="561" 
d="M138 400.5q-16 3.5 -25.5 17.5t-5.5 31l6 25q5 26 24.5 46.5t57.5 49.5q71 53 120 56q47 2 87 -15q42 -17 69 -55q25 -36 33 -75q8 -40 2 -70q-7 -31 -43 -79q-32 -41 -66 -80q-34 -40 -65 -70q-30 -28 -70 -64q-22 -20 -41 -37q77 11 115 12q39 2 55.5 1t33.5 -4
q13 -2 18 -3h7q16 -2 27 -15t9.5 -29.5t-14.5 -27.5t-30 -9h-7q-8 1 -24 4q-13 2 -25 3t-47 -1q-35 -1 -113 -12q-81 -10 -110 -11q-4 1 -11 3.5t-21.5 10t-22.5 16t-7 22t18 27.5q10 8 30 21q16 11 41 32q26 22 65 57t68 63q28 27 60 64t62 76q26 33 28 47q3 14 -1 37
q-5 22 -20 44q-14 19 -35 28q-23 9 -50 8q-25 -1 -77 -40q-44 -33 -52 -49l-5 -25q-4 -16 -18 -25t-30 -5.5z" />
    <glyph glyph-name="three" unicode="3" horiz-adv-x="582" 
d="M55 556q-5 16 3 31t24 20l16 5q21 6 106 13q87 8 143 -4q53 -11 80 -20t38 -15q22 -12 26 -27.5t-6.5 -29t-24 -25t-25.5 -18.5l-11 -6q-53 -34 -88 -52q-28 -14 -59 -34q45 -7 100 -28q74 -29 106 -65q33 -37 42 -74q9 -36 0 -81q-9 -46 -29 -71q-17 -21 -54 -47
t-69 -37q-32 -12 -83 -16q-54 -4 -93 9q-38 12 -71 39q-33 26 -49 50q-19 28 -20 62v22q-1 16 10.5 28.5t28 13t29 -11t13.5 -28.5v-22q1 -10 6 -19q9 -13 33 -32q22 -17 46 -25q23 -8 61 -5q40 3 62 11q21 8 49 27.5t38 31.5q7 9 13 36q5 27 1 46q-5 17 -24 39t-76 43
q-59 24 -101 26q-43 2 -69 -3q-2 0 -6 -1.5t-13.5 -2.5t-17.5 1.5t-15.5 12.5t-9.5 26q-2 13 0.5 23t8.5 16t11 9.5t11 6.5t7 3q39 27 74 51q37 25 73 43q24 12 60 34q-13 3 -29 7q-45 9 -120 3t-89 -10l-17 -6q-15 -4 -30 3.5t-20 23.5z" />
    <glyph glyph-name="four" unicode="4" horiz-adv-x="497" 
d="M333 659.5q16 -4.5 24 -19t4 -30.5l-3 -11q-2 -9 -20 -92q-17 -83 -27 -141q-3 -13 -5 -29q20 -1 30 -1q16 -2 27 -1q14 0 27 1h13q17 0 29 -11.5t12.5 -28t-11 -29t-28.5 -12.5h-13q-12 -1 -25 -1q-16 -1 -38 1q-9 1 -32 2q-1 -15 -3 -31q-7 -86 -8 -117q-1 -33 -3 -56
q-1 -22 -2 -46t-1 -33v-9q0 -17 -12 -29t-28.5 -12t-28.5 12t-12 29v9q0 10 1 35q1 26 2 49q2 23 3 54q2 33 9 120q1 15 2 29q-36 2 -52 3q-24 2 -53 8q-56 13 -58 55q-1 15 10 72q9 51 15 88q7 39 14 83l8 45q2 17 16 26.5t30.5 7t26 -16.5t7.5 -30l-8 -46q-8 -49 -14 -82
q-6 -38 -16 -90q-3 -20 -6 -34q19 -4 34 -5t55 -3q3 20 6 38q10 59 28 144q18 86 21 97l3 10q4 16 19 24.5t31 4z" />
    <glyph glyph-name="five" unicode="5" horiz-adv-x="558" 
d="M505.5 585.5q-1.5 -16.5 -14.5 -27t-30 -9.5l-9 1q-8 1 -49 1q-42 0 -74 -2t-66.5 -8t-46.5 -10q-7 -2 -13 -3q-5 -14 -11 -37q-11 -37 -16 -71q-5 -36 -7 -46q0 -2 -1 -6q28 9 59 15q36 6 72 5q40 0 72 -12q31 -11 54 -28q27 -20 43 -61t7 -83q-6 -36 -18 -64
q-11 -29 -22.5 -46t-35.5 -39q-26 -24 -50 -33q-22 -8 -66 -11t-78 6q-33 10 -67 31q-33 21 -51 40q-17 20 -25 37q-9 20 -9 45v16q1 16 13 28t28.5 11.5t28.5 -12.5t11 -28v-16q0 -7 2 -10q2 -6 12 -17t33 -26q24 -15 45 -21q21 -5 52 -3q32 2 43 6q9 3 23 16
q17 16 23.5 25.5t14.5 30.5t14 49q4 20 -3.5 39t-16.5 25q-12 10 -33 17q-19 7 -45 7q-29 1 -56 -4q-28 -5 -52 -13q-32 -11 -52 -13q-20 -1 -39.5 14.5t-16.5 40.5q1 13 3 30q3 14 4 23q1 10 7 47q6 39 18 81q12 40 15 51q4 16 17.5 28t31.5 13q5 1 15 4q16 5 55 12t76 9
q35 2 79 2q45 0 56 -1l10 -1q16 -1 27 -14.5t9.5 -30z" />
    <glyph glyph-name="six" unicode="6" horiz-adv-x="541" 
d="M136 273q12 9 29 21q24 18 56 31q31 12 61 17t52 5q23 -1 46.5 -7.5t43.5 -17.5q24 -13 36 -30q9 -14 16 -30t11 -37q4 -23 0 -55q-4 -26 -6 -35q-2 -13 -11 -36q-10 -26 -30 -53q-22 -28 -48 -44q-20 -13 -46 -26q-31 -16 -49 -18q-17 -2 -38 3q-20 5 -41 16
q-18 9 -38 22q-21 14 -37 28q-16 15 -25 29q-9 12 -16 27q-8 15 -14 33q-5 16 -11 41q-6 24 -10.5 47.5t-8.5 43.5q-4 23 -5 50t2 56q2 29 9 54q6 26 23 63q17 35 33 57q16 23 36 42q19 18 39 34q24 19 48 28q22 8 46 12q22 3 56 2q35 0 60 -5q28 -7 47 -19l12 -9
q14 -9 17.5 -25.5t-6 -30.5t-26 -17t-30.5 6l-12 9q-6 4 -19 7q-17 3 -43 3q-29 1 -45 -2q-15 -2 -28 -7q-12 -4 -26 -15q-17 -14 -34 -30q-15 -14 -26 -30t-26 -46q-13 -28 -18 -46q-5 -19 -6 -42q-2 -24 -2 -46q1 -15 2 -28zM156 174q5 -21 9 -33t9 -22t10 -18
q5 -6 14 -14q10 -10 26 -20q17 -11 31 -19q12 -6 22 -8q7 -2 11 -2q7 3 21 10q23 11 41 23q13 8 25 24q14 18 20 33q6 16 7 21l4 32q3 19 1 29q-2 13 -6 21q-3 8 -7 14q-3 3 -9 6q-12 7 -26 11t-27 4q-14 0 -36 -3q-22 -4 -44.5 -13t-38.5 -21q-20 -14 -31 -23
q-8 -7 -15.5 -17t-10.5 -15z" />
    <glyph glyph-name="seven" unicode="7" horiz-adv-x="577" 
d="M166 326.5q0 16.5 12.5 28.5t28.5 12l18 -1q15 0 86 10q10 1 19 2l16 30q30 54 61 111q12 22 21 38q-5 1 -9 1q-24 2 -61 4q-36 2 -116 1q-83 -2 -117 -1h-32q-17 0 -28.5 12t-11.5 29t12.5 28.5t28.5 11.5h33q31 -1 113 1q84 1 123 -1q38 -2 62 -4q25 -2 44 -4
q45 -5 54 -40q6 -25 -8 -49q-6 -10 -37 -66q-28 -51 -51 -94h25h9q17 0 29 -11.5t12 -28.5t-12 -29t-29 -12h-9h-36q-10 0 -33 -2q-10 -21 -21 -43q-26 -57 -44 -101q-18 -42 -26 -68q-9 -29 -12 -38q-3 -10 -7 -22l-4 -13q-6 -15 -21 -22.5t-30.5 -2.5t-23 20.5t-2.5 30.5
l4 12l7 21t11 37q10 31 29 77q18 43 44 100q-45 -6 -63 -6l-18 1q-17 0 -28.5 12t-11.5 28.5z" />
    <glyph glyph-name="eight" unicode="8" horiz-adv-x="514" 
d="M258 406q4 2 7 4q13 6 24 12q11 7 31 19q18 10 25 17q6 4 10 9q6 9 12 20l11 22q2 5 3 13q0 9 -4 21q-4 13 -11 23q-9 12 -19 21q-10 8 -22 13q-11 4 -26 3q-19 -1 -42 -9t-43 -23q-17 -13 -35 -48q-13 -25 -15 -36q2 -9 8 -17q9 -12 25 -26q17 -14 47 -30zM232 303
q-11 -8 -25 -21q-25 -22 -39 -38q-11 -13 -20 -32q-8 -19 -11.5 -42t-2.5 -33q2 -10 6 -21q4 -13 11 -27q8 -15 16 -28q4 -6 6 -8q7 -5 18 -9q12 -5 31 -9q17 -4 28 -3q11 0 27 4.5t29 11.5q14 8 25 15q8 6 22 23q14 16 19 30q6 15 6 24q1 8 -1 14q-3 11 -10 30
q-5 15 -10 22q-6 9 -15 21q-7 9 -19.5 21t-27.5 22q-17 10 -33 18q-17 9 -26 13zM174 361q-16 11 -29 21q-24 20 -38 40q-18 24 -23 51q-4 21 2 40t21 48q27 51 59 75q29 22 63.5 34.5t64.5 13.5q33 2 60 -8q26 -10 45 -27q18 -15 33 -36t23 -46q8 -26 6 -50q-1 -23 -10 -42
q-6 -13 -13 -27q-8 -14 -17 -27q-11 -15 -25 -27q-12 -9 -35 -23q-18 -11 -29 -17q4 -8 8 -15l2 -3q19 -13 35 -28q18 -17 30 -33q11 -14 18 -24q9 -14 18 -39q8 -21 12 -36q6 -20 4 -42q-2 -21 -11 -47q-10 -26 -32 -53q-22 -25 -39 -37q-14 -10 -33 -20q-21 -11 -45 -18
t-45 -8q-21 -2 -49 4q-26 6 -45 14t-32 17q-17 12 -30 33q-9 15 -19 33q-10 19 -16 37q-7 19 -9 38q-3 20 2 54t18 64q14 30 33 52q17 20 47 46z" />
    <glyph glyph-name="nine" unicode="9" horiz-adv-x="501" 
d="M354 397q1 4 1 8q5 34 10 65q5 23 0 50q-4 23 -8 30q-6 8 -20 19q-15 12 -32 19q-10 4 -23 2q-22 -4 -45 -14q-21 -8 -42 -27q-23 -21 -36 -42q-15 -23 -21 -36q-4 -8 -4 -21q0 -14 4 -26q5 -16 10 -23q5 -8 14 -19q8 -8 23 -16q19 -9 38 -14t36 -6q15 -1 27 3q9 2 13 5
q11 8 24 15q3 2 7 5q5 4 10 9q9 8 14 14zM431 364q-5 -23 -12 -49q-12 -46 -34 -94q-21 -49 -45 -88q-25 -41 -55 -75q-29 -32 -61 -62q-34 -31 -48 -40l-11 -7q-14 -8 -30.5 -4t-25.5 18t-5 30.5t18 24.5l11 7q8 5 35 31q30 27 56 56t47 63q21 35 40 78q5 11 9 22l-12 -4
q-24 -7 -52 -6q-26 1 -53.5 8t-53.5 21q-29 15 -47 34q-14 16 -23 31q-10 15 -18 39q-9 26 -8 54q1 30 11 53q9 18 26 46q19 29 50 57q32 30 66 44q32 12 62 17q37 7 70 -7q25 -11 49 -29t36 -36q14 -21 22 -63q7 -41 0 -79q-4 -22 -7 -46q6 -16 -1 -32l-4 -7q-1 -2 -2 -6z
" />
    <glyph glyph-name="colon" unicode=":" horiz-adv-x="251" 
d="M90 27q-1 2 -11 18.5t-11 17.5q-2 2 -5 6q-9 14 -6 30.5t16 25.5l7 5q23 15 51 6q12 -4 23 -14q36 -13 43 -44q5 -21 -3 -40q-12 -30 -46 -34q-29 -3 -53 19q-1 2 -2 2t-3 2zM169 387q13 -18 12 -37q2 -16 -6 -32t-23 -23q-18 -7 -45 -4q-25 4 -37.5 23t-14.5 40
q-2 13 -1 26q-2 10 0 21q5 18 22 26l10 11q12 12 28.5 12.5t29 -10.5t12.5 -29l5 -6q6 -8 8 -18z" />
    <glyph glyph-name="semicolon" unicode=";" horiz-adv-x="53" 
 />
    <glyph glyph-name="less" unicode="&#x3c;" horiz-adv-x="591" 
d="M538 430.5q3 -16.5 -7 -30t-26 -16.5l-12 -2q-11 -2 -31 -7q-17 -4 -61 -23q-47 -20 -80 -37q-35 -16 -77 -38q-39 -20 -54 -27q11 -4 25 -9q50 -18 106 -40q57 -22 91 -39t48 -25t22 -13l6 -4q14 -9 17.5 -25.5t-5 -30.5t-25 -17.5t-30.5 5.5l-7 4l-17.5 10.5
t-44.5 22.5q-31 16 -85 37q-55 22 -103 39q-47 17 -69 20q-27 5 -37 8t-19.5 18t-9 33t15.5 28q6 5 36 23q32 20 48 27l54 27q43 22 78 39t83 38q51 23 76 28q22 5 35 7l12 3q16 2 30 -7.5t17 -26z" />
    <glyph glyph-name="equal" unicode="=" horiz-adv-x="586" 
d="M76.5 218.5q-3.5 16.5 5.5 30.5t26 17l12 3q14 3 63 9q51 5 122 2q67 -4 97 -6l56 -6q26 -3 31 -3h6q17 -1 28.5 -13.5t10.5 -29t-13.5 -28t-29.5 -10.5h-6q-8 0 -36 3q-27 3 -55 6q-27 3 -94 6q-63 3 -107 -2q-46 -5 -56 -7l-12 -3q-17 -3 -31 6t-17.5 25.5zM53 415.5
q-2 16.5 9 29.5t27 15l18 2q17 2 66 7q51 6 108 7q57 2 99 1q43 -1 58 -4q12 -2 21 -4l8 -2q17 -4 25.5 -18.5t5 -30.5t-18 -25t-30.5 -5l-8 2q-8 1 -18 3q-9 2 -45 3q-40 1 -94 -1q-55 -1 -102 -6q-49 -5 -66 -7l-18 -2q-16 -2 -29.5 8.5t-15.5 27z" />
    <glyph glyph-name="greater" unicode="&#x3e;" horiz-adv-x="563" 
d="M58 449.5q8 14.5 24.5 19t30.5 -3.5l29 -16q28 -15 48 -25q19 -9 60 -24q43 -15 60 -22q16 -6 40 -17q23 -10 31 -13q10 -4 28 -11.5t28 -12.5t21 -11q14 -8 24 -16q8 -7 15 -15q10 -11 12.5 -28t-6.5 -34q-4 -6 -8.5 -11t-10.5 -8.5t-9.5 -5t-11.5 -4t-10 -3.5
q-26 -9 -52 -19q-26 -9 -60 -22t-70 -26q-35 -14 -62 -27q-26 -12 -40 -21q-15 -10 -21 -15l-8 -6q-13 -10 -29.5 -8t-27 14.5t-8.5 29.5t15 27l7 6q9 8 27 19q19 13 50 28q30 14 68 28q36 14 70.5 27t60.5 22q12 5 23 9q-8 3 -19 8q-16 7 -25 10q-10 4 -34 15
q-23 10 -38 16t-57 21q-46 16 -69 27q-21 11 -51 27l-29 17q-15 8 -19.5 24t3.5 30.5z" />
    <glyph glyph-name="question" unicode="?" horiz-adv-x="507" 
d="M276 65q17 -21 6 -45q-6 -12 -19 -18t-27 -3q-17 -3 -33 2q-7 2 -14 6q-9 2 -17 6q-10 5 -16.5 22.5t-1.5 36t23 23.5q11 4 27 6q32 6 54 -12q11 -9 18 -24zM98 448q-16 -1 -29 9.5t-15 27.5l-1 6q-1 15 3.5 27t10 18t16.5 15.5t16 14.5q38 41 69 60q32 20 67 30
q36 11 75 8q36 -3 61 -12q30 -10 47 -28q14 -15 21 -29q6 -13 11 -35.5t4 -41.5q0 -21 -6 -36t-22 -32q-12 -13 -31 -30t-41 -31q-17 -12 -30 -23q-14 -13 -26 -25q-11 -12 -21 -26q-9 -13 -15 -24q-4 -9 -8 -26q-3 -19 -3 -30q-1 -13 0 -31t3 -36l3 -20q1 -16 -9.5 -29.5
t-27 -15t-29.5 9t-15 26.5l-2 20q-2 20 -3 41q-2 20 -1 36q0 18 5 44q5 28 15 47q8 17 22 36q13 18 28 34q14 14 30 29q17 15 39 30q17 11 33 25q15 14 24 24q5 4 7 8v7q1 9 -2 22t-5 18q-2 3 -7 8q-3 4 -14 8q-15 5 -42 7q-24 2 -46 -5q-24 -6 -45 -20q-23 -15 -55 -48
q-14 -15 -22 -25q-2 -15 -12 -25t-25 -12z" />
    <glyph glyph-name="at" unicode="@" horiz-adv-x="850" 
d="M568 220q-3 -23 -5 -49q-2 -17 -3 -32q-3 -42 -1 -60q2 -19 8 -29q4 -6 15 -11q8 -4 18 -1q17 5 36 20q22 19 40 42q17 22 29 55q12 32 12 72q-1 44 -5 80q-4 33 -12 54q-9 25 -19 46q-9 17 -25 36q-17 20 -41 37t-63 33q-39 17 -78 23q-37 6 -82 -1q-45 -8 -90 -34
q-46 -28 -83 -70q-37 -40 -60 -102q-23 -64 -25 -116q-1 -54 11 -102q13 -53 23 -80q8 -25 25 -53q18 -29 28 -40.5t26 -24.5t40 -28q28 -15 45 -25q13 -6 35 -9q25 -4 45 -5q18 -1 43 2q23 2 49 11q30 11 56 23q25 10 40 19q16 11 39 27q19 15 25 22q4 4 5 9l4 13
q4 16 18.5 24.5t30.5 4t24.5 -19.5t4.5 -31l-4 -13q-6 -21 -20 -39q-13 -15 -40 -35q-25 -18 -44 -30q-21 -13 -51 -26q-29 -12 -60 -24q-35 -13 -69 -16q-30 -3 -55 -2q-23 1 -54 5q-34 6 -59 19q-19 10 -48 26q-31 18 -52 35q-21 18 -35 34t-36 52t-33 69q-10 30 -25 86
q-15 59 -13 124q2 66 30 142q29 76 76 128q45 51 102 85q57 35 117 45t110 1q47 -8 95 -28q48 -19 80 -42q31 -23 54 -50t36 -54q12 -24 23 -52q12 -31 17 -74q4 -40 5 -89q0 -54 -16 -100q-17 -45 -42 -77q-23 -30 -53 -54q-32 -27 -64 -36q-39 -11 -75 5q-33 15 -50 44
q-15 23 -19 58q-27 -34 -64 -69q-41 -38 -70 -51q-39 -18 -73 -3q-30 14 -54 59q-23 45 -10 134q14 87 68 151q50 61 94 90q43 29 94 46q58 19 90 7l18 -6q15 -6 22 -20t3 -30v-5q-1 -13 -4 -33t-11 -52q-7 -30 -11 -50q-1 -7 -3 -15zM508 352q-9 -2 -19 -5q-40 -13 -74 -36
t-77 -74q-40 -48 -50 -112q-9 -62 2 -85q9 -16 15 -22q3 1 7 2q17 8 48 37q33 31 56 61q24 31 44 61q18 28 23 41q3 7 5 15q5 39 11 72q5 27 9 45z" />
    <glyph glyph-name="A" unicode="A" horiz-adv-x="605" 
d="M113 238q-2 23 18 37q20 47 44 95q49 97 73 137q23 38 38 65q15 26 24 43q10 19 26 27q23 11 40 -1t23 -24q7 -16 18 -46q11 -29 35 -109q24 -82 39 -176q15 -91 22 -126q6 -34 15 -62q8 -29 15 -49l7 -20q6 -16 -1 -31.5t-22.5 -21t-31 1.5t-21.5 23l-7 21q-8 22 -17 54
t-17 69q-3 17 -8 45q-4 1 -12.5 1.5t-13.5 0.5q-39 2 -116 8q-65 5 -94 4q-9 -26 -18 -51q-30 -89 -34 -107l-4 -21q-3 -17 -17 -26t-30.5 -6t-25.5 17t-6 31l4 21q5 24 36 117q9 26 20 53q-1 3 -1 6zM224 285q25 -1 65 -4q77 -6 113 -8q5 0 10 -1l-1 1q-14 89 -37 166
q-15 51 -24 81q-14 -24 -33 -55q-23 -37 -70 -131q-12 -25 -23 -49z" />
    <glyph glyph-name="B" unicode="B" horiz-adv-x="536" 
d="M166 375q21 5 55 11q73 14 108 20q31 6 49 14q8 4 11 12q6 14 4 25q-2 13 -20 39q-19 27 -41 41q-20 13 -49 18q-33 5 -63 6q-26 0 -52 -8q-8 -2 -14 -5q8 -45 10 -105q2 -38 2 -68zM166 288q-1 -29 -5 -60q-5 -45 -5 -86v-68q5 -2 12 -3q21 -3 46 -3q23 0 42 4
q20 4 39 12q18 8 31 18q15 11 34 34q20 23 33 44q8 15 9 34q1 12 -12 26q-16 17 -24 21q-13 4 -55 12q-43 8 -79 14q-31 5 -54 2q-6 0 -12 -1zM76 521q-3 2 -5 4q-10 10 -12 24.5t6 26.5l-11 39q-4 16 4.5 30.5t24.5 18.5t30.5 -4.5t19.5 -24.5l2 -8q5 2 9 3q38 12 77 12
q37 -1 76 -7q45 -8 79 -30q35 -22 63 -62q30 -42 34 -75q5 -32 -8 -66q-16 -38 -53 -55q-10 -5 -22 -9q2 0 2 -1q26 -8 57 -42q36 -39 34 -85q-2 -39 -21 -72q-16 -26 -40 -55q-25 -29 -47 -46q-22 -16 -49 -28q-26 -10 -52 -16q-29 -7 -61 -6q-30 0 -56 4q-31 4 -50 16
q-32 19 -32 67v69q1 44 6 94q5 45 5 83v12q0 39 -3 108q-1 46 -7 81z" />
    <glyph glyph-name="C" unicode="C" horiz-adv-x="578" 
d="M487.5 416.5q-16.5 -1.5 -29 10t-13.5 27.5l-1 9q-1 5 -2 12q-3 10 -7 23q-2 10 -8 23q-3 7 -17 17q-16 12 -28 14q-14 4 -39 1q-23 -2 -69 -21q-45 -19 -63 -37q-20 -21 -37 -47q-17 -25 -29 -62q-12 -35 -11 -81q1 -49 6 -73q5 -25 13 -48q10 -24 22 -46t30 -47
q18 -23 35 -37q12 -9 18 -11q7 -1 10 -1q10 2 31 9q21 6 46 16q24 10 49 24q25 15 32 20q2 2 2 3l5 10q7 15 23 21t31 -1t20.5 -23t-1.5 -31l-4 -10q-9 -19 -26 -33q-11 -8 -41.5 -25.5t-59.5 -29.5q-27 -11 -52.5 -19t-38.5 -10q-20 -4 -42 0q-24 5 -53 28q-24 20 -48 51
q-23 30 -38 58q-14 27 -25 55q-11 29 -18 61q-6 32 -7 88q-1 60 15 108q16 46 38 80q21 34 48 60q30 29 88 54q57 25 94 28t63 -2q29 -7 59 -29q31 -23 42 -49q9 -18 13 -34q4 -14 7 -25q4 -14 5 -26v-9q2 -16 -9.5 -29t-28 -14.5z" />
    <glyph glyph-name="D" unicode="D" horiz-adv-x="594" 
d="M155 543v-2q0 -69 1 -118q0 -50 -1 -92q-1 -41 -1 -84q0 -44 0.5 -80t0.5 -70v-24q12 1 30 2q43 3 69 14q29 12 52 26q22 14 49 43q30 31 44 48q15 18 26 34q10 14 18 30q7 14 11 34q5 22 6 57q1 33 -4 55q-4 20 -10 30q-6 11 -12 17q-6 7 -19 15q-16 10 -31 17
q-14 7 -28 11q-17 6 -41 13q-20 7 -40 10q-21 4 -50 7l-58 6q-6 0 -12 1zM73 559q-11 7 -16.5 20t-2.5 26q6 19 24 26q13 20 35 20q12 0 22.5 -7t15.5 -19q11 -1 25 -3q28 -3 58 -6q31 -3 54 -7q26 -4 52 -13q23 -7 40 -12q20 -6 40 -16q19 -9 38 -22q21 -13 34 -26.5
t25 -33.5q12 -22 18 -53q7 -31 6 -74q-1 -42 -7 -71q-7 -32 -19 -55q-11 -21 -24 -40q-13 -18 -29 -38t-48 -53q-34 -36 -65 -55q-29 -19 -64 -33q-39 -16 -94 -20t-76 1q-41 13 -41 49v53q0 34 -0.5 70t-0.5 80t1 87q1 40 1 88t-1 118z" />
    <glyph glyph-name="E" unicode="E" horiz-adv-x="514" 
d="M86 672q16 3 30 -6l39 7q65 12 119 13q54 2 82 -1q27 -2 41 -4q13 -1 19 -2h7q17 -1 28 -14t10 -29.5t-13.5 -27.5t-29.5 -10l-7 1q-8 0 -23 2l-39 3q-23 3 -73 1q-48 -1 -107 -12l-28 -5q2 -22 4 -64q3 -68 0 -134q-1 -6 -1 -15q35 5 74 6q42 0 68 -1q23 -2 30 -2h7
q16 0 28 -12t12 -28.5t-12 -28.5t-28 -12h-7q-9 0 -35 2q-23 1 -62 1q-38 -1 -71 -7l-8 -1v-3q-2 -35 -2 -69v-52q0 -17 -1 -59q0 -25 -1 -46q20 2 48 6q54 6 87 7q32 1 60 1h45h12l6 3q16 5 31.5 -2t21 -22.5t-1.5 -31t-22 -20.5l-8 -3q-14 -5 -39 -5h-45q-26 0 -57 -1
q-30 -1 -81 -7q-53 -6 -74 -8q-23 -2 -40 10q-24 18 -24 54q0 24 1 66t1 58v52q0 37 2 74q2 36 5 100q2 62 0 127q-3 63 -7 82l-3 22q-3 17 6.5 30.5t25.5 16.5z" />
    <glyph glyph-name="F" unicode="F" horiz-adv-x="533" 
d="M97.5 -32.5q-16.5 -0.5 -29 11t-13.5 28.5l-2 52q-1 55 5 130q5 74 8 113q3 37 4 77q0 40 -5 77q-4 41 -6 62t-3 37t-2 34q-2 30 20 50q12 10 30 15q25 6 71 6q41 -1 126 -6q82 -6 96 -6h25q8 -1 15 -1l6 -1q16 -1 27 -13.5t10 -29t-14 -28t-29 -9.5h-6q-6 1 -13 1h-21
q-16 0 -102 6q-82 5 -121 6q-23 0 -38 -2q1 -9 1 -17q1 -15 3 -35l6 -60q5 -42 5 -86q0 -13 -1 -25q26 6 68 9q53 5 108 -4q51 -9 67 -12q15 -4 25 -5l11 -2q16 -3 26 -17t7 -30t-17 -26t-30 -7l-11 2q-12 2 -29 6q-14 3 -62 11q-45 7 -89 4q-44 -4 -64 -10l-15 -5
q-3 -34 -7 -85q-5 -71 -4 -121l2 -52q1 -17 -10.5 -29.5t-28 -13z" />
    <glyph glyph-name="G" unicode="G" horiz-adv-x="659" 
d="M503 337q23 -2 31 -1h6l5 3q14 9 30.5 4.5t25 -18.5t4.5 -30.5t-18 -24.5l-7 -4q-15 -9 -40 -11q-9 -1 -22 0q-3 -17 -8 -34q-8 -24 -20 -52t-29 -56q-18 -29 -52 -64q-37 -38 -61 -48q-23 -9 -43 -10q-19 -1 -38 3t-55 18q-42 17 -61 41q-15 19 -40 68q-23 49 -36 95
q-13 45 -18 78q-6 36 -3 73q4 37 19 78q16 43 54 92q40 51 90 81q52 31 92 36q39 4 70 -3q32 -7 64 -30q31 -23 51 -51q18 -27 29 -54l8 -22q6 -15 -0.5 -30.5t-22 -21.5t-31 0.5t-21.5 22.5l-9 22q-7 17 -20 36q-12 18 -31 32q-19 13 -35 17q-18 4 -43 1q-23 -2 -59 -24
q-38 -23 -68 -61q-31 -40 -42 -71q-12 -31 -14 -58q-3 -26 2 -52q4 -29 16 -69q11 -39 31 -81q20 -41 30 -53q6 -7 29 -17q28 -11 39 -13q11 -3 19 -2q6 0 16 4q10 5 33 29q28 29 42 51t24 45q10 24 16 44l4 16h-6q-12 -1 -25 -1h-25h-16q-20 0 6 55q14 27 18 28h38
q12 2 29 5q29 4 48 -11z" />
    <glyph glyph-name="H" unicode="H" horiz-adv-x="540" 
d="M453.5 650.5q16.5 -2.5 26.5 -16t7 -29.5l-8 -54q-8 -54 -14 -105q-6 -42 -12 -110q14 -5 21.5 -19t3.5 -29q-6 -25 -32 -30q-4 -47 -5 -75q-1 -43 -1 -67q1 -25 2 -49.5t2 -36.5q1 -13 1 -23v-9q0 -16 -12 -28t-28.5 -12t-28.5 12t-12 28v9q0 7 -1 18q-1 13 -2 38.5
t-2 50.5q0 26 1 72q1 31 5 80q-3 1 -18 2q-44 3 -96 -1q-51 -4 -81 -13l-15 -5q-1 -18 -1 -36v-106t-1 -39v-31q1 -25 1 -32l1 -7q1 -16 -10.5 -29t-28 -14t-29 10t-13.5 28l-1 7q0 8 -1 36q0 27 1 37v35v105q1 77 2 162q1 82 -3 156q-3 66 -8 81l-8 18q-6 16 0.5 31.5
t21.5 22t31 0t22 -22.5l8 -19q10 -25 14 -107q4 -77 3 -162q0 -19 -1 -39q36 9 89 14q58 5 109 1q10 -1 19 -2q6 67 12 110q7 52 15 106l8 54q3 16 16.5 26t30 7.5z" />
    <glyph glyph-name="I" unicode="I" horiz-adv-x="522" 
d="M109 637.5q-2 16.5 8.5 30t26.5 15.5l14 2q17 2 73 2q54 1 86 -1q31 -1 47 -2h21h44q17 0 29 -12t12 -28.5t-12 -28.5t-29 -12h-44h-24q-14 1 -39 2q0 -12 -1 -50q-1 -60 -3 -121t-4 -117t-4 -104q-2 -49 -2.5 -82t-0.5 -43v-9q27 1 43 0q20 -1 29 -3q10 -1 22 -4
q7 -2 9 -2l7 -1q16 -1 27 -13.5t10 -29t-14 -28t-29 -9.5h-7q-10 1 -23 4q-8 2 -14 3t-23 3q-13 0 -48 -2q-13 -15 -32 -14q-13 0 -24 8q-22 -3 -45 -9q-47 -13 -67 -20l-21 -7q-16 -6 -31 1.5t-20.5 23t2 31t22.5 20.5l22 8q22 7 72 21q26 7 52 11v17q0 10 1 44
q0 34 2 83.5t4 105t4 115.5t3 120v50h-9q-50 0 -62 -1l-14 -2q-17 -2 -30.5 8t-15.5 26.5z" />
    <glyph glyph-name="J" unicode="J" horiz-adv-x="640" 
d="M395 652h8q47 -2 61 -2q12 -1 30 0q16 0 22 2q6 1 10 2l7 3q15 6 30.5 -1.5t21.5 -23t-1.5 -30.5t-22.5 -21l-7 -3q-10 -3 -22 -6q-12 -2 -35 -3q-22 -1 -37 0q-9 0 -34 1q-1 -5 -1 -10q-1 -12 -2 -28q-1 -15 -2 -34q0 -22 -2 -50q-3 -24 -2 -68q0 -46 -1 -70t-3 -45
q-2 -22 -4 -33q-2 -12 -9 -41q-8 -33 -47 -107q-15 -30 -23.5 -44.5t-23 -30.5t-30.5 -24q-32 -14 -61 -12q-26 2 -54 16q-25 13 -45 27q-26 20 -38 47q-9 21 -15 49q-5 27 -8 59q-4 33 -1 67q3 32 6 43l1 9q4 16 18 25.5t30 6t25.5 -17.5t6.5 -30l-2 -9q-1 -7 -4 -34
q-2 -26 0 -52q3 -28 7 -50q5 -21 10 -34q3 -7 12 -13q15 -11 33 -20q15 -7 25 -8q7 -1 19 4q14 12 40 63q34 66 40 89q6 26 7.5 35t3.5 28q2 18 3 39q1 23 1 68q-1 48 2 75q2 25 2 44q1 21 2 39q1 16 2 29q0 3 1 6q-18 0 -34 1q-42 1 -72 1q-27 1 -35 0q-3 1 -8 3t-16.5 9
t-18 14.5t-7 19t11.5 22.5q8 9 13.5 12.5t7.5 3t3.5 -1.5t2.5 -1q15 3 29 4q13 1 29 2q18 2 44 1q22 -1 41 0q28 1 49 -7q5 -1 10 -4z" />
    <glyph glyph-name="K" unicode="K" horiz-adv-x="544" 
d="M119.5 714q16.5 -1 27.5 -13.5t10 -29.5l-1 -15q-1 -16 -6 -92q-5 -75 -8 -158v-7q40 35 81 69q53 44 88 70q33 25 50 38q14 12 21 23q13 16 24 26q5 4 7 8l4 6q10 14 26.5 17t30 -6.5t16.5 -26t-6 -29.5l-5 -8q-8 -11 -18 -20q-6 -5 -14 -16q-13 -18 -34 -35
q-18 -16 -54 -42q-33 -25 -84 -67q-45 -37 -89 -77q7 -12 20 -32q26 -39 62 -78q39 -40 75 -75q39 -37 47 -46q7 -8 18 -20q13 -14 22 -28l8 -11q10 -14 7 -30.5t-16.5 -26.5t-30 -7t-26.5 17l-8 11q-7 10 -17 21l-18 21q-5 6 -41 40q-38 37 -78 78q-42 44 -72 90l-2 4
q-1 -26 0 -51q1 -40 3 -72q3 -33 4 -64q2 -31 3 -51l1 -21q1 -17 -10 -29.5t-27.5 -13.5t-29 10t-14.5 27l-1 21q-1 22 -3 53q-1 30 -3 62q-3 34 -4 75q-1 42 1 84q-7 17 1 33q2 36 4 90q3 83 9 160q5 76 5 91l1 15q1 17 14 28t29.5 10z" />
    <glyph glyph-name="L" unicode="L" horiz-adv-x="476" 
d="M104.5 682.5q16.5 1.5 29.5 -9.5t14 -28v-8q1 -9 6 -122q4 -114 1 -172q-3 -56 -6 -91.5t-6 -65.5q-3 -28 -4 -43t-3 -32q-1 -12 -1 -27q25 1 55 7q44 9 86 11q39 2 53.5 2.5t25.5 1.5t18 1h7q17 1 29.5 -10t13.5 -27.5t-10 -29t-28 -13.5l-7 -1q-8 0 -19 -1
q-10 0 -25 -1t-54 -3q-36 -1 -73 -9q-44 -9 -80 -9l-1 -1q-8 -1 -16 -1t-22.5 2t-24 14t-10.5 32q0 8 0.5 29.5t1.5 39.5q2 16 3 31q1 16 4 46q4 29 7 63t5 89q3 54 -1 165q-5 111 -5 119l-1 8q-1 17 10 29.5t27.5 14z" />
    <glyph glyph-name="M" unicode="M" horiz-adv-x="671" 
d="M99.5 -14q-16.5 -1 -29 10.5t-13.5 28.5l-3 83q-4 86 7 206q12 121 31 196q18 69 21 84q2 16 2 23q4 54 72 -8l17 -18q8 -36 26 -84q20 -50 48 -123q30 -73 63 -166q7 -18 8 -22q34 107 53 171q21 67 33 93t43.5 79.5t44.5 71.5l1.5 3t3 4.5t4.5 4t6 4.5t7.5 4t10.5 3
q24 4 37 -8t14 -26l2 -14q1 -21 0 -115q-2 -92 -1 -157q1 -67 -2 -126q-3 -54 0 -88q2 -28 5 -36l5 -13q6 -15 -1 -30.5t-22.5 -21.5t-31 0.5t-21.5 22.5l-5 13q-7 18 -10 60q-3 38 0 97q3 57 2 121q-1 62 0 149q-12 -23 -18 -36q-10 -21 -29 -83q-20 -65 -55 -175
q-1 -5 -4 -17.5t-5.5 -23.5t-7.5 -26.5t-11 -25t-15.5 -19t-21 -9.5t-27.5 3q-19 7 -26 27q-8 21 -42 113q-33 92 -62 164q-23 58 -40 103q-13 -62 -21 -150q-10 -115 -7 -196l3 -83q1 -17 -10.5 -29t-28 -13z" />
    <glyph glyph-name="N" unicode="N" horiz-adv-x="608" 
d="M105.5 24q-16.5 -1 -29 10t-14.5 27l-5 63q-5 66 -4 123q1 59 14 152q12 92 19 134q7 43 15 71q7 26 10 36q8 23 20.5 29t25.5 -2.5t25 -20.5t19 -23l8 -11q19 -42 64 -135q46 -92 72 -141q27 -50 41 -74.5t36 -59.5q10 -16 18 -30q2 21 4 41q6 67 16 147q10 78 12 116
q2 39 2 93v69q0 11 -1 17v7q-2 17 9 30t27.5 14.5t29.5 -9.5t14 -27l1 -7q1 -9 1 -25v-69t-2 -97t-13 -122q-10 -79 -16 -144q-6 -67 -13 -120l-5 -10t-11 -21.5t-16.5 -25.5t-19 -17.5t-20.5 -2.5t-17 24q-4 8 -7 16q-4 8 -7 16q-2 6 -7 16q-4 8 -14 24q-13 19 -34.5 55
t-36.5 61.5t-42 75.5q-27 51 -73 145l-36 72q-6 -41 -18 -126q-12 -89 -13 -142q-1 -54 4 -115l5 -64q1 -16 -10 -29t-27.5 -14z" />
    <glyph glyph-name="O" unicode="O" horiz-adv-x="644" 
d="M228 518q-7 -7 -13 -14q-18 -23 -36 -58t-27 -68q-10 -34 -15 -67q-4 -33 -3 -69q2 -36 5 -61q3 -22 9 -40t11 -27t28 -32q22 -23 40.5 -33t36.5 -15q19 -4 36 -3q13 0 28 7q19 9 51 35q32 25 60 63q28 39 42 65q13 24 19 56q7 35 9 67q2 31 0 42q-3 16 -6 26
q-2 6 -12 25q-13 22 -22 34.5t-21 27.5q-10 12 -23 21q-16 13 -27 23q-8 7 -24 18q-14 8 -21 10q-11 4 -23 6q-11 2 -23 1q-14 0 -29 -3h-2q-10 -12 -18 -20l-6 -6q-10 -9 -24 -11zM316 639q15 0 28 -2q16 -3 32 -8q19 -5 42 -21q21 -13 33 -24q9 -8 24 -20q20 -15 35 -34
q14 -17 25 -32.5t25 -39.5q17 -28 21 -45q4 -12 7 -31q5 -22 2 -63q-2 -38 -11 -79q-9 -43 -26 -76q-16 -31 -49 -76q-34 -46 -74 -79q-40 -31 -67 -44q-31 -15 -61 -15q-27 -1 -56 5q-30 7 -58.5 23t-58.5 48q-30 30 -40 47q-9 17 -18 42q-8 25 -12 55q-4 28 -6 69
q-1 43 4 83q6 39 17 78q11 41 33 83q21 42 45 71q25 31 60 58q37 28 50 34l9 3q25 10 45 -10z" />
    <glyph glyph-name="P" unicode="P" horiz-adv-x="529" 
d="M144 338l8 -4q3 -2 10 -3q9 -2 28 -1q20 0 45 3t46 8q19 5 41 16q23 12 43 27q15 11 22 16l6 18q4 14 0 28q-5 21 -16 42t-21 33q-8 9 -20 15q-16 7 -46 12q-33 6 -56 7q-22 2 -54 0q-19 -2 -31 -3q-1 -13 0 -33q2 -25 1 -48q0 -21 -1 -49q-1 -29 -4 -70q0 -5 -1 -14z
M69 510q-2 29 -1 46q1 23 8 39q13 28 45 35q16 3 54 5q38 3 65 1q26 -2 63 -8q41 -7 67 -18q29 -14 48 -37q16 -20 31 -49q14 -28 22 -57q10 -35 0 -72q-10 -32 -23 -48q-10 -10 -35 -29q-26 -18 -54 -33q-30 -15 -58 -22q-27 -7 -57 -11q-28 -3 -53 -3q-26 -1 -43 2
q-4 1 -10 2q-1 -13 -1 -15q-5 -72 -1 -127q4 -57 6 -70l2 -16q3 -16 -7 -29.5t-26.5 -16t-30 7.5t-16.5 26l-2 15q-3 17 -7 77q-4 61 1 139q3 34 5 62q2 31 4 52q2 39 3 66q1 28 1 50q1 18 0 36z" />
    <glyph glyph-name="Q" unicode="Q" horiz-adv-x="622" 
d="M326 205.5q12 11.5 29 11t28 -12.5l27 -28q29 34 46 64q17 27 20 65q4 43 -1 67q-6 26 -21 59q-16 35 -29 59q-11 21 -20 31q-10 11 -20 18q-8 6 -15 9q-6 2 -14 3q-12 1 -33 1h-23q-10 0 -20 5q-39 -20 -59 -40q-20 -21 -43 -61q-22 -40 -33 -90q-11 -53 -11 -91
q0 -37 11 -77q10 -38 32.5 -67t40.5 -40q21 -11 36 -15q13 -4 33 -1q18 3 48 27q9 7 19 16l-29 30q-12 12 -11.5 29t12.5 28.5zM364 632q19 -2 35.5 -8.5t33.5 -19.5q16 -12 31 -28q16 -18 32 -47q15 -27 32 -65q18 -41 26 -75q8 -36 3 -91q-5 -58 -31 -100q-22 -37 -59 -80
q16 -15 30 -28q34 -29 46 -40l12 -10q13 -11 14 -27.5t-9.5 -29.5t-27.5 -14t-29 9l-13 11q-12 10 -46 40q-16 14 -33 31q-13 -12 -26 -22q-47 -37 -86 -43q-37 -5 -66 3q-26 7 -55 23q-31 18 -64 60t-48 96q-13 51 -13 99q0 46 13 106q13 63 42 113q28 51 56.5 79.5
t74.5 53.5q48 25 68 28l13 2q14 2 26.5 -5.5t17.5 -20.5z" />
    <glyph glyph-name="R" unicode="R" horiz-adv-x="536" 
d="M154 347q21 2 47 4q40 4 61 7q18 3 50 14q31 10 55 25q20 12 28 23q7 10 8 14q0 5 -2 15q-5 14 -15 34q-12 22 -17 29q-4 5 -16 16q-11 8 -53 19q-52 14 -92 20q-37 5 -72 3q-1 -13 -2 -34q0 -24 3 -48q4 -27 10 -64q6 -39 7 -73v-4zM134.5 -21.5q-16.5 -2.5 -30 7.5
t-16.5 26l-5 32q-5 35 -6 111q-1 73 -2 117v18q0 32 -2 57q-1 30 -6 65q-6 36 -10 64q-5 31 -4 61t4 48q2 13 2 17q0 13 4 22.5t10.5 14.5t14 8.5t15.5 4t14 0.5t11 -0.5l5 -0.5q41 3 87 -4q44 -6 101 -21q63 -17 86 -37q18 -16 28 -30q8 -11 22 -38q15 -27 21 -50
q8 -28 5 -50q-4 -22 -22 -48q-18 -25 -52 -46q-32 -18 -71 -32q-39 -13 -64 -17q-10 -1 -22 -3q6 -5 12 -9q48 -38 83 -81q34 -42 51 -76q15 -30 21 -43l5 -12q7 -15 1 -31t-21 -22.5t-31 -0.5t-23 21l-5 12q-5 11 -20 40q-13 26 -41 61q-29 36 -70 68q-32 25 -57 40
q0 -36 1 -86q1 -70 5 -100l5 -32q3 -16 -7 -29.5t-26.5 -16z" />
    <glyph glyph-name="S" unicode="S" horiz-adv-x="569" 
d="M94.7471 141.767l24 -20q10.4888 -0.435547 81.2529 -70.7666q33 -32 56 -32q31 1 51 9q19.5454 7.81818 31 18q11 10 17 19q7 10 10 20q3 8 2 26q-1 19 -3 27q-3 8 -13 22t-21 24t-47 28q-43 21 -74 40q-34 20 -71 58q-40 40 -56 80q-15 40 -13 69q1 30 26 80
q27 50 71 82q40 28 67 42q31 16 50 17q18 2 56 -8q40 -10 69 -34q26 -22 45 -51q17 -27 35 -74q15.9506 -42.2222 22 -64l5 -18q4.30157 -15.4857 -4.5 -30.5q-8.5 -14.5 -24.5 -18.5t-30.5 4.5q-13.6471 8.00003 -18.5 24.5l-5 17q-5.67163 19.2835 -20 56q-14 39 -27 59
q-12 18 -29 33q-15 12 -37 18q-21 5 -29 6l-21 -9q-21 -11 -55 -36q-30 -21 -47 -54t-18 -45q0 -13 9 -37t37 -52q31 -31 56 -46q28 -17 67 -37q47 -22 66 -39q18 -17 34 -39q16 -23 22 -42q7 -19 8 -50q1 -32 -6 -55q-7 -20 -20 -39q-12 -18 -30 -34q-19 -17 -53 -32
q-35 -15 -83 -16q-46.7642 1.14441e-05 -112 54q-67.8986 56.7192 -71.2529 69.7666l-53.3789 73.6504q-4.87469 23.2994 32.4375 26.4424q8.23503 0.69368 42.9414 -20.0928z" />
    <glyph glyph-name="T" unicode="T" horiz-adv-x="677" 
d="M53 632.5q2 16.5 15.5 27t29.5 8.5l64 -8q60 -7 153 -2q95 5 130 9q38 5 67 6q27 1 42 1h20h8q16 1 28.5 -10t13.5 -27.5t-10 -29t-28 -13.5l-8 -1h-24q-14 0 -40 -1q-25 -1 -59 -5q-27 -3 -84 -7l-3 -10q-3 -12 -6 -32.5t-6 -137.5q-3 -121 -3 -233q0 -113 -1 -141
l-1 -26q-1 -17 -13.5 -28.5t-29 -11t-28 13t-10.5 28.5l1 27q1 26 1 138q0 113 3 234q3 123 7 149q2 14 4 25q-78 -2 -134 5l-63 8q-17 2 -27.5 15t-8.5 29.5z" />
    <glyph glyph-name="U" unicode="U" horiz-adv-x="556" 
d="M88.5 664q16.5 2 29.5 -8t16 -27l1 -11q2 -12 6 -48q4 -39 5 -116t-1 -120q-2 -39 1.5 -75.5t12.5 -72t16 -52.5q6 -17 14 -28q5 -9 27 -26q18 -15 28 -17q12 -2 27.5 2.5t49.5 36.5q35 32 67 106q32 76 34 122q1 52 -2 133q-4 83 -5 121q-1 37 -3 55l-1 20q-2 16 9 29
t27.5 14.5t29.5 -9.5t14 -28l2 -19q2 -21 3 -60q1 -37 4 -119q4 -84 3 -140q-2 -61 -41 -151q-38 -90 -86 -134t-82 -54.5t-65 -4.5q-30 6 -65 34q-31 25 -44 45q-11 18 -20 41q-10 23 -20 64t-14 83.5t-2 87.5q2 40 1 115q-1 73 -5 108q-4 36 -5 47l-2 11q-2 16 8.5 29.5
t27 15.5z" />
    <glyph glyph-name="V" unicode="V" horiz-adv-x="635" 
d="M79.5 660.5q15.5 5.5 31 -1.5t21.5 -23l12 -35q12 -34 43 -116q30 -83 57 -167.5t32 -102.5q4 -16 18 -53q2 -8 5 -16q14 46 34 114q39 134 60 190.5t34 84.5q14 29 34 61q20 31 35 50l14 18q10 13 26.5 15.5t30 -8t15.5 -27t-8 -29.5l-14 -18q-13 -17 -31 -45
q-17 -27 -28 -51q-12 -26 -32 -79t-58 -184q-39 -133 -51 -178q-2 -3 -5.5 -8.5t-12.5 -19t-18 -22.5t-19.5 -15.5t-20 -0.5t-16.5 24q-2 5 -5 11q-4 8 -7 16q-5 9 -14 28q-10 21 -25 61q-14 40 -19 59q-5 17 -31.5 99.5t-56.5 164.5t-42 117l-13 35q-5 15 2 30.5t22.5 21z
" />
    <glyph glyph-name="W" unicode="W" horiz-adv-x="764" 
d="M76 673q15 7 31 1.5t23 -20.5l4 -8q6 -12 36 -138q29 -122 58 -241q23 -95 37 -161q22 55 46 121q32 88 36 105q6 23 27 31q16 4 27.5 3.5t20.5 -10t14.5 -19t9.5 -23.5t6.5 -24.5t4 -21.5t2.5 -14q21 -70 31 -111q6 13 13 29q39 93 61 183q23 95 43 153q18 53 21 81
q2 20 1 29l-2 9q-5 16 3.5 30.5t24.5 19t31 -4t19 -23.5l3 -11q5 -18 0 -58q-4 -37 -25 -98q-18 -55 -40 -146q-24 -97 -65 -196q-4 -9 -12.5 -29t-11.5 -27t-9.5 -20.5t-10.5 -19.5t-10.5 -13.5t-13.5 -13.5q-9 -6 -25.5 -8.5t-33.5 6t-21 29.5q-3 13 -11 52q-8 33 -30 109
q-1 -4 -2 -6q-33 -91 -61 -160l-1 -4t-2.5 -9.5t-4 -13t-6 -15.5t-8 -16t-9.5 -14.5t-12 -11.5t-14.5 -7t-17 0t-19.5 8q-9 5 -15.5 13t-10 20t-5.5 20.5t-4.5 24.5t-4.5 24q-14 71 -43 190t-58 241q-25 106 -31 124l-3 7q-7 15 -1.5 30.5t20.5 22.5z" />
    <glyph glyph-name="X" unicode="X" horiz-adv-x="666" 
d="M98 -38q-15 7 -21 22.5t1 30.5l12 26q13 28 87 135q50 72 107 138q-6 7 -11 15q-49 64 -106 134q-54 67 -74 82l-24 19q-13 10 -15.5 27t7.5 30t27 15t30 -8l24 -18q28 -22 88 -96q58 -71 107 -136q1 -2 2 -3l2 2q87 91 119 125q30 32 43 51q12 19 19 37q7 19 9 25
q1 4 1 6v7q0 16 12 28t28.5 12t28.5 -12t12 -28v-7q0 -11 -3 -25q-3 -12 -12 -36q-10 -25 -27 -51t-52 -62q-32 -34 -120 -126q-6 -6 -12 -13q21 -29 40 -58q39 -61 54 -88q14 -24 31 -48q18 -25 26 -34q10 -13 16 -23l4 -7q8 -15 3 -31t-19.5 -24.5t-30.5 -3.5t-24 19l-4 7
q-2 5 -9 12q-9 12 -28 38q-19 27 -35 55q-14 24 -53 84q-12 20 -26 40q-47 -56 -88 -116q-70 -101 -80 -123l-12 -26q-7 -15 -23 -20.5t-31 1.5z" />
    <glyph glyph-name="Y" unicode="Y" horiz-adv-x="626" 
d="M294.5 -52.5q-15.5 -5.5 -30.5 2t-21 22.5l-5 13q-6 19 -8 52q-1 28 -3 93q-2 67 3 114q4 45 6 60q2 14 3 27q1 11 1 20v3q-1 2 -3 5q-8 11 -27.5 41.5t-44.5 82.5q-24 48 -39 73q-14 21 -28 34q-23 21 -33 39l-7 13q-8 14 -3.5 30.5t19 24.5t31 3t24.5 -19l7 -13
q3 -6 16 -18q23 -20 43 -51q17 -28 42 -80q24 -49 41 -76q7 -10 12 -19q18 22 60 67q49 56 93 104q43 47 50 56l8 11q9 13 26 16t30.5 -7t16 -26.5t-7.5 -29.5l-8 -12q-9 -13 -55 -63q-44 -48 -93 -103q-49 -54 -64 -73l-16 -20q-4 -5 -9 -9q-1 -6 -1 -13q-2 -13 -3 -28
q-2 -14 -7 -58q-4 -42 -2 -104q2 -64 3 -91q1 -21 4 -29l4 -13q6 -15 -1.5 -30.5t-23 -21z" />
    <glyph glyph-name="Z" unicode="Z" horiz-adv-x="719" 
d="M54 582q-4 16 5 30.5t25 18.5l39 9q43 11 113 14q71 3 176 -9.5t144 -23.5q36 -11 45 -13q7 -2 17 -4q12 -3 21 -7q14 -5 21 -15.5t7 -21.5t-1.5 -19.5t-4.5 -12.5q-4 -7 -8 -12.5t-11 -11.5t-11 -9t-15.5 -10.5t-16.5 -9.5q-43 -29 -86 -56q-39 -25 -107 -84
q-68 -60 -124 -123q-53 -61 -69 -94q-3 -5 -5 -10q22 0 53 2q74 5 133 3q58 -3 107 -7q41 -3 51 -1l15 3q17 3 31 -6.5t17 -26t-6.5 -30.5t-25.5 -17l-15 -3q-21 -4 -74 0q-47 4 -103 7q-54 2 -125 -3q-77 -5 -102 -1q-22 3 -40.5 23t-8.5 48q6 16 25 55q21 42 81 111
q59 68 132 131q72 63 117 91q39 25 79 51l-15 5q-33 9 -131.5 21t-162.5 9q-63 -3 -98 -11l-39 -10q-16 -4 -30.5 5t-18.5 25z" />
    <glyph glyph-name="bracketleft" unicode="[" horiz-adv-x="372" 
d="M319 709.5q-2 -16.5 -15 -27t-29 -9.5l-14 2q-11 1 -36 0q-26 -2 -33 -3q-6 -1 -16 -3q-9 -3 -14 -6l-9 -4q-1 -3 -1 -6q-5 -20 -6 -49q-1 -32 1 -70q1 -38 3 -76l1.5 -57t1.5 -64v-79q1 -34 -1 -77q-2 -42 -3 -58q-1 -15 -2 -34q0 -21 -1 -36t-3 -32q-2 -15 -3 -28
q-2 -17 -4 -25v-8q0 -10 -1 -21v-9q9 0 18 1q26 2 41 3q13 0 24 1q9 1 14 2q10 2 26 3h13q17 1 29.5 -10t13.5 -27.5t-10 -29.5t-28 -14h-13q-11 -1 -16 -2q-9 -2 -23 -3q-13 -1 -27 -1q-13 -1 -37 -3q-26 -2 -48 -2h-6t-14.5 2.5t-18 6.5t-14 14.5t-6.5 24.5v14q0 9 1 17
v16q1 9 1 19q0 13 2 23q1 4 2 16q2 14 4 30q1 14 2 27t1 32q1 21 2 39q1 15 3 56q2 40 1 72q0 32 -1 81v61q-1 19 -2.5 56t-2.5 76q-2 40 -1 75q1 38 8 66q3 13 5 19t9.5 17t19.5 18l17 9q11 6 29 11q15 5 28 7q11 1 40 2q31 2 48 0l14 -1q16 -2 27 -15t9 -29.5z" />
    <glyph glyph-name="backslash" unicode="\" horiz-adv-x="473" 
d="M81 693q16 5 31 -2.5t20 -23.5l15 -46q15 -45 44 -124t54 -142q26 -65 48 -133q22 -67 31 -94q7 -25 13 -39q8 -16 27 -57q22 -43 28 -59q6 -14 10 -24q4 -8 10 -21l5 -11q7 -15 1 -31t-21 -23t-30.5 -1t-22.5 21l-5 11q-6 12 -10 21q-6 12 -12 28q-5 14 -25 54
q-21 42 -29 59q-8 18 -17 48q-8 26 -30 93q-21 65 -46 128q-25 64 -55 144t-45 127l-15 46q-5 16 2.5 31t23.5 20z" />
    <glyph glyph-name="bracketright" unicode="]" horiz-adv-x="393" 
d="M71.5 730.5q2.5 16.5 16 26.5t30.5 7l36 -5q33 -6 44 -6q12 -1 36 -2q25 -2 39 -3q12 -1 18 -1q15 0 30 -11.5t18 -28.5q3 -5 2 -16t-1.5 -14t-3.5 -15.5t-5 -18.5q-9 -39 -13 -80q-4 -43 -7 -86t-6 -84q-3 -40 -5 -76q-2 -35 -1 -65q0 -33 1 -64q0 -35 1 -71
q1 -41 0 -59q-1 -17 -1 -29v-25q0 -13 -1 -27q-1 -12 -1 -20q-1 -7 -1 -14q0 -29 -23 -47q-12 -8 -24 -13q-9 -3 -24 -7q-14 -3 -32 -6t-32 -5q-15 -2 -27 -2q-11 -1 -20 -1h-21q-17 0 -29 12t-12 28.5t12 28.5t29 12h21q7 0 16 1q8 0 20 2q13 1 29 4q17 3 28 5q5 1 9 3v4
q0 8 1 21q1 11 1 21v25q0 14 1 33q1 15 0 53q-1 40 -1.5 71.5t-0.5 63.5q-1 34 1 71t5 78t6 84t8 88q4 46 14 89l2 8q-11 1 -25 2q-24 1 -36 2q-14 1 -52 7l-36 5q-16 3 -26 16.5t-7.5 30z" />
    <glyph glyph-name="asciicircum" unicode="^" horiz-adv-x="431" 
d="M71 348q-14 9 -17.5 25.5t5.5 30.5l11 17q10 15 37 57q26 40 40.5 64.5t21.5 38.5q8 16 14 25q5 7 12 17q10 15 22.5 19t23 -1t20 -13.5t14 -15t5.5 -7.5q8 -20 21 -61q10 -34 18 -51q9 -19 22 -45q15 -29 21 -46q4 -11 7 -16l4 -7q8 -15 4 -31t-18.5 -24.5t-31 -4
t-24.5 18.5l-4 8q-6 10 -13 27q-4 13 -17 38l-24 48q-9 20 -20 55q-4 -6 -8 -13q-15 -26 -42 -67q-26 -41 -37 -58l-11 -16q-9 -14 -25.5 -17.5t-30.5 5.5z" />
    <glyph glyph-name="underscore" unicode="_" horiz-adv-x="627" 
d="M53 -34.5q-1 16.5 10.5 29t27.5 13.5l9 1h22q13 1 40 1h38q11 0 35 0.5t42 1.5q20 2 32 2h28h18q5 0 17 1q15 1 31 2h23q4 0 13 2q14 2 26 2q11 1 25 1h44q17 0 28.5 -12t11.5 -28.5t-11.5 -28.5t-28.5 -12h-44q-12 0 -21 -1q-8 0 -18 -2q-15 -2 -25 -2h-21
q-13 -1 -25 -2q-15 -1 -24 -1h-22h-22q-12 0 -30 -1q-20 -2 -45 -2.5t-37 -0.5h-38h-38q-12 -1 -20 -1l-8 -1q-17 -1 -29.5 10.5t-13.5 28z" />
    <glyph glyph-name="grave" unicode="`" horiz-adv-x="350" 
d="M294 550q10 -25 -8 -45q-11 -12 -28 -12.5t-29 10.5l-7 7l-14 14l-15 15q-9 9 -22 21q-10 10 -21 19q-14 11 -29 23q-13 11 -20 17q-2 2 -11 6l-14 7q-15 7 -20.5 22.5t1.5 30.5t23 21q4 5 10 8l11 6q14 7 26.5 11t26.5 6q16 2 33 -6t24 -25l13 -26q8 -16 12 -21l10 -15
q5 -6 13 -16q11 -15 19 -34q7 -16 9 -21l3 -8q4 -7 4 -15z" />
    <glyph glyph-name="a" unicode="a" horiz-adv-x="527" 
d="M296 382q-6 -3 -13 -7q-27 -13 -47 -29q-21 -15 -44 -43q-22 -26 -38 -64q-16 -39 -19 -59q-2 -22 0 -48q3 -27 8 -43q6 -17 12 -25v-1q6 2 14 4q12 4 32 15q21 11 32 21t17 19q7 9 16 30q10 20 13 34q4 17 5 30q2 16 6 38q3 21 6 45q-1 26 -1 52q1 17 1 31zM375 441
q8 -19 8 -24v-14q0 -9 -1 -23v-21v-23q0 -14 -4 -41v-7q2 -31 6 -63q1 -5 1 -10q4 -24 11 -47q9 -29 19 -53q11 -26 18 -46q8 -19 13 -32q3 -7 9 -15l11 -13q10 -12 8.5 -29t-14.5 -27.5t-30 -8.5t-27 14l-11 13q-14 17 -21 36q-5 12 -13 32q-8 19 -18 45q-4 9 -7 19
q-9 -17 -17 -28q-10 -15 -29 -32t-47 -32q-28 -16 -48 -22q-17 -5 -29 -7q-24 -5 -46 8q-18 10 -31 31q-10 16 -19 41q-9 26 -12 62q-4 36 0 66q4 31 25 80q20 49 50 85q29 35 57 56q26 20 59.5 36.5t48.5 21.5q19 5 31 5h6q13 0 25.5 -9.5t17.5 -23.5z" />
    <glyph glyph-name="b" unicode="b" horiz-adv-x="507" 
d="M147 332v-39q1 -32 0 -52q-1 -19 -3 -35q-1 -16 -5 -47q-3 -28 -3 -39q0 -9 2 -16l3 -3q3 -3 9 -4q10 -2 34 -1q25 1 61 9.5t60 19.5q22 11 44 30q18 14 21 26q4 14 2 25q-2 15 -8 28q-5 11 -35 45t-45 42q-16 10 -36 15q-22 7 -42 9q-14 2 -32 -4q-14 -5 -27 -9z
M150 418q35 12 67 7q26 -3 53 -11q29 -8 54 -22q27 -15 66 -59q38 -44 48 -67q10 -22 14 -46q5 -30 -4 -62q-11 -35 -46 -65q-31 -26 -64 -41q-31 -15 -74 -25t-76 -12q-36 -2 -56 3q-26 6 -44 22q-20 17 -27 41q-6 18 -6 38q0 17 4 50q3 30 5 44q1 15 2 32t0 47v42
q-3 5 -5 10q-7 21 7 39q1 33 1 63q0 36 -6 95q-5 60 -8 91l-2 31q-1 16 10 29t27.5 14t29.5 -10t14 -27l2 -31q2 -30 8 -90q6 -62 6 -102v-28z" />
    <glyph glyph-name="c" unicode="c" horiz-adv-x="540" 
d="M477 358.5q-11 -12.5 -28 -13t-29 10.5l-25 22q-18 16 -54 28q-35 12 -49 10q-17 -3 -41 -14q-27 -13 -53 -30q-26 -16 -38 -28q-8 -6 -15 -26q-9 -27 -10 -34q-1 -5 -1 -16q2 -15 3 -28t2 -21q1 -6 3 -17q1 -8 3 -14t7 -16q5 -11 12 -22q5 -9 8 -12q5 -6 15 -16
q8 -7 18 -14q7 -3 26 -3q28 0 44 4q21 5 47 10q23 5 35 9q13 4 20 7t12 6q0 1 1 1q0 1 1 2l2 6q5 16 20 23.5t31 2t23.5 -20.5t2.5 -31l-2 -6q-5 -12 -13 -24q-10 -13 -24 -22q-9 -6 -21 -11q-11 -5 -28 -10q-17 -6 -44 -11q-24 -5 -45 -10q-25 -6 -62 -6q-45 1 -68 15
q-18 11 -33 25q-12 12 -18 19q-9 10 -18 26q-8 14 -15 27q-6 14 -10 25q-4 12 -7 27q-3 14 -3 24q-1 7 -2 20q-2 13 -3 30q-2 22 1 38q3 13 14 45q14 38 36 59q17 16 49 36q31 20 62 35q34 16 64 21q33 5 87 -13q52 -17 82 -45l25 -22q12 -11 13 -28t-10 -29.5z" />
    <glyph glyph-name="d" unicode="d" horiz-adv-x="520" 
d="M358 419q-3 27 -5 52q-6 67 -13 114q-7 53 -2 98t10 61l3 11q6 16 21 23.5t30.5 2.5t23.5 -20.5t2 -30.5l-3 -12q-3 -9 -7 -43q-4 -36 3 -79q6 -49 12 -118q4 -44 11 -91q3 -22 7 -44q12 -73 15 -103q4 -37 -8 -77t-36 -72q-22 -29 -39 -44q-19 -17 -60 -32
q-40 -15 -70 -14q-27 0 -39 3q-15 3 -54 23q-39 21 -62 41q-27 25 -38 60q-10 33 -5 69q4 34 20 63q17 31 62 69q44 37 94 59q49 23 81 29q26 5 46 2zM370 333q-8 0 -14 2l-11 4q-6 1 -18 -2q-22 -4 -63 -22q-39 -18 -75 -48q-33 -28 -42 -45t-12 -36q-3 -18 2 -34
q4 -14 15 -23q16 -14 46 -30q23 -13 32 -16q7 -1 24 -1q15 0 42 9q26 10 33 16q11 10 28 33q15 21 23 46t6 46q-3 27 -15 97v2q-1 1 -1 2z" />
    <glyph glyph-name="e" unicode="e" horiz-adv-x="603" 
d="M161 318q19 -2 47 -6q35 -5 85.5 -2t81.5 10q25 6 39 13q-1 4 -1 8q-1 9 -9 26q-8 16 -15 24q-9 9 -17 15t-21 13q-12 5 -21 8q-8 1 -31 -2q-25 -3 -51 -17q-27 -16 -50 -38q-22 -20 -36 -50q-1 -1 -1 -2zM65 291q0 11 4 18l2 4q8 22 18 42q21 44 53 74q30 29 67 49
q39 22 80 27q41 6 62 0q16 -4 36 -14q19 -9 33 -19.5t28 -25.5q16 -17 29 -45t16 -50q2 -17 3 -29q1 -34 -38 -57q-24 -14 -64 -24q-38 -9 -96 -12t-101 3q-38 5 -61 8q-3 -25 -1 -40q3 -14 21 -34q22 -25 46 -41q26 -18 34 -22q7 -4 20 -8q11 -3 35 -4q26 0 53 6
q25 5 63 23q41 21 56 28q17 9 25 13l7 2q15 6 30.5 -0.5t21.5 -22t-0.5 -31t-21.5 -21.5l-7 -2l-18 -9q-15 -9 -58 -29q-46 -23 -82 -31q-35 -7 -70 -7q-36 1 -58 8q-20 6 -34 13q-13 7 -42 27q-31 21 -60 53q-34 38 -41 76q-6 33 4 81q3 12 6 23z" />
    <glyph glyph-name="f" unicode="f" horiz-adv-x="583" 
d="M53 337q0 17 12 28.5t29 11.5h15q15 0 81 1h14v26q-2 38 -1.5 66t0.5 40q1 14 2 29q2 21 6 39t11 34q6 14 13 27q8 16 18 27.5t29 25.5q21 16 41 23.5t38 9.5q19 2 44.5 -2.5t46.5 -14.5t35.5 -24t24.5 -32q6 -11 9 -17l4 -7q8 -14 4 -30.5t-18.5 -24.5t-31 -3.5
t-24.5 18.5l-4 6q-4 8 -11 20q-3 6 -8.5 11.5t-15.5 9.5q-10 6 -24.5 8.5t-21.5 1.5q-8 -1 -17.5 -5t-21.5 -12q-12 -10 -16 -14.5t-8 -12.5q-6 -10 -11 -21q-4 -10 -6.5 -21t-3.5 -25q-1 -19 -2 -29q0 -10 -0.5 -36t0.5 -61q1 -13 1 -28h18q48 2 80 3.5t48 1.5q14 1 22 2
l10 1q16 2 29.5 -8.5t15.5 -27t-8.5 -29.5t-27.5 -15l-9 -2q-11 -1 -29 -2q-16 0 -48 -1.5t-80 -3.5h-21q-1 -53 -1 -87q1 -35 7 -96q6 -65 7 -104l1 -37q1 -17 -11 -29t-28.5 -12.5t-28.5 11t-13 28.5l-1 37q-1 36 -7 98q-6 64 -7 103q0 34 1 86h-14q-66 -1 -81 -1h-15
q-17 0 -29 12t-12 29z" />
    <glyph glyph-name="g" unicode="g" horiz-adv-x="533" 
d="M386 366h-3q-13 -1 -31 -5q-19 -4 -30 -8q-13 -5 -37 -17q-22 -10 -38 -22q-18 -13 -33 -29q-16 -16 -27 -34q-12 -18 -18 -35q-6 -13 -7 -23q0 -12 1 -17t5 -18q3 -9 5 -14q1 -1 3 -2q6 -3 12 -4q5 -1 19 1q19 4 35 11q18 8 25 11q7 4 16 10q9 7 18 15q10 9 17 16
q5 6 19 27t16 27q4 8 13 24q5 10 11 24q0 22 2 35q1 12 7 27zM451 421q15 -10 22.5 -21t7.5 -17l-1 -6q0 -9 -2 -22.5t-5 -26.5t-15 -41q1 -25 4 -50q3 -30 6 -58q3 -30 4 -55v-36q0 -13 -1 -35q-1 -23 -5 -51q-4 -29 -7 -40q-3 -10 -7 -25q-5 -16 -11 -33q-8 -18 -16 -31
q-10 -17 -30 -31q-17 -10 -32 -17q-14 -5 -29 -10q-13 -4 -20 -6q-9 -3 -32 -6q-24 -3 -42 -3q-18 1 -38 6q-18 4 -29 8q-12 5 -27 15t-28 23q-12 12 -29 32q-18 21 -24 29l-5 7q-9 14 -6 30.5t16.5 26t30 6.5t26.5 -17l4 -6q4 -5 19 -23q15 -17 25 -27q8 -8 16 -13
q8 -6 12 -7l18 -6q12 -2 22 -3q11 0 27 2t21 4q6 2 19 6q12 3 23 8q8 3 17 9q5 3 6 6q5 6 9 18q6 13 9 26q4 14 7 23q2 7 5 30q4 25 5 44v31v34q0 18 -2 39q-7 -8 -12 -14q-8 -9 -21 -20q-13 -13 -27 -22q-14 -10 -24 -15t-31 -15q-24 -10 -52 -15q-32 -6 -52 -1
q-19 4 -35 14q-20 12 -30 28q-8 12 -14 32q-6 18 -8 30q-2 13 -1 34q1 23 11 50q10 23 25 48q16 25 37 46q21 22 43 38q24 17 53 31q26 12 41 18q17 7 42 12q27 6 48 7q23 0 36 -4l7 -2q19 -5 26 -20z" />
    <glyph glyph-name="h" unicode="h" horiz-adv-x="486" 
d="M131.5 694.5q16.5 -1.5 27 -15t8.5 -29.5l-2 -17q-1 -16 -5 -101q-4 -87 -10 -182q-2 -21 -3 -41q11 8 23 15q34 22 63 31q32 11 65 10q44 -1 81 -45q30 -36 43 -77q11 -38 12 -82q0 -41 -3.5 -69t-8.5 -46q-5 -17 -11 -32q-5 -14 -8 -21q-1 -1 -1 -5l-1 -8
q-2 -17 -15.5 -27t-30 -8t-26.5 15.5t-8 29.5l1 10q2 14 7 25q2 6 7 18q4 11 8 25q3 13 6 35t3 57q-1 33 -9 60q-7 25 -27 48q-13 16 -21 16q-19 0 -37 -5q-20 -7 -46 -23q-25 -16 -35 -28q-10 -13 -13 -19q-3 -7 -7 -28q-5 -24 -10 -70t-6 -69q0 -2 0.5 -4.5t0.5 -10
t-1 -14t-5 -13.5t-10 -11t-17 -3.5t-25 5.5q-22 10 -29 20t-2 16l5 5q-2 17 -3 45q-2 31 2 108q5 75 11 170t10 181q4 87 6 105l2 17q1 17 14.5 27.5t30 9z" />
    <glyph glyph-name="i" unicode="i" horiz-adv-x="214" 
d="M69 597q11 12 24 16q13 9 28 7q25 -4 33 -29q8 -11 8 -25.5t-9 -25.5q-15 -17 -37 -14q-3 -1 -4 -1q-22 -5 -40.5 23t-2.5 49zM110.5 474q16.5 0 28.5 -12t12 -28v-18q0 -18 -1 -51.5t-3 -80.5q-2 -46 -3 -99q-1 -54 -3 -70q-1 -15 -3 -36t-3 -31l-1 -11q-2 -16 -15 -27
t-29.5 -9.5t-27 14.5t-9.5 30l1 10q1 11 3 32q3 21 4 35q1 13 2 65q1 54 3 101q3 46 3.5 79t0.5 49v18q0 16 12 28t28.5 12z" />
    <glyph glyph-name="j" unicode="j" horiz-adv-x="456" 
d="M268 582q-13 10 -16 25q-3 17 6 31t26 17l8 2q14 3 31 0q4 0 8 -1q19 -4 34 -18l6 -6q12 -11 12.5 -28t-10.5 -29q-14 -16 -36 -13q-19 -10 -38 -5q-20 5 -31 25zM92.5 87.5q16.5 0.5 28.5 -11t13 -28.5v-10q1 -7 6 -34q5 -26 15 -42q11 -19 21 -33q6 -9 17 -15
q8 -5 13 -8h15q5 0 6 1q8 6 14 13q9 10 14 17q4 5 16 26q11 17 20 67q11 57 19 99q7 41 11 78q3 34 1 50q-1 14 -5 26q-7 20 -13 50t-6 62q-1 26 -2 34l-1 10q-3 17 7.5 30.5t27 15.5t30 -8t15.5 -27l1 -10q2 -12 3 -43q0 -26 5 -49q4 -24 9 -38q8 -21 10 -45q2 -23 -2 -66
q-3 -40 -11 -84q-8 -43 -19 -100q-12 -64 -30 -93q-15 -26 -22 -35q-6 -8 -15 -19q-13 -15 -29 -27q-23 -16 -54 -16q-22 0 -33 2q-12 3 -36 16q-25 15 -42 38q-13 18 -26 41q-15 28 -23 65q-7 35 -8 49v10q0 16 11.5 28.5t28 13z" />
    <glyph glyph-name="k" unicode="k" horiz-adv-x="491" 
d="M91.5 698.5q16.5 2.5 30 -8t15.5 -26.5l5 -37q5 -40 4 -127q-1 -85 -2 -117v-68q16 13 40 31q1 1 3 2q6 8 16 12q60 45 94 63q39 21 65 30l23 7q16 6 31 -2t20.5 -23.5t-2.5 -30.5t-23 -20l-23 -8q-20 -6 -52 -24q-25 -14 -74 -49q3 -12 7 -25q10 -30 18 -52
q8 -23 27 -76q17 -52 31 -85l14 -34q7 -15 0.5 -30.5t-21.5 -22t-31 0t-22 21.5l-14 34q-15 35 -34 89q-18 53 -26 75q-9 22 -18 53q-38 -30 -50 -42v-22v-93q-1 -65 -2 -76q-1 -10 -4 -22l-2 -12q-4 -16 -18 -25.5t-30 -6t-25.5 17.5t-6.5 30l3 12q2 9 3 16q0 10 1 66v93
v2.5v2.5q-9 11 -9 25.5t9 25.5v43q1 67 1 99q1 32 2 116q1 82 -3 115l-5 37q-2 17 8 30t26.5 15.5z" />
    <glyph glyph-name="l" unicode="l" horiz-adv-x="213" 
d="M105.5 691.5q16.5 2.5 30 -7.5t16.5 -26l3 -21q4 -24 3 -136q-1 -108 1 -193q3 -87 1 -146t-8 -98q-5 -37 -10.5 -64.5t-7.5 -35.5l-1 -7q-5 -16 -19.5 -24.5t-30.5 -4t-24.5 19t-4.5 30.5l2 7q2 5 6 30q5 25 10 60t7 90q2 56 -1 140q-2 87 -1 197q0 105 -2 122l-3 21
q-3 16 7 30t26.5 16.5z" />
    <glyph glyph-name="m" unicode="m" horiz-adv-x="749" 
d="M90.5 488q16.5 1 29.5 -10.5t14 -27.5l2 -29q1 -17 2 -52q5 10 11 18q41 63 77 83q33 19 60 25q30 7 62 1q14 -3 26 -11q28 -19 40 -66q4 -19 8 -39q19 44 36 62q28 29 70 35q40 6 67 -5q22 -9 40 -27q10 -10 17 -23.5t10.5 -22t11.5 -33.5q20 -58 22 -110q2 -51 -7 -94
q-9 -40 -18 -66q-6 -17 -7 -43l-2 -33q0 -16 -12.5 -27.5t-29.5 -11t-28 13t-11 29.5l2 32q1 39 11 67q8 21 16 56q7 33 5 74q-1 40 -17 87q-13 37 -21 48q-6 6 -14 9q-6 3 -23 0q-15 -2 -23 -11q-13 -12 -35 -75q-25 -67 -39 -123q-14 -55 -17 -82q-2 -2 -6 -4.5t-15 -10
t-21 -11.5t-20 -6.5t-16 2t-6 16.5t2 57q3 44 5 86q2 39 -1.5 82.5t-12.5 82.5q-3 11 -6 17q-13 2 -24 -1q-16 -3 -39 -16q-19 -11 -50 -58q-32 -48 -52 -131q-18 -73 -22 -115q-2 -46 -4 -57q-8 -43 -67 33l-12 15l2 14q1 43 -1 88q-1 14 -1 31q-1 39 -2 93q0 76 -2 103
l-2 29q-1 16 10 29t27.5 14z" />
    <glyph glyph-name="n" unicode="n" horiz-adv-x="500" 
d="M102.5 517.5q16.5 0.5 28.5 -11.5t13 -28v-28q1 -29 0 -114v-16q4 5 7 10q19 31 33 50q17 21 40 39q21 16 40 26q20 11 34 14q18 5 37 2q22 -4 38 -18q15 -12 30 -42q13 -26 24 -67t16 -82q4 -40 4 -75q1 -34 1 -66q0 -34 -2 -57q-2 -20 -2 -30l-1 -10q0 -17 -12.5 -28.5
t-29 -10.5t-28 13.5t-11.5 28.5l1 11q0 12 2 33q2 19 2 50t-1 64q0 32 -4 69q-3 34 -12.5 68t-19.5 53q-5 11 -9 16h-3q-5 -1 -16 -7q-13 -7 -29 -20q-15 -11 -24 -24q-12 -15 -29.5 -43t-28.5 -50q-11 -23 -27 -60q-15 -34 -21 -67q-5 -24 -7 -52q-1 -9 -1 -15v-15
l-21.5 -8t-39.5 -12.5t-21 1.5v9q0 5 1 13v4v4q0 12 1 24q1 11 1 24q3 47 5 106t2 143q1 85 0 112v28q-1 17 11 29t28.5 12.5z" />
    <glyph glyph-name="o" unicode="o" horiz-adv-x="601" 
d="M237 381q-20 -20 -47 -53q-42 -52 -47 -66q-6 -14 -9 -62q-2 -43 14 -73q15 -28 23 -37q12 -7 50 -21q42 -15 64 -12q26 4 36 9q11 5 50 40t66 79q25 42 29 77q3 35 -2 45q-6 15 -18 30q-14 17 -28 30q-12 10 -30 18q-20 10 -36 13q-15 4 -27 4q-13 0 -23 -1
q-7 -1 -23 -8l-21 -9q-10 -4 -21 -3zM375 476q22 -6 47 -17q29 -13 50 -32q18 -17 36 -39q20 -24 31 -49q12 -29 7 -84q-5 -54 -40 -112q-33 -55 -81 -98t-69 -52q-21 -10 -59 -16q-42 -7 -104 16q-58 21 -75 35.5t-42 60.5q-27 49 -22 116q3 61 14 87q10 25 59 87
q49 60 83 85q38 26 76 33q1 0 9 1.5t9.5 1.5t8.5 1t10 0.5t8.5 -1t10.5 -2.5t10 -5l9 -5q8 -4 14 -12z" />
    <glyph glyph-name="p" unicode="p" horiz-adv-x="510" 
d="M166 101q11 -4 22 -7q21 -6 39.5 -4.5t38.5 11.5q20 9 39 28q21 21 44 56q21 31 25 56q4 28 1 47q-3 17 -9 24q-6 8 -22 16q-16 9 -40 9q-24 1 -48 -7q-26 -10 -34 -15q-8 -7 -17 -17q-6 -7 -8 -10q-2 -5 -3 -12q-2 -12 -4 -27q-2 -19 -6 -43q-4 -25 -17 -99
q0 -1 -0.5 -3t-0.5 -3zM94.5 -201q-16.5 0 -28.5 12.5t-12 28.5l1 34q1 35 10 105q5 38 12 78l-3 1q-15 8 -19.5 24.5t3.5 30.5q10 19 32 21q11 62 14 84q3 24 6 42q2 16 4 29q3 17 8 30q6 14 22 32q14 17 30 29q17 12 54 26q39 14 79 12q41 -1 73 -17q33 -17 50 -39
q18 -24 25 -60q5 -33 -1 -73q-7 -43 -37 -88q-28 -42 -54 -69q-29 -29 -62 -44q-33 -16 -66 -19t-69 7q-6 1 -13 4q-4 -27 -8 -52q-8 -65 -9 -96l-1 -33q0 -17 -12 -28.5t-28.5 -11.5z" />
    <glyph glyph-name="q" unicode="q" horiz-adv-x="544" 
d="M368 388q-21 -2 -55 -14q-50 -17 -87 -48q-40 -34 -66 -68q-21 -28 -25 -60q-4 -33 9 -62q6 -13 11 -21q14 2 39 12q42 16 74 52q36 39 62 83q28 45 44 78q1 1 1 3q5 14 7 21q-5 9 -12 20zM443 421q7 -12 12 -21q22 -15 16 -31l1 -1l2 -7q5 -15 -2 -30t-22 -21
q-14 -45 -24 -95q-1 -8 -3 -15q-11 -62 -21 -116q-11 -54 -17 -90q-5 -35 -8 -64v-2q7 8 13 15q18 21 27 29l6 6q12 11 29 10.5t28.5 -12.5t10.5 -29t-13 -28l-6 -6q-5 -5 -21 -24q-17 -19 -46 -58q-5 -5 -12 -14.5t-9.5 -13t-7 -9t-8 -9t-7.5 -6.5q-25 -19 -48.5 0.5
t-23.5 36.5q0 11 1 26.5t2 39.5q2 22 5 54q2 33 8 71q7 37 17 92q2 12 5 24q-45 -48 -103 -72q-18 -7 -26 -9.5t-22.5 -6.5t-25.5 -3t-23 5q-15 5 -26.5 17t-17.5 22.5t-13 27.5q-22 49 -16 103q7 54 42 101q31 40 78 80q48 40 112 63q68 23 102 16l23 -5q14 -3 23 -14.5
t9 -26.5z" />
    <glyph glyph-name="r" unicode="r" horiz-adv-x="436" 
d="M108.5 528q16.5 2 30 -8t15.5 -27l4 -26q3 -21 1 -73q13 10 37 25q42 26 65 29q18 2 40 0q24 -2 36 -6q10 -4 19 -9l7 -4q14 -8 18.5 -24t-3.5 -30.5t-24 -19.5t-31 3l-6 4q-3 2 -7 3q-5 1 -15 2q-13 1 -23 0q-10 -3 -34 -17.5t-32 -21.5q-3 -5 -9 -16q-8 -16 -17 -43
q-3 -9 -6 -17q-6 -19 -12 -37q-7 -24 -15 -64q-1 -24 -3 -42q-3 -36 -5 -49q-1 -11 -2 -30.5t-1 -27.5q-4 -16 -22 -13.5t-39 12.5l-22 11q-1 24 3 67q3 40 11 82q1 19 2 42q1 25 3 59q2 37 4 85q4 87 1 109l-3 26q-2 17 8 30.5t26.5 15.5z" />
    <glyph glyph-name="s" unicode="s" horiz-adv-x="532" 
d="M457.5 348q-14.5 -8 -30.5 -2.5t-24 19.5l-17 33q-14 27 -21 34q-4 4 -14 8q-11 5 -22 5q-16 0 -32 -2q-15 -2 -25 -5q-7 -3 -27 -16q-22 -15 -31 -25q-9 -9 -12 -17q-4 -8 -4 -15q0 -6 1 -12q2 -5 4 -9q3 -3 9 -8q10 -9 23 -17q15 -9 33 -19q16 -9 38 -18q25 -9 43 -15
q24 -8 47 -22q29 -17 46 -51q15 -30 16 -54q1 -21 -3 -38q-4 -19 -16 -37q-11 -16 -33 -34q-19 -16 -39 -29t-36 -20q-18 -8 -38 -11q-22 -4 -46 -2q-23 3 -37 8q-12 5 -35 16q-24 12 -47 28q-26 18 -41 37q-15 17 -23 32l-6 11q-8 14 -3.5 30.5t19 24.5t31 3t24.5 -19
l6 -11q4 -8 14 -19q9 -11 25 -22q19 -13 37 -22q20 -10 27 -13q5 -2 19 -3q11 -2 21 0q11 2 20 6q11 5 26 15q15 9 30 22q13 10 18 17q3 6 4 10q1 6 1 16q-1 7 -8 23q-6 11 -15 17q-15 9 -31 14q-20 7 -46 17q-28 11 -49 23q-19 10 -35 20q-18 12 -33 24q-18 15 -25 26
t-13 29q-6 20 -5 41t11 42q9 21 26 40q16 17 45 37q30 20 48 26q17 5 39 8t43 3q27 0 52 -10q27 -11 43 -28q15 -16 34 -53l17 -32q7 -15 2 -31t-19.5 -24z" />
    <glyph glyph-name="t" unicode="t" horiz-adv-x="455" 
d="M53 427.5q0 16.5 12 28.5t29 12h71h5q5 52 7 98l2 54q1 17 13.5 28.5t29 10.5t28 -13.5t10.5 -28.5l-2 -54q-2 -46 -7 -96q8 0 16 -1q45 -1 72 -3l26 -2q16 -2 27 -14.5t10 -29t-14 -27.5t-29 -10l-26 2q-25 2 -69 3q-10 1 -20 1q-3 -46 -7 -106q-7 -103 -9 -150
q-2 -48 -3 -63.5t-3 -34.5q-3 -20 -6 -39l-3 -18q-2 -17 -16 -26.5t-30 -7t-26 16t-8 30.5l3 18q3 17 5 35q2 17 3 32q1 14 3 60q2 48 9 152q4 57 7 102h-69q-17 0 -29 12t-12 28.5z" />
    <glyph glyph-name="u" unicode="u" horiz-adv-x="558" 
d="M457 299q-1 -8 -1 -15q-2 -23 -3 -56q-1 -15 -1 -31q-2 -53 -2 -64q0 -5 4 -17q3 -9 10 -16l12 -14q11 -12 10.5 -29t-13 -28t-29 -10.5t-28.5 12.5l-12 14q-18 20 -27 46q-7 21 -8 38q-15 -23 -30 -40q-30 -36 -57 -54q-30 -19 -48 -23q-17 -2 -45 3q-26 6 -47 18
q-22 14 -40 41q-16 25 -31 75q-14 48 -17 134q-3 82 1 120q3 34 5 52l2 16q2 17 15 27.5t29.5 8.5t27 -15t9.5 -29l-2 -17q-2 -17 -5 -51q-3 -32 -1 -110q3 -75 14 -114q11 -38 21 -53q8 -12 14 -16q9 -5 22 -8q8 -1 14 -2q6 3 17 11q17 11 40 38q24 28 48 72q10 17 19 35
q15 31 30 64q2 4 4 9q4 27 11 62q13 55 25 88q0 4 1 8.5t5 15.5t11 17t20 6t31 -11q17 -11 22 -24t1 -20l-5 -8q-3 -32 -14 -75q-10 -35 -29 -81z" />
    <glyph glyph-name="v" unicode="v" horiz-adv-x="541" 
d="M202 49q-1 9 -6.5 32.5t-29.5 81.5q-25 61 -45 101q-21 44 -40 98l-22 66l-4 14q-5 16 2.5 31t23.5 20t31 -3t20 -23l5 -14q4 -14 21 -65q17 -49 36 -88q21 -43 47 -106q4 -11 8 -21q8 20 17 42q34 87 51 114q15 25 32 49q15 22 33 48q15 22 19 36q5 15 6 20l1 8
q2 16 15.5 26.5t30 8t27 -16t7.5 -29.5l-1 -8q-1 -11 -8 -34q-9 -25 -30 -57q-18 -27 -34 -49q-15 -21 -30 -44q-13 -21 -44 -102q-33 -84 -47 -118l-26 -26q-54 -47 -66 8z" />
    <glyph glyph-name="w" unicode="w" horiz-adv-x="651" 
d="M87 475.5q16 2.5 30 -7.5t16 -26l8 -45q7 -43 21 -112q14 -65 33 -134q26 48 36 73q14 33 36 88q24 56 32 75v1.5t0.5 3t1 3.5t2 4.5t3.5 5.5t5 5t6.5 4t9 3.5t11.5 2.5q25 3 37 -8.5t11 -24.5v-13q1 -17 7 -70q6 -51 13 -93q5 -28 11 -51q28 68 50 133q23 65 30 86
q9 25 18 43l8 14q9 14 25 18.5t30.5 -4t19 -24.5t-3.5 -31l-8 -13q-6 -11 -12 -28q-7 -22 -30 -88q-24 -67 -52.5 -137t-35.5 -84q-3 -7 -15 -16.5t-30 -14t-35 15.5q-11 13 -19 37q-6 18 -14 52q-8 33 -16 77q-3 16 -6 34q-9 -22 -15 -37q-15 -35 -52 -102
q-3 -4 -7.5 -10.5t-16.5 -22.5t-24 -26t-25 -18t-23.5 -1.5t-16.5 28.5q-1 6 -22 80q-21 76 -36 147t-22 116l-7 45q-3 16 7 30t26 16.5z" />
    <glyph glyph-name="x" unicode="x" horiz-adv-x="559" 
d="M71 -3q-14 9 -17.5 25.5t5.5 30.5l21 32q22 34 92 117q24 28 45 51q-21 27 -48 59q-60 73 -79 92l-20 21q-12 12 -11.5 29t12 28.5t28.5 11.5t29 -12l20 -21q21 -22 83 -97q22 -26 40 -49q5 6 10 11q40 44 75 80t53 55q16 18 19 22l5 7q10 14 26.5 16.5t30 -7t16.5 -26
t-7 -30.5l-4 -6q-7 -9 -27 -31q-18 -19 -54 -56q-34 -36 -73 -78q-9 -10 -20 -22q3 -3 6 -7q33 -45 54 -75q22 -31 29 -45q7 -12 17 -32q8 -17 14 -23q12 -16 16 -30q2 -4 4 -9l4 -7q7 -15 1.5 -31t-20 -23.5t-30.5 -2t-24 20.5l-3 7q-5 9 -9 20q-1 2 -3 4q-10 13 -22 37
q-10 20 -16 31q-5 9 -24 36t-48 67q-15 -18 -33 -39q-67 -79 -86 -108l-21 -32q-9 -14 -25.5 -17.5t-30.5 5.5z" />
    <glyph glyph-name="y" unicode="y" horiz-adv-x="618" 
d="M198 -199.5q-16 4.5 -24.5 19t-4.5 30.5l15 56q16 61 80 188l1 3q-4 6 -14.5 22t-16.5 26q-46 69 -73 106q-27 36 -48 62q-22 27 -34 46q-11 19 -17 31l-5 11q-7 15 -1.5 31t20.5 23t31 1t23 -21l5 -10q4 -9 13 -23q9 -15 28 -38q22 -27 50 -65q29 -38 76 -110
q3 -5 7 -10q42 78 88 147q70 107 84 124l13 16q11 13 27.5 14.5t29.5 -9t14.5 -27.5t-8.5 -30l-13 -15q-12 -14 -79 -117q-54 -82 -104 -177q7 -11 5.5 -25.5t-11.5 -24.5t-25 -11q-54 -109 -67 -158l-16 -57q-4 -16 -18.5 -24.5t-30.5 -4z" />
    <glyph glyph-name="z" unicode="z" horiz-adv-x="608" 
d="M74 401q-7 15 -1 31t21 22l17 8q20 9 61 20q43 11 129 15q84 3 118 0q33 -3 51 -6q23 -4 39 -11q13 -6 20 -10q17 -9 23 -21.5t2 -26t-7 -19.5t-6 -11q-15 -22 -58 -55q-37 -28 -106 -90q-71 -62 -104 -88q-31 -26 -62 -53q-24 -19 -40 -33q36 -1 86 1q59 1 106 4
q46 2 70 3q23 0 31 1h9q16 1 29 -10.5t13.5 -28t-10.5 -29t-28 -13.5h-8q-9 -1 -33 -1q-24 -1 -70 -3t-106 -4q-62 -2 -104 0q-49 2 -70 12q-9 4 -18 14t-14 26t6 33q9 15 21 25q8 7 26 22q19 16 51 43q33 28 64 53q31 26 101 87q71 63 111 93q7 6 14 11q-15 2 -36 4
q-29 3 -108 0q-77 -3 -111 -12q-35 -10 -49 -16l-17 -8q-15 -6 -30.5 0t-22.5 21z" />
    <glyph glyph-name="braceleft" unicode="{" 
d="M385 684.5q3 -16.5 -7 -30.5t-26 -16l-13 -3q-10 -2 -18.5 -5t-24.5 -11q-17 -10 -22 -14q-7 -5 -14 -11q-9 -9 -19 -17q-5 -5 -10 -12q-7 -11 -13 -24q-4 -7 -5 -23q0 -16 4 -27q6 -15 12 -24q9 -13 16 -24t13 -21q7 -12 11 -26q6 -20 3 -41q-3 -17 -8 -30
q-6 -14 -19 -27q-10 -11 -22 -18.5t-29 -14.5q-2 -1 -5 -2q26 -14 38 -27q10 -12 18 -28q10 -17 12 -36q3 -21 -5 -43q-7 -18 -17 -31q-6 -8 -12 -17q-6 -7 -12 -20q-8 -15 -14 -27q-3 -5 -5 -15q-2 -12 -1 -25t1 -20l3 -6q4 -7 9 -12q8 -8 30 -26q22 -17 32 -24q6 -4 16 -6
q12 -4 18 -4h15l4 2q15 6 29 7l8 1q17 2 30 -9t14.5 -27.5t-9 -29.5t-26.5 -15l-9 -1q-3 0 -7 -2q-16 -6 -29 -6q-8 -1 -21 -1q-16 1 -38 6q-22 6 -39 17q-13 9 -39 29q-26 21 -37 32q-13 14 -23 31q-10 19 -11 34q-1 8 -2 26q-1 23 3 43q4 22 12 39q6 11 14 26q9 18 18 30
q7 11 14 20q3 3 5 9q1 3 1 4q-1 5 -3 10q-4 6 -8 11q-4 4 -17 10q-20 10 -47 21q-2 1 -5 3t-11.5 7.5t-15 11.5t-12 14.5t-6 16.5t6 17t20.5 17q8 5 27 15q20 10 33 15q11 4 25 10q9 4 14 7t9 7l3 3q1 3 2 10v4q-2 6 -5 11q-4 7 -10 17q-7 10 -15 23q-12 17 -21 40
q-10 26 -8 59q1 34 12 56q8 17 18 32q11 17 25 29q9 8 17 15q10 9 20 17q10 7 31 19q22 12 37 17.5t32 8.5l13 2q16 3 30 -6.5t17 -26z" />
    <glyph glyph-name="bar" unicode="|" horiz-adv-x="194" 
d="M101.5 741.5q16.5 -0.5 28 -12.5t11.5 -29v-28q-1 -29 -2 -97q0 -69 -2 -124q-2 -53 -3 -97v-88q1 -42 3 -94q3 -55 2 -84q-1 -27 -2 -48q-1 -18 -2 -39q0 -19 1 -40t3 -35q1 -16 1 -36v-24q0 -5 1 -13q0 -10 -1 -20v-8q-1 -17 -13.5 -28.5t-29 -10.5t-28 14t-10.5 29
l1 8v12q-1 10 -1 16v25q0 16 -1 28q-2 15 -3 39t-1 46q1 22 2 43q1 19 2 45t-2 77q-2 54 -3 98q0 43 0.5 88.5t2.5 99.5t2 122q1 68 2 97v29q0 16 12.5 28t29 11.5z" />
    <glyph glyph-name="braceright" unicode="}" horiz-adv-x="465" 
d="M57.5 664q-4.5 16 3.5 31t24 19l22 7q30 9 61 4q30 -4 50 -14q18 -10 35 -25q15 -14 38 -42q23 -29 38 -58t19 -42q3 -13 5 -28t2 -26t-3 -24q-3 -14 -11 -31q-6 -14 -12 -24q-3 -8 -5 -12q-1 -4 -2 -9q-1 -4 -1 -14q0 -9 1 -15q1 -4 2 -7q2 -3 7 -9q4 -6 7 -7
q5 -3 15 -7q18 -6 30 -11q13 -7 23.5 -24t2.5 -38t-29 -32q-5 -2 -16 -10q-14 -10 -24 -16q-6 -4 -13 -12q-7 -6 -12 -18q-4 -9 -5 -18q0 -6 1 -9q3 -5 8 -12q9 -12 18 -25t15 -21q9 -12 15 -24q6 -14 10 -28q4 -18 -2 -47q-5 -24 -11 -37q-6 -16 -16.5 -30.5t-28.5 -30.5
q-15 -13 -27 -22q-13 -9 -27 -16t-30 -13q-17 -6 -34 -9q-14 -3 -29 -5q-17 -2 -31 -2h-25q-13 1 -22 2l-6 1q-17 2 -27 16t-7.5 30t16 26.5t29.5 7.5l7 -1q4 -1 14 -1h21q9 0 20 1l26 4q10 2 21 6t19.5 8.5t16.5 10.5q10 7 23 18q10 8 15 15t7 13q3 8 6 25q2 8 2 13
q-1 5 -3 9q-3 6 -7 12q-7 9 -16 22q-8 12 -17 23q-11 14 -17 27q-8 18 -8 45q1 26 13 51q11 23 26 39q17 17 28 24q-15 9 -29 27q-12 16 -17 28q-5 10 -7 23q-2 12 -3 29q0 16 2 29q2 12 6 22q3 10 9 22q5 8 10 21q5 9 6 14q1 6 1 9q0 4 -1 13t-3 16t-13 28q-11 22 -29 44
q-19 23 -30 33q-9 8 -18 13q-7 4 -23 6q-14 2 -28 -2l-22 -6q-15 -5 -30 3t-19.5 24z" />
    <glyph glyph-name="asciitilde" unicode="~" horiz-adv-x="699" 
d="M78 165q-15 6 -21.5 21.5t-0.5 31.5l4 9q4 9 14 31q13 28 42 53q27 24 62 39t61 16q25 0 40 -5q11 -3 30 -12q20 -10 34 -19q15 -11 32 -33l16 -20q7 -5 19 -16q9 -8 18 -13q9 -4 18 -6t13 -2t11 2q12 3 24 8q10 4 16 8q4 4 13 17q13 19 23 36.5t15 26.5q3 6 4 10l2 8
q5 15 19.5 23.5t30.5 4t24.5 -19.5t3.5 -31l-2 -7q-3 -12 -10 -25q-6 -11 -17.5 -30.5t-25.5 -40.5q-17 -27 -33 -38q-14 -9 -32 -17q-18 -7 -35 -11q-20 -5 -33 -5q-10 0 -27 4q-19 4 -37 13q-19 9 -36 24q-14 12 -22 19q-9 9 -24 28q-9 13 -15 17q-7 5 -21 11q-14 7 -21 9
q-4 1 -13 1q-10 -1 -31 -10q-24 -10 -41 -25q-16 -14 -22 -27q-9 -19 -12 -27l-4 -9q-6 -15 -22 -21.5t-31 -0.5z" />
    <glyph glyph-name="exclamdown" unicode="&#xa1;" horiz-adv-x="263" 
d="M167 234v-2q0 -11 -1 -25q-2 -13 -3 -24q-1 -8 -2 -18q0 -13 -2 -30q-2 -14 -3 -31q-1 -16 0 -29q1 -19 0 -38q-1 -15 -1 -26v-30v-28v-31q1 -20 2 -31q2 -28 -14 -50q-14 -18 -44 -13.5t-37 27.5q-5 14 -7 26q-1 12 -2 25v24q1 11 2 28q2 18 4 39q2 22 4 42q2 18 4 39
t5 45t6 46t5 44q1 13 3 26v3l-1 6q-3 17 8 31q5 15 18.5 23t27.5 5q17 -3 26.5 -17t6.5 -30l-3 -18q-1 -3 -2 -8zM123 471q14 8 29 10q14 1 31 -5.5t24 -25.5q8 -20 -1 -45q-10 -28 -40 -39q-27 -11 -54 -2q-25 8 -37 24q-12 17 -8.5 37.5t17.5 31.5q18 14 39 14z" />
    <glyph glyph-name="cent" unicode="&#xa2;" horiz-adv-x="511" 
d="M280.5 635.5q16.5 -0.5 28.5 -12.5t11 -29v-20q-1 -22 -12 -116l-2 -20q39 -1 65 -11q29 -11 54 -32l19 -16q13 -11 14.5 -28t-9.5 -29.5t-28 -14t-29 9.5l-20 16q-14 12 -29 18q-15 5 -45 6q-4 -43 -6 -87q-6 -98 -7 -157v-16q5 3 11 7q18 13 39 31q22 18 28 24q2 2 3 4
l4 9q8 15 23.5 21t30.5 -1.5t21 -23t-1 -30.5l-4 -9q-8 -16 -20 -28q-8 -8 -33 -28q-24 -21 -46 -36q-25 -17 -49 -24q-3 -1 -7 -2v-17q2 -63 1 -76v-11q-1 -17 -13 -28.5t-28.5 -11t-28.5 13t-11 28.5v12q1 9 -1 71v29q-29 9 -57 25q-38 21 -54 39q-19 21 -33 70
q-14 51 -1 103q13 49 44 87q30 36 73 60q35 20 47 25q2 19 5 38q11 89 11 108v20q1 17 13 28.5t28.5 11zM204 108v8q2 59 7 158q1 31 3 60q-29 -17 -49 -41q-19 -23 -27 -55q-8 -31 0.5 -61t14.5 -38q8 -8 33 -22q9 -5 18 -9z" />
    <glyph glyph-name="sterling" unicode="&#xa3;" horiz-adv-x="652" 
d="M53.5 312q3.5 16 17.5 25.5t31 5.5l18 -4q13 -2 54 -7q-1 2 -1 3q-3 16 -4 30q-2 13 -3 25q-2 16 -1 35t4 34q3 14 8 26q5 16 22 40q16 23 28.5 36.5t27.5 24.5q13 9 38 26q30 19 54 27q24 7 46 7q25 1 56 -12q36 -15 57 -49q18 -28 23 -47q3 -13 4 -20l2 -7
q5 -16 -4 -31t-25 -19t-30.5 4.5t-18.5 24.5l-2 8q-2 7 -5 20q-2 7 -13 25q-7 12 -19 16q-15 7 -23 7q-11 -1 -25 -5q-13 -4 -32 -17q-23 -15 -34 -23q-10 -7 -18.5 -16t-19.5 -26q-11 -15 -13 -20q-3 -8 -4 -17q-2 -9 -2.5 -21t0.5 -22q1 -13 2 -25q2 -11 4 -24
q3 -15 4 -25q23 -1 39 -1q33 1 47 5l20 6q16 4 30.5 -4t19 -24t-3.5 -31t-24 -19l-19 -6q-24 -6 -67 -8q-16 0 -34 1v-6q1 -16 0 -37t-2 -34q-1 -15 -5 -37q-3 -24 -9 -39q-2 -7 -4 -13q41 1 76 0q49 -1 91 -4q41 -3 51 -4q13 -1 32 -5q16 -5 32 -9l16 -4q5 -1 11 -1h8
q16 -1 27.5 -14t10.5 -29.5t-13.5 -27.5t-29.5 -10h-8q-9 1 -17 2q-9 1 -27 6l-30 8q-13 3 -19 4q-10 1 -50 4q-39 2 -86 3q-48 1 -107 0h-22.5h-19.5t-14.5 0.5t-14 1.5t-12.5 3l-9 3q-15 5 -23 20.5t-2.5 31t20.5 23t31 2.5l7 -2q2 -1 7 -1q1 2 1 4q2 2 3 8q3 13 8 27
q3 8 5 25q3 18 4 30q1 11 2 31q1 19 0 31v15q-60 6 -80 10l-19 4q-16 3 -25.5 17.5t-6 30.5z" />
    <glyph glyph-name="yen" unicode="&#xa5;" horiz-adv-x="686" 
d="M136 152.5q1 16.5 13 28t29 10.5l105 -3q-1 31 -3 53q-55 1 -90 -4l-39 -5q-16 -2 -29.5 8t-16 26.5t8 30t26.5 15.5l40 5q31 4 74 5q-13 20 -22 34q-11 18 -23.5 37t-33.5 47q-21 29 -53 78q-31 47 -46 71l-16 24q-10 13 -6.5 30t17.5 26t30.5 5.5t25.5 -17.5l16 -24
q16 -24 47 -71q30 -47 50 -74q22 -29 36 -49.5t25 -39.5q4 -7 9 -14q6 9 14 20q19 27 42 63q25 40 50 70q24 28 52 60t47 53q19 20 34 36l15 16q11 12 28 13t29 -10.5t13 -28.5t-11 -29l-14 -16q-15 -16 -34 -36t-46 -51.5t-50 -58.5q-22 -26 -44 -61q-24 -38 -45 -67
q-16 -23 -23 -37q23 -1 50 -2q18 0 35.5 -0.5t25 -0.5h10.5l13 1q17 2 30 -8.5t14.5 -27t-9 -29.5t-27.5 -15l-13 -1q-16 -2 -85 0q-25 1 -49 2q1 -23 2 -55q73 -3 91 -6l19 -2q17 -3 27 -16.5t8 -29.5t-15.5 -26.5t-29.5 -8.5l-20 3q-11 1 -80 4q-1 -25 -2 -43
q-3 -39 -7 -61q-3 -19 -4 -32v-14q-2 -16 -14.5 -27.5t-29 -10.5t-27.5 14t-10 29l1 14q1 16 4 39q3 20 6 56q2 16 2 40l-108 3q-17 1 -28.5 13.5t-10.5 29z" />
    <glyph glyph-name="section" unicode="&#xa7;" horiz-adv-x="559" 
d="M474 445q-16 -3 -30 6.5t-17 26.5l-6 31q-5 23 -15 38q-8 12 -28 22q-25 10 -45 12q-22 1 -36 -3q-18 -5 -61 -22q-40 -15 -55 -28q-15 -12 -28 -34t-17 -46q-3 -19 0 -26q3 -6 14 -11q19 -9 46 -15q31 -6 60 -11q33 -5 63 -17q32 -12 59 -32q25 -18 46 -39
q21 -20 30 -30q10 -11 22 -32q13 -24 17 -43q4 -18 4 -28v-13q0 -16 -6 -30t-21 -28q-13 -11 -28 -20q-1 -1 -2 -1q9 -8 18 -19q17 -21 28 -44q12 -29 7 -58q-4 -28 -29 -61q-25 -32 -62 -50q-34 -16 -72 -23q-36 -5 -87 -2q-53 3 -75 12q-23 9 -40 24q-11 9 -28 23
q-22 19 -30 31l-4 7q-9 14 -5 30.5t18.5 25.5t31 5t24.5 -19l4 -5q4 -5 13 -12q17 -15 29 -26q7 -5 16 -8q11 -4 51 -7q42 -3 69 1q26 5 50 16q20 10 33 27q12 16 13 23q1 6 -2 14q-5 13 -15 25q-11 12 -20 19q-10 6 -30 14l-4 -1q-25 -6 -41 13q-24 3 -51 11q-28 9 -64 25
q-41 19 -69 47t-40 54q-12 27 -12 50q-1 21 5 41t21 41q10 14 19 24q-32 18 -47 46q-15 30 -7 75q7 40 27.5 74.5t46.5 55.5q25 20 76 40q47 19 70 25q26 7 61 5q35 -1 74 -19q42 -19 63 -51q19 -29 26 -67l6 -31q3 -17 -6.5 -31t-25.5 -17zM226 308q-17 -20 -43 -12
q-5 -3 -10 -7q-7 -7 -16 -19q-7 -11 -9 -18q-2 -8 -2 -17q0 -6 5 -18q6 -12 23.5 -30t45.5 -30q31 -15 54 -21q22 -7 41 -9q16 -2 33 -7q4 1 9 3q15 5 25 10l20 10q7 4 13 9q0 1 1 1v10q0 3 -2 12q-2 7 -9 19q-8 15 -13 20q-6 7 -24 25q-18 17 -38 32q-18 14 -39 22
q-23 8 -48 12q-9 2 -17 3z" />
    <glyph glyph-name="copyright" unicode="&#xa9;" horiz-adv-x="675" 
d="M281 543q-10 -6 -23 -13q-40 -25 -58.5 -44t-41.5 -60q-22 -38 -23 -53q-2 -20 1 -46q4 -27 14 -59q10 -35 16 -50t9.5 -23t13.5 -23q9 -14 16 -22q10 -11 19 -22q6 -7 18 -18q13 -11 25 -18q10 -6 22 -9q12 -5 24 -6q12 -2 20 -2t21 3q16 2 28 5.5t19 5.5q4 2 15 8
q13 7 22 13.5t22 18.5q13 11 33 36q18 23 25 41q9 20 15 40q5 19 7 32q1 15 1 39q1 23 0 35q-1 8 -5 16q-5 13 -10 25q-5 11 -14 25q-11 16 -21 31q-8 11 -12 16q-7 7 -16 14q-7 7 -20 17q-13 9 -20 14q-10 5 -24 13l-22 11q-6 3 -15 7q-10 3 -19 5q-6 2 -10 2t-13 -3
l-14 -3q-12 -3 -25 1zM374 622q7 -2 15 -5q14 -5 25 -10q9 -5 24 -13t25 -14q12 -7 29 -19q16 -12 26 -22q9 -8 17 -16q11 -10 23 -29l22 -32q12 -19 19 -34q7 -14 13 -29q7 -20 9 -39q2 -16 1 -44q0 -28 -2 -46q-2 -21 -9 -47q-8 -24 -18 -48q-11 -28 -37 -60
q-24 -30 -41 -46q-17 -15 -30 -25q-13 -9 -29 -18q-17 -9 -28 -13q-10 -4 -25.5 -8t-34.5 -7q-20 -4 -34 -4q-13 0 -32 3q-20 2 -38 8q-20 7 -39 18q-17 10 -35 25q-18 16 -29 29q-8 9 -17 19q-11 14 -24 33q-11 19 -17 30.5t-13 29.5q-6 18 -18 55q-12 39 -16 73
q-5 35 -2 63q3 32 33 86q28 50 54 76.5t75 56.5q48 29 64 35q19 7 39 9l15 2q12 1 23.5 -5.5t16.5 -17.5zM476.5 350.5q-13.5 -9.5 -30.5 -6.5t-26 17l-10 14q-9 13 -17 24q-4 6 -14 13q-4 4 -16 4t-16 -2q-12 -8 -27 -20q-10 -7 -19 -25t-11 -40q-3 -26 -1 -35
q2 -11 10 -29q7 -16 17 -27q11 -12 17 -15q5 -3 13 -5q3 -1 6 -1h4.5h2.5q4 0 12 3q10 4 20 9q9 5 13 9q3 2 9 10q5 7 7 11l3 10q5 16 20.5 23.5t31 2t23 -20.5t2.5 -31l-4 -10q-5 -16 -18 -33q-12 -16 -23 -25q-9 -8 -24 -16q-15 -9 -31 -15q-19 -7 -34 -8q-15 -2 -36 3
q-22 4 -38 14q-16 9 -35 30q-20 21 -32 50q-12 26 -16 46q-3 21 0 57q3 39 20 71q18 33 41 51q18 14 34 24q25 16 61 15q38 -1 62 -20q20 -14 31 -30q9 -12 19 -26l10 -14q9 -14 6 -30.5t-16.5 -26z" />
    <glyph glyph-name="guillemotleft" unicode="&#xab;" horiz-adv-x="546" 
d="M487 351q9 -14 6 -30.5t-17 -25.5l-20 -15l-40 -28q-21 -16 -41 -29t-40 -24l18 -12q22 -16 38 -32q16 -15 32 -34q15 -17 21 -24l6 -7q11 -13 9.5 -29.5t-14 -27.5t-29.5 -10t-27 14l-7 7q-6 7 -21 25q-13 16 -26 28q-12 11 -30 24t-37 25q-1 1 -7.5 4.5t-11 6.5
t-10 9.5t-8 15.5t-1.5 20q0 6 1 10.5t2.5 8t4 7t4.5 6t5 5t4.5 3.5t5 3t3.5 3q15 10 35 21q17 10 35 21q18 12 37 27q21 15 43 30l21 14q13 10 30 7t26 -17zM349 390.5q8 -14.5 3.5 -31t-19.5 -24.5l-49 -28q-50 -27 -92 -52q-26 -16 -41 -26q6 -5 8 -7q22 -20 48 -45
q25 -25 45 -43q22 -19 38 -36q14 -15 23 -24l10 -9q11 -12 11 -29t-11.5 -28.5t-28.5 -11.5t-29 11l-9 10q-10 10 -25 26q-13 14 -33 31q-21 19 -47 44t-46 44q-20 18 -30 25q-8 7 -14 18t-7.5 26.5t9.5 29.5q10 12 28 25q15 11 59 38q44 26 94 54l50 28q14 8 30.5 3.5
t24.5 -19z" />
    <glyph glyph-name="registered" unicode="&#xae;" horiz-adv-x="719" 
d="M251 536q-22 -11 -32 -18q-13 -10 -33 -34q-19 -22 -32 -53q-13 -34 -17 -65q-4 -32 -3 -54q2 -24 5 -37q4 -14 12 -35q9 -22 16 -36q9 -16 20 -36q9 -18 18 -28q10 -13 17 -20q5 -6 22 -19q16 -12 31 -20q8 -4 13 -6q8 -1 21 -2q13 -2 25 -2q14 -1 27 -1h20q6 0 23 2
q17 1 27 4q7 2 23 10q17 9 23 14q8 6 21 20q14 15 32 40q18 24 24 35t10 23q4 13 8 31q4 20 9 56q6 32 5 47q-1 16 -4 33q-3 14 -7 23q-5 10 -15 25q-10 14 -26 29q-17 18 -34 33q-18 16 -29 25q-7 6 -22 15t-24.5 12t-41.5 5q-35 3 -47 2q-6 0 -18 -5q-22 -9 -39 -12
l-11 -2q-8 -1 -17 1zM395 632q36 -3 53 -8q18 -6 41 -19q23 -12 36 -24q11 -10 29 -25q18 -17 38 -36q20 -21 34 -41t22 -36q9 -18 13 -43q5 -22 6 -44q1 -23 -6 -64q-6 -38 -10 -59q-5 -23 -10 -40q-6 -19 -15 -36q-9 -16 -31 -45q-21 -29 -37.5 -47t-29.5 -28t-36 -23
q-25 -13 -42 -17q-14 -3 -37 -6q-22 -2 -32 -2h-22q-13 0 -27 1q-17 0 -33 2q-14 2 -22 3q-15 2 -39 14q-21 11 -43 27.5t-32 27.5q-9 10 -21 25q-14 16 -27 40q-11 21 -19 37q-10 18 -20 44q-11 27 -15 46q-5 20 -7 50q-3 30 3 71q5 41 22 84q18 44 45 76q26 30 46 45
q20 16 61 34q40 18 70 25t47 8h13q21 1 34 -17zM314 366q2 1 4 1q14 1 43 7q31 7 65 17q18 4 28 10q-5 7 -16 18q-10 10 -25 14q-21 6 -48 7q-30 2 -53 0h-5q1 -7 2 -15q1 -13 3 -34q1 -13 2 -25zM255 511q19 8 51 10q28 2 63 0q36 -2 66 -10q36 -9 61 -35q22 -22 32 -42
q9 -19 10 -34q4 -28 -25 -55q-20 -20 -65 -32q-28 -8 -55 -15q14 -14 25 -28q22 -27 34 -46q11 -18 21 -36q8 -17 13 -27l5 -10q7 -15 1 -31t-21 -23t-31 -1t-23 21l-4 10l-12 24q-8 14 -18 30q-9 15 -28 38q-17 22 -46 48q0 -23 -1 -49q0 -52 -1 -64v-11
q-1 -16 -13.5 -27.5t-29 -10.5t-28 13.5t-10.5 29.5l1 10q0 10 0.5 60.5t2.5 86.5q1 10 1 17q2 21 2 31q0 12 -2 31q-1 21 -2.5 33t-2.5 21q-2 12 -2 22q-1 16 9 30t22 21z" />
    <glyph glyph-name="degree" unicode="&#xb0;" horiz-adv-x="324" 
d="M175 564q-4 -3 -12 -8q-14 -12 -23 -25q-3 -5 -5 -9q7 -6 10 -8q4 -2 14 -6q7 -2 14 -2q1 2 3 5q7 13 10 19q1 4 3 15q2 9 2 13l-6 2q-4 1 -10 4zM212 636l5 -1q21 -6 34 -21q11 -12 17 -29q4 -13 4 -25q0 -11 -3 -30q-3 -17 -7 -27t-15 -31q-1 -1 -2 -3q-15 -27 -33 -36
q-17 -9 -41 -8q-21 0 -40 8q-16 5 -24 10q-10 5 -23 16q-23 18 -28 42q-3 16 -3 27q0 7 1 12.5t3.5 10.5l4 8t5.5 8.5t5 7.5q16 25 42 44q2 2 7.5 6.5t8 6.5t7.5 5t10.5 4.5t11.5 2.5q10 2 20 2h7q14 0 26 -10z" />
    <glyph glyph-name="plusminus" unicode="&#xb1;" horiz-adv-x="561" 
d="M64 29q-2 16 8.5 29.5t26.5 16.5l24 3q27 3 161.5 5t149.5 0l13 -1q16 -2 27 -15t9 -29.5t-15.5 -27t-29.5 -9.5l-13 2q-16 1 -140 -1q-129 -2 -151 -4l-24 -4q-17 -2 -30.5 8.5t-15.5 26.5zM53 342.5q-1 16.5 11 29t28 13.5h13q12 1 73 5q27 2 60 3v39l-2 69
q0 16 12 28.5t28.5 12.5t28.5 -11.5t12 -28.5l2 -69v-40q7 0 15 -1q90 -2 112 -2h22q16 0 28 -12t12 -28.5t-12 -28.5t-28 -12h-22q-23 0 -114 2q-8 1 -16 1q0 -4 -1 -6q-4 -55 -7 -88q-3 -31 -4 -42v-12q-1 -17 -13.5 -28.5t-29 -10.5t-28 13t-10.5 29v12q1 14 4 47
q4 32 8 86q-28 -1 -51 -3q-62 -4 -76 -5h-13q-17 -1 -29 10.5t-13 28z" />
    <glyph glyph-name="uni00B2" unicode="&#xb2;" horiz-adv-x="419" 
d="M96 492.5q-15 6.5 -22 22t-1 30.5l6 15q9 22 33 49q24 26 63 45q44 22 72 16q26 -5 45 -23q14 -14 27 -38q14 -26 16 -45q3 -27 -19 -57q-16 -21 -43 -45q-25 -21 -52 -44q-20 -16 -39 -33q9 -1 15 -1q71 -7 95 -8q22 -2 27 -2h7q16 0 28 -12t12 -28.5t-12 -28.5t-28 -12
h-7q-8 0 -33 2t-96.5 8.5t-88.5 8.5q-4 0 -14 5.5t-21 15.5t-12.5 23.5t9.5 30.5q9 11 19 20q7 5 33 27q26 23 54 46q27 23 51 43q20 18 30 32q2 2 3 5q-1 4 -5 10q-7 13 -12 18q-1 2 -3 2q-8 -2 -23 -9q-24 -12 -38 -27q-14 -16 -18 -24l-6 -15q-6 -15 -21.5 -22
t-30.5 -0.5z" />
    <glyph glyph-name="uni00B3" unicode="&#xb3;" horiz-adv-x="433" 
d="M53.5 584.5q-2.5 16.5 7.5 30t27 16.5l29 4q31 5 102 7q71 3 85 2q13 -1 30 -3q21 -2 32 -16q18 -25 12.5 -42t-20.5 -26l-15 -9q-26 -16 -38 -22q22 -13 37 -33q16 -23 23 -45q8 -24 3 -46q-5 -26 -36 -49q-22 -16 -39 -23q-15 -7 -50 -14q-36 -8 -69 -8q-31 0 -45 2
q-19 3 -33 12q-20 13 -27 36l-3 9q-4 16 4 31t24 19.5t31 -3.5t19 -24q10 -1 30 -1q25 0 52 6t36 9q8 4 22 14l4 4v3q-3 8 -12 20q-6 9 -17 13q-21 9 -46 18q-3 2 -8.5 4.5t-17.5 11t-18 18t-3.5 23t18.5 27.5q-37 -2 -55 -5l-30 -4q-16 -3 -29.5 7t-16 26.5z" />
    <glyph glyph-name="uni00B5" unicode="&#xb5;" horiz-adv-x="510" 
d="M445 295q-3 -33 -4 -67q-2 -22 -2 -42q0 -34 2 -62q3 -46 6 -57q2 -13 4 -19l1 -7q4 -16 -5 -30.5t-25 -18t-30.5 5.5t-18.5 25l-1 7q-2 7 -5 21q-1 5 -2 13q-3 -5 -7 -9q-30 -38 -89 -41q-51 -1 -82 15q-28 15 -53 60q0 -35 1 -73q3 -80 5 -130l1 -49q0 -17 -11.5 -29
t-28 -12.5t-29 11t-12.5 28.5l-1 49q-2 49 -5 129q-3 81 1 147l10 128q5 63 7.5 98t3.5 50q0 7 1 10q5 11 22.5 3t37.5 -23l19 -15q-1 -36 1 -93q2 -54 11 -95q9 -40 31 -83q17 -33 27 -40q11 -6 40 -5q21 1 29 10q16 21 26 42q5 11 12.5 37t17.5 64q9 34 14 60q2 23 5 44
q1 12 38 35q48 29 49 7v-3q0 -9 -3 -42q-2 -20 -9 -54z" />
    <glyph glyph-name="periodcentered" unicode="&#xb7;" horiz-adv-x="267" 
d="M63 308q-7 8 -9 18q-4 16 5 30.5t25 17.5l13 3q5 1 10 3q13 11 27 15l8 3q24 6 41 -13q16 -3 24.5 -16.5t6.5 -29.5q-1 -3 -2 -7q1 -8 1 -15q0 -12 -5 -26q-5 -17 -20 -34q-6 -7 -15.5 -12.5t-24.5 -8.5t-29 8q-9 6 -17 15h-1q-12 1 -21 7q-23 15 -17 42z" />
    <glyph glyph-name="guillemotright" unicode="&#xbb;" horiz-adv-x="513" 
d="M184 25.5q-14 8.5 -18 25t4 30.5l7 11q9 15 34 40q24 23 45 39q19 14 51 36t44 29q8 6 17 11q-14 12 -33 31q-25 25 -50 49q-23 22 -33 30t-27 21q-16 12 -23 15l-8 5q-15 9 -19.5 25t4 30.5t25 19t30.5 -3.5l9 -5q11 -7 30 -21t30 -23q13 -10 39 -35q24 -24 50 -49
q24 -24 39 -37q0 -1 4 -4.5t5.5 -4.5t4.5 -4.5t4.5 -6t4 -6.5t3.5 -8.5t2 -9.5q5 -26 -18 -52q-13 -15 -28 -23q-9 -6 -21 -13q-10 -6 -39 -27q-31 -21 -49 -35q-16 -11 -36 -31q-18 -18 -22 -24l-7 -11q-8 -15 -24.5 -18.5t-30.5 5zM105 79.5q-15 7.5 -20.5 23.5t1.5 31
l5 8q6 14 32 42q23 25 41 41q16 15 40 33q0 1 -0.5 2t-2.5 3l-3.5 3.5t-3.5 3l-2 1.5q-25 23 -40 35q-16 13 -36 28q-18 14 -30 21l-13 8q-14 8 -18.5 24.5t4 30.5t25 18.5t30.5 -3.5l13 -8q16 -9 38 -27q21 -15 37 -28q18 -14 45 -39q27 -26 38 -37q6 -7 11 -17.5t3.5 -27
t-14.5 -28.5q-7 -7 -31 -26q-21 -17 -36 -31q-14 -12 -35 -35q-16 -16 -20 -23l-4 -8q-7 -15 -23 -20.5t-31 2z" />
    <glyph glyph-name="onequarter" unicode="&#xbc;" horiz-adv-x="737" 
d="M583.5 394q16.5 -3 26 -16.5t7.5 -29.5l-8 -49q-7 -41 -18 -91q5 1 9 1q21 4 28 5l7 2q16 4 30.5 -5t18 -25t-5.5 -30.5t-25 -18.5l-7 -2q-9 -2 -33 -6q-16 -2 -41 -5q-4 -18 -7 -32q-7 -33 -10 -49l-3 -17q-3 -16 -17 -25.5t-30 -6.5t-25.5 17t-6.5 30l3 16q3 17 10 51
l2 10q-14 -1 -29 -2q-57 -3 -82 10q-19 9 -27.5 31t-0.5 42q7 18 33 63q25 42 40 68q16 26 27 41l9 13q10 14 27 16.5t30 -7.5t15.5 -26.5t-6.5 -29.5l-10 -14q-9 -11 -23 -35q-15 -25 -39 -67q-7 -13 -14 -24h16q27 2 52 3l1 5q14 60 22 107l8 49q2 16 16 26t30.5 7z
M174 19.5q-15 6.5 -21 22.5t0 31l35 81q28 66 85 151q-14 -6 -28 -3l-8 2q-9 2 -53 5h-10q-5 1 -16 2q-41 4 -54 5h-4.5t-9.5 0.5t-13 2t-12.5 5.5t-9.5 10t-2 17t8 24q10 21 19.5 27t14.5 1l5 -4q15 1 47 -4q1 39 3.5 78.5t5.5 72.5q1 15 2 28q-18 -7 -31 -9l-15 -3
q-16 -3 -30 6.5t-17 25.5t6.5 30t25.5 17l15 3q11 2 34 12q24 11 31 14q22 11 42.5 -2t23.5 -30q3 -15 -1 -44q-3 -22 -6 -54q-2 -33 -5 -72q-2 -38 -3 -77v-4q20 -2 27 -4l9 -2q14 -3 23 -15.5t8 -27.5q5 8 10 15q78 111 131 187l53 76q9 13 26 16t30.5 -6.5t16.5 -26
t-7 -30.5l-52 -75q-53 -76 -132 -188q-76 -108 -109 -184l-34 -81q-7 -15 -23 -21.5t-31 0z" />
    <glyph glyph-name="onehalf" unicode="&#xbd;" horiz-adv-x="731" 
d="M369.5 217q-12.5 11 -13.5 27.5t9 29.5l14 16q18 21 76 54q60 34 114 35q4 0 13 0.5t12.5 0.5t10.5 -0.5t11.5 -1t10.5 -2.5t11 -4.5t10 -6.5q14 -10 21 -25q6 -13 7 -28q1 -16 -5.5 -31t-13 -22.5t-20.5 -22.5q-30 -30 -76 -73q-46 -44 -74 -68l-5 -5q44 2 80 1t55 0h20
q16 1 28.5 -11t13 -28.5t-11.5 -28.5t-28 -13h-20q-20 -1 -59 0q-36 1 -82 -1q-53 -2 -78 6q-18 5 -31 24t-5 41q5 14 19 29q22 22 51 47q26 23 71.5 65.5t73.5 71.5l5 5h-13q-34 0 -76 -25q-45 -25 -55 -36l-13 -16q-11 -12 -28 -13.5t-29.5 9.5zM165.5 28.5
q-16.5 1.5 -27 15t-8.5 29.5l1 13q1 8 3.5 16.5t8.5 21.5t11 22t16.5 31t18.5 36q54 103 111 184q57 80 101 130q43 48 55 60l10 10q12 12 29 12t28.5 -12t11.5 -29t-12 -28l-10 -11q-10 -9 -52 -56q-41 -46 -95 -123q-54 -76 -105 -174q-42 -81 -49 -102l-1 -10
q-2 -16 -15.5 -26.5t-30 -9zM53 362.5q-2 16.5 8.5 30t27.5 15.5l8 1q6 1 33 3q3 27 10 84q6 48 15 86l-15 -6l-17 -7q-16 -7 -31.5 -0.5t-22 22t0 31t21.5 21.5l18 8q18 7 41 17q21 8 29 13q4 2 11.5 4t19.5 3t23.5 -6.5t16.5 -23.5q4 -11 4 -21t-2 -16t-6.5 -18t-6.5 -19
q-12 -40 -19 -98q-5 -43 -8 -68h20q16 0 28 -12t12.5 -28.5t-11.5 -28.5t-29 -12h-25h-8q-14 -20 -38 -18q-14 2 -25 13q-24 -3 -30 -4l-8 -1q-16 -1 -29.5 9t-15.5 26.5z" />
    <glyph glyph-name="questiondown" unicode="&#xbf;" horiz-adv-x="404" 
d="M217.5 312.5q16.5 0.5 28.5 -11t13 -28.5v-8q1 -9 1 -18q0 -11 -1 -28q-2 -22 -9 -40q-6 -15 -16 -30q-9 -14 -25 -36q-16 -21 -28 -36q-9 -13 -22 -39q-13 -25 -18 -47q-5 -24 -6 -41t-1 -26q0 -3 3 -8q2 -3 9 -7q12 -9 21 -12q11 -4 20 -7q6 -2 13 -2q8 -1 12 0
q4 0 13 4q6 2 9 4q5 5 10 12q6 10 14 23q6 10 8 19q3 11 4 21q1 12 0 20q-1 14 -1 24v8q0 16 12 28t28.5 12t28.5 -12t12 -28v-8q0 -7 1 -18q1 -14 0 -31q-2 -19 -7 -37q-5 -20 -16 -39q-10 -16 -18 -28q-9 -14 -20 -24q-13 -13 -36 -22q-20 -7 -33 -9q-11 -1 -26 0
q-16 1 -31 5l-27 9q-16 7 -37 21q-25 17 -36 38q-9 19 -11 39q-1 15 1 37q2 23 8 52q7 32 24 66q16 32 30 51q12 16 28 37q14 19 22 31q5 9 9 17q2 6 3 15q1 14 1 21q0 8 -1 16v9q-1 16 11 28.5t28.5 13zM233 495q25 -9 36 -27q13 -20 8 -50q-7 -39 -40 -48q-24 -6 -48 8
q-9 5 -17 13q-23 9 -29.5 23.5t-0.5 24.5l6 10q7 17 27 32q27 22 58 14z" />
    <glyph glyph-name="Aacute" unicode="&#xc1;" horiz-adv-x="534" 
d="M269.5 653.5q-15.5 4.5 -24 19.5t-4.5 31l2 6q2 8 5.5 14.5t5.5 9.5t9 11.5t10 11.5q21 27 44 51q18 18 23 25l5 9q9 14 25.5 18t30.5 -5t18 -25.5t-5 -30.5l-5 -9q-8 -13 -33 -39q-21 -21 -40 -45q-11 -14 -16 -21l-1 -3q-4 -16 -19 -24.5t-30.5 -4zM82.5 -29.5
q-15.5 4.5 -24 19t-4.5 30.5l18 62q18 64 57 164q38 99 68 164q29 61 44 106t18 61q4 17 6 23q10 34 30.5 28.5t40.5 -29.5l20 -23q13 -37 40 -128t39 -146q4 -16 7 -32q17 -1 28.5 -13t10.5 -29q-1 -27 -27 -37q1 -1 1 -3q8 -58 12.5 -99t6.5 -52q1 -8 2 -14l2 -9
q5 -16 -3.5 -30.5t-24.5 -19t-31 4t-19 24.5l-2 9q-3 12 -5 26q-1 10 -6 51t-13 98q0 6 -1 13q-20 -1 -44 -2q-69 -2 -116 -3l-21 -1q-28 -74 -42 -124l-18 -62q-4 -16 -19 -24t-30.5 -3.5zM224 266q42 1 102 3q19 1 33 1q-1 8 -3 15q-11 52 -37 140q-6 20 -11 37
q-15 -39 -37 -87q-22 -45 -47 -109z" />
    <glyph glyph-name="Adieresis" unicode="&#xc4;" horiz-adv-x="565" 
d="M443 708q-5 -32 -28 -45q-27 -16 -58 1q-14 8 -24 24.5t-4 36.5q5 19 20 33q10 11 22 17q17 10 36 5.5t30 -18.5l5 -7q17 -23 1 -47zM257 672q-14 -21 -39 -17q-19 -3 -38 6q-28 13 -36 43q-6 22 0 50q0 2 1 6t5 14t9.5 16.5t17 10.5t26.5 0l6 -1q24 -5 30 -29
q10 -4 16 -10q21 -18 20 -44q0 -17 -11 -34q-2 -2 -3 -5zM88 -34.5q-16 2.5 -26.5 16t-8.5 29.5l2 13q2 16 20 71q18 54 41 111t45 104q22 46 48 99q25 51 47 101q21 49 29 72q8 21 9 27q2 8 4 17q11 29 29.5 23.5t36.5 -26.5l19 -21q2 -25 14 -73q11 -50 25 -97
q15 -50 23 -97q7 -39 14 -70q1 -1 2 -1q5 -2 9 -3l7 -1q16 -4 25 -18.5t5 -30.5q-6 -22 -28 -29q7 -23 12 -44q9 -29 13 -51q3 -20 5 -33q2 -15 3 -23v-8q1 -16 -10 -29t-27.5 -14t-29 10.5t-14.5 27.5v7q0 6 -2 17q-2 13 -5 31t-11 43q-7 28 -15 57q-4 11 -7 24
q-11 1 -26 2q-19 1 -45 0q-25 0 -42 -2q-14 -2 -38 -11l-29 -11q-10 -4 -21 -1q-22 -54 -38 -104q-15 -47 -17 -58l-1 -12q-3 -16 -16.5 -26.5t-29.5 -8zM231 269q20 6 36 8q22 3 51 3q29 1 51 0h4q-4 19 -8 41q-7 43 -21 89q-8 30 -17 62q-21 -49 -45 -99q-26 -52 -48 -98
q-1 -3 -3 -6z" />
    <glyph glyph-name="Eacute" unicode="&#xc9;" horiz-adv-x="511" 
d="M54 561q-4 16 5 30.5t25 18.5l42 11q32 7 77 11q-12 8 -16 22.5t3 28.5l7 13q9 19 39 51q25 27 39.5 41t20.5 21l8 7q11 13 28 13.5t29 -11t12.5 -28.5t-11.5 -29l-7 -8l-22 -22q-13 -13 -38 -40q-22 -23 -26 -31l-7 -13q-3 -8 -10 -14q74 2 100 2h36q16 1 23 1h7
q17 0 29 -12t12 -28.5t-12 -28.5t-29 -12h-7q-6 0 -19 -1h-40q-26 0 -99 -2q-65 -1 -102 -9q4 -28 8 -73q4 -47 5 -118v-5l30 5q42 5 118 8l74 3q16 1 28.5 -10.5t13 -28t-11 -29t-27.5 -13.5l-74 -3q-72 -3 -111 -8q-27 -3 -43 -8q-2 -34 -7 -72q-8 -62 -10 -85q10 0 24 -1
q49 1 107 0q59 -1 78 -3q17 -1 26 -1q6 -1 10 0h7q17 2 30 -9t14 -27.5t-10 -29.5t-27 -14l-7 -1q-9 -1 -21 0q-10 0 -28 2q-17 1 -74 2t-105 0q-51 -3 -74 10q-27 14 -30 41q-1 9 -1 23q0 15 11 103q10 83 9 150q-1 68 -5 112t-8 70l-1 5q-11 9 -15 23z" />
    <glyph glyph-name="Iacute" unicode="&#xcd;" horiz-adv-x="477" 
d="M53 66.5q2 16.5 15.5 27t30.5 8.5l29 -4q16 -2 38 -4v7q0 16 -2 65q-1 49 0 98.5t3 127t3 125.5q0 43 2 65l-66 6q-17 2 -27.5 15t-9 29.5t14.5 27.5t30 9l67 -7q66 -6 105 -10q38 -3 56 -3l20 -1q17 0 28.5 -12t11.5 -28.5t-12.5 -28.5t-28.5 -12l-20 1q-21 0 -62 4
q-12 1 -26 2q-2 -20 -2 -58q-1 -48 -3 -127q-2 -78 -3 -126q-1 -47 0 -95q2 -50 2 -66v-12h14q21 0 48 2l42 3q16 1 23 2l7 1q16 1 29 -10t14 -27.5t-10 -29.5t-27 -14l-7 -1q-7 0 -21 -2l-45 -3q-29 -2 -52 -2t-68 2q-46 3 -77 7l-29 3q-16 2 -26.5 15.5t-8.5 30z
M198.5 667.5q-13.5 9.5 -16.5 26.5t7 30l18 26q21 29 42 48q15 14 20 19l6 7q11 12 28 13t29.5 -10t13.5 -28t-10 -29l-7 -7q-7 -9 -26 -26q-14 -12 -30 -34l-18 -26q-10 -13 -26.5 -16t-30 6.5z" />
    <glyph glyph-name="Ntilde" unicode="&#xd1;" horiz-adv-x="595" 
d="M239 844q24 0 45 -14q14 -11 25.5 -24t20.5 -26q8 -13 13 -24q4 -7 10.5 -16t11.5 -16q2 -2 6 -3q5 -3 10.5 -3t18.5 7q21 11 31 17q7 5 16 12l5 6l4 10q7 15 23 21t31 -0.5t21 -22.5t-1 -31l-4 -10q-8 -18 -25 -33q-14 -12 -28 -21q-12 -7 -34 -19q-31 -16 -56 -17
q-24 0 -47 11q-24 11 -35 26q-6 8 -14 20q-9 13 -15 24q-4 9 -10 18q-6 8 -13 16q-4 5 -8 9q-8 -3 -17 -8q-21 -11 -29 -18q-5 -5 -7 -8l-4 -10q-7 -15 -22.5 -21.5t-30.5 0t-21.5 22t-0.5 30.5l4 10q8 19 27 36q16 15 47 31q33 17 52 19zM126.5 -37.5q-16.5 -1.5 -29 10
t-14.5 27.5l-4 65q-4 62 -8 94q-6 36 -6 76q0 35 -2 64q-3 31 -7 82q-3 52 -3 93t2 72q1 30 3 49q1 19 1 33q1 13 1 19q0 13 8.5 18.5t20.5 3t24.5 -7t20.5 -9.5l9 -5q2 -7 14 -29q15 -27 31.5 -54.5t43.5 -70.5q27 -44 44 -75q16 -31 43.5 -84t43 -82.5t28.5 -52.5
q13 -24 24 -49q3 -6 5 -12q5 29 9 63q12 83 20 152.5t10 93.5q2 23 2 44q0 23 -1 36q0 16 1 31q1 11 1 16v6q0 16 12 28t28.5 12t28.5 -12t12 -28v-6q0 -8 -1 -23q-1 -10 -1 -22q1 -14 1 -37q0 -25 -2 -51q-2 -25 -10 -97q-8 -71 -20 -154q-12 -84 -22 -142l-14 -43
q-31 -76 -73 -24q-8 10 -14 20q-6 9 -15 30t-16 46q-6 19 -15 40q-10 22 -21 44q-13 22 -29 53q-16 30 -43.5 83t-43.5 82q-15 29 -41 71q-16 27 -29 47v-23q0 -39 3 -87q3 -50 6 -81q3 -32 3 -71q0 -34 5 -65q5 -34 9 -100l4 -64q1 -17 -10 -29.5t-27.5 -14z" />
    <glyph glyph-name="Oacute" unicode="&#xd3;" horiz-adv-x="653" 
d="M350 661q17 -4 42 -17q26 -14 43 -31q15 -13 27 -27q12 -13 29 -34q16 -20 33 -41q19 -22 34 -45q16 -25 27 -57q12 -31 14 -57q2 -23 2 -51q-1 -33 -22 -89q-21 -55 -40 -83q-18 -26 -63 -76q-47 -55 -71 -68t-49 -17q-28 -6 -52 1q-20 5 -57 27q-36 22 -56 40
q-19 17 -35 39q-16 20 -37 51q-24 34 -40 81q-15 43 -22 77q-9 39 2 98q10 56 27 91q16 34 42 68t55 59q28 24 62 46q33 22 43 27h1q-10 14 -7 30l2 12q3 18 17 46q12 24 30 51q16 24 23 36l7 13q9 15 25.5 19t30.5 -4.5t18.5 -25t-4.5 -30.5l-7 -13q-9 -13 -25 -39
q-16 -24 -26 -44q-8 -16 -9 -22l-2 -12q-3 -15 -15 -25q2 -2 3 -4zM291 580q-31 -20 -54 -41q-23 -20 -44 -47.5t-34 -53.5q-12 -25 -20 -71q-8 -43 -3 -66q6 -29 20 -68q12 -36 29 -61q21 -30 35 -48q12 -16 26 -29q13 -12 42 -29q28 -17 37 -19q6 -2 16 0q12 3 25 9
q12 8 49 50q42 47 57 69q14 20 31 65q16 44 17 63q0 24 -1 42q-2 15 -10 37t-19 40q-13 19 -28 38q-17 21 -34 41q-16 20 -26 31t-22 22q-10 9 -26 18q-18 9 -26 11q-4 1 -9 0l-15 -3q-6 -1 -13 0z" />
    <glyph glyph-name="Odieresis" unicode="&#xd6;" horiz-adv-x="639" 
d="M357 734v2q1 15 13.5 25.5t28.5 10.5q18 5 34 3l8 -2q17 -2 26.5 -16t6.5 -30q0 -3 -1 -7q2 -16 -3 -30q-9 -24 -32 -37q-31 -17 -58 2q-22 14 -27 40q-4 20 4 39zM175 730q-4 12 -1 23q5 16 19 25q7 6 15 9l8 6q13 10 29.5 8.5t27.5 -14.5q13 -17 7 -38q10 -28 -2 -52
q-8 -15 -33 -16q-22 -9 -38 -2q-15 6 -23.5 21t-8.5 30zM297 572q-13 -5 -24 -11q-12 -7 -30 -22q-21 -18 -40 -36q-16 -14 -28 -37q-13 -25 -22 -52q-9 -30 -14 -49q-4 -16 -5 -37t4 -44q4 -26 14 -59q10 -32 18 -48q9 -18 17 -30q9 -14 16 -23q3 -5 19 -17q18 -14 24 -19
q5 -3 13 -5q10 -4 24 -7t23 -4q6 -1 16 0q12 2 22 5q8 3 17 9q10 6 22 19q15 16 38 40q21 23 34 41q14 18 28 39q12 18 16 29q4 13 5 30q2 19 1 36q-1 15 -5 28q-3 16 -8 30q-3 12 -9 22q-8 15 -14 28q-7 12 -10 19q-1 2 -7 9q-7 9 -15 15l-19 19l-16 16q-7 7 -17 15
q-11 10 -21 18q-8 7 -15 13q-7 4 -28 11zM376 628q15 -6 23 -12q8 -7 18 -15q9 -8 20 -18q13 -10 23 -21q9 -8 15 -15q6 -6 16 -15q13 -11 24 -25t16 -24q2 -2 5 -8.5t5 -10.5l13 -26q10 -17 16 -36q5 -17 9 -34q5 -20 7 -43q1 -23 -1 -47q-2 -27 -9 -50q-9 -23 -26 -49
q-15 -22 -30 -42q-16 -20 -39 -46t-39 -42q-19 -20 -37 -32q-18 -11 -37 -17q-16 -5 -34 -8q-20 -3 -37 -1q-14 2 -33 6q-17 4 -31 9q-17 6 -29 14q-11 6 -33 24q-24 19 -34 33q-8 10 -17 25q-11 16 -22 38q-12 23 -23 62q-11 36 -17 67q-6 33 -4.5 63t7.5 53q5 21 15 53
q11 35 28 66q18 35 44 58q21 20 42 38q24 21 43 31q18 11 38 18q18 7 31 11q27 7 50 -7l8 -5q11 -7 16 -20z" />
    <glyph glyph-name="multiply" unicode="&#xd7;" horiz-adv-x="510" 
d="M74.5 116q-14.5 8 -19.5 24t3 31l17 32q19 36 46 66q13 13 35 31q-40 46 -64 72l-27 30q-11 12 -10 29t13 28t29 10.5t28 -13.5l27 -29q26 -29 70 -79q6 4 12 9q86 59 112 70q21 9 37 17l16 8q15 7 31 1.5t23.5 -20t2 -30.5t-20.5 -24l-17 -8q-17 -8 -40 -18
q-18 -8 -98 -63l-3 -3q19 -22 40 -43q46 -51 53 -57l8 -7q12 -11 13 -28t-10 -29.5t-28 -13.5t-29 11l-8 7q-10 8 -59 62l-46 50q-22 -17 -30 -25q-20 -22 -35 -49l-17 -32q-8 -15 -24 -20t-30.5 3z" />
    <glyph glyph-name="Uacute" unicode="&#xda;" horiz-adv-x="624" 
d="M246.5 617q-14.5 8 -20 24t2.5 30l12 24q15 29 48 65q30 33 53 55l22 21q11 12 28 12t28.5 -12t11.5 -29t-12 -28l-22 -22q-20 -20 -49 -51q-26 -28 -36 -48l-12 -23q-7 -15 -23.5 -20.5t-31 2.5zM100.5 694.5q16.5 -0.5 28.5 -12.5t11 -29v-30q-1 -30 -3 -76t-3 -77v-68
q0 -35 2 -70t7.5 -72t10.5 -58q6 -21 12 -39q7 -17 14 -32q7 -14 23.5 -36.5t29.5 -35.5q12 -12 20 -17q4 -3 9 -5q5 0 16 1q18 3 28 7q13 6 39 16q20 8 40 23q20 14 39.5 38t29.5 45.5t19 73.5q9 53 10 93q0 42 0.5 95t1.5 93q1 42 4 67q1 16 1 21v8q-2 16 8.5 29t27 15
t29.5 -8.5t15 -27.5l1 -8q1 -13 -2 -39q-2 -20 -3 -59q-1 -40 -2 -92v-95q-1 -46 -11 -107q-11 -61 -25 -92q-15 -31 -41 -63q-26 -33 -54 -53t-58 -32q-25 -10 -39 -16q-18 -7 -45 -11q-31 -6 -51 0q-18 5 -33 16q-13 9 -31 26.5t-38 45.5t-30 48q-9 18 -17 40
q-9 21 -15 47q-6 25 -12.5 66t-8.5 79t-2 75v69q1 33 3 79t3 75v30q1 16 13 28t28.5 11.5z" />
    <glyph glyph-name="Udieresis" unicode="&#xdc;" horiz-adv-x="600" 
d="M350 703q-11 13 -11 31q1 15 13 38q19 36 53 35q26 0 47 -22q18 -18 24 -42q4 -17 -4.5 -38.5t-32.5 -26.5q-11 -3 -24 -4q-18 -2 -30 0q-25 5 -35 29zM236 682q-14 -6 -27 -8q-16 -2 -34 7.5t-22 29.5q-5 21 7 44q6 12 16 26q22 28 51 27q21 -2 43 -22q31 -27 21 -62
q-5 -19 -21.5 -29.5t-33.5 -12.5zM90 678q16 4 30.5 -5t17.5 -25l5 -21q6 -25 6 -67q1 -40 -3 -79q-3 -39 -8 -99q-5 -58 -4 -79q1 -22 3 -37q3 -15 6 -34.5t7 -37.5q3 -16 10 -39q7 -22 20 -44q12 -22 27 -39q16 -18 32 -29q14 -10 20 -12t9 -2t7 2q10 3 16 6l16 8
q10 6 21 13q10 6 21 13q10 8 16 13q8 8 17 16q8 8 14 15q5 7 9 14t12 32q8 26 12 49l8 54q5 25 7 53q2 29 5 64q3 34 4 66q2 33 3 54q1 23 5 53q4 25 5 38l1 15q0 17 12.5 28t29.5 10.5t28 -13t11 -29.5l-1 -15q-1 -18 -6 -46q-3 -26 -4 -45q-1 -21 -3 -54q-1 -33 -4 -68
t-5 -65q-3 -31 -8 -60q-4 -27 -8 -53q-5 -29 -15 -61q-10 -31 -18 -46q-8 -14 -17 -25t-20 -22q-10 -10 -19 -18q-10 -10 -25 -20q-13 -9 -26 -17q-12 -7 -21 -13q-11 -6 -22 -11t-25 -10q-19 -6 -35 -6q-14 0 -31 6q-18 5 -43 23q-23 16 -45 40t-38 55q-16 29 -26 58
q-9 27 -13 48q-4 20 -7 40t-6 37q-2 18 -4 44q-1 26 4 89q5 61 8 99q4 36 4 72q-1 33 -5 50l-4 20q-4 16 5 30.5t25 18.5z" />
    <glyph glyph-name="Yacute" unicode="&#xdd;" horiz-adv-x="602" 
d="M260 269q-7 6 -11 12q-7 10 -13 20q-4 9 -12 22t-17 28q-11 16 -25 42q-13 23 -32 54q-22 33 -40 69t-31 64q-11 26 -16 34l-5 10q-8 14 -3.5 30.5t19 24.5t31 3t24.5 -19l5 -10q6 -11 19 -40q12 -26 29 -60q17 -33 36 -63q21 -32 35 -58q13 -23 22 -37q10 -16 19 -31
q3 5 7 11q6 10 13 20q6 8 15 23q10 17 25 40q16 23 42 59q25 36 38 56q13 21 27 45q3 1 8 3t18 6.5t23.5 6t21.5 1t15 -8t1 -21.5q-3 -12 -11 -26q-6 -11 -11 -19t-18 -28t-28 -42t-33 -48q-18 -25 -41 -58q-22 -32 -44 -67q-4 -8 -7 -17q-1 -4 -3 -9q-3 -9 -7 -22
q-6 -19 -11 -40q-5 -20 -7 -37.5t-3 -40.5v-47v-68v-13q1 -4 4 -15l5 -17q5 -15 -2.5 -30t-23.5 -20t-31 2.5t-20 23.5l-5 16q-6 20 -7 31q-1 9 -1 22v68v50q1 26 4 47.5t8 45.5q2 11 5 22zM405 835h1q20 -12 28 -35q11 -34 -20 -61q-10 -8 -18 -15q-8 -8 -25 -21
q-14 -11 -21 -17q-11 -11 -21 -18l-9 -9l-4 -4q-5 -12 -17 -19.5t-26 -5.5q-16 2 -26.5 15.5t-8.5 29.5l1 8q2 15 9 28q6 11 18 27q9 12 19 24q10 13 15 20t11 18q5 9 8 16q10 20 32 26q22 15 44 2q6 -4 10 -9z" />
    <glyph glyph-name="germandbls" unicode="&#xdf;" horiz-adv-x="562" 
d="M135 111q3 6 8 11q13 11 30 10t28 -14l9 -11q9 -9 26 -25q11 -10 24 -14q18 -5 26.5 -6t30.5 1q23 1 42 6q17 4 34 11q13 6 25 18q7 8 10 12q1 4 0 9q0 7 -5 20q-4 12 -7 16q-5 7 -15 20q-9 10 -20 19q-13 11 -20 15q-11 7 -29 21q-24 19 -36 46q-12 28 -7 60q4 29 20 51
q12 17 24 30q11 11 25 22q12 11 19 16q4 3 14 13q8 9 17 26q7 13 8 19q0 9 -4 25q-3 17 -13 34q-7 14 -18 22q-12 9 -31 13q-21 5 -43 4t-53 -12q-24 -8 -33 -12q-5 -5 -11 -12q-5 -7 -7 -13q-4 -10 -10 -33q-6 -25 -10 -43t-11 -47q-6 -28 -9 -50t-7 -53q-4 -32 -8 -57
q-3 -23 -9 -72q-6 -48 -5 -76q0 -10 1 -20zM136 70q1 -30 2 -50l1 -21q1 -16 -10 -29t-27.5 -14t-29 10t-14.5 28l-1 21q-1 21 -2 52q-1 10 -1 20q0 21 -1 42q-1 34 5 87q6 52 10 76q4 23 8 53q3 32 7 55q3 26 10 57q7 30 11.5 48t10.5 43q6 28 12 43q7 17 20 34
q11 15 23 25q14 11 58 26q42 14 75 16q34 2 66 -6q34 -8 59 -26q26 -18 43 -50q14 -27 20 -54q6 -26 6 -47q-2 -24 -17 -53q-15 -27 -30 -43q-15 -15 -24 -22q-5 -5 -16 -14q-11 -8 -19 -17q-7 -7 -16 -20q-5 -7 -6 -17q-2 -8 1 -14q4 -9 13 -16q14 -11 21 -15q10 -7 27 -20
q18 -15 33 -33q12 -15 18 -24q9 -12 17.5 -35t9.5 -41q2 -20 -4 -38q-6 -22 -30 -46q-22 -22 -49 -34q-23 -11 -49 -17q-25 -6 -54 -8q-30 -2 -45 -0.5t-40 8.5q-31 9 -57 32q-20 19 -31 32l-10 11q-2 2 -4 5z" />
    <glyph glyph-name="aacute" unicode="&#xe1;" horiz-adv-x="591" 
d="M258.5 476q-14.5 9 -18 25.5t5.5 30.5l17 28q19 29 40 57q22 27 44 51l21 24q11 12 28 13t29 -10t13 -28t-10 -29l-21 -24q-20 -22 -40 -47q-19 -24 -35 -50l-18 -28q-8 -14 -24.5 -18t-31 5zM449 254v-14q0 -22 2 -43q2 -28 7 -54q9 -45 15 -59q8 -17 14 -27
q4 -7 21 -25l20 -21q11 -12 10.5 -29t-12.5 -28.5t-28.5 -11t-28.5 12.5l-20 21q-24 25 -33 42q-7 13 -16 32q-9 20 -18 62q-10 -16 -21 -30q-29 -39 -64 -70q-38 -35 -86 -47q-56 -15 -90 8q-28 18 -44 51q-13 28 -19 67q-5 35 -5 55q1 21 12 64q12 45 47 93q33 45 65 75
q31 30 58 48q32 22 80 29q46 8 78 2l24 -4q15 -3 24.5 -15.5t8.5 -28.5q5 -5 7.5 -10t3 -7.5t0.5 -4t-0.5 -2.5l-0.5 -1q0 -10 1 -24q2 -16 3 -23q3 -3 1 -15.5t-2 -14t-4 -15.5t-5 -18q-2 -10 -5 -20zM377 378q-17 3 -49 -2q-31 -6 -47 -17q-22 -15 -49 -40
q-26 -25 -54 -64q-27 -36 -35 -66q-9 -33 -9 -45q0 -13 4 -42q4 -26 12 -43q6 -12 16 -19q7 -2 24 3q29 7 53 29q29 26 53.5 59t47.5 80q15 30 24 56q0 42 5 81q2 19 4 30z" />
    <glyph glyph-name="adieresis" unicode="&#xe4;" horiz-adv-x="53" 
 />
    <glyph glyph-name="eacute" unicode="&#xe9;" horiz-adv-x="544" 
d="M259 499q-16 3 -25.5 17t-6.5 31l1 7q1 5 2.5 9.5t3.5 9.5t4 7.5t6 9t6 9.5q17 29 48 62q27 31 42 49l15 18q11 12 28 13.5t29.5 -9t14 -27.5t-9.5 -30l-15 -18q-16 -18 -44 -50q-26 -28 -39 -50q-9 -14 -12 -21l-1 -4q-3 -16 -17 -26t-30 -7zM156 289h5q27 0 53 -2
q22 -2 49 -3q29 0 55 -2q26 -1 55 -3q6 -1 12 0q1 3 1 5q2 13 3 21q0 2 -1 7q-2 7 -7 19q-5 11 -11 19q-7 9 -18 20q-10 10 -26 19q-17 10 -34 18q-13 6 -30 8q-13 1 -25 -5q-15 -7 -30 -22t-35 -58q-10 -22 -16 -41zM147 208q0 -13 1 -25q2 -32 8 -40q7 -10 19 -18
q16 -10 42.5 -19t48.5 -12q23 -3 33 -3q11 1 29 3q16 3 45 13q31 12 44 18l15 8q15 7 31 2t23.5 -20t2.5 -31t-20 -23l-16 -8q-17 -9 -52 -22q-36 -13 -61 -17q-22 -3 -37 -4q-17 -1 -48 3t-65 16.5t-57 26.5q-28 17 -44 41q-18 26 -22 80q-1 20 -1 40q-12 12 -13 28
q-1 21 17 35q7 40 29 85q26 54 50 79q25 26 53 39q32 15 67 12q30 -2 57 -14q21 -10 43 -23q22 -14 39 -30q16 -15 26 -28q12 -15 21 -36q9 -19 12 -35q4 -17 2 -32q-1 -9 -3 -24q-2 -14 -3 -24q-6 -28 -35 -43q-21 -10 -61 -8q-28 2 -53 3q-25 2 -53 2q-30 1 -55 3
q-22 2 -44 2h-15z" />
    <glyph glyph-name="iacute" unicode="&#xed;" horiz-adv-x="338" 
d="M91 499q-11 12 -10.5 29t12.5 28l31 30q32 30 50 45q16 14 28 27l14 14q11 13 28 13.5t29 -11t12.5 -28t-10.5 -29.5l-14 -14q-15 -17 -34 -33q-17 -15 -47 -43l-32 -30q-4 -4 -10 -7q17 -13 17 -34l-2 -71q-1 -73 -4 -122q-2 -48 -7 -118q-5 -69 -5 -88q0 -32 -2 -44
l-1 -9q-3 -17 -16.5 -27t-29.5 -8t-26.5 15.5t-8.5 30.5l2 9q1 7 1 34q0 22 5 92t7 118q3 47 4 118l2 72q0 25 23 36q-3 2 -6 5z" />
    <glyph glyph-name="ntilde" unicode="&#xf1;" horiz-adv-x="539" 
d="M98.5 515q-16.5 1 -28 13.5t-10.5 29.5v7q1 14 14 51q16 42 45 63q25 19 51 25q27 5 55 -3q29 -8 48 -26q14 -13 26 -28q12 -16 23 -36q4 -5 12 -9q6 -4 13 -2q13 3 18 4q3 2 8 6q4 3 8 9q7 8 14 21q6 11 9 19l4 12q5 15 20.5 22.5t31 2t23 -20.5t2.5 -31l-4 -11
q-5 -15 -16 -33q-9 -17 -18 -30q-12 -15 -25 -25q-12 -9 -22 -13q-11 -6 -35 -11q-35 -8 -67 8q-31 16 -47 43q-7 14 -15 24l-18 20q-5 4 -15 7t-17 1q-8 -2 -20 -10q-9 -7 -16 -26q-7 -20 -9 -28v-7q-1 -16 -13.5 -27.5t-29 -10.5zM134 53v-4q1 -16 2 -33q2 -1 3.5 -3
t4 -7.5t1.5 -11.5t-9 -13.5t-24 -14.5q-32 -12 -44.5 -4.5t-12.5 22.5v15q-2 14 -2 54q0 19 0.5 58t1.5 90q0 12 1 23q1 66 0.5 111t-1.5 84l-1 38q-1 17 10.5 29.5t28 13t29 -11t13.5 -28.5l1 -39q1 -32 2 -70q9 17 19 32q23 33 45 50q22 16 49 25q28 10 68 6q44 -4 75 -29
q32 -25 47 -74q12 -40 15 -80q4 -38 1 -103q-3 -63 -4.5 -89t-3.5 -38q-2 -14 -5 -26q-3 -10 -6 -18l-2 -6q-5 -16 -20 -24t-30.5 -3t-23.5 20t-3 30l2 7q2 6 5 16q2 7 3 15q1 9 3 33q1 25 4 86q3 60 0 93q-3 32 -13 64q-7 24 -19 34q-13 10 -32 12q-23 2 -35 -2
q-15 -5 -26 -14t-27 -31q-17 -25 -30 -54q-13 -32 -27 -73q-4 -13 -9 -26q-8 -26 -14 -54q-9 -38 -10 -77z" />
    <glyph glyph-name="oacute" unicode="&#xf3;" horiz-adv-x="516" 
d="M277 407q-14 -3 -25 -7q-16 -7 -29 -19q-15 -12 -32 -36q-18 -24 -32 -50q-12 -25 -18.5 -49.5t-6.5 -45.5q0 -19 6 -43t18 -46q12 -23 29 -46q14 -18 32 -28q12 -6 21 -4q18 5 28 10q12 6 29 17q10 7 19 23q13 24 27 59q15 36 24 57q7 17 11 41q4 26 5 47q0 20 -4 37
q-3 16 -7 22q-4 8 -9 14q-8 9 -14 16q-3 4 -11 10q-9 7 -18 11q-6 4 -15 5l-15 1q-7 1 -13 4zM352 472q2 -1 3 -2q16 -7 32 -19t25 -23q6 -8 14 -17q9 -12 17 -26q9 -16 15 -44q6 -26 6 -56q-1 -27 -6 -58q-6 -33 -16 -58q-9 -21 -24 -58q-16 -39 -31 -67q-19 -34 -46 -52
q-20 -13 -36 -21q-18 -9 -46 -16q-39 -10 -78 11q-33 17 -58 50q-22 27 -37 57q-16 31 -25 64q-8 34 -8 65q1 30 9 63.5t25 66.5q17 32 39 61q22 31 44 50q23 19 50 31q14 6 30 10q-13 7 -19 20.5t-2 27.5l3 11q5 16 35 61q27 40 43 66q16 25 28 46l13 22q8 15 24.5 19
t31 -4t19 -24.5t-4.5 -30.5l-12 -22q-14 -23 -31 -50q-16 -26 -43 -67q-21 -30 -26 -41l-3 -10q-2 -9 -9 -15l13 1q12 2 24 -4.5t18 -17.5z" />
    <glyph glyph-name="odieresis" unicode="&#xf6;" horiz-adv-x="532" 
d="M342 596q-8 14 -4.5 27.5t7.5 19.5t8 10q14 13 34 14.5t35 -8.5q21 -13 25 -39q3 -9 2 -18q-1 -6 -4 -12q-2 -7 -5.5 -13.5t-10 -16.5t-18.5 -15t-27 -2q-14 3 -28 17.5t-14 35.5zM222 556q-24 -20 -54 -12q-16 4 -30.5 19t-11.5 37q1 16 10 35q12 25 31 34q21 10 50 2
q36 -10 45 -41q8 -29 -14 -55q-11 -13 -26 -19zM248 386q-2 -1 -3 -1q-19 -12 -39 -32q-22 -21 -40 -44q-16 -20 -23 -39q-7 -20 -9 -31q-1 -12 2 -42q3 -29 9 -47q7 -19 15 -34q7 -13 17.5 -25t27.5 -24q15 -10 29 -14q16 -4 22 -5q6 0 19 2q16 3 23 5q10 3 30 13
q17 8 21 12q6 5 17 21q12 17 17 26q3 6 7.5 19t6.5 32q2 21 1 46q-1 23 -6 41q-5 21 -7 29q-2 7 -7 19t-10 21q-5 8 -12 16q-5 6 -13 10q-13 7 -22 12q-6 3 -14 4q-9 2 -16 2q-14 1 -27 4l-8 1q-4 1 -8 3zM336 452q11 -3 20 -7q12 -6 27 -14q20 -12 34 -27q12 -14 21 -29
q8 -15 15 -32q7 -16 10 -27q2 -10 8 -32q6 -25 8 -57q1 -30 -2 -57q-3 -28 -9.5 -49t-14.5 -35q-7 -11 -21 -32q-16 -22 -28 -34q-14 -12 -41 -25q-24 -12 -37 -16q-15 -6 -40 -9t-37 -2q-11 1 -35 7q-28 7 -55 26q-25 17 -42 36q-16 18 -28 40q-11 20 -20 46q-10 27 -14 66
q-3 38 -1 58q2 22 13 52q12 31 36 60q21 27 46 52q27 25 53 42q27 17 41.5 21.5t36.5 5.5l16 1q13 1 24.5 -7t15.5 -22z" />
    <glyph glyph-name="divide" unicode="&#xf7;" horiz-adv-x="697" 
d="M391 490q3 -18 -2 -34q-4 -14 -12 -28q-11 -18 -28 -27q-6 -3 -11.5 -4t-9.5 -2t-9.5 0t-7.5 1.5l-8 2t-7 1.5t-2 1q-42 10 -48 44q-3 20 6 41q9 20 38 40q4 5 10 9q9 10 22 12q14 7 29 3t24 -17q1 -2 3 -5l2 -4q2 -5 3 -10q6 -12 8 -24zM54 287q-4 16 5 30.5t25 18.5
l49 11q52 12 125 19q72 7 133 6q59 -2 78 -3q20 -2 47 -6q26 -4 43 -9q14 -3 26 -5q11 -2 16 -3h6q16 -2 27 -14.5t10 -29t-14 -27.5t-30 -10l-6 1q-8 0 -23 3t-32 7q-14 3 -37 7q-22 4 -38 5q-18 1 -75 3q-56 1 -123 -6q-68 -6 -114 -17l-49 -11q-17 -4 -31 5t-18 25z
M308 58q-17 2 -30 10q-16 10 -27 29q-18 31 5 66q20 31 49 34q20 2 45 -10l14 -7q12 -5 18 -17t4 -24q1 -2 1 -4q10 -21 3 -42q-4 -11 -13 -19q-10 -17 -26 -22q-21 -8 -43 6z" />
    <glyph glyph-name="oslash" unicode="&#xf8;" horiz-adv-x="560" 
d="M93.5 -129.5q-15.5 5.5 -23 20.5t-2.5 31l23 70q11 33 24 63q-18 23 -30 52q-19 47 -27 86q-8 42 -3 83q7 42 39 92q32 49 65 73t79 39q4 2 13 5t12.5 4t11 3t12 2h11t12.5 -1l10 -3q18 -3 27 -19q7 10 13 19q37 57 49 80l13 27q7 15 23 20.5t31 -2t20.5 -23.5t-1.5 -31
l-13 -26q-14 -29 -54 -89q-9 -13 -19 -30q20 -19 38 -42q23 -30 41 -63q21 -40 19 -86q-2 -41 -23 -95q-21 -58 -73 -105q-54 -49 -93 -56q-36 -5 -85 9q-28 8 -53 23l-12 -34l-23 -71q-5 -16 -20.5 -23.5t-31 -2zM214 380q-4 -2 -7 -4q-21 -16 -45 -52q-23 -35 -26 -60
q-4 -27 1.5 -55.5t19.5 -63.5q31 60 93 165q28 48 51 86q-12 5 -22 7q-6 1 -10 0l-9 -11q-8 -9 -21 -12.5t-25 0.5zM365 345q-21 -34 -45 -76q-70 -119 -100 -178q-4 -7 -8 -15q21 -13 45 -20q30 -10 48 -7q16 3 51 35q38 35 52 74q16 43 18 71q1 23 -10 44q-14 27 -33 52z
" />
    <glyph glyph-name="uacute" unicode="&#xfa;" horiz-adv-x="568" 
d="M198.5 508.5q-12.5 10.5 -14 27.5t9.5 29l22 26q23 28 52 53q28 25 45 37q13 10 19 15l1 2l4 8q6 15 22 21t31 -0.5t21.5 -22t-0.5 -31.5l-3 -7q-7 -14 -20 -27q-10 -10 -27 -23q-15 -10 -40 -32q-24 -22 -44 -45l-21 -26q-11 -13 -28 -14t-29.5 9.5zM459 298
q2 -47 4 -96q1 -9 1 -18q2 -41 6 -75q4 -42 8 -64q4 -21 7.5 -32t8.5 -22q5 -10 8 -14l5 -6q10 -13 8 -30t-15 -27t-30 -8t-27 15l-5 7q-8 10 -17 28q-7 16 -12.5 32.5t-10.5 42.5q-1 10 -3 24q-10 -17 -21 -29q-16 -19 -40 -40q-27 -24 -50 -34q-23 -9 -40 -10
q-22 -2 -48 10q-21 11 -42 31q-20 20 -37 52q-16 29 -24 49q-9 21 -14 40t-9 43t-9 55q-6 33 -7 84q-2 50 0 84q1 31 1 56l-1 26q0 16 12 28.5t28.5 12.5t28.5 -11.5t12 -28.5l1 -26q0 -27 -1 -61q-2 -31 0 -78q1 -45 5 -73q5 -31 10 -53q3 -22 7 -37t11 -30q6 -16 20 -41
q12 -22 23 -33t21 -16q4 -2 7 -2q5 1 14 4q11 5 27 19q20 18 33 34q12 13 25 41q14 29 19 47q2 11 5 24q2 11 5 24q4 27 9 68q1 8 1 15v1q-3 51 -2 101t5 71q1 3 2 8t6.5 16t12.5 17t20 4.5t28 -15.5q15 -13 18.5 -23.5t-0.5 -14.5l-4 -4q-1 -18 -1.5 -33t-0.5 -28v-45
q0 -24 -2 -56z" />
    <glyph glyph-name="udieresis" unicode="&#xfc;" horiz-adv-x="548" 
d="M305 631l3 7q6 16 22 22t31 0q4 -2 9 -5q5 -1 9 -2l14 -4q16 -5 24.5 -20t3.5 -31q-4 -14 -17 -22q-1 -2 -3 -4l-4 -5l-4 -8q-11 -13 -27.5 -15t-29.5 9l-9 6q0 2 -1 5q-9 6 -16 18t-10 21l-3 9q2 9 8 19zM230 627q8 -30 -5.5 -52t-25.5 -26q-16 -5 -33.5 0t-28.5 18
t-12.5 32t10.5 37q19 22 46 22h8q18 1 29.5 -7t11.5 -24zM462 287l-4 -56q-1 -19 -1 -35q-1 -37 1 -58q2 -32 6 -59q4 -24 6 -30l2 -9q6 -15 -2 -30t-23.5 -20.5t-30.5 2.5t-21 23l-2 9q-4 11 -9 43q-2 17 -5 36q-19 -31 -42 -56q-33 -37 -74 -50q-43 -13 -80 0
q-33 11 -56 33t-42 66q-18 40 -25 75q-8 35 -7 108q1 71 6 125l6 53q2 16 15 27t29.5 9t27 -15t8.5 -30l-5 -52q-5 -51 -6 -117q-1 -65 5 -91q6 -27 20 -60q12 -29 23 -39q11 -9 28 -15q12 -4 29 1q20 6 39 27q23 25 40 57q19 34 31 61q12 29 25 61q5 12 9 24q4 32 9 63
q11 64 18 88q2 2 6 4.5t15.5 9.5t21 10.5t20 5t16.5 -5t6 -21.5q0 -9 -1 -26q-2 -18 -8 -53q-7 -34 -15 -64q-4 -14 -9 -29z" />
    <glyph glyph-name="yacute" unicode="&#xfd;" horiz-adv-x="589" 
d="M364 544q-6 -12 -13 -24q-11 -17 -22 -27l-6 -5q-11 -10 -25.5 -10t-26.5 9q-6 3 -10 7q-12 11 -12 28t11 29l8 8q8 9 23 25q1 2 3 4q3 8 7 15q5 14 12 29q6 13 7 19q4 13 10 23q13 23 38 28q17 3 36 -2q17 -5 29.5 -25.5t1.5 -41.5q-4 -9 -10 -19q-6 -9 -17 -23
q-12 -15 -29 -31q-8 -8 -15 -16zM193.5 -235q-16.5 2 -26.5 15.5t-8 29.5l7 59q9 63 40 154q9 28 21 56q-3 6 -8 17q-13 31 -26 74q-12 39 -28 74t-31 63t-27 54q-12 24 -21 40q-7 12 -11 16l-9 9q-12 11 -13 28t10.5 29t28.5 12.5t29 -10.5l9 -8q13 -13 26 -36
q11 -18 23 -44q13 -25 27 -53q15 -29 33 -67q17 -39 31 -83l6 -18q10 18 21 36q59 94 84 128q24 32 41 59q17 26 25 39q6 12 9 17l3 8q7 15 23 21t31 -1t21 -23t-1 -31l-3 -7q-5 -9 -14 -25q-8 -14 -26 -42t-43 -63q-24 -32 -81 -123q-28 -45 -50 -89q9 -14 4.5 -30
t-19.5 -24q-5 -3 -10 -5q-5 -12 -9 -24q-28 -83 -35 -138l-8 -59q-2 -17 -15.5 -27t-30 -8z" />
    <glyph glyph-name="Ccircumflex" unicode="&#x108;" horiz-adv-x="583" 
d="M147.5 676.5q-12.5 10.5 -13.5 27.5t9 30l25 28q27 31 45 47q14 13 18 17q6 6 14 16q12 14 29 16.5t30.5 -2.5t22.5 -14q16 -15 35 -38q16 -19 32 -34q15 -15 27 -24q15 -10 20.5 -14t15.5 -11l11 -6q13 -9 17 -25.5t-5 -30.5t-26 -17.5t-30 5.5l-11 7q-11 7 -18 12
t-21 14q-16 12 -36 31t-39 42l-12 14q-8 -7 -21 -19t-36 -39l-25 -28q-11 -13 -28 -14t-29.5 9.5zM500 415q-16 -4 -30.5 4.5t-18.5 24.5l-9 33q-7 29 -15 47q-8 17 -15 26q-5 7 -20 17t-35 13q-20 4 -39 -1q-22 -5 -52 -23q-33 -19 -45 -29q-11 -9 -35 -36q-21 -25 -33 -50
q-11 -25 -16 -57q-5 -34 -2 -73q2 -40 10 -74q7 -35 16 -66q8 -28 26 -63q17 -35 30 -50q11 -14 22 -21q8 -6 17 -7q7 -2 23 4q22 7 50 26q30 20 54.5 45.5t41.5 52.5q13 22 15 31l3 14q3 16 17 25.5t30.5 6.5t26 -17t6.5 -31l-3 -14q-4 -20 -26 -57q-21 -34 -52 -66.5
t-68 -56.5q-37 -25 -69 -36q-36 -12 -63 -7q-26 4 -48 20q-21 13 -40 37q-18 22 -39 65q-21 42 -32 77q-9 33 -18 71q-8 40 -11 86q-3 48 3 90q7 43 22 78q16 36 46 70q28 33 46 47q17 13 55 35q40 24 73 32q35 9 73 2q37 -7 64 -25t41 -37q12 -16 23 -40t21 -61l8 -32
q4 -17 -4.5 -31.5t-24.5 -18.5z" />
    <glyph glyph-name="ccircumflex" unicode="&#x109;" horiz-adv-x="483" 
d="M92.5 541.5q-11.5 12.5 -10.5 29t13 28.5l21 19q21 20 41 38q21 17 30 24q5 4 18 15l4.5 4t6 5.5t6.5 4.5t8.5 4t9.5 2t12 1q5 0 8.5 -0.5t7 -2t6 -2.5t5.5 -3t5 -3t4.5 -3.5t3 -3.5t3 -4l2.5 -3q11 -11 25 -27q17 -17 37 -42q18 -22 29 -34t17 -17l7 -7q13 -11 13.5 -28
t-10.5 -29t-27.5 -13t-29.5 10l-7 6q-8 8 -21.5 22t-33.5 39q-19 22 -33 38q-8 8 -15 16q-9 -7 -14.5 -11t-23.5 -19q-18 -17 -39 -36l-21 -20q-12 -11 -29 -10.5t-28.5 13zM415.5 329.5q-12.5 -10.5 -29.5 -9t-28 14.5l-8 11q-7 8 -20 19q-9 8 -20 12q-8 3 -12 4
q-7 -1 -23 -5q-15 -3 -36 -17q-24 -17 -35 -27q-11 -11 -38 -47q-21 -29 -26 -39q-3 -12 -5 -39q-2 -26 1 -45q3 -15 6 -21q4 -6 16 -20q13 -15 28 -27q16 -12 22 -16q4 -2 15 -5q12 -3 18 -2q11 1 20 3q8 2 18 5q6 3 11 6q7 6 13 13q5 5 7 10q4 7 6 15q4 13 7 22l3 9
q5 16 20 23.5t30.5 2.5t23.5 -20t3 -30l-3 -10q-3 -8 -6 -20q-5 -15 -11 -28q-8 -15 -20 -28q-10 -12 -22 -21q-14 -12 -33 -19q-16 -6 -30 -9q-13 -3 -28 -5q-20 -2 -47 5t-39 14q-7 5 -27 21q-22 17 -40.5 37.5t-25.5 32.5q-8 15 -14 46q-6 30 -3 68q3 36 8 53q6 22 39 66
q31 41 46 57q16 15 47 36q34 23 64 29q26 6 38 7q16 0 41 -9t47 -27q17 -16 28 -29l9 -11q11 -13 9 -29.5t-14.5 -27z" />
    <glyph glyph-name="Ccaron" unicode="&#x10c;" horiz-adv-x="623" 
d="M356 733q6 8 11 14q7 8 13 16q7 10 11 16l10 14l4 6q10 13 27 15.5t30 -7t15.5 -26.5t-6.5 -30l-5 -6q-4 -6 -9 -13q-4 -6 -11 -15q-7 -10 -16 -21q-8 -10 -18 -22q-7 -8 -13 -19q-8 -14 -12 -23q-3 -5 -9 -11h3q25 0 53 -6q31 -7 57 -25q27 -18 40 -37q10 -15 20 -36
q11 -22 15 -41l4 -15q3 -16 -6 -30.5t-25 -18.5t-30.5 5t-17.5 26l-4 15q-2 11 -9 24q-8 16 -14 26q-4 6 -18 15q-14 10 -29 13q-20 4 -37 4q-19 1 -36.5 -1.5t-32.5 -8.5q-17 -5 -28 -11q-11 -5 -32 -19q-21 -15 -35 -29q-15 -16 -30 -36q-14 -20 -23 -39q-10 -19 -16 -37
q-6 -16 -9.5 -31.5t-3.5 -28.5q0 -11 5 -40q6 -30 12 -49q7 -17 16 -33q11 -17 21 -30q11 -14 25 -27q13 -13 20 -18q6 -4 11.5 -6t22.5 -5q18 -3 33 -4q16 -1 26 -2q7 0 16 1q5 2 14 8q16 11 31 28q17 20 26 30q7 10 12 18q4 6 8 17q4 12 5 21q0 2 0.5 4.5t0.5 3.5v2l-1 7
q-2 16 9 29.5t27.5 15t29.5 -9t15 -27.5v-7q2 -12 -1 -30q-2 -16 -8 -34q-7 -20 -16 -35q-8 -12 -18 -25q-10 -12 -28 -33q-21 -24 -45 -41q-28 -21 -52 -23q-16 -1 -29 -1q-10 1 -27 2q-19 1 -42 5q-26 4 -39 9.5t-27 14.5q-13 9 -31 27q-16 17 -30 33q-15 17 -28 40
q-14 23 -23 48q-9 24 -15 61q-7 37 -7 57q1 20 5 42t13 45q8 21 19 44q12 24 30 50t38 45q20 20 47 39q26 19 43 26q15 8 37 15q13 5 27 8q-10 7 -23 22q-10 13 -22 29q-11 14 -25 28q-17 17 -30 32q0 1 -0.5 3.5t-1.5 9t-1 13t0.5 14.5t1.5 14.5t4.5 12.5t8.5 9t12.5 2.5
t17.5 -4.5q8 -4 19.5 -10.5t28.5 -17.5q15 -11 29 -20q13 -9 25 -19z" />
    <glyph glyph-name="ccaron" unicode="&#x10d;" horiz-adv-x="491" 
d="M136.5 707.5q15.5 5.5 30.5 -2t21 -22.5l1 -5q2 -3 6 -7q9 -11 23 -24q16 -15 35 -34l28 -28q5 5 12 11q14 13 26 24q11 10 18 18l8 10q11 12 28 13t29.5 -9.5t13.5 -27.5t-10 -30l-8 -9q-10 -12 -24 -24q-12 -11 -26 -24q-15 -14 -23 -21q-9 -7 -17 -12q-18 -9 -33 -7
t-26 10q-10 7 -23 19l-30 30q-18 18 -33 32q-17 16 -29 30q-16 18 -20 32l-3 6q-5 16 2.5 31t23 20.5zM422.5 333q-13.5 -10 -30 -8t-26.5 15l-10 13q-7 9 -11 12q-7 6 -24 15q-10 6 -20 6q-15 1 -24 -1q-10 -2 -28 -9q-14 -6 -33 -25q-22 -22 -43 -51q-20 -26 -29 -47
q-8 -20 -9 -30q-2 -10 0 -34q1 -23 4 -37q2 -9 4 -13l17.5 -21t32.5 -28q20 -14 32 -18q10 -4 18 -5t14 1q6 1 17 7q13 7 21 15q10 9 14 16q5 6 11 22q5 12 6 17l1 5q2 16 15 26.5t29.5 9t27 -14.5t9.5 -30l-1 -6q-1 -12 -12 -38q-10 -25 -20 -38q-9 -13 -24 -27
q-16 -15 -37 -27q-23 -13 -41 -17q-17 -3 -36 -2q-21 2 -42 10q-20 8 -47 27q-29 19 -49 42q-18 22 -24 31q-8 12 -14 36q-6 21 -7 53q-2 32 1 49q2 19 14 49q12 31 39 66q25 33 51 60q30 29 59 41q25 11 43 15q19 3 44 2q30 -1 57 -17q21 -12 32 -20q13 -10 26 -28l10 -13
q10 -13 8 -29.5t-15.5 -26.5z" />
    <glyph glyph-name="Dcaron" unicode="&#x10e;" horiz-adv-x="513" 
d="M76 764.5q10 13.5 26.5 16t29.5 -7.5l20 -13q21 -16 37 -32q15 -13 24 -22q7 -7 14 -15q20 17 36 30q17 14 30 22q7 5 9 8l7 7q11 12 27.5 13t29 -10t13.5 -27.5t-10 -29.5l-6 -7q-10 -11 -25 -21q-10 -7 -25 -18q-15 -13 -32 -27q-21 -17 -33 -25q-13 -8 -34.5 -5
t-33.5 19q-4 6 -10 14q-6 7 -13 13q-9 9 -24 23q-12 12 -29 24l-19 14q-13 9 -16 26t7 30.5zM151 526q-1 -49 2 -88q3 -45 5 -95q2 -49 3 -73t1 -67q1 -43 0 -71t-3 -49v-8q17 6 39 15q31 12 45 22.5t28 27.5q18 22 38.5 45.5t28.5 33.5q6 7 22 36q15 26 17 42q3 18 1 29
q-2 12 -7 24q-7 15 -16 29q-8 14 -16 24q-8 11 -18.5 22t-24.5 22q-13 10 -28 20q-15 9 -32 17q-22 9 -44 20q-21 11 -30 16q-3 2 -11 6zM145 616q9 -4 21 -9q24 -10 35 -15q8 -5 28 -15q20 -11 39 -19q23 -10 43 -23q19 -12 36 -26t30.5 -27.5t25.5 -28.5t22 -33
q10 -17 19 -36q11 -22 14 -45q4 -24 0 -54q-5 -31 -27 -70q-21 -36 -32 -48q-8 -10 -27.5 -33.5t-37.5 -45.5q-21 -25 -43 -41t-63 -32q-37 -15 -62 -23l-5 -2t-7 -2.5t-7.5 -1.5t-8.5 -1h-8t-9 1.5t-9.5 3.5t-9.5 6q-25 17 -25 54q0 17 2 38q1 20 2 47q1 26 0 67
q0 41 -1 65t-3 73t-5 93q-3 47 -2 105v23q-11 8 -15 22.5t1 26.5q6 14 20 20.5t28 2.5q5 1 8 1q21 0 33 -18z" />
    <glyph glyph-name="dcaron" unicode="&#x10f;" horiz-adv-x="614" 
d="M547 617q-2 -11 -6 -23q-7 -22 -21 -44q-14 -23 -31 -39l-26 -22v-1q-5 -16 -20.5 -23.5t-30.5 -2.5q-11 3 -19 13q-1 -13 -1 -20q-1 -34 -1 -86v-97q0 -46 -1 -94q-2 -52 -15 -99q-1 -5 -4 -16t-4.5 -15t-4 -11t-5.5 -12t-8 -11q-10 -12 -23 -21q-8 -5 -15 -9
q-9 -6 -25 -13t-32 -12q-20 -6 -42 -5q-23 1 -41 8q-18 8 -29 17q-8 7 -26 28q-20 22 -35 51q-14 28 -22 62t-6 74q2 43 18 78t40.5 61t54.5 42q28 15 59 23q28 8 62 12q13 1 23 1q0 26 1 47q1 36 13 139q10 85 9 104l-3 15q-4 16 5 30.5t25.5 18t30.5 -5.5t18 -25l3 -16
q1 -4 2 -8.5t1 -11v-11t-0.5 -12.5t-1 -13t-2 -16.5t-2 -17t-2 -20t-2.5 -21.5q-3 -25 -5 -46q4 5 13.5 12.5t21.5 18.5q8 7 17 20q5 9 9 18q-12 8 -18.5 23t-3.5 30q1 8 4 15q3 15 13 31q11 15 34.5 19.5t42.5 -12.5q15 -16 18 -41q10 -11 10 -27t-10 -27zM310 330
q-7 0 -15 -1q-27 -3 -50 -9q-21 -5 -41 -16q-18 -10 -33.5 -26.5t-25.5 -38.5q-9 -21 -11 -48q-1 -30 4 -53q6 -25 16 -44q9 -19 22 -33q14 -16 19 -20q2 -2 7 -4t13 -2q9 -1 16 1q11 4 22 9t15 7q6 4 14 9q2 1 3 3q5 10 12 37q10 37 12 80q1 47 1 91v58z" />
    <glyph glyph-name="Ecaron" unicode="&#x11a;" horiz-adv-x="505" 
d="M117 809.5q13 10.5 30 8.5t27 -15l8 -10q6 -8 16 -18q14 -13 28.5 -29t23.5 -27q5 -7 10 -12q6 7 14 15q19 20 24 27t9 13q5 8 9 14l3 7q9 14 25.5 18t30.5 -4.5t18 -25t-4 -30.5l-4 -6q-4 -6 -9 -15q-6 -10 -14 -21q-8 -10 -29 -32q-19 -21 -27 -30q-14 -16 -29 -21
q35 -3 52 -5q18 -1 24 -1h12q6 1 21 5l16 4q16 4 30.5 -4.5t19 -24.5t-4.5 -30.5t-25 -18.5l-16 -5q-19 -4 -30 -6q-12 -1 -23 -1q-10 0 -31 2q-20 1 -63 5q-39 3 -74 -1q-11 -1 -21 -2q0 -7 -1 -25q-3 -73 -5 -119q-1 -21 -2 -40q31 7 74 8q42 1 72 -2q28 -2 35 -2q4 0 9 1
l10 2q16 3 30 -7t17 -26t-7 -30t-26 -17l-10 -2q-13 -2 -25 -2q-9 0 -39 3q-26 2 -64 1q-35 -1 -59 -6q-12 -3 -22 -5l-2 -28q-1 -33 -3 -47q-1 -13 -4 -34q-2 -22 -3 -31l-2 -18q0 -9 -1 -16q10 -1 23 -1q37 0 69 2q34 1 47 1h30q20 -1 42 -3q21 -2 36 -4q7 -1 11 -1l8 2
q16 3 30 -6.5t17 -25.5t-6.5 -30.5t-25.5 -17.5l-8 -1q-15 -3 -36 -1q-15 3 -34 5q-18 2 -35 2h-29t-44 -1q-34 -2 -72 -2q-42 0 -59 3q-5 1 -11 3t-15 7t-15 15t-6 24v15q0 10 2 21q1 7 1 15q1 10 2 20.5t4 32.5q2 22 4 34q1 12 3 43q1 32 4 68q2 35 4 80q2 49 5 121
q1 15 1 28l-2 4q-10 21 4 40v7v9q-1 16 10.5 28.5t27.5 13.5q13 1 24.5 -6.5t15.5 -19.5q5 0 13 1q27 3 56 2q-13 7 -21 19q-6 8 -11 14q-5 7 -13 18q-8 9 -20.5 22.5t-23.5 24.5q-15 14 -25 27l-8 10q-10 13 -8 29.5t15 27z" />
    <glyph glyph-name="ecaron" unicode="&#x11b;" horiz-adv-x="526" 
d="M83.5 656.5q10.5 12.5 27.5 13.5t30 -10l23 -21q24 -21 31 -28l18 -18q8 -8 14 -16q1 1 2 1q14 16 27.5 31.5t19.5 22.5t16 18q8 9 12 14l5 7q9 13 26 15.5t30.5 -7t16 -26t-7.5 -30.5l-5 -7q-6 -8 -17 -20q-9 -10 -14 -17q-6 -7 -20.5 -23t-29.5 -32q-18 -21 -35 -31
q-9 -5 -19.5 -7t-24.5 1t-24 13q-7 8 -16 20q-6 8 -15 17q-10 10 -16 17q-6 5 -28 25l-23 20q-12 11 -13 28t9.5 29.5zM147 289h3q10 -1 42 -4q29 -2 39 -3q11 0 36 -1q22 -1 40 0q14 2 25 6q8 3 12 6q-3 7 -15 22q-15 19 -25 27q-13 9 -27 16q-10 5 -14 6q-8 0 -22 -3
q-16 -4 -22 -7q-6 -2 -20 -12t-26 -22q-14 -14 -20 -21q-2 -3 -6 -10zM135 208q1 -22 3 -28q1 -5 9 -17q6 -9 17 -17q13 -10 20 -14q11 -4 43 -15q29 -10 54 -13t37 -2q14 1 39 7q28 7 47 12l18 5q16 4 31 -4.5t19 -24.5t-4.5 -30.5t-24.5 -18.5l-19 -5q-19 -5 -48 -12
q-31 -8 -50 -10q-20 -2 -54 2t-72 17q-35 12 -48 18q-16 7 -37 23q-23 17 -37 39q-13 21 -18 37q-4 15 -6 46t1 56q3 30 14 56q11 24 22 37q9 9 24 25q18 17 37.5 31t33.5 20q13 6 37 12q25 5 43 5q21 -1 47 -14q21 -11 40 -25t40 -42q23 -29 29 -50q7 -25 0 -47
q-7 -19 -23 -34q-13 -12 -37 -21q-23 -9 -49 -11q-23 -2 -49 -1q-25 1 -36 1q-12 1 -44 4q-29 2 -37 3h-12z" />
    <glyph glyph-name="Gcircumflex" unicode="&#x11c;" horiz-adv-x="641" 
d="M165.5 664.5q-13.5 9.5 -16.5 26t7 30.5l5 8q8 10 29 32q20 22 39 40q18 16 24.5 22.5t13.5 10t13 4.5t12 0.5t11 -2.5t10 -5.5t9 -7t7.5 -7t5.5 -6.5t4 -5t2 -3q22 -26 40 -51q15 -23 26 -36q10 -12 17 -19l10 -9q12 -11 12.5 -28t-10.5 -29q-9 -9 -21 -12q12 -6 22 -14
q24 -17 43 -43q18 -22 27 -35l8 -12q9 -13 6 -30t-17 -26t-30.5 -6t-25.5 17l-8 11q-8 11 -23 31q-14 17 -29 29q-12 9 -26 12t-39 -3q-30 -7 -57 -20q-26 -13 -50 -34q-23 -21 -42 -52q-20 -32 -30 -60q-9 -26 -10 -60q-1 -32 16 -77q18 -48 32 -70q15 -22 32 -40
q15 -16 45 -35q29 -19 39 -21q12 -3 18 -3q4 -1 11 0q9 2 18 5q6 2 9 5q4 3 12 11q7 8 16 28q9 23 13 39q4 17 4 30q1 17 3 32v4q-36 0 -71 6q-5 0 -13.5 1t-12 2t-9 2t-10 3t-9.5 5q-21 11 -14.5 44t30.5 36q12 1 33 2q22 0 42 -1q23 -1 41 -6q15 -4 28 -9l8 -4q9 1 16 2
q26 2 46 2q20 1 31 1h10q17 0 29 -12t12 -28.5t-12 -28.5t-29 -12h-10h-29q-11 -1 -26 -2q0 -6 -1 -13q-1 -15 -2 -31q-1 -19 -6 -42q-5 -25 -18 -54q-14 -32 -29 -49q-14 -16 -26 -25q-14 -9 -31 -15q-13 -4 -28 -7q-17 -3 -33 -2q-13 1 -31 6q-22 5 -62 30q-39 25 -61 49
q-21 22 -40 50q-20 30 -41 87q-22 59 -21 108q1 47 15 84q13 36 37 75q25 42 58 70q31 29 67 47q36 17 75 26q40 9 69 4l-5 5q-11 11 -25 27q-13 15 -30 41q-12 18 -29 37l-1 -1q-17 -16 -35 -35q-17 -18 -22 -24l-5 -8q-10 -14 -26.5 -16.5t-30 7z" />
    <glyph glyph-name="gcircumflex" unicode="&#x11d;" horiz-adv-x="534" 
d="M422 420q26 1 39 -8.5t13 -18.5l1 -10q1 -9 2 -20q1 -10 2 -26t2 -23q1 -11 -1 -33q-1 -22 -8 -49l2 -56q1 -12 1 -25q2 -49 2 -82.5t-1 -48t-6 -57.5q-6 -45 -13 -66q-8 -24 -20 -39q-9 -11 -19 -22q-12 -13 -33 -27.5t-42 -23.5t-42 -14q-22 -6 -44 -7q-23 -1 -46 5
q-21 5 -46 18q-25 12 -43 26q-20 15 -38 40q-16 23 -22 33l-4 8q-8 15 -3 31t19.5 24t30.5 3t24 -19l4 -8q4 -6 17 -24q11 -16 21 -24q12 -9 30 -18q17 -8 30 -11q11 -3 23 -3q13 1 27 4q15 4 30 10q13 6 27.5 16t20.5 17q9 9 15 17q3 4 7 14q4 13 8 50q5 40 6 52.5t1 44.5
v30q-6 -6 -12 -11q-43 -40 -75 -53q-34 -14 -76 -10q-43 3 -79 27t-54 55q-16 30 -18.5 64t11.5 73q13 35 44 79q29 43 54 67q27 26 58 41q29 14 61 20q38 7 69 -4l20 -7q16 -6 23 -21zM111 546.5q-9 13.5 -6 30t17 26.5l12 8q11 8 33 25q22 18 40 34q18 14 23 20q9 8 17 15
q13 11 29 9.5t25.5 -6.5t15.5 -11q13 -12 23 -26q7 -10 18 -24t18.5 -22.5t17.5 -19.5l11 -11q11 -12 11 -28.5t-12 -28t-29 -11.5t-29 12l-10 11q-12 12 -20.5 22.5t-20.5 25.5q-11 14 -19 25q-7 -6 -16 -14q-19 -16 -42 -35q-24 -19 -38 -29l-13 -8q-14 -10 -30.5 -6.5
t-25.5 17zM386 345l-4 2l-12 6q-12 6 -18 19q-10 3 -26 0q-22 -4 -43 -14q-19 -9 -36 -25q-19 -19 -44 -55q-24 -35 -34 -61q-8 -22 -6.5 -38.5t9.5 -31.5q7 -14 26 -27q19 -12 41 -14q24 -1 40 5q18 7 50.5 37t44.5 54q10 21 16 39q-3 45 -4 78q-1 15 0 26z" />
    <glyph glyph-name="Hcircumflex" unicode="&#x124;" horiz-adv-x="591" 
d="M164 649.5q-12 11.5 -12.5 28.5t10.5 29l11 11q11 12 38 36q25 22 35 32q11 10 17 16q11 10 24 16q40 19 69 -30q9 -16 22 -38q12 -20 20 -33q9 -14 16 -25l7 -12q9 -14 5 -30.5t-18 -25t-30.5 -4.5t-25.5 18l-7 11q-7 11 -15 25q-9 14 -22 35q-4 7 -9 15
q-11 -10 -34 -31q-24 -21 -33 -31l-11 -11q-11 -12 -28 -12.5t-29 11zM54 296q-3 12 3 24v51q1 58 3 129q2 69 2 91l-1 22q0 17 11.5 29t28 12.5t29 -11t12.5 -28.5l1 -23q0 -23 -2 -95q-3 -70 -3 -127v-15q29 6 77 13q59 8 112 7q51 -1 82 -3q14 -1 25 -2v2q3 67 6 110
q2 46 7 79l6 32q2 16 16 26t30 7t26 -16.5t8 -29.5l-6 -32q-4 -29 -7 -70q-2 -44 -5 -109q0 -5 -1 -12q13 -5 20 -18t4 -26q-4 -24 -27 -31v-12q0 -34 1 -66q1 -34 2 -70q0 -35 1 -51q1 -14 4 -30q2 -16 7 -28l7 -16q6 -15 -0.5 -31t-22 -22t-31 0.5t-21.5 22.5l-7 16
q-7 19 -12 43q-4 22 -5 41q-1 18 -1 54q-1 35 -2 68q-1 34 -1 70v18q-11 1 -26 2q-29 2 -78 3q-48 1 -100 -6q-54 -8 -81 -14l-8 -2v-15q-1 -55 -1 -92q0 -34 2 -65q3 -31 8 -55l7 -29q3 -16 -6 -30.5t-25 -18t-30.5 5.5t-17.5 25l-7 29q-7 31 -10 67q-2 34 -2 71
q-1 36 1 93v30q-2 4 -2 8z" />
    <glyph glyph-name="hcircumflex" unicode="&#x125;" horiz-adv-x="466" 
d="M61.5 653q-10.5 13 -8.5 29.5t15 27.5l24 19q23 19 43 38t35.5 33.5t22.5 20.5q35 32 78 -11q17 -18 36 -43q16 -23 30 -41q12 -18 18 -25l5 -7q11 -13 9 -30t-15 -27t-30 -8t-27 15l-6 7q-6 8 -20 27q-13 18 -30 41q-8 12 -16 21q-16 -14 -35 -32q-21 -21 -47 -41
l-24 -20q-13 -11 -30 -9t-27.5 15zM121.5 638.5q16.5 -0.5 28 -13t10.5 -29.5v-10q-1 -9 0 -32q0 -26 1 -65q1 -41 0 -63q-1 -20 -2 -78v-10q3 4 6 6q19 20 37 29q14 7 37 15q27 9 53 6q33 -3 56 -32q17 -20 25 -40q6 -17 16 -54q11 -38 15 -70q4 -31 5 -45q0 -12 2 -30
q2 -21 2 -38q1 -18 0 -27q-1 -6 -2 -19q-2 -14 -4 -27l-2 -12q-3 -16 -17 -25.5t-30 -7t-26 16.5t-7 31l2 11q2 10 3 21q1 13 2 20v16q0 15 -2 32q-1 20 -2 33q-1 11 -4 39q-4 27 -13 59q-9 34 -14 46q-3 9 -12 19q-1 2 -2 3q-8 1 -19 -3q-16 -6 -25 -10q-6 -3 -17 -14
q-10 -9 -27 -54q-7 -16 -12 -33q-12 -35 -20 -77q-3 -19 -6 -34q0 -4 -1 -5q-2 -36 -3 -45q-2 -13 -11 -16.5t-20.5 0.5t-23.5 9.5t-20 11.5l-7 5q-1 14 5 50q2 27 3 37v44v33q0 19 -1 38q-1 40 0 99q1 58 2 79q1 19 0 58q-1 41 -1 65q-1 26 0 37v11q1 16 13.5 27.5t29 11z
" />
    <glyph glyph-name="Jcircumflex" unicode="&#x134;" horiz-adv-x="681" 
d="M190.5 595q-3.5 16 5.5 30t25 18l8 2q10 2 38 5q-10 12 -9 28t12 27l21 20q20 19 38 38t33 36q14 15 20 24q4 6 5 11q7 15 17.5 20.5t21 2.5t20.5 -8t16 -10l6 -6q2 -6 8 -15q8 -12 14 -20q7 -10 20 -25q14 -17 29 -39q16 -23 19 -27l5 -6q8 -12 6.5 -27t-11.5 -26h17
l14 -1q16 0 28 -12t11.5 -28.5t-12.5 -28.5t-28 -12l-14 1q-15 0 -49 3q-33 2 -80 5q-2 0 -5 1q0 -24 -1 -39l-4 -44q-2 -28 -3 -58q0 -32 -2.5 -70.5t-5.5 -70.5q-4 -32 -8 -59q-5 -26 -11 -54q-7 -31 -21 -62q-13 -30 -34 -61q-21 -30 -36 -48q-15 -17 -28 -30t-23 -22
q-21 -18 -43 -18q-16 0 -40 10q-22 10 -46 33q-23 22 -39 48q-15 26 -24 55q-8 28 -12 53q-4 24 -5 36l-1 11q-1 17 10 29.5t27.5 13.5t29.5 -10t14 -27l1 -11q0 -9 4 -29q3 -19 10 -42q6 -20 16 -38q10 -17 25 -31q13 -13 23 -17l1 -1q7 7 15 14q11 11 24 26q12 15 30 40
q17 25 27 49q11 24 16 47q5 26 10 50q4 24 7 54t5.5 66.5t2.5 66.5q1 33 3 63q3 30 4 44q1 13 1 34q-36 -1 -70 -6q-36 -4 -42 -5l-8 -2q-17 -4 -31 5.5t-17.5 25.5zM497 653v1l-5 6q-4 7 -19 27q-14 20 -26 35q-13 16 -21 27q-2 -2 -3 -4q-17 -18 -35 -38q-19 -20 -41 -40
l-9 -10q10 1 22 1q41 1 90 -2q26 -2 47 -3z" />
    <glyph glyph-name="jcircumflex" unicode="&#x135;" horiz-adv-x="484" 
d="M124.5 514q-11.5 12 -11 29t12.5 29l14 12q11 11 30 36q22 28 46 61q17 24 29 34q4 3 11 7.5t24 4t30 -15.5q7 -9 23 -36q14 -22 26 -38q14 -17 19 -23t14 -17q6 -8 16 -17l11 -10q12 -12 12.5 -28.5t-10.5 -29t-28 -13t-29 11.5l-12 10q-13 13 -23 25q-7 9 -13 16
t-20 25q-12 14 -24 34q-20 -27 -37 -50q-23 -30 -40 -46l-14 -13q-12 -11 -28.5 -10.5t-28 12.5zM59 -71.5q9 14.5 25.5 18t30.5 -4.5l10 -7q8 -5 23 -11q11 -5 19 -5t13 2q9 3 20 9q7 4 14 12q8 10 15 21q7 13 17 38t14 46q4 22 8 63t6 84q1 42 -2 67q-2 29 -3 51
q0 20 -3 41q-2 21 -4 36q-3 14 -4 21q-2 7 -4 19l-2 11q-3 16 7 30t26 17t30 -6.5t17 -26.5l2 -11q2 -11 3 -17q2 -8 4 -24q3 -17 6 -40q2 -25 3 -48q0 -19 3 -45q3 -30 2 -77q-2 -47 -6 -90q-5 -45 -10 -71q-5 -28 -18 -60q-12 -30 -22 -48t-24 -34q-16 -19 -36 -30
q-15 -8 -32 -14q-20 -8 -42 -7q-23 0 -48 11q-21 9 -34 17l-11 7q-14 8 -18 24.5t5 31z" />
    <glyph glyph-name="Ncaron" unicode="&#x147;" horiz-adv-x="573" 
d="M141.5 783q13.5 10 30 7.5t26.5 -15.5l6 -9q5 -6 26 -27q22 -23 30 -29l3 -3q10 12 19 22l24 28q13 16 27 31q16 17 25 24l7 6q13 11 30 9.5t27.5 -14t9 -29.5t-14.5 -28l-7 -6q-6 -5 -18 -17q-13 -14 -24 -28q-13 -14 -25 -28.5t-27 -32.5l-2 -2.5t-3.5 -4.5t-5 -5
t-6.5 -5.5t-7 -5.5t-8.5 -4.5t-9.5 -2.5t-10.5 0t-11.5 3t-12 6q-8 6 -15 11t-17 14q-11 9 -35 34q-26 25 -34 36l-6 8q-10 14 -7.5 30.5t16 26.5zM103.5 28.5q-16.5 -1.5 -30 9t-14.5 26.5l-2 17q-2 18 -4 56q-1 39 3 102q3 63 7 109t7 82q3 35 5 64q2 28 3 50t1 38
q1 2 -0.5 7.5t5 16t22.5 17.5q18 7 30.5 5t20 -10.5t11 -18t4.5 -16.5l1 -8q15 -34 41 -79q27 -46 55 -91q30 -45 56 -89q26 -43 48 -82q15 -27 28 -51l2 28q4 51 14 115q9 61 13 111q4 52 6 81t3 47l1 19q1 16 13 27.5t29 11t28.5 -13t10.5 -28.5l-1 -19q-1 -19 -3 -50
q-2 -29 -6 -82q-5 -53 -14 -116q-9 -61 -13 -109q-4 -52 -13 -105q-1 -4 -3.5 -10t-9.5 -22t-15.5 -25.5t-18.5 -17.5t-21.5 -2.5t-21.5 25.5q-6 11 -16 29q-10 19 -26 50q-15 30 -37 67q-22 38 -47 80.5t-54 86.5q-25 39 -49 79q0 -8 -1 -18q-3 -35 -7 -80t-7 -107
q-4 -60 -2.5 -95t2.5 -50l2 -17q2 -16 -8.5 -29.5t-27 -15z" />
    <glyph glyph-name="ncaron" unicode="&#x148;" horiz-adv-x="463" 
d="M78.5 683q11.5 12 28.5 12t29 -11l16 -16q16 -15 35 -33q20 -19 32 -35q10 -13 16 -21l3 -3q3 4 4 6q14 19 28 36q13 16 21 28q9 13 18 23l7 9q10 13 27 15t30 -8.5t14.5 -27.5t-8.5 -30l-8 -9q-6 -8 -14 -19q-10 -13 -24 -31q-12 -16 -26 -34q-14 -19 -21 -29
q-5 -7 -13 -13t-23 -10.5t-30 5.5q-10 5 -25 19q-16 13 -25 25l-15 20q-8 10 -24 26q-19 17 -35 33l-16 16q-12 11 -12.5 28t11 29zM103.5 500q16.5 1 29 -10t13.5 -28l1 -8v-26t-3 -67q12 22 21 36q16 23 29 34q11 9 35 21q28 14 54 15q28 1 52 -10q24 -12 46 -47
q20 -32 25 -61q4 -23 4 -63q0 -39 -5 -85q-5 -44 -12 -84q-6 -37 -8 -58q-2 -19 -2 -26v-8q0 -16 -12 -28t-28.5 -12t-28.5 12t-12 28v8q0 10 2 33.5t9 64.5q7 38 12 80q4 40 4 75q0 34 -3 51q-2 12 -13 30q-9 13 -14 17q-5 2 -12 2q-9 0 -22 -7q-15 -7 -20 -11
q-4 -4 -13 -17q-11 -15 -26 -48t-23 -55q-3 -10 -8 -25q-5 -18 -13 -44q-11 -36 -18 -66q-2 -30 -4 -52q-3 -27 -4 -37q-3 -14 -16 -17t-28 3t-27 12.5t-12 9.5q0 14 1 31t8 56q1 2 2 5v5q1 33 0 53q-1 17 -2 51v26q-1 55 2 106q2 49 2 63.5v21.5v7q-1 17 10 29.5t27.5 13.5
z" />
    <glyph glyph-name="Rcaron" unicode="&#x158;" horiz-adv-x="503" 
d="M111.5 767q12.5 11 29 10t27.5 -13l9 -9q7 -9 21 -23q13 -14 26 -24q2 -2 7 -6q10 6 19 15q17 15 33 26q11 8 16 13q4 5 9 11l7 8q10 13 27 15.5t30 -8t15 -27t-8 -30.5l-7 -8q-9 -11 -18 -20q-9 -8 -24 -19q-11 -8 -25 -21q-13 -12 -28 -22q37 -1 62 -11.5t45 -27.5
q19 -17 36 -42q18 -27 25 -52q6 -23 5 -44q0 -25 -10 -46q-10 -18 -37 -44q-28 -26 -56 -38q-23 -10 -51 -18t-57 -13q-12 -2 -23 -3q39 -33 77 -74q44 -47 63 -76q19 -27 27 -40q7 -12 16 -27q9 -13 12 -17l6 -7q10 -13 8 -29.5t-14.5 -27t-29.5 -9t-27 14.5l-6 7
q-6 8 -17 25q-10 16 -18 29q-6 11 -23 35t-56.5 67t-79.5 75q-9 7 -17 13q0 -9 -1 -17q-2 -31 -2 -73q1 -43 2 -87l2 -45q1 -16 -10.5 -28.5t-28 -13t-29 11t-13.5 27.5l-2 45q-1 45 -2 89q0 45 2 80q3 34 9 75q5 39 9 73q4 32 3 46q-1 19 -1 28v24q0 17 1 31v19q0 20 16 40
q13 16 42 29q23 10 59 18q0 1 -1 1q-6 5 -20 18q-17 13 -32 30q-15 15 -24 25l-8 9q-11 12 -10 29t13.5 28zM152 368q13 2 29 4q19 3 45 7q24 4 47 11q23 6 42 14q15 7 32 23t21 22q1 4 1 10q1 10 -3 23q-3 11 -13 27q-11 16 -22 25q-10 9 -23 14q-12 6 -37 6q-27 1 -57 -5
q-30 -7 -47 -14l-10 -5v-12q-1 -13 -1 -28v-24q0 -7 1 -24q1 -21 -3 -59q-1 -7 -2 -15z" />
    <glyph glyph-name="rcaron" unicode="&#x159;" horiz-adv-x="432" 
d="M91.5 694.5q14.5 7.5 30.5 2.5t24 -20l7 -15q6 -12 14 -22q10 -13 21 -29q9 -13 17 -22t15 -16q5 5 9 11q14 18 26 32q11 13 24 27q11 12 16 18q4 4 5 7l3 6q7 15 23.5 20t31 -2.5t20 -23.5t-2.5 -31l-3 -6q-5 -10 -14 -21q-7 -8 -20 -22q-11 -13 -22 -25
q-10 -12 -22 -28q-16 -21 -34 -36q-9 -7 -21 -11.5t-27.5 -3t-27.5 11.5q-11 10 -20 18q-8 9 -19 21t-23 30q-11 15 -20 27q-12 15 -21 33l-7 15q-8 15 -2.5 31t20 23.5zM133 482q16 -3 25.5 -16t7.5 -29q12 8 24 13q19 10 37 14q22 5 41 3q18 -2 32 -7l10 -4
q15 -6 22 -21.5t1 -31t-22 -22.5t-31 0l-9 3q-5 2 -12 3q-6 0 -12 -1q-10 -3 -21 -8q-12 -6 -25 -16q-11 -7 -17 -15q-7 -11 -12 -21q-5 -12 -8 -21q-4 -11 -10 -19q-3 -8 -4 -12q-2 -8 -6 -28v-1q0 -15 -1 -29v-33q1 -12 0 -35q0 -23 -1 -33t-2 -25t-2 -26q-1 -10 -1 -18
q0 -10 -1 -19v-9l-2 -10q-2 -16 -14.5 -26t-27.5 -10q-17 1 -28.5 13.5t-10.5 29.5v6q1 7 1.5 20t0.5 30q1 18 1 28v26q1 13 1 35q0 19 1 38q1 18 2 28t4 28v19q2 30 3 46q2 15 6 43q4 27 6 41q2 15 5 31l2 15q3 16 17 25.5t30 7.5z" />
    <glyph glyph-name="Scircumflex" unicode="&#x15c;" horiz-adv-x="569" 
d="M138 661q-13 10 -15 26.5t8 29.5l14 19q16 20 38 42q22 21 40 34q14 11 19 16q43 39 83 -25q13 -20 25 -35q14 -17 27 -33q12 -15 20.5 -24t15.5 -15l9 -7q13 -11 14 -28t-9 -29q-14 -16 -35 -14q3 -2 5 -3q26 -13 37 -21t24 -21q15 -14 24 -30q9 -14 18 -36
q8 -20 12 -35l4 -13q4 -16 -4.5 -30.5t-24.5 -18.5t-31 4.5t-19 24.5l-3 12q-3 10 -9 26q-6 15 -11 24q-5 7 -12 14q-10 9 -16 14q-6 4 -25 14q-19 9 -36 14q-15 4 -32 4t-35 -6q-19 -6 -34 -16q-16 -11 -29 -25q-10 -12 -18 -31q-9 -20 -10 -36q-2 -15 0 -23q2 -6 14 -20
q15 -16 34 -26q25 -14 53 -28q30 -16 57 -34q27 -17 44 -30q20 -15 36 -35q14 -20 25 -44q10 -23 15 -47q4 -23 4 -41q0 -17 -1 -34q-2 -18 -5.5 -31.5t-8.5 -23.5q-6 -13 -17 -25q-11 -11 -28 -20q-14 -8 -32 -13q-17 -5 -36 -6q-17 -1 -36 0t-44 6q-27 5 -56 15
q-30 12 -53 26q-23 13 -36.5 25t-23.5 24l-9 10q-11 13 -10 30t13.5 27.5t29.5 9.5t28 -14l9 -10q7 -8 15.5 -15.5t25.5 -17.5t39 -19q23 -8 42 -11q21 -4 35 -5t26 0q10 1 19.5 3.5t16.5 6.5q4 2 6 4t2 3q2 4 4 10.5t3 18.5q1 13 1 25q0 11 -3 27q-3 15 -9 30q-7 15 -16 27
q-8 11 -19 20q-16 11 -40 26.5t-51 29.5q-28 15 -54 29q-31 17 -55 43q-26 29 -32 53q-6 23 -3 52q3 28 16 59q13 32 34 55q18 21 42 37q25 17 56 26q29 10 58 10t54 -7q11 -3 23 -7l-8 7q-11 8 -22 19.5t-25 29.5l-26 32q-10 13 -21 28q-12 -10 -28 -25q-18 -17 -30 -33
l-14 -18q-10 -13 -27 -15t-30 8z" />
    <glyph glyph-name="scircumflex" unicode="&#x15d;" horiz-adv-x="466" 
d="M88 518q-13 11 -14.5 27.5t8.5 29.5l20 23q20 25 39.5 45.5t28 28t22.5 18.5q12 9 18 14q11 8 22.5 10t21 -1.5t16 -7.5t10.5 -8q14 -13 27 -31q10 -14 18 -24q8 -11 16 -23q9 -12 15 -26q5 -9 9 -15l5 -8q9 -14 5.5 -30.5t-17.5 -25.5t-30.5 -5.5t-25.5 17.5l-5 8
q-6 9 -13 23l-10 18q-7 9 -13 18q-9 11 -20 26q-1 2 -3 4q-9 -7 -14 -12q-7 -5 -24 -23.5t-36 -40.5l-19 -24q-11 -12 -27.5 -14t-29.5 9zM399.5 344q-12.5 -11 -29 -10t-27.5 13l-6 6q-2 2 -8 6q-8 5 -12 6q-5 2 -20 4t-39 2h-39q-7 -1 -27 -8q-14 -6 -20 -9q-4 -5 -10 -13
q-5 -7 -8 -20q-2 -12 0 -20t4 -13q5 -4 16 -11l45 -30q24 -14 33 -18q9 -5 28 -13q26 -11 45 -28q18 -16 25 -28q7 -11 14 -29q7 -20 8.5 -33.5t-1.5 -31.5q-4 -23 -20 -42q-11 -14 -22 -21q-8 -6 -25 -16q-19 -10 -38 -16q-22 -6 -35.5 -6t-37.5 8q-21 7 -45 18
q-25 12 -49 31q-25 19 -33 31l-5 7q-10 13 -7.5 30t16 26.5t30 7t26.5 -15.5l5 -7q4 -5 18 -16q17 -13 34 -21q18 -9 34 -14q9 -3 15 -4q4 1 11 3q11 3 22 9q12 7 17 10q2 2 8 9q1 1 1 2q1 7 1 11q-1 4 -4 12q-4 11 -7 15q-2 4 -10 11q-9 8 -23 14q-20 8 -32 14t-39 22
q-26 17 -49 32q-1 1 -6 4t-6.5 4.5t-5.5 4t-5.5 4.5t-4.5 4.5t-5.5 5.5t-4.5 7q-7 12 -14 34q-8 27 -1 59q6 31 21 51q12 17 20 25q13 12 47 25q32 13 52 14h43q30 0 52 -3q21 -3 33 -7t28 -14q17 -10 26 -21l6 -6q11 -12 10 -29t-13.5 -28z" />
    <glyph glyph-name="Scaron" unicode="&#x160;" horiz-adv-x="506" 
d="M109 808q12 12 29 12t28 -12l13 -13q11 -11 29 -25t39 -32q6 7 13 15q11 12 17 21q6 8 9 13l5 9q8 14 24.5 18.5t31 -3.5t19 -24t-3.5 -31l-5 -8q-6 -11 -15 -23q-9 -11 -21 -26q-12 -13 -21 -23q-5 -6 -8 -9q13 -3 30 -9q41 -15 60 -35q15 -15 21.5 -24t17.5 -30t19 -46
q8 -24 11 -36l2 -9q3 -16 -6.5 -30.5t-25.5 -17.5t-30 6t-18 26l-2 9q-1 7 -8 26q-6 19 -14 35q-8 15 -11 19.5t-14 14.5q-6 7 -30 16q-22 8 -31 7q-15 -3 -34 -10q-20 -8 -40 -19q-18 -10 -30 -21q-9 -8 -14 -20q-7 -15 -9 -30q-3 -13 -2 -26q1 -11 3 -16q5 -10 24 -35
q23 -33 41 -48q17 -15 38 -25l39 -18q15 -8 36 -21q24 -15 44 -36t29 -37q8 -14 15 -36q7 -24 8 -47t-3 -40q-4 -16 -10 -30q-6 -17 -16 -28q-9 -11 -21 -19q-11 -8 -21 -12q-11 -5 -30 -8q-16 -2 -38 -3q-23 -1 -42 1q-21 2 -41 9t-39 20q-14 11 -22 17q-11 9 -24 25
q-14 16 -22 32q-6 12 -9 20l-4 7q-7 15 -1.5 31t20.5 23t31 1.5t23 -20.5l4 -8q3 -7 9 -18q3 -8 11 -16q8 -10 12 -13q7 -6 20 -15q8 -6 17 -9q11 -4 24 -5q13 -2 30 -1t28 2l12 3q2 1 6 4q3 2 5 4t4 7q3 7 5 16q1 8 1 20q-1 12 -5 25q-4 15 -8 23q-4 6 -16 19
q-13 13 -29 23q-18 12 -29 17q-12 6 -37 18q-31 14 -57 37q-25 21 -54 61q-29 41 -34 54.5t-7 37t2 47.5t14 48q13 28 34 48q19 17 45 32q24 13 51 23l14 6q-3 2 -8 7t-7 6q-22 18 -41 33q-21 17 -36 32l-13 13q-12 12 -12 28.5t12 28.5z" />
    <glyph glyph-name="scaron" unicode="&#x161;" horiz-adv-x="465" 
d="M88.5 661q12.5 11 29 10.5t28.5 -12.5l6 -7q7 -7 23 -24t28 -31l14 -14q7 9 12 14q7 8 19 24q12 15 19 26q8 12 13 19l5 9q8 14 24.5 17.5t30.5 -5.5t18 -25.5t-5 -30.5l-5 -8q-5 -8 -14 -21q-9 -14 -22.5 -31t-21.5 -27q-7 -8 -23 -28q-13 -16 -23 -23q12 3 23 3
q12 0 32 -4q25 -5 48 -23q20 -14 34 -31q11 -14 18 -23l6 -7q9 -14 6.5 -30.5t-16 -26.5t-30 -7t-26.5 16l-6 8q-4 6 -14 18q-8 9 -21 19q-8 6 -15 8q-11 2 -16 2q-5 -1 -19 -4.5t-26 -10.5q-12 -8 -20 -17q-6 -6 -10 -16q-4 -12 -4 -27v-15q4 -4 10 -11q18 -17 35 -29
q21 -14 40 -27q21 -15 37.5 -31t24.5 -26q8 -11 18 -28q10 -19 15 -32q5 -18 3 -40t-11 -36q-8 -15 -22 -25q-11 -8 -33 -17q-21 -8 -34 -10l-27 -3q-20 -2 -36 -2q-20 -1 -32 2q-15 4 -36 19q-17 12 -31 26q-14 13 -20 21q-8 9 -21 30l-10 18q-8 14 -3.5 30.5t19 25t30.5 4
t25 -19.5l10 -18q7 -13 11 -17q5 -6 15 -16t22 -18q5 -4 9 -6q4 -1 11 0q12 0 28 1l24 3q5 1 17 6q9 4 14 6q0 2 1 5v6q-2 6 -9 17q-7 13 -11 19q-5 5 -17 16.5t-28 23.5l-39 26q-23 17 -45 38q-1 2 -6.5 7t-7 6.5t-5.5 6t-5.5 7.5l-4 8t-3.5 10q-4 14 -3 40q0 29 9 54
q10 26 27 44q14 15 35 29q16 10 34 16q-14 2 -27 15l-18 18q-11 11 -23 26q-13 13 -28 30q-17 17 -23 24l-6 7q-12 12 -11.5 29t13 28z" />
    <glyph glyph-name="Tcaron" unicode="&#x164;" horiz-adv-x="725" 
d="M395 658q-16 -16 -29 -23q-11 -9 -34.5 -5t-34.5 23q-2 5 -6.5 11t-12.5 15t-22 23q-15 14 -25 23q-5 4 -8 6l-10 4q-15 6 -22 21.5t-0.5 31t22 22t30.5 0.5l10 -4q16 -7 32 -21q11 -9 27 -24q16 -16 27 -29q4 -4 7 -8q15 14 29 24q15 11 24 17l16 12q5 4 9 8l6 7
q10 12 27 13.5t29.5 -9.5t13.5 -28t-9 -29l-6 -7q-9 -10 -20 -19q-9 -7 -19 -14q-9 -6 -23 -17q-12 -8 -28 -24zM54 600.5q4 16.5 18 25.5t30 5l8 -1q7 -2 37 -3q35 -1 119 0q87 2 134 -2q46 -3 91 -10q45 -6 75 -12q28 -5 41 -7q4 -1 8 -1t5.5 -0.5t1.5 0.5h7
q17 1 29.5 -10.5t13.5 -28t-10.5 -29t-27.5 -13.5h-8q-11 -1 -29 1q-16 3 -46 8q-29 6 -71 12t-86 10h-15q-2 -13 -3 -28q-3 -31 -3 -71q1 -42 1 -83q1 -41 1 -80v-76q0 -35 1 -63q1 -29 1 -49t-1 -32q0 -12 -1 -21q-1 -6 -1 -14q0 -9 -1 -19v-10q0 -16 -12 -28t-28.5 -11.5
t-28.5 12.5t-12 28v11q1 10 1 20q0 11 1 20q1 7 1 16q1 9 1 28t-1 47q-1 29 -1 65v76q0 39 -1 79q0 41 -1 83q0 44 3 78q1 15 2 24q-14 0 -30 -1q-86 -1 -123 0q-40 2 -52 4l-7 2q-17 4 -26 18t-5 30.5z" />
    <glyph glyph-name="tcaron" unicode="&#x165;" horiz-adv-x="443" 
d="M387 626q0 -7 -2 -20q-3 -17 -12 -38q-8 -20 -14 -31q-3 -7 -6 -12q-2 -14 -12 -23q-1 -2 -1 -3l-3 -8q-6 -18 -25 -25q26 0 37 -24q7 -15 1 -30.5t-21 -22.5l-6 -3q-15 -7 -31 -6q-9 0 -36 3q-14 2 -26 3v-23q-1 -28 -2 -64q-2 -34 -3 -49q-1 -14 -1 -39q-1 -26 -1 -47
t0.5 -36t1.5 -23q0 -7 1 -22t1 -29v-22v-13q2 -6 7 -24l8 -26q5 -16 -2.5 -31t-23.5 -19.5t-31 3t-20 23.5l-8 26q-10 30 -10 42q-1 8 -1 19v22q0 11 -1 24q-1 15 -1 23q-1 8 -1.5 24.5t-0.5 38.5t1 48q0 27 1 43q1 14 3 49q1 33 2 59v32q-22 2 -37 3l-20 1q-16 0 -28 12.5
t-11 29t13 28t29 10.5h20q16 -1 37 -3q1 19 1 32v28q0 8 1 19v10q1 17 13.5 28.5t29 10.5t28 -13.5t10.5 -28.5v-10q-1 -10 -1 -16v-27q0 -18 -1 -42q14 -2 31 -3q19 -2 28 -3l3 2q2 0 3 1q-6 0 -12 2q-16 5 -23.5 20t-2.5 31l3 8q2 7 6 15q-1 8 0 15l2 12q0 6 1 18v24
q0 13 -1 20v8q-1 14 7 26q2 7 6 12q10 15 30.5 18t29.5 -3q6 1 12 0q16 -2 26 -15.5t8 -29.5z" />
    <glyph glyph-name="Ubreve" unicode="&#x16c;" horiz-adv-x="598" 
d="M206.5 814q16.5 0 28.5 -12t12 -29v-8q0 -6 1 -15q1 -5 4 -13q4 -10 10 -17q1 -2 7 -5q9 -5 20 -6.5t29 1.5q12 2 18 4q4 2 10 7q4 5 11 22q7 16 10 23v5q2 16 15 27t29.5 9.5t27 -14.5t9.5 -29l-1 -7q-1 -14 -15 -46q-15 -35 -32 -49q-12 -12 -22 -18q-14 -9 -48 -14
q-30 -5 -53 -1q-24 3 -43 13q-25 12 -39 31q-10 14 -17 32q-9 20 -11 38q-1 13 -1 22v8q0 17 12 29t28.5 12zM102.5 691q16.5 1 29 -10t13.5 -28l2 -26q2 -28 2 -58q0 -28 -1 -52q0 -26 -3 -57q-3 -29 -4 -47q-2 -18 -4 -59q-2 -40 -3 -59q0 -17 1 -34.5t2 -24.5q2 -8 8 -30
q5 -22 12 -41q5 -17 12 -29q7 -15 15 -27q7 -12 14 -20t20 -20q14 -13 25 -22q7 -5 16 -8q14 -5 23 -7q7 -1 12 -2h1.5t5.5 0.5t8 1.5q11 1 19 4q10 4 22 11q12 6 23 14q6 5 20 24q17 24 28 46t15 32q4 11 6 18q2 5 5 21q2 15 2 34q-1 23 -1 44q-1 22 -1 51t-0.5 45t0.5 45
q0 31 2 54q1 23 3 44q2 23 7 44q3 18 4 23q1 6 1 16l1 1l-3 7q-6 15 0.5 31t22 22t31 -1t21.5 -22l3 -8q7 -17 5 -37q-1 -12 -2 -20t-5 -28q-3 -17 -5 -35q-2 -21 -3 -42q-2 -22 -2 -50q-1 -28 0 -43v-45t1 -50q0 -22 1 -44q0 -26 -4 -49q-3 -23 -7 -34q-3 -8 -7 -21
q-6 -14 -19.5 -40t-33.5 -55q-23 -33 -41 -46q-13 -9 -29 -17q-17 -10 -32 -15q-17 -7 -36.5 -9.5t-32.5 -2.5q-11 1 -25 4q-12 3 -29 9q-22 7 -40 21q-14 11 -31 26q-18 16 -28 29t-20 28q-9 15 -18 32q-9 18 -17 41q-7 21 -14 46q-7 26 -8 37q-2 12 -3.5 33t-1.5 42
q1 20 3 62q3 42 4 60t4 48q3 29 3 51q1 24 1 52q0 27 -2 51l-2 27q-1 16 10.5 29t28 14z" />
    <glyph glyph-name="ubreve" unicode="&#x16d;" horiz-adv-x="505" 
d="M129 672.5q16 3.5 30.5 -5.5t17.5 -26l3 -13q2 -9 8 -23q6 -12 11 -18q3 -4 9 -6q8 -4 16 -5q6 0 14 2q10 3 20 10q11 7 19 16q6 6 7 10q4 7 8 19q2 5 3 8l-1 4q0 17 12 29t28.5 12.5t28.5 -11.5t12 -28l1 -6q0 -14 -8 -35q-5 -16 -10 -27q-8 -15 -22 -30
q-14 -16 -33 -28q-20 -14 -41 -20q-22 -7 -45 -5q-22 2 -42 11q-23 10 -37 27q-13 15 -23 37q-11 22 -14 40l-3 14q-4 16 5.5 30t25.5 17.5zM416 239q-1 -19 0 -42q0 -16 1 -29q1 -24 2 -34q2 -15 6 -35l5 -25q2 -6 4 -15l3 -9q5 -16 -3.5 -30.5t-24.5 -19.5t-30.5 3.5
t-19.5 24.5l-2 9q-3 9 -5 17q-2 7 -6 29l-2 10l-2 -2q-27 -39 -57 -64q-2 -2 -8 -7.5t-8 -7t-7.5 -5.5t-9 -5.5t-8.5 -3.5t-11 -3q-20 -5 -48 4q-25 9 -49.5 29t-39.5 45q-15 24 -22 53q-6 24 -11 60q-6 35 -8 54q-3 22 -2 61t5 69q4 25 4 42v27v9q0 17 12 29t28.5 12
t28.5 -12t12 -29v-9v-28q0 -22 -5 -52q-3 -25 -4 -59q0 -35 1 -51q2 -17 8 -50q5 -32 10 -54q4 -16 12 -30q8 -13 23 -25q13 -11 23 -14q2 -1 4 -1q7 5 18 14q21 18 43 49q23 32 33 54q12 24 23 53q1 4 3 10q1 16 3 29q5 31 14 77q8 44 9 60q0 1 -0.5 3.5t-0.5 9.5t1 12.5
t5 11.5t10 9.5t16.5 3t24.5 -5.5q26 -10 32.5 -20.5t0.5 -17.5l-6 -6q0 -15 -4 -42q-4 -22 -9 -57q-4 -37 -7 -54q-3 -12 -8 -29z" />
    <glyph glyph-name="Uring" unicode="&#x16e;" horiz-adv-x="579" 
d="M346 674q-7 -6 -13 -11q-12 -8 -20 -12q-11 -7 -29 -10q-22 -4 -44 3q-17 6 -31 17q-15 11 -29 33q-15 23 -18 40q-1 13 2 33q5 22 26 49q19 26 36 36q20 12 50 13q24 1 46 -4q29 -8 48 -37q15 -21 21 -37q5 -15 7 -25q2 -11 3 -22q0 -12 -1 -24l-1 -8q-2 -16 -15 -27
t-30 -9q-3 1 -8 2zM315 758v1q-3 7 -11 19q-3 4 -4 5q-9 2 -21 1q-7 0 -11 -1q-5 -4 -14 -16q-8 -11 -10 -16q-1 -3 -1 -5q2 -4 5 -8q6 -10 9 -12q5 -3 11 -5v-1h1q4 1 6 2q4 2 11 7t14 12q8 8 12 13q2 1 3 4zM109.5 652q16.5 0 28 -12t11.5 -29v-15q0 -16 -1 -48t-2 -61
q-2 -30 -4 -61q-3 -29 -6 -57q-2 -26 -2 -47q0 -23 1 -47q0 -20 4 -36q4 -17 6 -23.5t9 -19.5q7 -16 13 -31q5 -10 16 -25q15 -18 26 -32q10 -12 22 -22q13 -11 19 -14q10 -5 16 -9q3 -1 7 -2q6 -1 19 -2q12 -1 21 0t13 2q7 2 12 4t14 6q5 2 9 5t11 11q11 12 21 27
q9 13 15 31q7 22 14 48.5t13 58.5t8 59q2 28 0 57q-2 35 0 68q2 30 2 58q0 29 -1 52q0 25 1 36q0 6 1 22v19q0 16 12 28t28.5 12t28.5 -12t12 -29v-18q-1 -20 -2 -30v-27q1 -24 1 -53q0 -30 -2 -63q-2 -29 0 -58q2 -35 0 -67q-3 -32 -9 -68q-7 -36 -14 -65q-8 -29 -16 -54
q-10 -29 -25 -50q-13 -20 -27 -36q-17 -19 -29 -26q-9 -5 -20 -10q-10 -5 -16 -7q-8 -3 -18 -6q-11 -4 -28 -6q-17 -1 -36 0q-19 2 -30 4q-13 3 -26 9q-8 4 -19 10q-13 7 -32 23q-18 15 -32 33q-13 15 -27 34q-18 22 -27 41q-6 15 -13 29q-8 17 -11.5 27.5t-8.5 31.5
q-5 23 -6 52q-1 26 -1 50q0 25 3 54q2 28 5 57q2 29 3.5 57.5t2.5 59.5q1 32 1 46v16q0 16 12.5 28t29 12z" />
    <glyph glyph-name="uring" unicode="&#x16f;" horiz-adv-x="509" 
d="M231 591q-1 -4 -2 -6q0 -2 -1 -3l2 -1q3 -2 6 -3h5h5q2 4 3 8q-2 1 -2 2q-2 1 -4 1q-6 1 -10 2h-2zM297 514q-14 -10 -28 -14q-13 -4 -29 -3q-16 0 -30 4q-12 4 -22 10.5t-22 17.5q-23 22 -19 52q1 13 3 23q3 11 11 28q9 19 19 31q11 12 28.5 16t35.5 -4l7 -4q1 -1 2 -1
q2 -1 4 -1q12 -2 24 -7q16 -7 30 -24q13 -16 17 -30q5 -16 1 -35q-3 -13 -9 -27q-7 -19 -23 -32zM429 344q1 -35 2 -71q0 -15 1 -26q0 -17 2 -26q2 -18 6 -50q4 -34 5 -56q2 -20 3 -32q1 -11 2 -17q2 -9 4 -17l1 -7q4 -16 -5.5 -30t-26 -17.5t-30.5 6t-17 26.5l-2 7
q-1 6 -3 14q-2 11 -4 26q-1 14 -3 36q0 14 -3 35q-3 -7 -7 -12q-24 -44 -50 -68q-23 -22 -43 -34q-24 -14 -39 -16q-15 -3 -38 4q-21 6 -44 23q-25 17 -37 34q-11 16 -20 39q-9 22 -13 43q-5 19 -10 63t-6 85q-1 40 -1 56q1 15 2 49v34q1 17 13 28.5t29 11t28.5 -12.5
t10.5 -29l-1 -34q0 -34 -1 -49q0 -14 1 -52q1 -37 6 -77q4 -41 8 -56q3 -15 9 -30t11 -22q4 -6 17 -15q14 -10 21 -12q1 0 3 -1q4 2 9 5q13 8 30 25q16 14 35 48q21 36 36 76q4 11 8 20q9 27 13 46q5 20 7 33q-1 37 2 65q0 3 1 8.5t6 17.5t11.5 18.5t19 6.5t28.5 -12
q12 -9 17.5 -17t5.5 -14t-1 -10.5t-3.5 -7.5l-2.5 -3q-1 -34 -3 -53v-3z" />
    <glyph glyph-name="Zcaron" unicode="&#x17d;" horiz-adv-x="703" 
d="M234.5 794.5q12.5 10.5 29.5 9t28 -14.5l13 -16q12 -15 26 -30q12 -13 20 -22q11 11 25 22q19 16 32 26t22 18l3 3l3 5q7 15 23 20t31 -2t20 -23.5t-2 -30.5l-3 -7q-7 -13 -23 -27q-10 -8 -23 -19q-13 -10 -31 -25q-16 -13 -25 -24q-8 -9 -12 -13q36 -2 60 -4
q29 -2 48 -5q20 -3 42 -8q45 -11 51 -47q2 -15 -3.5 -28.5t-9 -17.5t-13.5 -14q-16 -16 -49 -53q-35 -39 -71 -78q-37 -41 -67 -74q-29 -32 -51 -59q-23 -29 -39 -49q-15 -19 -31 -41q-16 -21 -28 -41q-11 -19 -17 -33l-2 -3q4 0 6 1q62 10 107 14q43 3 76 6q36 2 63 0
q24 -2 47 -5q22 -3 31 -5q9 -1 25 -3q17 -2 25 -3q7 0 13 -1h8q16 -1 27.5 -13.5t10.5 -29t-13.5 -28t-28.5 -10.5h-8q-9 1 -19 2l-24 3q-18 2 -28 3q-8 2 -30 4q-21 3 -43 5q-20 2 -50 0q-33 -3 -76 -6q-41 -4 -99 -13q-10 -2 -26.5 -5.5t-23.5 -4.5t-18.5 0t-22.5 6
q-18 8 -25 29t1 35q3 9 9 23q6 13 13 31q9 20 23 44q14 22 31 46q17 23 34 43q16 21 39 50q24 29 54 63q30 32 66.5 72.5t70.5 78.5q18 19 31 34q-17 2 -43 4q-28 3 -72 5t-106 0q-62 -3 -98 -7q-38 -4 -54 -6l-16 -1q-16 -2 -29.5 8.5t-15.5 27t9 29.5t27 15l16 2
q16 2 54 6q39 4 104 7q25 1 48 1l-17 17q-9 10 -23 26q-15 16 -29 33l-13 15q-10 13 -8.5 30t14 27.5z" />
    <glyph glyph-name="zcaron" unicode="&#x17e;" horiz-adv-x="577" 
d="M168.5 667q13.5 10 30 7.5t26.5 -15.5l8 -10q7 -9 12 -16q7 -7 24 -27q13 -14 22 -24l2 2q12 13 34 37q24 27 42 43l16 14q12 11 29 10t28 -13.5t10 -29.5t-14 -28l-15 -14q-14 -13 -36 -36q-22 -25 -35 -38q-13 -15 -24 -24q-7 -6 -17 -10.5t-24.5 -4t-26.5 9.5
q-8 7 -21 20t-31 33q-16 19 -24 27q-7 9 -16 20l-8 11q-10 13 -7.5 29.5t16 26.5zM54 448q4 16 18 25t30 6l30 -7q25 -6 68 -7q46 -1 93.5 -1h81.5q29 -1 39 0q21 2 32 -9t11.5 -26t-1 -27t-3.5 -16q-13 -19 -37 -46q-22 -24 -50 -56q-28 -33 -51 -60q-23 -28 -45 -52
t-34 -36q-11 -12 -28 -28q-3 -4 -6 -7l22 2q49 3 94 5q48 3 79 -1q30 -4 42 -7q10 -2 25 -6l16 -3l7 -1q16 -1 27 -14t10 -29.5t-14 -27.5t-30 -10l-6 1q-10 1 -29 5q-16 4 -26 7q-7 1 -32 5q-24 3 -65 0q-44 -2 -92 -5q-51 -4 -84 -2h-5t-12 0.5t-16 2.5t-16.5 6t-12.5 11
t-6 17.5t4 25.5q5 14 18 28q8 10 21 23t29.5 30t27.5 29q11 11 32 34t44 49q22 27 51 61q22 25 40 46h-52q-48 0 -95 1q-51 1 -84 9l-29 7q-17 3 -26 17.5t-5 30.5z" />
    <glyph glyph-name="Delta" unicode="&#x394;" horiz-adv-x="690" 
d="M156 79h22h80q50 0 86 -1q35 -1 64 -2q29 -2 54 -4q24 -3 62 -9q9 -1 18 -3q-4 15 -11 36q-11 34 -21 70q-11 38 -27 92q-15 53 -34 110q-20 58 -39 117q-12 36 -20 57q-10 -25 -21 -47q-13 -28 -43 -80q-29 -49 -57.5 -103t-63.5 -127q-31 -64 -49 -106zM636 14
q3 -21 -3.5 -33t-18 -14.5t-23.5 -1.5t-21 4l-8 2q-16 7 -49 12q-38 5 -61 8q-22 3 -48 4q-27 1 -62 2t-84 1h-81t-38 1q-9 0 -18 1q-3 0 -8 -1l-10 -2q-7 -1 -13 0q-8 1 -13 3q-15 7 -21 22.5t0 30.5l20 46q20 46 56 121t65.5 130t58.5 106q28 49 40 73q12 26 24 57
q13 34 18 44q5 12 10 22q9 19 21.5 24.5t23.5 0t21 -14t16 -16.5l5 -7q11 -22 21 -44q11 -24 30.5 -84t38.5 -117q20 -58 36 -114q16 -54 26 -91q10 -36 21 -69q12 -35 16 -54q3 -16 6 -29q4 -13 6 -23z" />
    <glyph glyph-name="quoteleft" unicode="&#x2018;" horiz-adv-x="290" 
d="M180 548q7 -4 11 -8q13 -12 24 -37q12 -31 5 -53q-7 -19 -24 -33q-14 -12 -29 -17q-19 -7 -38 -2q-21 4 -36 22q-12 13 -18 34q-11 6 -17.5 17.5t-4.5 24.5q4 23 26 31q1 2 1 3q5 11 15 31q10 19 20 35q10 18 24 37q11 14 16 24l7 11q8 14 24.5 18.5t31 -4t18.5 -25
t-4 -30.5l-7 -11q-8 -14 -21 -32q-11 -14 -19 -28q-2 -4 -5 -8z" />
    <glyph glyph-name="quoteright" unicode="&#x2019;" horiz-adv-x="288" 
d="M99 462q-20 12 -31 31q-12 21 -14 42q-2 20 1 33t18 36q16 25 35 37q13 9 30 16q18 7 31 9q16 3 31 -4.5t23 -19.5q11 -17 12 -41q1 -14 1 -26t-1 -25q-1 -16 -4 -26q-3 -13 -15 -33q-10 -18 -26 -39q-12 -17 -22 -33q-9 -15 -13 -24l-4 -9q-7 -15 -23 -21t-31 1t-21 23
t1 31l5 10q5 11 17 30v2z" />
    <glyph glyph-name="quotedblleft" unicode="&#x201c;" horiz-adv-x="445" 
d="M255 369q-16 4 -24 18q-8 13 -6 27q0 4 -1 7q-3 15 -3 35q0 21 5 41q5 19 9 30q5 11 14 29q10 17 22 32q10 14 16 21q9 11 23 22l10 8q13 10 30 8t27 -15t8 -30t-15 -27l-10 -8q-7 -5 -10 -9q-6 -7 -15 -19q-8 -10 -15 -23l-4 -8q19 -2 41 -17q28 -19 34 -48
q6 -27 -6 -50q-12 -25 -34 -33q-12 -6 -30 -7q-19 -2 -43 5q-12 4 -23 11zM145 526q10 -1 19 -4q36 -14 38 -47v-19t-1 -21q-1 -15 -13 -41l-2.5 -7.5t-5 -11.5t-8 -10.5t-13.5 -10t-19 -4.5q-18 -2 -36 7q-16 9 -32 34q-14 24 -17 44q-1 13 -2 30q0 17 1 34q2 18 11 44
t24 52q15 24 28 40q12 14 23 26l10 11q11 13 28 13.5t29.5 -11t13 -28.5t-11.5 -29l-10 -11q-9 -10 -20 -23q-9 -11 -20 -30q-8 -13 -14 -27z" />
    <glyph glyph-name="quotedblright" unicode="&#x201d;" horiz-adv-x="455" 
d="M402 537q2 -19 -6 -41q-6 -18 -15 -32q-8 -15 -29 -37q-18 -18 -39 -37q-11 -10 -15 -15l-5 -13q-7 -15 -22.5 -21t-30.5 0.5t-21.5 22t0.5 31.5l5 12q9 21 36 44q15 13 28 27q-14 -1 -32 2q-19 4 -30 12q-9 -18 -21 -33q-16 -19 -41 -35q-20 -13 -35 -22l-15 -9
q-14 -8 -30.5 -4t-25 18.5t-4.5 31t19 24.5l14 9q14 8 34 20q8 6 15 12q-6 2 -13 4q-25 11 -34 32q-8 17 -4 45q5 29 20 44q13 14 41 23q2 0 7 2t7 2.5t7 1.5t8.5 1h8.5t10 -2q23 -6 38 -32q4 -8 7 -17q23 26 53 20q13 -2 33 -10q21 -8 37 -20t25 -26q12 -16 15 -35z" />
  </font>
</defs>
</svg>
