<?xml version="1.0" standalone="no"?>
<!DOCTYPE svg PUBLIC "-//W3C//DTD SVG 1.1//EN" "http://www.w3.org/Graphics/SVG/1.1/DTD/svg11.dtd" >
<!--
2014-8-25: Created with FontForge (http://fontforge.org)
-->
<svg xmlns="http://www.w3.org/2000/svg" xmlns:xlink="http://www.w3.org/1999/xlink" version="1.1">
<metadata>
Created by FontForge 20140619 at Mon Aug 25 05:35:44 2014

Copyright (c) 2014, Aydi Rainkarnichi @aydiriku. 100% Free. Note: "Amburegul emeseyu bahrelway bahrelway..." :P
</metadata>
<defs>
<font id="Amburegul" horiz-adv-x="250" >
  <font-face 
    font-family="Amburegul"
    font-weight="400"
    font-stretch="normal"
    units-per-em="1000"
    panose-1="2 0 5 3 0 0 0 0 0 0"
    ascent="800"
    descent="-200"
    x-height="443"
    cap-height="775"
    bbox="-499 -1003 1716 1483"
    underline-thickness="50"
    underline-position="-100"
    unicode-range="U+0020-00A0"
  />
    <missing-glyph />
    <glyph glyph-name="comma" unicode="," 
d="M151 196c3 -39 14 -77 26 -114c5 -20 7 -39 7 -58c0 -23 -4 -45 -13 -68c-11 -29 -34 -48 -58 -67c-5 -3 -9 -6 -13 -9l-146 15c4 2 8 5 12 8c22 17 47 32 58 59c9 20 13 41 13 62c0 18 -2 35 -7 53c-12 39 -23 78 -26 119h147z" />
    <glyph glyph-name="hyphen" unicode="-" horiz-adv-x="631" 
d="M479 473l130 -60c-264 -36 -264 -62 -423 -119l-203 66c238 73 284 95 496 113z" />
    <glyph glyph-name="period" unicode="." 
d="M-1 182h147l13 -89c3 -24 7 -47 10 -71h-147c-3 24 -7 47 -10 71z" />
    <glyph glyph-name="zero" unicode="0" horiz-adv-x="592" 
d="M465 871c17 -10 34 -20 46 -35c28 -33 33 -55 34 -97c1 -79 1 -158 1 -237c-1 -149 4 -309 -69 -397c-35 -40 -69 -69 -121 -85c-39 -11 -46 -13 -63 -13c-11 0 -27 1 -63 1c-19 0 -43 0 -74 -1h-7c-65 0 -139 15 -154 70c-4 22 -5 45 -5 68v55v24c0 58 0 116 7 174
c11 82 31 162 60 239c21 67 45 135 87 193l58 -6c5 3 9 6 14 10c5 5 10 11 16 15c15 10 36 6 52 15c7 2 28 9 35 10c30 7 55 9 73 9c26 0 40 -4 40 -4zM365 823c-1 0 -2 -1 -3 -2c-28 -24 -65 -42 -87 -53l-16 2c-25 -43 -40 -91 -55 -137c-28 -77 -49 -156 -60 -237
c-7 -57 -7 -115 -7 -172c1 -9 1 -17 1 -26c0 -19 -1 -39 -1 -58c0 -20 1 -40 5 -60c9 -27 37 -36 63 -42c52 12 91 41 126 78c34 39 47 89 56 139c11 82 11 164 11 247c0 40 1 79 1 118c0 40 -1 80 -1 119c-2 39 0 60 -33 84z" />
    <glyph glyph-name="one" unicode="1" horiz-adv-x="334" 
d="M94 1019c50 -4 101 -12 152 -17c8 -53 9 -106 9 -159v-80v-89v-89c0 -59 -1 -119 -2 -178c-1 -34 -1 -68 -1 -102c0 -46 0 -93 1 -139c0 -55 6 -109 9 -164l-147 -1c-3 55 -9 109 -9 164c-1 47 -1 94 -1 140c0 34 0 68 1 102c2 59 2 119 2 178v89v89v35
c-12 -24 -24 -48 -32 -73l-148 5c21 62 54 117 86 173c21 31 36 66 58 95c1 1 16 21 22 21zM231 999c-3 -1 -5 -3 -7 -5h15c3 0 -5 6 -8 5z" />
    <glyph glyph-name="two" unicode="2" horiz-adv-x="660" 
d="M532 -12c29 -6 95 -16 111 -27h-162c-34 0 -69 0 -104 6c-53 9 -106 22 -160 33c-28 5 -58 11 -86 16c-31 5 -69 6 -98 23c-8 4 -18 14 -15 27c1 6 15 12 17 13c14 10 25 25 35 40c35 50 66 103 95 158c40 74 75 152 87 239c0 9 1 18 1 27c0 56 -8 111 -21 165
c-8 37 -14 77 -48 91c-7 -2 -14 -5 -21 -9c-32 -28 -29 -66 -33 -108c0 -45 5 -93 23 -135l-146 -11c-16 44 -24 91 -24 139v8c3 46 4 85 33 121c24 22 54 24 83 26h44h130c18 0 33 -1 51 -8c40 -18 47 -68 55 -110c14 -54 21 -111 21 -167c0 -10 -1 -20 -1 -30
c-11 -90 -47 -170 -87 -247c-29 -55 -60 -109 -95 -160c-12 -20 -27 -36 -44 -50c63 -13 126 -23 190 -35c54 -9 116 -24 169 -35z" />
    <glyph glyph-name="three" unicode="3" horiz-adv-x="684" 
d="M361 785c24 -18 44 -42 61 -69c15 -27 20 -57 23 -88c1 -21 3 -42 3 -61c0 -40 -6 -75 -28 -99c-9 -8 -19 -15 -29 -21h3c52 -10 97 -44 141 -76c36 -29 75 -55 104 -93c19 -28 21 -61 23 -95v-11c0 -12 1 -24 1 -36c0 -13 -2 -26 -6 -38c-2 -5 -5 -9 -8 -14
c-40 -41 -96 -45 -147 -52c-81 -6 -162 -6 -243 -7c-12 1 -24 1 -36 1c-29 0 -59 -2 -90 -2c-29 0 -58 2 -85 8c-38 8 -74 25 -109 43c-25 15 -50 32 -73 51l147 16c43 -34 94 -64 152 -80c21 -5 51 -8 65 -10c42 1 84 2 126 5c50 5 102 8 146 37c3 3 6 5 8 9c5 9 6 19 6 30
c0 14 -2 29 -2 42v7c-1 31 -3 60 -22 84c-30 35 -68 60 -103 88c-43 30 -88 64 -140 67c-9 1 -43 2 -43 15c0 4 3 10 11 17c10 4 21 7 31 13c14 9 3 6 26 16c19 14 24 33 25 58v42c0 48 -3 90 -24 124c-21 30 -43 52 -76 67c-2 -2 -5 -4 -7 -7c-19 -33 -27 -71 -37 -109
l-147 6c10 38 19 77 37 112c18 29 44 37 74 41c47 1 80 4 110 4c43 0 78 -6 132 -35z" />
    <glyph glyph-name="four" unicode="4" horiz-adv-x="584" 
d="M481 340c10 -2 21 -4 31 -6l46 -5l-78 -13v-248v-72h-147v320c-83 15 -165 34 -244 66c-24 10 -84 26 -94 57c-2 5 -2 10 -2 16c1 3 2 8 5 11c14 19 30 16 53 42c23 38 47 75 70 113c37 53 71 107 104 163c25 43 54 86 71 134l147 -8c-18 -48 -46 -91 -71 -135
c-33 -57 -67 -112 -104 -165c-25 -37 -47 -75 -70 -112c-28 -31 -33 -41 -51 -60c29 -20 56 -23 88 -36c32 -12 65 -23 99 -32c1 91 -1 177 9 264l147 -4c-8 -70 -9 -139 -9 -211v-79z" />
    <glyph glyph-name="five" unicode="5" horiz-adv-x="559" 
d="M341 966l146 -12c-41 -33 -83 -64 -123 -99c-55 -47 -112 -93 -170 -137c-15 -11 -32 -19 -49 -27h-1c3 -75 22 -145 32 -218c15 7 30 13 45 19c43 14 122 35 183 35c33 0 62 -6 76 -23c4 -5 7 -12 10 -17c11 -37 14 -76 14 -115c0 -25 -1 -51 -3 -77
c-10 -66 -39 -128 -83 -181c-26 -31 -43 -43 -73 -70c-37 -32 -81 -54 -125 -76c-55 -14 -100 -22 -136 -22h-70h-6c-30 0 -46 20 -61 45l-5 13l147 6l5 -11c1 -2 3 -3 4 -5c67 34 126 75 173 128c44 50 73 110 83 174c2 21 2 43 2 64c0 18 0 35 -1 53c-1 17 -2 40 -8 55
c-53 -21 -103 -45 -156 -66l-64 8l-91 -1c-2 25 -5 51 -9 76c-10 64 -25 128 -29 193c-1 12 -1 25 -1 37c0 29 2 57 7 85l129 -2c69 55 134 117 208 168z" />
    <glyph glyph-name="six" unicode="6" horiz-adv-x="554" 
d="M296 447c-46 -4 -89 -15 -133 -26l-14 2c-7 -47 -18 -100 -18 -153c0 -18 1 -36 4 -53c11 -41 34 -80 63 -114c27 -30 65 -51 105 -68l1 -1c18 11 29 29 41 49c22 32 28 68 31 105c2 31 2 61 2 92v61v9c0 12 1 27 1 42c0 16 -2 30 -11 39c-14 12 -41 13 -72 16zM320 846
c29 0 45 -1 74 -2l36 -3c18 -12 37 -24 56 -34l-146 -12c-8 5 -17 10 -25 15c-27 -17 -47 -40 -65 -64c-43 -64 -65 -138 -84 -223c-3 -19 -6 -38 -10 -57c7 1 14 1 21 2h191c45 0 95 0 134 -20c4 -4 10 -7 12 -12c10 -22 11 -48 11 -73v-22c0 -19 1 -37 1 -56
c0 -33 -1 -66 -3 -98c-3 -38 -9 -76 -31 -110c-21 -34 -36 -64 -87 -74c-37 0 -74 -2 -111 -2c-47 0 -93 4 -138 21c-40 19 -78 41 -105 74c-29 36 -53 76 -63 119c-3 17 -4 35 -4 52c0 31 4 61 8 91c8 56 18 112 27 167c28 127 66 248 166 308c6 2 12 8 19 8
c33 2 75 5 116 5z" />
    <glyph glyph-name="seven" unicode="7" horiz-adv-x="673" 
d="M268 973c-36 -1 -67 -3 -95 -24c-27 -22 -40 -43 -50 -76l-147 7c10 31 26 58 50 81c25 22 55 30 88 34c45 1 89 2 134 2c130 0 225 -2 356 -2c3 -2 2 -3 2 -5c0 -61 -10 -120 -21 -180c-22 -115 -7 -46 -37 -171c-45 -187 -100 -371 -146 -557
c-20 -76 -36 -153 -54 -230l-147 3c18 77 34 154 54 231c46 186 101 370 146 557c30 127 14 52 36 170c10 53 20 106 22 160h-128h-63z" />
    <glyph glyph-name="eight" unicode="8" horiz-adv-x="682" 
d="M340 517c-36 -31 -69 -66 -103 -99c-16 -18 -36 -32 -51 -50c-13 -16 -23 -34 -34 -51c-23 -32 -29 -69 -33 -107c-1 -16 -2 -32 -2 -48c0 -19 2 -38 7 -56c12 -29 36 -47 62 -63c29 -15 62 -18 95 -20c32 3 54 15 77 35c18 16 33 32 40 55c5 33 6 66 6 99v28
c1 11 1 21 1 32c0 36 -4 72 -10 108l-64 5c17 15 33 29 50 45c-11 31 -24 62 -41 87zM424 882c-13 -2 -26 -7 -34 -20c-7 -17 -8 -34 -8 -52v-18v-12c0 -23 0 -46 4 -69c4 -25 14 -47 26 -69c16 -38 37 -74 59 -108c19 31 34 63 39 99c0 23 1 45 1 67c0 27 -1 54 -7 79
c-12 41 -39 91 -80 103zM541 906c30 -6 52 -28 68 -52c15 -22 26 -46 32 -72c6 -29 7 -59 7 -91v-58c-10 -87 -72 -159 -126 -210c14 -44 21 -101 21 -154c0 -10 -1 -20 -1 -29c0 -43 0 -87 -6 -131c-7 -28 -20 -44 -41 -63c-22 -18 -43 -37 -72 -42c-35 -4 -70 -6 -105 -6
c-53 0 -106 3 -159 4c-38 3 -77 7 -110 28c-27 19 -51 41 -62 73c-6 20 -7 40 -7 60c0 16 1 32 2 48c4 40 10 79 32 114c12 17 22 36 35 53c15 19 35 33 51 51c36 34 70 70 107 103l131 -11c-24 36 -47 74 -64 116c-14 22 -22 46 -26 72c-4 23 -4 47 -4 71v16
c0 24 1 47 8 71c12 27 37 34 65 38c31 2 63 3 95 3c43 0 86 -1 129 -2z" />
    <glyph glyph-name="nine" unicode="9" horiz-adv-x="680" 
d="M370 836c-18 -13 -37 -26 -55 -38c-54 -39 -113 -71 -161 -120c-14 -18 -20 -40 -20 -63c0 -6 0 -11 1 -17c5 -33 22 -58 41 -83c25 -25 55 -44 87 -58c5 -2 11 -4 17 -6c45 19 74 64 93 109c14 32 22 66 31 101l19 -1c-1 1 -1 2 -1 3c-20 57 -38 111 -52 173zM358 934
l128 -17l-9 -6h7c8 -40 16 -80 27 -119c11 -42 25 -83 40 -123c12 -42 25 -81 43 -120c18 -35 24 -74 36 -111c19 -54 20 -115 20 -184v-47s0 -31 -1 -47c-7 -38 -31 -62 -58 -82c-32 -22 -70 -30 -106 -40c-51 -12 -102 -14 -153 -14c-32 0 -63 1 -95 1
c-29 4 -47 17 -67 39c-15 18 -26 40 -38 61l129 9c11 -20 22 -41 37 -58c11 -10 23 -18 36 -22c9 1 17 2 23 4c36 9 73 17 106 35c25 16 49 35 57 69c1 15 1 30 1 46v46c0 68 -2 126 -20 179c-7 25 -13 50 -21 74c-13 -21 -28 -39 -48 -57c-11 -10 -14 -13 -27 -20
c-26 -12 -54 -16 -82 -16c-37 0 -74 6 -109 6c-27 2 -54 7 -79 20c-32 16 -64 36 -88 65c-19 27 -36 56 -41 91c-1 6 -1 13 -1 19c0 27 7 52 21 75c46 52 107 83 161 123c57 39 115 78 171 121z" />
    <glyph glyph-name="colon" unicode=":" 
d="M-1 182h147l13 -89c3 -24 7 -47 10 -71h-147c-3 24 -7 47 -10 71zM-1 651h147l13 -89c3 -23 7 -47 10 -70h-147c-3 23 -7 47 -10 70z" />
    <glyph glyph-name="semicolon" unicode=";" 
d="M22 196h147c3 -39 14 -77 26 -114c5 -20 7 -39 7 -58c0 -22 -4 -44 -13 -68c-11 -29 -34 -48 -58 -67l-13 -9l-146 15c4 2 8 5 12 8c22 17 47 32 58 59c9 20 13 41 13 62c0 18 -2 35 -7 53c-12 39 -23 78 -26 119zM-1 651h147l13 -89c3 -23 7 -47 10 -70h-147
c-3 23 -7 47 -10 70z" />
    <glyph glyph-name="A" unicode="A" horiz-adv-x="715" 
d="M350 704c-36 -133 -74 -264 -116 -395c87 27 106 33 169 65c-26 101 -44 204 -52 308c-1 7 -1 14 -1 22zM320 1068l147 -6c-19 -49 -36 -99 -52 -149h80c0 -77 0 -154 3 -231c8 -97 24 -194 47 -289l63 -7c-18 -8 -36 -17 -54 -26c24 -93 45 -148 75 -234
c34 -93 82 -179 138 -259c9 -12 46 -60 57 -73l-147 -10c-80 103 -151 213 -194 337c-27 76 -40 106 -62 183c-78 -26 -133 -43 -210 -62c-25 -70 -54 -137 -85 -204l-12 -25l-147 7l12 24c24 53 49 105 69 161c-14 -3 -29 -6 -44 -9l-146 20c70 15 141 29 210 46
c7 19 14 39 21 59c51 152 92 307 134 461c32 96 61 192 97 286z" />
    <glyph glyph-name="B" unicode="B" horiz-adv-x="721" 
d="M104 962c1 -86 6 -171 18 -256c6 -44 15 -89 24 -131c30 42 67 86 82 137c8 31 9 58 9 88v19c-1 31 0 64 -11 95c-12 27 -31 50 -56 65c-23 -6 -44 -11 -66 -17zM-152 937c35 17 72 31 109 43c0 28 0 56 1 84h147c-1 -16 -1 -32 -1 -48c29 5 58 8 87 8
c37 0 73 -5 108 -18c36 -21 60 -48 74 -87c10 -32 10 -66 11 -100v-22c0 -30 -2 -59 -9 -88c-12 -44 -38 -81 -64 -118c-18 -25 -36 -50 -56 -73c7 0 17 -1 25 -1c19 -5 39 -7 59 -7c45 0 90 9 136 9c6 0 13 -1 20 -1c12 -1 15 -3 27 -7c32 -20 61 -45 86 -73
c19 -25 34 -51 49 -78c12 -25 17 -52 19 -78c1 -17 2 -34 2 -51c0 -13 -1 -26 -3 -38c-11 -38 -43 -63 -70 -89c-35 -31 -69 -63 -105 -93c-40 -34 -89 -55 -136 -76c-49 -20 -100 -33 -147 -55c-33 -16 -65 -32 -97 -48c-24 -13 -45 -30 -65 -48c-18 -18 -36 -37 -57 -52
l-146 16c22 12 40 30 57 48c20 19 40 38 65 52c32 16 64 32 96 49c47 24 98 37 148 55c47 20 95 40 135 72c37 29 70 62 105 93c26 23 57 45 70 79c2 10 3 21 3 31c0 18 -2 35 -2 53c-2 25 -7 50 -19 72c-14 26 -29 52 -49 75c-25 25 -49 51 -83 64l-15 2l-43 -4l-19 -1
c-26 -2 -42 -2 -66 -15c-3 -2 -30 -19 -32 -19c-11 -1 -21 -1 -31 -1c33 -150 72 -298 109 -447l-147 -3c-49 195 -101 390 -139 588c-7 38 -15 75 -20 113c-10 73 -15 147 -17 220z" />
    <glyph glyph-name="C" unicode="C" horiz-adv-x="712" 
d="M311 1046c50 -15 116 -106 148 -146l-146 -10c-15 16 -42 54 -70 85c-17 -33 -25 -69 -34 -105c-23 -107 -40 -215 -50 -324c-7 -116 -8 -233 -8 -350v-23c0 -23 -1 -47 -1 -71c0 -36 2 -71 12 -106c11 -25 28 -44 49 -59c21 9 37 20 65 36c98 60 190 130 282 197
l147 -13c-93 -68 -185 -138 -283 -199c-18 -11 -35 -23 -53 -32c-49 -27 -109 -43 -167 -43c-40 0 -79 8 -114 25c-33 20 -59 47 -73 84c-10 38 -12 77 -12 117c0 24 1 48 1 72v15c0 117 1 234 8 351c10 110 27 218 50 326c12 51 24 110 60 151c6 6 12 16 21 17
c32 4 63 4 95 4z" />
    <glyph glyph-name="D" unicode="D" horiz-adv-x="715" 
d="M137 845c6 -74 16 -148 25 -223c27 -213 90 -436 164 -622c68 109 130 223 171 346c6 22 13 44 18 66c10 46 14 92 14 138c0 35 -3 71 -7 106c-9 64 -26 127 -75 174c-28 25 -60 47 -97 56h-1c-72 -7 -147 -22 -212 -41zM-14 947h147c0 -16 1 -33 1 -49c32 5 63 9 94 12
c34 2 68 3 102 3c49 0 97 -1 146 -2c47 -8 84 -37 118 -69c48 -51 65 -116 76 -184c4 -35 6 -70 6 -105c0 -48 -4 -96 -14 -143c-5 -23 -12 -45 -18 -68c-47 -146 -125 -278 -208 -406c-45 -67 -92 -134 -150 -190c-39 -37 -85 -62 -135 -62c-34 0 -69 11 -106 36
c-29 23 -55 50 -82 74l147 12c13 -12 27 -25 40 -38c68 67 122 147 173 229l-143 -5c-74 188 -137 413 -165 629c-8 61 -16 123 -22 185l-134 16c43 15 86 28 130 41c-2 28 -3 56 -3 84z" />
    <glyph glyph-name="E" unicode="E" horiz-adv-x="829" 
d="M8 922h147v-61c29 -3 58 -7 87 -10c109 -17 154 -30 264 -37c54 -7 109 -16 157 -42c39 -22 70 -55 97 -88l-161 -8c-5 20 -51 40 -80 70c-49 23 -103 31 -156 37c-91 6 -118 17 -208 29v-181c0 -34 1 -67 1 -101c0 -48 -1 -96 -2 -143c27 13 55 24 83 33
c49 16 76 20 126 31l146 -21c-47 -9 -81 -14 -126 -27c-56 -17 -108 -44 -160 -70c-24 -14 -47 -29 -70 -44c-2 -73 -3 -146 -3 -219v-44c0 -81 5 -161 20 -242c34 -17 72 -25 120 -32c6 -1 12 -1 18 0c10 1 19 2 29 2h49c97 9 191 27 285 48c79 20 158 41 235 69
c31 11 58 21 86 39c9 6 17 13 25 20c6 7 11 14 17 21l146 -9c-5 -8 -11 -16 -16 -25c-9 -7 -17 -16 -26 -22c-28 -20 -53 -30 -86 -42c-77 -29 -156 -50 -235 -71c-85 -19 -104 -26 -191 -38c-95 -14 -192 -21 -290 -21c-64 0 -128 3 -191 8c-37 7 -70 14 -100 28
c-7 1 -15 6 -20 16c-19 92 -23 181 -23 275c0 47 1 96 2 146l-103 7c29 39 65 71 105 99c1 78 3 155 3 233c0 32 0 64 -1 96v200c-7 1 -93 19 -100 20c-19 6 -35 17 -36 26c8 0 129 -5 136 -5v50z" />
    <glyph glyph-name="F" unicode="F" horiz-adv-x="733" 
d="M5 406l-103 7c29 39 66 71 105 99c2 90 3 179 3 269v60v200c-8 1 -94 19 -101 20c-18 6 -34 17 -35 26c7 0 128 -5 136 -5v50h146v-61c29 -3 58 -7 87 -10c109 -17 155 -30 265 -37c53 -7 109 -16 157 -42c39 -22 69 -55 97 -88l-162 -8c-5 20 -51 40 -80 70
c-49 23 -103 31 -156 37c-91 6 -117 17 -208 29v-181c1 -34 1 -69 1 -103c0 -47 0 -94 -1 -141c26 13 54 24 82 33c49 16 76 20 126 31l146 -21c-46 -9 -81 -14 -126 -27c-56 -17 -108 -44 -160 -70c-23 -14 -47 -29 -70 -44c-1 -73 -3 -146 -3 -219v-39
c0 -85 6 -171 22 -255l-147 -1c-19 95 -22 186 -22 284c0 44 0 90 1 137z" />
    <glyph glyph-name="G" unicode="G" horiz-adv-x="790" 
d="M522 -1c-28 -18 -57 -34 -87 -49c-50 -19 -77 -24 -113 -24c-30 0 -65 3 -125 5c-24 1 -48 14 -67 25c-63 52 -98 121 -126 196c-6 19 -13 38 -18 57c-18 71 -25 144 -25 217c0 41 2 81 6 122c10 89 24 180 75 256c7 9 13 19 20 27c36 42 88 69 138 91
c45 15 77 19 114 19c31 0 65 -3 113 -5c17 -1 33 -14 44 -26l-127 -8c-49 -19 -99 -44 -135 -82c-64 -70 -84 -177 -95 -274c-4 -40 -6 -80 -6 -120c0 -72 7 -144 25 -214c5 -19 12 -37 18 -56c25 -61 53 -127 105 -172c8 -7 17 -13 27 -18c2 1 4 2 6 2
c84 37 162 93 227 154c-3 94 -5 188 -20 280c-5 26 -8 51 -17 76c-19 -13 -37 -26 -54 -41l-146 12c38 35 83 63 129 87c32 12 77 24 118 24c32 0 62 -8 79 -31c26 -34 31 -84 38 -124c8 -51 12 -103 15 -155l100 -4c-21 -52 -54 -96 -94 -135c2 -60 6 -132 10 -192
c3 -86 10 -172 28 -256l-147 -3c-24 112 -26 219 -33 339z" />
    <glyph glyph-name="H" unicode="H" horiz-adv-x="754" 
d="M376 524v100c-1 108 0 216 -9 324l147 3c7 -89 8 -178 8 -268v-59c1 -26 1 -51 2 -77c20 3 41 6 62 9l146 -21c-70 -9 -139 -19 -208 -31c0 -51 -1 -102 -1 -154c0 -92 2 -184 11 -276c4 -33 10 -66 14 -99c23 -116 45 -236 103 -341l-147 -7c-57 107 -81 228 -103 346
c-5 33 -10 67 -14 100c-10 102 -11 206 -11 308v95c-84 -17 -168 -37 -249 -64c7 -78 15 -155 26 -232l7 -38l-147 -3l-7 39c-9 64 -16 128 -22 192l-115 12c36 18 72 33 109 46c-5 65 -10 130 -15 194c-6 125 -2 46 -7 162c0 21 -3 83 -3 108c0 20 2 36 4 56l147 -2
c-2 -19 -4 -35 -4 -54c0 -24 3 -88 4 -108c3 -87 5 -151 18 -313c84 21 167 38 254 53z" />
    <glyph glyph-name="I" unicode="I" horiz-adv-x="214" 
d="M150 775v-230v-43c0 -129 8 -256 23 -384c9 -69 5 -36 14 -98l-169 -2c-9 62 -5 29 -14 98c-15 129 -23 257 -23 386v43v230h169z" />
    <glyph glyph-name="J" unicode="J" horiz-adv-x="718" 
d="M576 986c33 -85 44 -177 56 -267c16 -123 24 -248 28 -373c1 -26 2 -51 2 -77c0 -36 -2 -71 -11 -106c-3 -10 -6 -20 -9 -29c-23 -70 -84 -108 -144 -143c-55 -28 -110 -60 -171 -72c-56 2 -112 0 -168 5c-9 1 -16 8 -23 13c-41 30 -64 75 -87 118c-22 45 -35 93 -45 141
l147 3c10 -47 23 -93 45 -137c19 -35 38 -71 69 -97c30 13 59 26 87 41c57 33 119 66 143 133c3 8 7 17 9 26c9 34 11 68 11 103c0 26 -2 52 -2 78c-4 124 -12 248 -28 371c-12 89 -23 179 -56 263z" />
    <glyph glyph-name="K" unicode="K" horiz-adv-x="725" 
d="M188 246c4 -80 8 -162 10 -245h-148c-1 83 -4 165 -9 245l-41 6c26 7 14 3 37 11c1 0 2 1 3 1c-8 130 -18 260 -34 389c-12 100 -23 201 -23 301h147c0 -100 11 -200 23 -299c11 -90 20 -180 26 -270c19 25 35 51 52 77c-19 42 -36 84 -44 129h123c44 80 86 162 126 244
c22 45 42 90 65 134l147 -7c-23 -44 -43 -89 -65 -134c-62 -126 -127 -252 -201 -368c43 -91 91 -176 146 -259c57 -79 113 -158 182 -227c14 -14 30 -28 44 -41c54 -44 108 -88 171 -117c67 -32 156 -50 245 -57c-1 1 -1 2 -1 2c0 3 8 4 19 4s24 -1 36 -1c5 0 10 0 14 1
c61 9 120 25 178 43l146 -18c-58 -19 -117 -36 -178 -46c-77 -10 -86 -12 -126 -12c-27 0 -67 1 -152 1c-115 1 -243 24 -327 67c-63 31 -118 76 -172 121c-14 14 -30 27 -44 42c-68 70 -125 150 -181 229c-31 47 -61 95 -88 144c-29 -35 -62 -73 -106 -90z" />
    <glyph glyph-name="L" unicode="L" horiz-adv-x="973" 
d="M-89 852h147v-8c0 -68 11 -135 20 -201c16 -110 33 -219 49 -329c17 -119 42 -216 52 -342c28 3 57 2 85 3c99 2 198 2 297 2c14 1 61 5 86 10c17 4 23 7 39 13c38 17 56 21 75 57c10 20 14 42 18 64l147 -3c-4 -23 -8 -46 -18 -68c-20 -39 -36 -69 -76 -91
c-8 -3 -32 -15 -40 -17c-7 -2 -14 -2 -21 -3c-53 -9 -104 -13 -157 -13c-26 0 -53 1 -80 3h-1h-124c-54 -1 -111 0 -163 -17c-11 -5 -14 -6 -23 -15c0 0 -15 -19 -17 -19c-88 -8 -112 -19 -128 -19c-10 0 -16 5 -36 21c-8 17 -8 32 -9 50c-2 31 -5 61 -9 92
c-29 206 -64 412 -93 619c-9 67 -20 134 -20 203v8z" />
    <glyph glyph-name="M" unicode="M" horiz-adv-x="991" 
d="M726 1120c4 1 9 1 13 2c2 0 -3 4 -6 4s-5 -3 -7 -6zM593 1142c30 -3 54 -3 72 -3c27 0 44 1 56 1c24 0 24 -7 41 -50c36 -100 75 -200 101 -304c45 -185 64 -396 73 -596c6 -158 7 -316 7 -474v-43h-147v43c0 385 -1 745 -80 1066c-15 60 -35 119 -56 177
c-13 -45 -24 -90 -35 -135c-34 -159 -70 -317 -107 -475c18 -32 36 -66 52 -100l-147 -7l-24 48l-43 1c4 18 9 36 13 54c-15 26 -31 51 -47 75c-46 66 -90 133 -138 198v-26c1 -15 1 -30 1 -44c0 -72 -8 -144 -22 -215c-18 -64 -35 -129 -57 -193c-5 -18 -15 -33 -28 -48
l-146 11c14 12 22 25 27 42c22 63 39 127 57 191c15 72 23 146 23 220c0 12 -1 24 -1 36v191h91l73 5c40 -50 81 -99 120 -149c30 -40 59 -81 87 -123c25 103 46 207 69 311c20 84 41 169 75 249c4 7 31 66 40 66z" />
    <glyph glyph-name="N" unicode="N" horiz-adv-x="853" 
d="M616 1050h147c0 -27 1 -53 1 -80c0 -37 -1 -75 -2 -113c-4 -61 -5 -123 -5 -184c0 -36 0 -71 1 -107c4 -149 5 -298 5 -450c0 -5 -1 -11 -1 -16c0 -27 4 -52 11 -78c9 -26 5 -13 14 -39h-1c25 -29 53 -55 86 -76l16 -8l-146 -16l-17 9c-83 60 -140 148 -194 237
c-47 75 -88 154 -138 227c-73 111 -152 218 -239 318c-1 -84 -1 -167 -2 -251v-36v-112c0 -27 0 -55 -1 -82l-3 -25l-147 2l3 24c1 27 2 53 2 80c0 41 -1 81 -1 122v27c0 94 0 188 2 281c1 59 1 118 9 176l146 -3c-2 -22 -4 -44 -5 -66l33 2c37 -51 82 -94 122 -142
c84 -96 158 -200 228 -307c27 -40 52 -81 76 -123c-1 109 -2 217 -4 325c-1 40 -2 81 -2 121c0 57 1 114 5 171c1 32 1 64 1 96v96z" />
    <glyph glyph-name="O" unicode="O" horiz-adv-x="976" 
d="M286 865c-27 -31 -60 -55 -85 -88c53 5 106 8 159 8c27 0 54 0 81 -2c86 -2 173 -3 257 -23c44 -13 88 -29 122 -62c25 -25 45 -54 64 -83c23 -41 44 -84 49 -132c2 -20 3 -41 3 -62c0 -34 -2 -69 -4 -103c-7 -65 -23 -132 -66 -178c-38 -41 -91 -62 -144 -76
c-20 -3 -56 -11 -76 -12c-39 -1 -78 -2 -117 -2c-145 0 -285 11 -396 54c-49 23 -92 53 -129 92c-26 30 -51 62 -60 102c-4 22 -5 43 -5 64c0 18 1 37 1 55c1 46 2 92 12 137c12 49 28 97 49 141c-11 -3 -23 -6 -35 -9l-145 19c67 18 139 35 211 48c18 29 38 57 62 80
c15 14 34 25 46 43zM297 761h-2h2zM329 754c-53 -7 -106 -13 -158 -22c-30 -54 -56 -117 -72 -181c-10 -44 -11 -89 -12 -134c0 -18 -1 -36 -1 -54c0 -21 1 -42 5 -62c10 -37 35 -66 60 -94c38 -38 79 -65 128 -87c78 -26 158 -37 246 -43c90 9 158 33 210 93
c35 43 44 97 50 150c2 34 4 67 4 101c0 20 -1 41 -3 61c-5 45 -26 86 -49 125c-19 28 -39 56 -63 79c-68 57 -175 68 -286 72c-20 0 -39 -1 -59 -4z" />
    <glyph glyph-name="P" unicode="P" horiz-adv-x="739" 
d="M335 978c-53 -1 -106 -3 -157 -12c-19 -5 -36 -12 -52 -19c3 -17 7 -34 10 -51c32 -172 58 -330 90 -499c19 15 38 31 56 47c76 69 153 142 196 236c15 37 23 65 23 95c0 22 -4 45 -12 74c-23 63 -67 126 -154 129zM98 1106c5 -24 6 -48 10 -71c2 -10 4 -19 6 -28
c72 2 145 3 218 3c60 0 119 -1 178 -1c100 -1 153 -81 177 -154c8 -30 12 -55 12 -79c0 -33 -7 -64 -23 -103c-42 -97 -120 -173 -197 -244c-61 -56 -127 -105 -198 -148l-33 4c8 -45 17 -89 25 -133c19 -93 39 -184 47 -281l-140 -1l-1 19c-11 87 -28 174 -46 260
c-9 50 -19 100 -28 150l-21 2c6 4 12 7 18 11c-25 134 -51 267 -74 401c-9 49 -28 162 -38 209l-119 11c33 22 68 42 106 55l-9 45c-4 23 -5 47 -10 70z" />
    <glyph glyph-name="Q" unicode="Q" horiz-adv-x="979" 
d="M329 754c-53 -5 -106 -13 -158 -22c-30 -53 -56 -117 -72 -181c-10 -44 -11 -89 -12 -134c0 -18 -1 -36 -1 -54c0 -21 1 -42 5 -62c10 -37 35 -66 60 -95c38 -37 79 -64 128 -86c78 -26 158 -37 246 -43c16 2 30 4 45 7c-11 12 -23 23 -36 34c-30 27 -60 55 -92 79
l147 12c34 -23 65 -55 96 -82c18 12 35 26 50 43c35 43 44 96 50 150c2 34 4 67 4 101c0 20 -1 41 -3 61c-5 45 -26 86 -49 125c-19 28 -38 56 -63 79c-67 57 -175 68 -286 72c-22 0 -40 -2 -59 -4zM140 876l146 -11c-27 -31 -60 -55 -84 -87c55 5 110 8 165 8
c25 0 49 -1 74 -2c86 -2 173 -4 257 -24c44 -13 88 -29 122 -62c25 -25 45 -54 64 -84c23 -40 44 -83 49 -130c2 -21 3 -42 3 -63c0 -34 -2 -69 -4 -103c-7 -65 -23 -133 -66 -178c-34 -36 -80 -57 -127 -71c13 -17 25 -34 37 -52c21 -37 52 -64 87 -87
c17 -11 34 -19 52 -26c3 2 4 3 13 10l146 -14c-15 -12 -7 -6 -23 -19c-30 -17 -63 -23 -97 -23c-48 0 -98 11 -144 15c-34 8 -64 24 -93 43c-35 25 -66 55 -87 92c-11 15 -21 29 -32 43c-27 -1 -53 -1 -80 -1c-142 0 -275 11 -385 54c-49 23 -92 53 -129 92
c-26 30 -51 62 -60 102c-4 22 -5 43 -5 64c0 19 1 37 1 55c1 46 2 92 12 137c12 49 28 97 50 141c-12 -3 -24 -6 -35 -9l-146 20c67 17 140 34 212 47c17 29 37 57 61 80c15 14 34 25 46 43z" />
    <glyph glyph-name="R" unicode="R" horiz-adv-x="928" 
d="M333 1012c-52 0 -105 -2 -157 -11c-18 -5 -36 -12 -52 -20c39 -186 66 -365 101 -549c18 15 37 31 55 47c76 69 153 142 196 236c15 37 23 65 23 95c0 22 -4 45 -12 74c-23 63 -66 125 -154 128zM96 1140c6 -23 6 -47 10 -71c2 -9 4 -18 6 -28c65 3 131 3 197 3
c67 0 133 0 199 -1c100 -1 152 -80 177 -153c8 -30 12 -56 12 -80c0 -32 -8 -63 -23 -102c-44 -101 -127 -182 -208 -255l41 5c38 -12 72 -30 106 -50c50 -26 78 -63 110 -108c38 -53 70 -111 105 -166c36 -57 80 -107 126 -155c31 -30 65 -57 105 -74c18 -9 35 -14 54 -20
c57 -15 116 -18 175 -19c0 1 24 2 33 3c10 2 19 4 28 6l138 -18c-49 -13 -98 -16 -148 -16c-51 0 -102 3 -152 3h-10c-68 2 -138 4 -203 24c-64 23 -112 52 -159 100c-47 50 -91 101 -127 158c-35 56 -67 113 -105 166c-31 44 -59 76 -109 102c-16 9 -32 17 -48 25
c-46 -38 -95 -72 -147 -103l-33 4c8 -45 17 -89 25 -133c18 -87 36 -174 46 -262l2 -19l-140 -2l-2 19c-10 88 -28 175 -46 261c-9 50 -19 100 -28 150l-21 2c6 3 12 7 18 11c-25 133 -51 267 -74 401c-8 49 -28 162 -38 209l-119 11c33 22 68 41 106 55l-9 45
c-4 23 -4 47 -10 70z" />
    <glyph glyph-name="S" unicode="S" horiz-adv-x="1131" 
d="M396 871c-45 -6 -43 -8 -84 -24c-80 -44 -111 -126 -136 -208c-9 -44 -19 -97 -19 -146c0 -22 2 -44 7 -63c3 -10 9 -20 13 -29c15 -23 17 -31 41 -48c19 -13 55 -27 76 -36c73 -30 45 -18 138 -46c185 -49 374 -82 558 -135c24 -11 96 -23 106 -56c1 -3 1 -6 1 -9
c0 -10 -3 -18 -5 -27c-20 -36 -49 -81 -82 -105c-101 -72 -232 -112 -347 -155c-111 -39 -225 -73 -339 -105l-176 23c114 32 227 65 339 103c75 28 179 66 253 100c31 14 63 29 92 48c35 23 58 63 82 96c1 2 7 15 4 20c-12 20 -87 36 -105 44c-184 52 -373 85 -558 135
c-63 20 -161 47 -215 91c-23 20 -26 30 -41 55c-4 11 -10 22 -13 34c-5 22 -7 45 -7 68c0 50 9 101 19 148c25 87 58 173 137 224c14 6 26 14 40 19c27 9 73 15 100 15c46 1 91 2 135 2c73 0 143 -3 215 -15c60 -15 127 -36 150 -100c6 -27 8 -55 8 -82c0 -13 -1 -26 -1 -39
h-178v45c0 24 -1 48 -7 72c-3 6 -4 12 -8 18c-4 5 -10 9 -16 13c-37 30 -79 40 -125 49c2 0 3 1 3 1c0 2 -27 3 -55 5z" />
    <glyph glyph-name="T" unicode="T" horiz-adv-x="961" 
d="M969 1021l176 -55c-193 -12 -385 -27 -578 -59c8 -271 7 -532 35 -793c5 -62 18 -121 42 -175l-178 -12c-23 58 -37 119 -42 184c-19 174 -27 350 -28 526c-1 78 -3 156 -6 234c-152 -35 -305 -79 -453 -159l-177 45c181 103 369 147 556 189c24 5 48 9 72 13
c-1 18 -1 36 -2 55h178c1 -10 1 -19 1 -29c135 17 270 27 404 36z" />
    <glyph glyph-name="U" unicode="U" horiz-adv-x="862" 
d="M527 -76c59 7 85 48 98 117c5 49 8 99 8 149c0 41 -2 81 -7 122c-9 70 -17 91 -34 159c-40 145 -99 285 -153 423l177 6c55 -138 114 -279 154 -424c17 -70 25 -91 34 -163c5 -40 7 -81 7 -121c0 -52 -3 -103 -9 -154c-12 -73 -21 -116 -96 -143
c-61 -13 -124 -18 -187 -18c-65 0 -129 5 -193 14c-49 14 -93 41 -128 79c-59 68 -104 146 -137 229c-39 108 -69 216 -69 333v6c2 82 3 164 11 245l178 -2c-8 -81 -9 -162 -11 -244v-6c0 -114 27 -221 69 -325c33 -82 69 -158 133 -218c35 -33 68 -66 130 -66
c8 0 16 1 25 2z" />
    <glyph glyph-name="V" unicode="V" horiz-adv-x="1024" 
d="M83 790c46 -65 84 -133 123 -200c64 -117 120 -236 165 -359c24 -63 42 -127 61 -190c20 48 43 113 58 155c35 96 72 193 109 289c55 142 121 280 195 415l24 39l175 -8c-8 -13 -16 -25 -23 -38c-75 -134 -141 -272 -196 -413c-37 -96 -73 -192 -109 -289
c-16 -45 -47 -132 -66 -178c-10 -23 -21 -46 -31 -69c-9 -17 -16 -35 -25 -52c-7 -11 -9 -30 -23 -32c-22 -3 -76 -17 -124 -17c-35 0 -68 8 -83 32c-5 8 -20 49 -23 55c-32 99 -57 199 -94 296c-45 122 -101 241 -165 356c-39 67 -76 135 -123 198z" />
    <glyph glyph-name="W" unicode="W" horiz-adv-x="1264" 
d="M983 -112l-15 -64c-10 -3 -18 -4 -33 -7c-45 -7 -79 -11 -104 -11c-60 0 -76 24 -108 97c-36 93 -67 186 -102 279c-24 -61 -44 -123 -72 -184c-9 -18 -28 -57 -42 -75c-6 -8 -14 -14 -21 -21c-46 -1 -93 -4 -139 -4c-18 0 -36 1 -54 2c-13 1 -36 32 -40 37
c-27 35 -46 75 -70 112c-60 112 -118 227 -196 331c-62 77 -124 157 -197 226l174 13c73 -72 135 -151 198 -230c78 -105 135 -220 196 -333c8 -10 15 -22 23 -36c24 53 43 108 63 162c32 80 52 163 72 246c5 18 23 24 44 24c28 0 61 -9 81 -13c22 -4 43 -6 60 -8l13 -29
c20 -44 35 -90 52 -135c25 -64 48 -128 72 -193c38 255 66 494 135 725c22 72 36 106 62 175c27 74 60 146 97 216l175 -7c-37 -69 -70 -141 -97 -214c-26 -68 -40 -103 -61 -173c-86 -285 -112 -596 -166 -908z" />
    <glyph glyph-name="X" unicode="X" horiz-adv-x="1040" 
d="M611 0c-136 -247 -291 -483 -447 -718c-56 -85 -115 -168 -175 -251l-172 12c60 82 119 164 175 250c176 265 351 531 499 814c-116 107 -228 219 -334 337c-96 105 -193 209 -285 317l172 14c92 -109 189 -212 285 -317c72 -80 146 -156 222 -231
c59 122 116 244 160 372l173 -4c-53 -160 -128 -311 -202 -462c-4 -6 -7 -13 -10 -19c57 -52 115 -102 174 -151c105 -83 215 -158 331 -223l-172 -20c-139 81 -273 176 -394 280z" />
    <glyph glyph-name="Y" unicode="Y" horiz-adv-x="754" 
d="M-138 1098h178c17 -87 48 -169 86 -249c65 -135 150 -258 241 -376l36 -42c9 15 17 31 24 48c27 70 51 141 73 213c11 48 27 94 31 143l178 -5c-5 -48 -20 -95 -31 -142c-22 -73 -46 -145 -73 -216c-25 -60 -63 -113 -95 -169c-26 -47 -29 -101 -31 -154
c-2 -58 -2 -115 -2 -173c0 -87 1 -173 1 -261h-178v21c0 83 -1 166 -1 249c0 55 0 110 2 165s5 112 31 162c7 13 15 26 23 38l-66 -5c-131 145 -254 315 -341 496c-38 83 -70 167 -86 257z" />
    <glyph glyph-name="Z" unicode="Z" horiz-adv-x="931" 
d="M524 696c51 4 150 11 154 11c60 -11 120 -26 180 -39c-1 -10 0 -22 -16 -43c-50 -70 -72 -87 -160 -192c-64 -77 -194 -216 -280 -295c-87 -80 -187 -196 -265 -279c165 -43 322 -51 504 -97c129 -34 281 -89 426 -109c13 -1 27 -2 42 -2c132 0 317 49 425 145l182 -8
c-127 -150 -290 -193 -469 -193h-12c-201 10 -496 82 -772 159c-148 32 -297 52 -445 83c-21 8 -64 15 -64 52v6c14 55 185 194 273 285c89 91 215 215 280 293s96 108 142 166c-74 -5 -165 -6 -215 -10c-50 -3 -65 -8 -84 -37l-178 -4c5 36 41 75 92 87
c51 11 195 16 260 21z" />
    <glyph glyph-name="a" unicode="a" horiz-adv-x="504" 
d="M306 582c52 -5 104 -9 156 -14c-38 -28 -77 -56 -115 -84c25 -3 50 -3 75 -3c27 0 29 -27 33 -49c13 -103 13 -209 19 -313c-41 0 -82 0 -122 -1c-27 0 -33 6 -34 30c-12 -16 -24 -33 -36 -49c-21 -24 -41 -57 -76 -60c-44 -2 -105 -6 -137 -6h-8c-27 1 -58 25 -59 56
c-2 30 -3 58 -3 87c0 16 0 32 1 48c4 69 30 138 82 185c72 61 149 116 224 173zM277 430c-31 -23 -77 -64 -98 -97c-40 -56 -41 -128 -41 -195v-9c25 34 75 80 95 126c30 58 37 113 44 175z" />
    <glyph glyph-name="b" unicode="b" horiz-adv-x="745" 
d="M30 954c51 -123 106 -290 136 -374c30 -83 20 -81 44 -86c96 30 252 52 298 56c17 1 41 5 67 5c47 0 97 -11 114 -60c13 -43 20 -89 20 -135c0 -34 -4 -67 -10 -100c-25 -117 -127 -191 -219 -256c-214 -132 -450 -226 -686 -312c-48 6 -97 12 -145 18
c187 64 372 137 547 228c15 7 20 11 20 12c0 2 -5 3 -12 3h-11c-17 0 -38 1 -41 12c-33 114 -53 231 -76 347c-40 219 -103 435 -203 635c53 2 105 4 157 7zM509 515c-33 -7 -46 -12 -100 -26c-48 -12 -99 -32 -99 -101c0 -9 0 -18 2 -28c10 -65 11 -152 11 -237v-108
c25 3 79 48 106 74c75 61 123 173 127 258c1 19 2 35 2 50c0 54 -9 88 -49 118z" />
    <glyph glyph-name="c" unicode="c" horiz-adv-x="548" 
d="M271 601c31 0 63 -2 95 -3c-9 -12 -19 -24 -34 -29c-46 -12 -90 -38 -114 -80c-47 -80 -68 -174 -69 -267c0 -4 -1 -9 -1 -13c0 -44 19 -90 60 -112c73 -40 150 -73 233 -87c36 -7 76 -4 110 -22c-45 -3 -90 -6 -136 -6c-40 0 -80 2 -119 7c-76 14 -150 42 -217 79
c-38 18 -68 50 -79 90c-5 20 -7 41 -7 62c0 29 4 58 7 86c12 72 33 144 72 206c39 64 118 89 190 89h9z" />
    <glyph glyph-name="d" unicode="d" horiz-adv-x="459" 
d="M392 496c13 -70 27 -142 27 -213c0 -30 -2 -60 -8 -89c-16 -58 -45 -122 -104 -146c-40 -2 -79 -5 -119 -5c-34 0 -68 2 -102 10c-39 10 -81 54 -82 88c-2 16 -3 33 -3 51c0 64 14 136 32 182c24 60 102 105 152 141c15 -1 37 -3 53 -4c-32 123 -62 260 -96 368
c51 1 102 3 153 4c35 -129 72 -270 97 -387zM149 246c0 -28 -4 -56 -4 -84c0 -14 1 -28 4 -42c5 -13 13 -18 24 -18c23 0 54 25 60 38c25 46 32 96 32 147c0 45 -5 89 -11 132c-43 -47 -101 -111 -105 -173z" />
    <glyph glyph-name="e" unicode="e" horiz-adv-x="500" 
d="M244 566c49 0 111 -5 156 -20c39 -13 55 -55 55 -94c0 -4 -1 -9 -1 -13c-3 -46 -14 -96 -52 -127c-31 -28 -69 -52 -108 -68l-132 15c-1 -10 -2 -21 -2 -31c0 -69 23 -139 76 -184c52 -38 119 -41 180 -53c82 -12 165 -18 248 -20c19 3 38 5 57 5c18 0 36 -2 53 -5
c40 -6 80 -13 119 -18c-78 -6 -156 -9 -234 -9c-151 0 -303 12 -453 36c-70 12 -137 39 -172 118c-16 36 -23 81 -23 127c0 55 11 111 27 151c30 71 43 124 86 158c36 28 89 32 120 32zM230 458c-28 -60 -55 -121 -66 -187c46 20 101 41 119 93c10 25 15 53 15 80
c0 18 -2 37 -8 54c-5 7 -10 10 -15 10c-18 0 -38 -37 -45 -50z" />
    <glyph glyph-name="f" unicode="f" horiz-adv-x="554" 
d="M373 846h14c41 0 84 -3 125 -3c12 0 24 0 36 1l-79 -27c-51 -1 -103 -17 -144 -49c-67 -47 -85 -132 -98 -208c2 -1 4 -1 6 -1c18 0 53 18 75 22l211 -37c-87 -26 -254 -97 -305 -98c-8 -140 -19 -280 -22 -420c-50 0 -101 0 -152 1c5 133 13 265 20 398
c-62 11 -124 21 -186 32c53 8 105 19 156 33c32 10 32 11 42 65c13 73 25 155 80 210c55 57 135 81 212 81h9z" />
    <glyph glyph-name="g" unicode="g" horiz-adv-x="634" 
d="M310 570c54 0 107 -1 161 -1h41c47 2 9 -3 -16 -8c-64 -18 -133 -2 -196 -25c-93 -34 -131 -139 -139 -229c-2 -25 -5 -53 -5 -79c0 -40 7 -79 39 -107c39 58 35 130 36 197v3c0 23 -5 52 -5 79c0 33 8 63 44 75c11 -2 22 -2 34 -2c20 0 41 2 60 2c33 0 64 -5 91 -30
c44 -73 72 -156 91 -239c20 -98 32 -200 32 -300c0 -101 -12 -202 -42 -298c-19 -80 -73 -153 -151 -182c-77 -25 -159 -29 -240 -29c-33 0 -65 1 -98 1h-19c-11 -1 -23 -2 -34 -2c-78 0 -155 24 -217 72c42 4 83 8 125 12c5 1 10 2 14 2c35 0 62 -35 97 -42
c32 -10 66 -15 100 -15c55 0 109 13 158 36c96 49 123 162 141 259c10 61 14 123 14 185c0 103 -12 206 -34 306c-3 16 -5 22 -6 22c-4 0 -4 -58 -14 -75c-12 -49 -51 -94 -104 -94c-3 0 -7 1 -10 1c-59 7 -120 0 -177 19c-58 18 -81 81 -81 137v3c4 105 18 222 96 299
c56 58 142 42 214 47z" />
    <glyph glyph-name="h" unicode="h" horiz-adv-x="572" 
d="M158 1483c31 -73 45 -152 54 -231c25 -252 21 -506 24 -759v-8c0 -36 13 -45 36 -45c13 0 28 3 46 5c19 2 36 7 52 7c31 0 57 -15 80 -87c37 -110 47 -316 54 -475h-156c0 153 -38 424 -48 458c-4 16 -20 25 -34 25c-17 0 -32 -10 -32 -30v-3c-6 -82 -4 -199 -37 -275
c-15 -35 -41 -45 -70 -45c-27 0 -57 10 -83 17c-46 28 -40 112 -44 165v10c0 65 36 139 87 168c1 78 1 157 1 235c0 132 -1 264 -7 396c-10 157 -11 321 -80 466c52 2 105 4 157 6z" />
    <glyph glyph-name="i" unicode="i" horiz-adv-x="292" 
d="M76 775h132c4 1 8 2 11 2c19 0 14 -23 16 -43c-44 -1 -88 -1 -133 -2c-4 -1 -7 -2 -9 -2c-16 0 -17 17 -17 33v12zM6 511h157l-3 -129v-19c0 -59 -2 -119 -2 -178c0 -87 4 -174 21 -259c12 -55 21 -113 46 -164c-42 -2 -85 -4 -127 -5h-2c-6 0 -12 -1 -18 -1
s-12 2 -12 10c-32 100 -47 205 -54 310c-4 145 -1 290 -6 435z" />
    <glyph glyph-name="j" unicode="j" horiz-adv-x="516" 
d="M161 944c15 -19 31 -38 46 -57c-36 -3 -73 -5 -109 -8c-7 -3 -14 -4 -20 -4c-33 0 -52 32 -74 59c52 3 105 7 157 10zM83 567h99c53 -4 55 -10 61 -64c17 -162 102 -304 145 -459c32 -123 62 -252 62 -380c0 -54 -6 -109 -19 -163c-40 -137 -107 -266 -195 -379
c-62 -86 -169 -125 -273 -125c-8 0 -15 1 -23 1c-69 6 -152 -10 -200 55c30 2 59 5 88 7c17 0 34 5 50 5c18 0 34 -5 46 -23h6c74 0 139 67 183 123c88 125 168 266 185 422c3 24 4 47 4 71c0 129 -35 256 -65 381c-53 175 -151 340 -154 528z" />
    <glyph glyph-name="k" unicode="k" horiz-adv-x="658" 
d="M55 938c41 -181 84 -362 97 -547c45 38 89 77 133 116c52 -5 104 -9 156 -14c-44 -35 -90 -73 -129 -109s-73 -57 -114 -95c-14 -12 -20 -22 -20 -30c0 -18 29 -30 84 -52c82 -32 263 -89 387 -152c-51 -6 -103 -11 -154 -17c-104 52 -217 83 -325 126
c-3 -13 -4 -27 -4 -40c0 -29 4 -57 4 -86v-14h-150c-1 88 -3 177 -8 265c-9 219 -55 435 -113 645c52 2 104 3 156 4z" />
    <glyph glyph-name="l" unicode="l" horiz-adv-x="283" 
d="M33 1072c40 -112 84 -223 111 -339c52 -232 69 -471 79 -708h-155c0 177 -9 355 -36 531c-24 177 -86 347 -156 511c52 1 105 3 157 5z" />
    <glyph glyph-name="m" unicode="m" horiz-adv-x="860" 
d="M583 682h6c57 0 116 -14 150 -61c36 -49 51 -164 65 -259c11 -108 23 -216 23 -325c0 -47 -3 -95 -8 -142c-51 0 -102 1 -153 2c5 31 8 64 9 96v38c0 146 -11 292 -39 434c-12 35 -11 83 -34 110c-45 -57 -76 -126 -104 -193c-23 -43 -29 -92 -52 -134
c-32 -12 -71 -24 -108 -24c-16 0 -31 2 -45 7c-45 27 -60 89 -98 117l-30 -276c-5 -30 -9 -32 -40 -32l-118 4c10 109 33 234 33 344v13c-2 5 -3 9 -3 13c0 18 33 9 38 17c-33 23 -76 21 -114 30v1c0 8 51 9 69 11c8 0 16 1 24 1c78 0 171 -21 213 -45c36 -21 49 -45 64 -45
c5 0 10 2 15 6c26 72 72 148 106 205c33 54 70 87 124 87h7z" />
    <glyph glyph-name="n" unicode="n" horiz-adv-x="681" 
d="M65 641c18 -42 32 -85 44 -129c26 33 55 66 90 90c43 28 92 36 142 36c38 0 78 -5 116 -8c44 -22 72 -67 96 -108c53 -85 69 -186 80 -284c16 -124 14 -249 23 -373c-51 -1 -102 -1 -153 -2c-5 83 -4 166 -9 249c-9 103 -17 208 -50 307c-21 55 -49 110 -89 154
c-6 5 -11 8 -16 8c-14 0 -27 -20 -52 -51c-34 -43 -83 -128 -90 -203h-51c15 -97 22 -195 29 -293c-51 -1 -101 -1 -152 -1c-3 65 -6 131 -13 196c-16 137 -38 279 -102 403c52 3 105 6 157 9z" />
    <glyph glyph-name="o" unicode="o" horiz-adv-x="874" 
d="M203 694c36 -2 72 -4 107 -6c12 -2 45 2 45 -9c0 -2 -2 -6 -6 -10c3 -1 7 -1 12 -1c20 0 56 6 97 8c10 0 19 1 28 1c41 0 79 -4 131 -14c65 -13 110 -67 150 -128c39 -60 60 -141 60 -218v-5c-4 -70 -1 -148 -30 -201c-27 -53 -70 -72 -116 -72h-3c-69 0 -139 -2 -209 -2
c-89 0 -178 2 -267 12c-73 8 -157 28 -200 94c-10 20 -14 41 -14 63c0 38 11 76 24 110c51 132 108 263 191 378zM328 637c-53 -78 -96 -163 -132 -250c-20 -54 -52 -106 -52 -166v-8v-2c0 -52 49 -85 94 -101c69 -24 144 -26 216 -37c30 -1 61 -10 92 -10c14 0 27 2 41 7
c53 18 75 53 80 128c1 16 2 36 2 57c0 75 -8 172 -34 235c-33 81 -45 98 -103 130c-32 17 -69 22 -107 22c-32 0 -66 -4 -97 -5z" />
    <glyph glyph-name="p" unicode="p" horiz-adv-x="508" 
d="M66 791h132c20 0 25 -10 25 -25c0 -17 -8 -40 -8 -56v-4v-8c0 -35 27 -28 72 -35c49 -9 88 -32 129 -106c19 -33 29 -84 29 -138c0 -66 -14 -135 -46 -185c-59 -92 -142 -149 -234 -193c-15 -212 -42 -424 -71 -635c-50 1 -101 2 -152 3c40 202 64 408 80 614
c-23 3 -45 5 -67 8c23 11 46 22 70 33c10 143 17 307 21 429c4 115 20 190 20 282v16zM205 614c-9 -103 -33 -383 -33 -446c62 63 132 179 132 261c0 5 0 9 -1 14c-8 82 -48 128 -98 171z" />
    <glyph glyph-name="q" unicode="q" horiz-adv-x="766" 
d="M302 710c39 -3 77 -6 116 -9c19 0 36 0 36 -8c0 -4 -5 -10 -19 -19c-12 -9 -17 -15 -17 -19c0 -10 26 -12 43 -20c69 -117 128 -240 171 -369c59 -181 110 -364 168 -545c14 -40 22 -97 58 -97c33 -4 76 -7 100 -11c23 -4 37 -5 40 -10c0 -9 -70 -55 -110 -55h-1h-1
c-14 0 -18 -6 -18 -16c0 -17 12 -43 16 -63c-51 -1 -101 -3 -152 -5c-34 105 -65 210 -96 315c-64 205 -116 416 -202 613c-2 -64 -48 -208 -95 -259s-140 -45 -204 -54c-4 -1 -8 -1 -12 -1c-60 0 -110 59 -119 118c-3 16 -4 32 -4 48c0 47 12 96 46 156
c45 80 180 227 256 310zM294 498c-16 -29 -109 -149 -123 -186c-7 -19 -17 -57 -17 -88c0 -29 8 -53 35 -53c2 0 5 1 7 1c65 9 98 240 98 322v4z" />
    <glyph glyph-name="r" unicode="r" horiz-adv-x="492" 
d="M336 790l153 -12c-33 -29 -63 -61 -93 -92c-89 -90 -176 -190 -211 -314c15 -59 31 -117 50 -174c22 -47 30 -99 40 -149c-52 -1 -103 -3 -155 -4c-9 42 -18 84 -30 125c-20 56 -36 114 -50 172c-6 0 -19 -2 -18 2l9 36l-24 114c-16 88 -35 175 -57 261c52 1 104 2 157 3
c11 -58 24 -115 35 -173c60 73 127 140 194 205z" />
    <glyph glyph-name="s" unicode="s" horiz-adv-x="690" 
d="M136 -285c9 7 97 20 143 38c80 33 167 69 217 143c8 10 11 20 11 31c0 27 -23 53 -47 67c-84 52 -179 81 -271 114c-62 27 -137 36 -185 88c-15 18 -21 38 -21 60c0 33 15 68 33 95c38 53 67 111 103 166c53 85 155 127 253 127h10h27l66 -1c33 11 16 -25 -4 -26
c-72 -9 -144 -41 -189 -101c-46 -72 -94 -142 -134 -218c-6 -12 -9 -25 -9 -38c0 -33 19 -67 52 -79c105 -40 214 -71 318 -114c51 -24 117 -45 137 -105c4 -12 6 -24 6 -36c0 -42 -25 -83 -60 -108c-91 -67 -202 -105 -312 -126c-56 3 -86 9 -144 23z" />
    <glyph glyph-name="t" unicode="t" horiz-adv-x="613" 
d="M16 1034h157c-2 -85 -3 -173 -3 -254c0 -22 -1 -39 -1 -52c0 -19 2 -28 9 -28c5 0 13 5 27 16c61 -11 122 -23 183 -35c-63 -40 -147 -88 -219 -109c0 -40 -1 -80 -1 -120c0 -56 1 -113 2 -169c3 -64 -1 -126 5 -190c18 -59 88 -68 141 -74h33c43 0 87 2 128 14l145 -26
v-1c0 -13 -44 -15 -78 -15h-26h-51h-105c-76 0 -151 2 -226 13c-51 8 -115 36 -118 96v36c0 121 4 242 4 362c0 26 -7 32 -18 32c-12 0 -29 -7 -48 -8c-62 16 -124 31 -186 46c86 6 169 29 251 55c-1 137 -1 274 -5 411z" />
    <glyph glyph-name="u" unicode="u" horiz-adv-x="554" 
d="M355 519c19 -2 43 -2 66 -2h55h12c15 0 24 -3 24 -26v-8c-2 -75 -3 -151 -3 -227s1 -152 2 -227h-136c-18 2 -18 14 -18 33c0 9 1 20 1 31c0 13 -1 27 -4 40c-50 -23 -114 -30 -163 -30c-10 0 -19 1 -27 1c-51 2 -74 0 -105 7c-30 6 -55 34 -55 61v2c2 106 4 202 14 308
c49 -1 97 -2 146 -2h3c6 0 8 -3 8 -8c0 -9 -7 -23 -7 -33c0 -1 1 -3 1 -4c-10 -88 -9 -178 -11 -267c0 -18 8 -24 19 -24c13 0 31 10 42 17c44 24 68 68 89 111c28 52 43 109 46 167c1 8 2 16 2 25c0 14 -1 27 -1 41v14z" />
    <glyph glyph-name="v" unicode="v" horiz-adv-x="734" 
d="M566 624c51 -2 101 -5 152 -7c-56 -122 -117 -243 -170 -367c-54 -119 -97 -246 -182 -347c-46 -5 -104 -13 -137 -15h-10c-30 0 -59 9 -70 46c-18 83 -41 165 -62 248c-29 120 -74 238 -82 362h150c15 -26 8 -80 21 -116c34 -139 72 -276 108 -414c35 58 61 120 89 182
c60 144 130 285 193 428z" />
    <glyph glyph-name="w" unicode="w" horiz-adv-x="802" 
d="M595 505h110c16 -3 45 4 45 -21c-1 -32 -1 -66 -1 -101c0 -58 1 -117 1 -162c0 -21 -1 -39 -1 -53c-1 -65 -9 -87 -28 -97c-26 -6 -46 -4 -72 -9c-18 -1 -39 -8 -58 -8c-10 0 -20 2 -29 7c-41 36 -60 91 -92 135c-1 -15 -1 -31 -1 -46v-26c0 -40 -2 -79 -18 -116
c-17 -2 -34 -3 -51 -3c-40 0 -79 4 -119 5c-32 29 -56 64 -81 98c-94 114 -174 244 -298 329c52 5 104 10 156 16c102 -78 173 -186 253 -285c3 4 4 15 4 28c0 17 -1 39 -1 56v11v9c0 12 -1 26 -1 39c0 30 5 59 35 72c8 1 16 1 24 1c48 0 95 -15 143 -16
c31 -37 57 -77 82 -118c0 85 -1 170 -2 255z" />
    <glyph glyph-name="x" unicode="x" horiz-adv-x="668" 
d="M126 443c51 -60 104 -119 159 -175c72 51 145 101 212 159c46 -4 82 -8 128 -11c16 -2 9 -17 -3 -27c-84 -68 -177 -123 -259 -194c87 -73 180 -139 279 -195c-50 -5 -100 -11 -150 -16c-72 42 -141 89 -207 140c-36 -34 -69 -62 -106 -106c-36 -45 -60 -113 -83 -172
c-52 1 -104 3 -156 5c18 44 23 77 52 132c30 54 111 132 156 168c18 14 34 29 51 45c-77 73 -158 159 -230 237c52 3 104 7 157 10z" />
    <glyph glyph-name="y" unicode="y" horiz-adv-x="572" 
d="M460 654c53 -5 105 -11 157 -16c-66 -33 -105 -79 -136 -166c-30 -86 -45 -180 -88 -324c-42 -145 -67 -384 -132 -553s-173 -340 -282 -432s-209 -105 -296 -108c-15 0 -30 -1 -44 -1c-66 0 -114 9 -138 68h16h43c18 0 36 1 57 6c25 -16 43 -22 67 -22c11 0 24 1 40 4
c72 19 247 198 334 369c86 171 146 510 171 612c22 89 23 108 23 112v1c-112 58 -198 184 -299 257c39 3 78 7 117 10h12c76 0 92 -53 119 -83c21 -25 56 -71 75 -71c6 0 11 5 13 17c24 119 61 254 171 320z" />
    <glyph glyph-name="z" unicode="z" horiz-adv-x="834" 
d="M654 576c21 -1 42 -2 63 -5c2 -4 2 -8 2 -11c0 -27 -32 -53 -47 -74c-104 -109 -225 -201 -343 -294c-54 -44 -114 -83 -162 -133c-7 -7 -10 -12 -10 -16c0 -13 33 -14 48 -15c96 -6 193 -5 289 -12c100 -2 209 -23 299 -25c-23 -14 -79 -24 -123 -30
c-17 -2 -37 -3 -58 -3c-30 0 -61 2 -88 4c-129 19 -244 34 -374 39c-45 3 -93 -3 -134 18c-11 8 -15 17 -15 25c0 23 30 47 48 60c165 132 345 250 484 410c-68 -16 -138 -21 -208 -21h-18c-53 7 -106 17 -159 25c11 0 25 -1 40 -1c21 0 44 1 64 2c85 3 168 25 250 46
c50 14 101 9 152 11z" />
    <glyph glyph-name="uni00A0" unicode="&#xa0;" horiz-adv-x="724" 
 />
    <glyph glyph-name="uni0000" horiz-adv-x="724" 
 />
    <glyph glyph-name="space" unicode=" " horiz-adv-x="724" 
 />
  </font>
</defs>
</svg>
