<svg xmlns="http://www.w3.org/2000/svg">
<defs>
<font
       horiz-adv-x="1024"
       id="font3933"
       inkscape:label="font 1">
      <font-face
         units-per-em="1024"
         id="font-face3935"
         font-family="LSW Drachenklaue" />
      <missing-glyph
         d="m 436.87431,476.63465 c -31.07369,2.58865 -40.06392,5.36855 -46.86381,14.49095 -2.30644,3.0942 -3.2066,6.42982 -3.02204,11.19853 0.33578,8.67568 2.50341,12.63465 8.66138,15.81909 5.81125,3.00512 10.81991,2.66359 47.31888,-3.22642 44.99755,-7.26149 74.7485,-9.53732 97.39086,-7.45008 10.88818,1.00372 25.0701,3.27865 31.51539,5.05539 15.79155,4.35315 37.56055,15.31177 50.333,25.33783 5.76906,4.52859 13.50345,10.59143 17.18749,13.47304 3.68404,2.88155 0.31949,-1.02059 -7.4768,-8.67146 -35.60474,-34.94052 -75.67187,-56.30241 -119.35854,-63.63619 -18.66066,-3.13263 -53.5507,-4.23469 -75.68581,-2.39068 z"
         id="missing-glyph3937" />
      <glyph
         glyph-name="glyph 1"
         id="glyph3939"
         unicode="a"
         d="m 498.13169,226.56247 c -0.58299,3.00782 -4.72934,129.57037 -9.21402,281.25004 -7.50344,253.77907 -7.95805,276.23896 -5.69757,281.51911 3.32262,7.76117 9.37652,11.44961 18.79249,11.44961 6.55602,0 8.22563,-0.67915 11.96932,-4.86911 2.68222,-3.00194 4.74168,-7.49581 5.37039,-11.71877 0.74056,-4.97362 -14.2505,-425.20482 -19.7253,-552.94335 -0.36721,-8.56611 -0.60125,-9.3 -1.49531,-4.68753 z" />
      <glyph
         glyph-name="glyph 2"
         id="glyph3941"
         unicode="b"
         d="m 338.69009,265.16759 c 1.94361,0.37374 4.75611,0.35955 6.25,-0.0316 1.49389,-0.39108 -0.0964,-0.69687 -3.53384,-0.67953 -3.4375,0.0173 -4.65977,0.33733 -2.71616,0.71106 z m 29.27866,3.64874 c 46.38372,7.24962 75.80806,14.67239 93.57845,23.60667 13.63668,6.85602 19.10182,11.61941 23.53268,20.51098 5.23576,10.5068 5.21179,21.40697 -0.0831,37.84727 -6.62555,20.57152 -3.23598,33.73666 9.76998,37.94673 7.95086,2.57374 16.76685,-0.0584 21.49035,-6.41643 2.9533,-3.97522 3.32586,-6.93286 3.80094,-30.17478 0.51353,-25.12368 0.42479,-25.97583 -3.55089,-34.10186 -5.25269,-10.73608 -16.46338,-19.47314 -35.53827,-27.69679 -26.94339,-11.61592 -77.57603,-21.96371 -116.9063,-23.89214 l -16.40625,-0.80442 20.3125,3.17477 z" />
      <glyph
         glyph-name="glyph 3"
         id="glyph3943"
         unicode="c"
         d="m 492.33384,611.47848 c -10.42264,3.53029 -11.7989,7.49318 -12.39636,35.69458 -0.43507,20.53716 -0.0611,26.30824 2.06579,31.87736 7.48026,19.58683 37.27836,35.16269 88.13567,46.06975 14.30011,3.06685 26.35654,3.90014 73.22044,5.06067 19.26582,0.4771 19.63887,0.42575 11.32812,-1.55926 -4.72656,-1.12894 -20.19531,-2.48363 -34.375,-3.01042 -28.27939,-1.05063 -44.23694,-3.83932 -66.4877,-11.61921 -39.02146,-13.6437 -49.6028,-31.29854 -38.82149,-64.7732 4.40005,-13.66158 4.36205,-24.56844 -0.10937,-31.39266 -4.31672,-6.58814 -13.89416,-9.28289 -22.56013,-6.34761 z" />
      <glyph
         glyph-name="glyph 4"
         id="glyph3945"
         unicode="d"
         d="m 504.91127,209.9877 c -26.90571,11.61157 -43.31382,33.56249 -50.57604,67.66111 -2.66864,12.53024 -3.26575,20.86817 -3.27903,45.78869 -0.0245,45.9585 4.58428,72.69567 31.78005,184.36759 17.14503,70.40132 23.54336,100.85313 27.19864,129.44763 4.43889,34.7244 2.54545,74.67855 -4.67658,98.68219 -6.80478,22.61682 -22.29551,43.50414 -39.25643,52.93236 -10.14075,5.63704 -6.43736,5.12562 8.92776,-1.23286 48.16708,-19.93279 79.68148,-72.29175 75.78056,-125.9041 -2.39726,-32.94686 -8.08009,-61.89853 -29.79509,-151.79376 -22.74623,-94.16436 -31.93677,-144.88755 -31.96294,-176.40582 -0.006,-6.84034 -1.04523,-25.60386 -2.31011,-41.6967 -3.94684,-50.21509 0.73189,-67.04462 22.54822,-81.10656 8.34185,-5.37683 6.92164,-5.61675 -4.37901,-0.73977 z" />
      <glyph
         glyph-name="glyph 5"
         id="glyph3947"
         unicode="e"
         d="m 465.06156,204.70586 c -4.44214,3.90025 -11.93656,16.21066 -11.93656,19.60711 0,0.50025 2.36817,-1.60147 5.26262,-4.67047 6.22841,-6.60405 8.58091,-6.87727 14.72207,-1.70981 6.46095,5.43653 10.86379,16.76431 12.82528,32.99725 1.07775,8.91931 2.13064,100.8495 2.93317,256.10131 1.24353,240.56641 1.27427,242.26922 4.59102,254.3968 C 500.32431,786.5302 511.01331,800 524.06805,800 c 5.20568,0 7.14081,-1.02872 12.54523,-6.66908 3.51455,-3.66798 7.18642,-9.26376 8.15972,-12.43505 l 1.76962,-5.76596 -5.09643,5.40379 c -6.0593,6.42474 -8.44446,6.67603 -14.55588,1.53361 -5.97345,-5.02633 -10.51503,-15.8845 -12.75908,-30.50481 -1.25623,-8.18464 -2.17039,-85.46389 -3.03126,-256.25 -1.2171,-241.45766 -1.27375,-244.68187 -4.50752,-256.51419 -6.98061,-25.542 -17.3325,-38.7649 -30.3662,-38.78801 -4.23634,-0.008 -7.25334,1.26136 -11.16469,4.69556 z" />
      <glyph
         glyph-name="glyph 6"
         id="glyph3949"
         unicode="f"
         d="m 498.07106,235.9375 c -0.56384,3.86719 -4.64211,128.32472 -9.06284,276.57228 -7.60616,255.0702 -7.89724,269.89205 -5.42172,276.07899 4.21898,10.54428 14.57433,15.08982 24.71962,10.85085 5.92368,-2.47506 8.64913,-6.3336 10.61486,-15.02785 0.6875,-3.04079 -0.0953,-39.74935 -1.74843,-81.99622 -1.64627,-42.06989 -2.68449,-76.79944 -2.30716,-77.17677 0.37733,-0.37733 1.1468,0.64505 1.70995,2.27195 11.00571,31.79524 41.5726,87.87775 79.96091,146.70802 C 613.43042,800.10914 648.1523,850 649.27672,850 c 0.35217,0 -4.30181,-7.82556 -10.3422,-17.39016 C 566.11775,717.30884 519.99691,609.19009 511.78259,534.534 510.49647,522.84498 507.28858,451.40625 504.65395,375.78125 499.25816,220.89931 499.50356,226.11244 498.07106,235.9375 Z" />
      <glyph
         glyph-name="glyph 7"
         id="glyph3951"
         unicode="g"
         d="m 496.15888,199.57725 c -5.99166,1.52197 -10.09608,5.45895 -12.64255,12.12677 -2.41969,6.33586 -2.3237,15.28406 1.5195,141.67012 5.60837,184.43489 6.81723,215.25688 9.61153,245.06336 11.00564,117.39597 44.94791,190.05355 102.16194,218.69019 16.73342,8.37537 22.03812,9.36006 7.10231,1.31837 -15.22297,-8.19629 -37.65938,-29.57284 -48.06009,-45.78981 -19.22946,-29.98289 -32.42013,-67.08989 -40.09005,-112.77822 -9.39969,-55.99231 -9.5668,-80.23214 -1.91031,-277.10455 3.55945,-91.52476 5.75554,-164.13125 5.05795,-167.22426 -1.93592,-8.58361 -4.67561,-12.51222 -10.39094,-14.90025 -5.4375,-2.27194 -7.07522,-2.41394 -12.35929,-1.07172 z" />
      <glyph
         glyph-name="glyph 8"
         id="glyph3953"
         unicode="h"
         d="m 480.46878,545.36217 c -12.1782,1.87731 -33.84828,8.61653 -43.75001,13.60588 -31.13969,15.69084 -58.56112,45.52045 -65.72841,71.5007 -3.99759,14.4907 -4.84011,51.74642 -1.53867,68.03973 6.061,29.91222 22.68521,56.66107 47.5486,76.50708 18.96145,15.13508 34.96214,20.48235 46.10189,15.40675 5.5197,-2.51497 8.1177,-9.45951 5.7118,-15.26797 -2.4953,-6.02417 -6.3917,-9.35911 -20.32402,-17.39543 -22.97755,-13.25374 -41.8681,-38.07869 -47.65417,-62.6246 -3.06746,-13.01284 -3.08361,-40.21912 -0.0311,-52.2279 6.99506,-27.51841 26.43661,-51.85285 52.27416,-65.43008 13.75693,-7.22908 27.07913,-10.23733 45.46223,-10.26574 20.2312,-0.0312 31.178,2.19813 45.9901,9.36614 21.1664,10.24299 36.8834,25.67946 46.9172,46.07952 7.3722,14.98853 10.1141,26.95619 10.1141,44.14416 0,33.47995 -9.7663,56.95259 -32.5713,78.28293 l -7.2724,6.8021 7.5995,-5.2396 c 10.0319,-6.91665 25.4947,-23.61279 31.9642,-34.51362 12.0156,-20.24591 17.4997,-46.63636 14.5197,-69.87277 -3.5886,-27.98281 -12.9453,-47.41045 -32.0967,-66.64389 -14.5837,-14.64617 -27.8507,-21.93593 -49.3685,-27.1264 -15.4701,-3.73166 -40.5147,-5.18547 -53.8682,-3.12699 z" />
      <glyph
         glyph-name="glyph 9"
         id="glyph3955"
         unicode="i"
         d="m 396.01251,181.67559 c 14.76283,7.85247 37.32153,29.13794 47.57191,44.88691 22.26772,34.21275 37.75661,83.31503 44.79517,142.00806 4.76834,39.76205 4.42981,77.54772 -2.22781,248.65596 -3.56138,91.5312 -5.75855,164.13103 -5.06091,167.22426 1.95114,8.65109 4.68534,12.5163 10.60299,14.98884 10.25565,4.2851 20.68287,-0.38982 24.77623,-11.10812 2.40156,-6.28842 2.30258,-15.53494 -1.51667,-141.67012 -5.56036,-183.63744 -6.79589,-215.17927 -9.6008,-245.09888 -8.479,-90.44462 -30.4857,-154.09345 -66.10186,-191.183 -13.49555,-14.05384 -24.19608,-21.88505 -40.06441,-29.32119 -17.05384,-7.9917 -18.74175,-7.66342 -3.17384,0.61728 z" />
      <glyph
         glyph-name="glyph 10"
         id="glyph3957"
         unicode="j"
         d="m 492.18931,290.16167 c -9.47977,4.8675 -10.17767,8.06286 -9.99799,45.77583 0.088,18.47656 1.32013,46.25 2.73801,61.71875 11.73855,128.06589 14.65494,168.27183 16.79339,231.51709 2.06299,61.01343 1.20753,108.64714 -2.1604,120.29747 -13.35544,46.19897 -52.11916,68.91766 -135.4998,79.41388 l -17.96875,2.26197 14.84375,-0.79322 c 23.80523,-1.27213 52.5768,-5.31174 71.09375,-9.98177 59.98669,-15.12884 88.33427,-42.09506 96.1928,-91.50536 3.77697,-23.74762 1.74472,-168.22353 -4.13144,-293.71006 -1.32798,-28.35937 -2.94195,-69.84375 -3.58661,-92.1875 -1.2027,-41.68656 -2.01334,-46.72191 -8.37112,-51.99839 -4.08994,-3.39436 -14.11801,-3.80094 -19.94558,-0.80869 z" />
      <glyph
         glyph-name="glyph 11"
         id="glyph3959"
         unicode="k"
         d="m 655.87757,369.85509 c 1.94362,0.37374 4.75612,0.35955 6.25,-0.0316 1.49389,-0.39108 -0.0964,-0.69687 -3.53384,-0.67953 -3.4375,0.0173 -4.65977,0.33733 -2.71616,0.71106 z m -29.31509,1.51921 c -22.49358,2.31028 -55.63633,7.88914 -72.72591,12.24183 -38.78995,9.87975 -62.4909,23.05585 -70.34365,39.10628 -3.97569,8.12603 -4.06442,8.97818 -3.55089,34.10186 0.47442,23.21006 0.85068,26.205 3.7909,30.17478 4.65096,6.27954 13.90661,9.01851 21.68278,6.41643 12.83404,-4.29451 16.17158,-17.50423 9.58758,-37.94673 -10.89369,-33.82358 0.43431,-51.93562 40.87817,-65.35898 18.26641,-6.06264 44.41022,-11.71883 76.14977,-16.47494 17.42094,-2.6105 18.86672,-3.02802 10.15625,-2.933 -5.58594,0.0609 -12.61719,0.36355 -15.625,0.67247 z" />
      <glyph
         glyph-name="glyph 12"
         id="glyph3961"
         unicode="l"
         d="m 489.39484,741.79687 c -4.53131,27.28516 -8.21762,53.63811 -8.19179,58.56213 0.055,10.48526 3.5957,20.41045 8.40548,23.56194 8.82147,5.78006 22.02766,3.84471 26.13506,-3.83004 5.23663,-9.78473 4.9895,-12.76381 -5.91156,-71.26278 -5.80512,-31.15234 -10.92459,-56.64062 -11.37659,-56.64062 -0.45202,0 -4.52928,22.32422 -9.0606,49.60937 z" />
      <glyph
         glyph-name="glyph 13"
         id="glyph3963"
         unicode="m"
         d="m 493.25561,533.20313 c -7.10105,33.16901 -7.76645,38.28361 -6.91662,53.16359 0.84568,14.80739 10.04098,60.50828 12.17464,60.50828 0.65595,0 3.89056,-10.72265 7.18803,-23.82812 5.31615,-21.12856 5.99159,-25.95238 5.96197,-42.57813 -0.0294,-16.43178 -0.76855,-21.69608 -5.97918,-42.57812 -3.27015,-13.10547 -6.48243,-23.82813 -7.1384,-23.82813 -0.65597,0 -3.03667,8.61328 -5.29044,19.14063 z" />
      <glyph
         glyph-name="glyph 14"
         id="glyph3965"
         unicode="n"
         d="m 492.32002,347.96506 c -7.71194,4.06996 -11.05689,11.4801 -11.13468,24.66682 -0.0619,10.49701 15.56882,110.18021 17.27674,110.1805 0.4432,6e-5 5.58615,-25.29766 11.42876,-56.21716 11.68427,-61.83389 11.97197,-66.81244 4.35354,-75.33817 -5.29736,-5.92825 -14.35271,-7.28792 -21.92436,-3.29199 z" />
      <glyph
         glyph-name="glyph 15"
         id="glyph3967"
         unicode="o"
         d="m 600.56205,181.11706 c -60.02647,28.46282 -94.67799,100.58471 -105.91469,220.44544 -2.7943,29.80648 -4.00316,60.62847 -9.61153,245.06336 -3.84321,126.38606 -3.93919,135.33426 -1.5195,141.67012 4.10679,10.7535 14.52015,15.43457 24.78979,11.14364 5.91186,-2.47014 8.65197,-6.33828 10.5961,-14.95831 0.68855,-3.05287 -1.52188,-76.02012 -5.0421,-166.44301 -7.53559,-193.56469 -7.42673,-220.01264 1.12574,-273.50705 7.50461,-46.94034 21.49181,-87.16137 40.48369,-116.41333 11.30931,-17.419 33.14915,-38.35728 48.44206,-46.44233 15.61864,-8.25726 13.59742,-8.59428 -3.34956,-0.55853 z" />
      <glyph
         glyph-name="glyph 16"
         id="glyph3969"
         unicode="p"
         d="m 540.10572,529.2582 c -10.83138,5.0201 -14.79851,10.94763 -16.82616,25.1409 l -1.4995,10.49656 -57.07718,1.20233 c -31.39245,0.66127 -52.96572,1.44596 -47.94061,1.74377 5.02509,0.29781 27.11381,3.09731 49.08601,6.22111 21.97223,3.12382 42.72577,5.6797 46.11901,5.6797 3.39323,0 6.79962,1.01955 7.56977,2.26566 0.77014,1.24613 -0.30133,22.57428 -2.38106,47.39587 -5.35641,63.92907 -3.10931,79.25927 12.41106,84.6697 10.23556,3.56812 19.52897,-1.75126 24.1362,-13.81517 3.67172,-9.61422 3.62742,-12.58839 -0.86684,-58.22327 -6.30048,-63.97502 -6.52332,-60.00865 3.3717,-60.00865 11.51541,0 20.3383,-5.32018 24.9541,-15.04731 6.97748,-14.70396 0.41654,-32.90109 -14.04035,-38.94159 -9.9095,-4.14045 -16.04797,-3.86316 -27.01615,1.22039 z m 21.84947,16.30266 c 4.93858,2.64304 5.87338,11.25553 1.67716,15.45177 -1.50754,1.50754 -6.13291,2.74097 -10.27862,2.74097 -6.82014,0 -7.53767,-0.63994 -7.53767,-6.72293 0,-4.35789 1.78585,-7.97369 5.07652,-10.27862 6.02342,-4.21893 5.50877,-4.16354 11.06261,-1.19122 z" />
      <glyph
         glyph-name="glyph 17"
         id="glyph3971"
         unicode="q"
         d="m 485.9375,425.95642 c 29.10842,8.58067 45.7652,24.63883 50.14759,48.34536 4.37332,23.65744 -11.74057,53.98399 -35.42081,66.66242 -10.58045,5.6648 -24.1242,9.0358 -36.3033,9.0358 -13.55268,0 -20.17618,3.30734 -24.01836,11.99317 -3.79609,8.58174 -2.55618,16.17788 3.65447,22.38853 6.06891,6.06891 13.17649,7.16996 27.75014,4.29878 48.01397,-9.45926 84.15405,-45.61234 88.65638,-88.68826 3.21536,-30.76297 -16.60502,-58.58355 -50.41436,-70.76333 -8.90711,-3.20876 -31.17189,-7.67148 -36.27419,-7.27072 -0.58234,0.0458 4.91775,1.84496 12.22244,3.99825 z" />
      <glyph
         glyph-name="glyph 18"
         id="glyph3973"
         unicode="r"
         d="m 490.77562,289.38844 c -8.66251,4.65419 -10.27226,9.24837 -10.73818,30.64673 -0.23722,10.89472 -1.82046,51.44921 -3.51828,90.12108 -4.22094,96.14088 -5.89063,149.56356 -7.05658,225.78125 -1.29622,84.73239 0.48197,102.75198 12.58684,127.55091 9.66558,19.80162 29.37197,36.81718 54.99147,47.48261 24.23041,10.08714 65.36075,17.98276 101.15906,19.41907 l 18.8313,0.75557 -18.75,-2.27639 c -84.9495,-10.31352 -125.46727,-33.94511 -137.43063,-80.15511 -3.96476,-15.31439 -4.45878,-35.01599 -2.59281,-103.40166 2.04266,-74.86087 4.78146,-114.74083 16.68621,-242.96875 3.25726,-35.08456 4.65635,-92.07942 2.45725,-100.10177 -0.95763,-3.49346 -3.46308,-7.96943 -5.56768,-9.94659 -4.59989,-4.32137 -15.59928,-5.8398 -21.05797,-2.90695 z" />
      <glyph
         glyph-name="glyph 19"
         id="glyph3975"
         unicode="s"
         d="m 523.77623,283.68859 c -3.72921,2.61207 -7.64107,9.26566 -9.9956,17.00138 -0.79999,2.62833 -2.1125,16.92228 -2.91671,31.76434 -2.42906,44.82991 -9.38483,83.67449 -30.4215,169.88944 -20.76854,85.11602 -26.53928,113.01053 -30.51747,147.51498 -3.65789,31.72633 0.30822,45.71929 18.21594,64.26847 23.82663,24.6801 67.01211,46.88702 115.07655,59.17489 24.01528,6.13961 35.81325,7.69057 18.34506,2.41163 -50.97772,-15.40558 -92.35931,-44.92781 -108.28777,-77.25409 -4.85715,-9.85746 -4.99162,-10.68925 -4.92515,-30.46875 0.11344,-33.74785 5.05258,-60.65679 30.40487,-165.64713 C 543.71858,398.96091 548.8877,369.8078 549.09103,331.25 c 0.14328,-27.15783 -1.95473,-36.66947 -9.98386,-45.26469 -4.91804,-5.26478 -10.00533,-6.0269 -15.33094,-2.29672 z m 93.1183,497.06627 c 1.12792,0.45136 2.47559,0.39586 2.9948,-0.12328 0.5192,-0.51921 -0.40366,-0.8885 -2.05078,-0.82066 -1.82024,0.075 -2.19047,0.44522 -0.94402,0.944 z" />
      <glyph
         glyph-name="glyph 20"
         id="glyph3977"
         unicode="t"
         d="m 538.72785,171.559 c -20.85363,5.65416 -36.49248,21.40669 -43.51542,43.83173 -5.17796,16.53383 -6.47877,56.72818 -10.80361,333.82802 -3.67028,235.16139 -3.67077,235.38266 -0.53605,241.40625 5.98422,11.49912 22.17881,14.16144 30.37159,4.99295 2.51258,-2.81181 4.50627,-7.36331 5.17308,-11.80995 1.06575,-7.10695 -0.0223,-76.61777 -4.60186,-293.96425 -2.70081,-128.18331 -5.06201,-218.08041 -6.21757,-236.71875 -1.78129,-28.73092 4.04443,-50.37667 17.0329,-63.28655 9.65106,-9.59265 19.64375,-13.27595 36.01731,-13.27595 34.6446,0 83.47394,26.51198 109.35594,59.375 l 4.30703,5.46875 -3.64734,-6.78123 c -13.8893,-25.8233 -48.81834,-51.66332 -82.61344,-61.11627 -16.89648,-4.72619 -37.18353,-5.5122 -50.32256,-1.94975 z" />
      <glyph
         glyph-name="glyph 21"
         id="glyph3979"
         unicode="u"
         d="m 595.88036,282.46395 c -64.29408,61.67128 -101.16536,132.11696 -116.91658,223.3788 -10.2967,59.65866 -11.14464,146.83491 -2.34806,241.40397 3.68987,39.66851 6.27614,47.11595 18.10067,52.1228 9.90377,4.19353 22.53355,-1.52974 25.03709,-11.34572 0.65944,-2.58552 -0.35887,-14.51393 -2.4457,-28.6488 C 496.79677,620.44625 494.0897,542.48745 507.16964,467.41347 519.92448,394.20536 550.1813,333.32698 599.8878,280.85938 c 7.12381,-7.51954 12.70006,-13.65294 12.39167,-13.6298 -0.30839,0.0231 -7.688,6.87861 -16.39911,15.23437 z" />
      <glyph
         glyph-name="glyph 22"
         id="glyph3981"
         unicode="v"
         d="m 488.7645,443.35938 c -6.10103,6.54131 -7.50934,10.30036 -7.57148,20.20978 -0.11,17.52958 15.88572,385.69786 16.94993,390.13272 0.59169,2.46572 5.84372,-85.42489 11.67119,-195.3125 11.34046,-213.84497 11.24463,-207.78516 3.40958,-215.62021 -2.97822,-2.97821 -5.35205,-3.70667 -12.07911,-3.70667 -7.12036,0 -8.9718,0.6426 -12.38011,4.29688 z" />
      <glyph
         glyph-name="glyph 23"
         id="glyph3983"
         unicode="w"
         d="m 639.3948,162.89063 c -54.77539,76.93672 -98.84121,150.47825 -118.40624,197.6084 -3.28902,7.92293 -6.09779,14.25107 -6.24167,14.0625 -0.14391,-0.18853 1.07369,-33.74121 2.70578,-74.56153 1.63207,-40.82031 2.53444,-77.96311 2.00523,-82.53951 -1.25532,-10.856 -6.72774,-17.33775 -15.55165,-18.42004 -8.45457,-1.03698 -16.08993,3.13915 -20.10997,10.99907 l -3.13693,6.13326 8.2147,276.67924 c 4.51808,152.17358 8.7111,278.75672 9.31784,281.29586 0.93207,3.90059 4.83705,-89.19553 11.20439,-267.11663 1.54718,-43.23222 4.19557,-62.4212 13.04816,-94.54009 19.50375,-70.76339 65.77213,-166.33803 123.85913,-255.85053 6.27378,-9.66797 11.10289,-17.57813 10.73132,-17.57813 -0.37157,0 -8.30962,10.72264 -17.64009,23.82813 z" />
      <glyph
         glyph-name="glyph 24"
         id="glyph3985"
         unicode="x"
         d="m 685.9375,544.79387 c -93.34823,5.05971 -143.33594,13.01571 -174.21875,27.7285 -16.12514,7.68214 -23.20477,13.50377 -27.91392,22.95382 -3.93441,7.89531 -4.11722,9.37679 -4.11491,33.34622 0.003,29.08139 1.46192,34.06517 11.39366,38.91685 7.45989,3.64421 15.06951,2.4551 21.56562,-3.3699 7.1305,-6.39385 7.83096,-17.62131 2.20219,-35.2985 -7.43375,-23.34569 -3.64509,-36.84541 13.68109,-48.74853 20.86682,-14.33552 50.34379,-20.37719 158.96752,-32.58236 30.28027,-3.40235 29.62569,-4.63658 -1.5625,-2.9461 z" />
      <glyph
         glyph-name="glyph 25"
         id="glyph3987"
         unicode="y"
         d="m 585.15626,210.72965 c -62.458,18.6493 -114.80116,56.35222 -130.81185,94.22416 -3.09651,7.32455 -3.50507,10.8678 -3.39242,29.42119 0.21447,35.31983 5.944,67.10403 30.27861,167.96875 24.94906,103.41162 28.75117,123.71014 31.1775,166.4495 1.12297,19.7807 2.06883,26.12203 4.86624,32.62479 4.02389,9.35378 9.40379,14.20696 15.74889,14.20696 12.46992,0 19.79207,-20.8241 18.04692,-51.32522 -1.87952,-32.84949 -7.39586,-62.09996 -26.85988,-142.42478 -14.90065,-61.49255 -19.50284,-81.49599 -24.0854,-104.6875 -9.93622,-50.28544 -13.26042,-91.42296 -8.8821,-109.91769 9.87414,-41.70995 47.76919,-77.659 101.72599,-96.50205 15.872,-5.5429 10.70787,-5.56809 -7.8125,-0.0381 z" />
      <glyph
         glyph-name="glyph 26"
         id="glyph3989"
         unicode="z"
         d="m 492.96874,492.74196 c -12.15235,5.55727 -14.60362,17.82109 -7.82014,39.12469 11.05794,34.72748 -3.12403,51.65948 -53.89861,64.35014 -20.47928,5.11861 -39.40015,7.95702 -99.21875,14.88427 -50.76872,5.87922 -51.20169,5.95907 -28.125,5.18676 89.54486,-2.99683 151.69471,-12.43101 184.9368,-28.07292 15.45231,-7.271 22.62281,-13.26308 27.44041,-22.93072 3.8204,-7.66655 4.02905,-9.36659 4.02905,-32.82864 0,-26.96769 -1.39918,-33.35389 -8.29797,-37.87417 -5.45443,-3.57386 -13.54443,-4.35519 -19.04579,-1.83941 z" />
      <glyph
         glyph-name="glyph 27"
         id="glyph3991"
         unicode="A"
         d="m 498.45231,221.875 c -0.21825,0.42969 -2.24445,59.49219 -4.50268,131.25 L 489.84375,483.59375 462.5,484.375 c -15.03906,0.42969 -28.22266,1.35009 -29.29687,2.04534 -3.1113,2.01368 -2.38746,10.11225 1.06915,11.96219 C 436.00995,499.3125 448.39936,500 463.42081,500 l 26.12627,0 -0.96936,25.39063 c -0.53314,13.96484 -2.50855,77.77343 -4.3898,141.79687 -3.12404,106.31961 -3.20775,116.90344 -0.96594,122.14409 3.3198,7.76064 9.37402,11.44966 18.7906,11.44966 6.55606,0 8.22561,-0.67917 11.96934,-4.86914 2.67656,-2.99561 4.74574,-7.50474 5.37755,-11.71875 0.87686,-5.8483 -6.70241,-230.63647 -9.12125,-270.52148 L 509.40908,500 l 25.66248,0 c 29.69296,0 33.67844,-0.92453 33.67844,-7.8125 0,-6.88375 -3.98781,-7.8125 -33.54511,-7.8125 l -25.52917,0 -0.96466,-16.01562 C 508.1805,459.55078 505.74452,400.3125 503.29775,336.71875 500.851,273.125 498.67055,221.44531 498.45231,221.875 Z" />
      <glyph
         glyph-name="glyph 28"
         id="glyph3993"
         unicode="B"
         d="m 338.69009,265.16759 c 1.94361,0.37374 4.75611,0.35955 6.25,-0.0316 1.49389,-0.39108 -0.0964,-0.69687 -3.53384,-0.67953 -3.4375,0.0173 -4.65977,0.33733 -2.71616,0.71106 z m 29.27866,3.64874 c 58.46347,9.13765 90.11533,18.57256 107.95519,32.17969 4.88261,3.72415 13.13856,17.52768 13.13856,21.96701 0,1.58147 -5.503,2.0718 -24.60938,2.19272 -29.60982,0.18739 -32.24003,0.73506 -32.94654,6.86023 -0.89577,7.76593 2.11006,8.60902 30.69304,8.60902 23.69874,0 25.60499,0.20947 24.88344,2.73438 -0.42978,1.5039 -2.01029,7.04609 -3.51225,12.31596 -4.88634,17.1446 -0.34892,30.1315 11.657,33.36435 7.78824,2.09715 16.55983,-0.71085 21.02921,-6.73199 2.80056,-3.77289 3.35454,-7.10706 3.82943,-23.04687 l 0.55519,-18.63583 20.04622,0 c 23.98711,0 28.06214,-1.13448 28.06214,-7.8125 0,-6.68967 -4.0345,-7.80012 -28.61734,-7.87655 l -20.60141,-0.0641 -3.55647,-7.58995 c -7.1012,-15.15485 -31.64008,-28.63471 -69.81137,-38.34927 -23.63788,-6.01581 -58.61193,-11.33501 -82.10091,-12.4867 l -16.40625,-0.80442 20.3125,3.17476 z m 65.78959,392.58884 c -4.19487,3.06738 -2.80914,10.82891 2.17916,12.20541 6.53461,1.8032 126.38828,1.59261 129.79022,-0.22805 4.71184,-2.5217 4.07725,-10.55878 -0.98569,-12.4837 -6.5032,-2.47252 -127.5498,-2.00458 -130.98369,0.50634 z" />
      <glyph
         glyph-name="glyph 29"
         id="glyph3995"
         unicode="C"
         d="m 435.9375,485.76442 c -4.9883,1.3765 -6.37403,9.13803 -2.17916,12.20541 3.43389,2.51092 124.48049,2.97886 130.98369,0.50634 3.09295,-1.17594 4.00797,-2.61162 4.00797,-6.28867 0,-3.67705 -0.91502,-5.11273 -4.00797,-6.28867 -4.54116,-1.72655 -122.58841,-1.84974 -128.80453,-0.13438 z m 56.39634,125.71406 c -9.72753,3.29485 -11.79159,8.1575 -12.42029,29.26069 l -0.55519,18.63583 -21.4118,0 c -24.03739,0 -27.31008,1.06561 -26.43998,8.60902 0.69147,5.99465 3.50936,6.6676 28.7264,6.86023 l 20.38924,0.15578 1.94675,5.38364 c 4.88751,13.51619 29.16881,29.04775 58.66372,37.52431 33.80361,9.71483 42.88142,10.80575 102.12668,12.2729 19.26583,0.47709 19.63888,0.42574 11.32813,-1.55927 -4.72656,-1.12894 -20.19531,-2.48363 -34.375,-3.01042 -28.27939,-1.05063 -44.23694,-3.83931 -66.4877,-11.61921 -22.99399,-8.03976 -34.20178,-16.11698 -39.96374,-28.80103 -4.79575,-10.55709 -5.62075,-10.19092 22.96041,-10.19092 14.85444,0 27.17181,-0.68923 28.90625,-1.61747 1.95339,-1.04542 3.02228,-3.26954 3.02228,-6.28867 0,-6.73073 -4.11347,-7.71886 -32.13297,-7.71886 -13.26436,0 -24.11703,-0.41819 -24.11703,-0.92931 0,-0.51113 1.49341,-5.84602 3.31867,-11.8553 4.77061,-15.70623 2.29247,-29.55039 -6.05304,-33.81533 -5.06674,-2.58934 -12.07591,-3.11068 -17.43179,-1.29657 z" />
      <glyph
         glyph-name="glyph 30"
         id="glyph3997"
         unicode="D"
         d="m 504.91126,209.9877 c -34.10086,14.71674 -50.64429,44.46633 -54.09415,97.27595 l -1.13266,17.33844 -7.69195,0.91099 c -9.7842,1.15879 -10.7425,1.81328 -10.7425,7.33665 0,5.6415 3.61658,7.77527 13.17853,7.77527 l 7.13397,0 0.008,7.42187 c 0.0192,16.86544 10.21178,74.19467 20.40177,114.75236 2.52437,10.04738 4.58976,19.01222 4.58976,19.92188 0,1.06084 -6.58317,1.70973 -18.35937,1.80964 -23.10963,0.19604 -26.01394,0.94237 -26.69655,6.86023 C 430.6312,498.98176 433.85466,500 458.76055,500 l 22.22558,0 8.63132,35.54687 c 16.79785,69.17945 22.88907,106.87406 22.87352,141.5496 -0.009,21.55907 -2.77178,44.34495 -7.13247,58.83843 -6.80478,22.61684 -22.29551,43.50415 -39.25644,52.93237 -10.14075,5.63704 -6.43736,5.12562 8.92777,-1.23286 39.1378,-16.19624 69.00487,-55.75204 75.08086,-99.43666 3.67164,-26.39818 -3.63191,-74.71343 -23.48874,-155.38525 -3.2787,-13.32032 -6.40454,-26.15235 -6.94629,-28.51563 l -0.985,-4.29687 21.02179,0 c 24.97678,0 29.03774,-1.09258 29.03774,-7.8125 0,-6.80067 -4.02888,-7.8125 -31.10774,-7.8125 l -23.09179,0 -5.74433,-25.39063 c -10.50167,-46.41873 -19.74364,-100.57215 -19.74364,-115.68801 0,-2.4425 3.07015,-2.67136 35.83578,-2.67136 19.70969,0 37.63937,-0.68572 39.84375,-1.52383 3.09295,-1.17594 4.00797,-2.61163 4.00797,-6.28867 0,-3.67705 -0.91502,-5.11274 -4.00797,-6.28867 C 562.53784,325.68572 544.60816,325 524.89847,325 c -27.62145,0 -35.83814,-0.44771 -35.84611,-1.95313 -0.006,-1.07422 -1.04523,-15.12 -2.31011,-31.21284 -3.94684,-50.21509 0.73189,-67.04463 22.54822,-81.10656 8.34184,-5.37683 6.92164,-5.61675 -4.37902,-0.73977 z" />
      <glyph
         glyph-name="glyph 31"
         id="glyph3999"
         unicode="E"
         d="m 465.06156,204.70586 c -4.44214,3.90025 -11.93656,16.21066 -11.93656,19.60711 0,0.50025 2.36817,-1.60147 5.26262,-4.67047 6.08086,-6.44759 8.36322,-6.82103 14.1015,-2.3073 11.24668,8.84663 14.88108,26.75108 14.95636,73.68043 l 0.0545,33.98437 -23.82813,0.15578 c -28.79566,0.18822 -31.46128,0.75675 -32.1653,6.86024 -0.89342,7.74562 2.14088,8.60901 30.25522,8.60901 l 25.22702,0 1.03525,83.20313 c 0.56937,45.76172 1.03595,117.48047 1.03683,159.375 l 0.002,76.17187 -26.26386,0 c -29.22439,0 -32.19094,0.81616 -31.29206,8.60902 0.70595,6.12028 3.34431,6.67265 32.76726,6.86023 l 24.4301,0.15578 0.75397,37.10938 c 0.63439,31.22404 1.27623,39.0457 4.04715,49.31867 6.74641,25.0118 17.49097,38.57195 30.56299,38.57195 5.20568,0 7.14081,-1.02872 12.54523,-6.66908 3.51455,-3.66798 7.18642,-9.26376 8.15972,-12.43504 l 1.76962,-5.76597 -5.09643,5.4038 c -5.91289,6.2695 -8.22474,6.62304 -13.93532,2.13109 -11.327,-8.90981 -15.01087,-26.92984 -15.01087,-73.42725 l 0,-34.23755 25.10272,0 c 14.3159,0 26.40142,-0.69504 28.125,-1.61747 1.95339,-1.04542 3.02228,-3.26954 3.02228,-6.28867 0,-6.72201 -4.11719,-7.71886 -31.88061,-7.71886 l -23.86469,0 -1.03359,-49.47356 c -0.56849,-27.21045 -1.03361,-98.9292 -1.03361,-159.375 l 0,-109.90144 24.89828,0 c 28.91547,0 32.91422,-0.94914 32.91422,-7.8125 0,-6.85692 -4.00208,-7.8125 -32.71988,-7.8125 l -24.70393,0 -0.79243,-37.10937 c -0.65703,-30.76856 -1.34125,-39.15688 -4.00432,-49.09231 -8.916,-33.26366 -26.21428,-47.4853 -41.46788,-34.09246 z" />
      <glyph
         glyph-name="glyph 32"
         id="glyph4001"
         unicode="F"
         d="m 498.03084,234.17969 c -0.63572,2.90039 -1.15584,11.75251 -1.15584,19.67139 0,7.91887 -0.46252,27.16692 -1.02783,42.77344 L 494.81936,325 l -27.48781,0.15578 c -32.61253,0.18475 -35.11014,0.66303 -35.82497,6.8602 -0.91117,7.89949 1.88145,8.60902 33.88423,8.60902 l 28.85603,0 -1.03494,37.89063 c -0.56923,20.83984 -1.49491,53.18359 -2.05706,71.875 l -1.0221,33.98437 -25.14449,0.15578 c -30.16772,0.18686 -32.7735,0.72078 -33.48167,6.86024 C 430.6077,499.18384 433.57425,500 462.79864,500 l 26.26386,0 0.0156,8.98438 c 0.009,4.9414 -1.81515,68.02235 -4.05285,140.17987 -4.36838,140.86334 -4.39546,139.70161 3.42451,146.94891 7.75328,7.1855 22.82894,5.75782 27.29375,-2.58475 4.17588,-7.80271 4.32269,-17.16402 1.42895,-91.11286 -1.64626,-42.06989 -2.68448,-76.79944 -2.30715,-77.17677 0.37734,-0.37733 1.1468,0.64505 1.70996,2.27195 11.0057,31.79524 41.57259,87.87775 79.96091,146.70802 C 613.43035,800.10914 648.15222,850 649.27665,850 c 0.35217,0 -4.30183,-7.82556 -10.34222,-17.39016 -59.31422,-93.92056 -103.43481,-188.64073 -120.17306,-257.99329 -5.10247,-21.1416 -9.38636,-50.95389 -9.38636,-65.32158 l 0,-9.29497 25.67953,0 c 29.71028,0 33.69547,-0.92398 33.69547,-7.8125 0,-6.88495 -3.98716,-7.8125 -33.58303,-7.8125 l -25.56711,0 -0.83683,-8.20312 c -0.46025,-4.51172 -1.57536,-31.40626 -2.478,-59.76563 -0.90264,-28.35937 -2.05609,-57.01172 -2.56323,-63.67187 l -0.92205,-12.10938 28.96716,0 c 33.05809,0 36.98309,-0.82914 36.98309,-7.8125 0,-6.97905 -3.92808,-7.8125 -36.82047,-7.8125 -28.78376,0 -28.80464,-0.003 -28.95956,-3.51562 -0.0853,-1.9336 -0.97139,-23.55469 -1.96916,-48.04688 -1.11147,-27.28331 -2.26181,-42.48873 -2.96998,-39.25781 z" />
      <glyph
         glyph-name="glyph 33"
         id="glyph4003"
         unicode="G"
         d="m 496.15885,199.57725 c -5.87706,1.49286 -9.97625,5.34516 -12.60287,11.84377 -2.31892,5.73731 -2.52586,10.70567 -1.67194,40.14148 0.536,18.47656 1.40596,42.55859 1.93325,53.51562 L 484.77601,325 l -22.46614,0.15578 c -27.37727,0.18977 -30.10395,0.79703 -30.80331,6.8602 -0.88519,7.6743 2.24204,8.60902 28.8025,8.60902 l 23.77428,0 0.89908,14.45312 c 0.49448,7.94922 1.63876,41.17188 2.54284,73.82813 2.673,96.55152 4.65436,143.81295 7.10733,169.53125 2.17717,22.82675 6.16255,52.13898 7.91347,58.20313 0.7344,2.54351 -1.54189,2.73437 -32.61089,2.73437 -36.88267,0 -39.35766,0.55447 -38.42861,8.60902 0.38003,3.2947 1.60153,4.84581 4.43092,5.62656 2.14844,0.59286 18.82056,1.14801 37.04916,1.23367 l 33.14289,0.15578 1.64817,6.64063 c 4.73797,19.0897 15.01761,47.88304 22.49486,63.00825 17.67862,35.76084 38.50722,58.44954 66.53672,72.47881 16.73342,8.37537 22.03812,9.36006 7.10231,1.31837 -8.89002,-4.78653 -16.61297,-10.78423 -26.76999,-20.78981 -19.60337,-19.31106 -30.74148,-37.09483 -43.40842,-69.3085 -4.90818,-12.48212 -14.9832,-47.37462 -14.9832,-51.89084 0,-0.83183 9.42952,-1.45691 21.97772,-1.45691 12.16176,0 23.32758,-0.72242 25,-1.61747 1.95339,-1.04542 3.02228,-3.26954 3.02228,-6.28867 0,-6.66814 -4.13828,-7.71886 -30.40108,-7.71886 l -22.38514,0 -0.95178,-3.79219 c -2.58909,-10.31573 -5.85959,-47.18921 -6.66227,-75.11406 -0.78631,-27.35562 2.99518,-153.55984 6.63639,-221.48437 l 0.98421,-18.35938 22.38186,0 c 26.35761,0 30.39781,-1.03836 30.39781,-7.8125 0,-6.77508 -4.03981,-7.8125 -30.42272,-7.8125 l -22.40678,0 0.65152,-12.10937 c 2.18987,-40.70188 3.45543,-92.60268 2.37264,-97.30239 -1.99372,-8.65349 -4.71527,-12.55296 -10.42649,-14.93927 -5.4375,-2.27194 -7.07522,-2.41394 -12.3593,-1.07172 z" />
      <glyph
         glyph-name="glyph 34"
         id="glyph4005"
         unicode="H"
         d="m 435.9375,326.38942 c -4.9883,1.3765 -6.37403,9.13803 -2.17916,12.20541 3.43389,2.51092 124.48049,2.97886 130.98369,0.50634 3.09295,-1.17594 4.00797,-2.61162 4.00797,-6.28867 0,-3.67705 -0.91502,-5.11273 -4.00797,-6.28867 -4.54116,-1.72655 -122.58841,-1.84974 -128.80453,-0.13438 z m 44.53125,218.97275 c -12.17814,1.87731 -33.84827,8.61653 -43.75,13.60588 -31.13969,15.69084 -58.56112,45.52045 -65.72841,71.5007 -3.99759,14.4907 -4.84011,51.74642 -1.53867,68.03973 6.061,29.91222 22.6852,56.66107 47.5486,76.50708 18.96145,15.13508 34.96214,20.48235 46.10185,15.40675 5.51977,-2.51497 8.11775,-9.45951 5.7118,-15.26797 -2.49528,-6.02417 -6.39165,-9.35911 -20.32398,-17.39543 -22.97755,-13.25374 -41.8681,-38.07869 -47.65417,-62.6246 -3.06746,-13.01284 -3.08361,-40.21912 -0.0311,-52.2279 6.99506,-27.51841 26.43661,-51.85285 52.27416,-65.43008 13.75694,-7.22908 27.07914,-10.23733 45.46226,-10.26574 20.23113,-0.0312 31.178,2.19813 45.9901,9.36614 21.16634,10.24299 36.88342,25.67946 46.91722,46.07952 7.37212,14.98853 10.11409,26.95619 10.11409,44.14416 0,33.47995 -9.76631,56.95259 -32.57138,78.28293 l -7.27237,6.8021 7.5995,-5.2396 c 10.03191,-6.91665 25.49475,-23.61279 31.96423,-34.51362 12.01563,-20.24591 17.49958,-46.63636 14.51965,-69.87277 -3.58866,-27.98281 -12.9453,-47.41045 -32.09671,-66.64389 -14.5837,-14.64617 -27.85062,-21.93594 -49.36842,-27.1264 -15.47012,-3.73166 -40.51478,-5.18547 -53.86825,-3.12699 z m -46.71041,116.043 c -4.19487,3.06738 -2.80914,10.82891 2.17916,12.20541 6.53461,1.8032 126.38828,1.59261 129.79022,-0.22805 4.71184,-2.5217 4.07725,-10.55878 -0.98569,-12.4837 -6.5032,-2.47252 -127.5498,-2.00458 -130.98369,0.50634 z" />
      <glyph
         glyph-name="glyph 35"
         id="glyph4007"
         unicode="I"
         d="m 396.01253,181.67559 c 14.76283,7.85247 37.32153,29.13794 47.57191,44.88691 22.24625,34.17975 37.64901,82.97273 44.82853,142.00806 2.72665,22.42067 4.78878,93.38114 3.10523,106.85575 l -1.11806,8.94869 -25.2782,0.15578 c -30.30711,0.18674 -32.9068,0.71728 -33.61536,6.86024 -0.90352,7.83309 2.00098,8.60898 32.22745,8.60898 l 27.19925,0 -0.95858,17.57812 c -0.52723,9.66797 -1.64392,37.26563 -2.48154,61.32813 -0.83763,24.0625 -1.95958,52.01172 -2.49322,62.10938 l -0.97027,18.35937 -23.74744,0 c -26.53175,0 -29.66068,0.93611 -28.77565,8.60902 0.69811,6.05231 3.44026,6.67 30.45505,6.86023 l 22.11787,0.15578 -0.65152,12.10938 c -2.18987,40.70187 -3.45543,92.60267 -2.37264,97.30239 2.00927,8.72098 4.72485,12.55697 10.63854,15.02786 10.14365,4.23829 20.48426,-0.30007 24.74596,-10.86064 2.72128,-6.74339 2.66182,-29.7048 -0.24054,-92.87586 l -0.95121,-20.70313 23.72868,0 c 13.36873,0 25.0482,-0.70619 26.75095,-1.61747 1.95339,-1.04542 3.02228,-3.26954 3.02228,-6.28867 0,-6.67456 -4.13594,-7.71886 -30.57047,-7.71886 -12.40498,0 -22.58634,-0.17578 -22.62523,-0.39062 -0.35257,-1.94793 -4.53303,-134.89644 -4.56925,-145.3125 l -0.0475,-13.67188 24.89828,0 c 28.91547,0 32.91422,-0.94914 32.91422,-7.8125 0,-6.88072 -3.98949,-7.8125 -33.44983,-7.8125 l -25.43391,0 -1.04014,-28.79366 c -4.92192,-136.25085 -33.65408,-221.55992 -88.31575,-262.21951 -7.63044,-5.67583 -32.35869,-18.41152 -35.58436,-18.32686 -0.73275,0.0192 4.25619,3.0075 11.08652,6.64062 z" />
      <glyph
         glyph-name="glyph 36"
         id="glyph4009"
         unicode="J"
         d="m 492.1893,290.16167 c -7.07872,3.63466 -9.72285,9.4798 -10.6213,23.4795 L 480.83905,325 l -20.49766,0.15578 c -25.3297,0.19247 -28.14291,0.86177 -28.83481,6.86024 -0.87642,7.5982 2.33895,8.60898 27.38581,8.60898 22.14352,0 22.35763,0.0336 22.35925,3.51562 0.003,6.427 4.58375,64.34743 7.7687,98.23002 1.72732,18.37583 3.14655,35.3442 3.15386,37.70748 l 0.0141,4.29688 -26.17188,0.15578 c -31.23925,0.18591 -33.79786,0.69455 -34.50905,6.86024 C 430.59773,499.27717 433.4138,500 465.04745,500 l 28.51186,0 0.89116,6.64062 c 2.16036,16.09835 5.6782,75.3654 7.27303,122.53272 2.06298,61.01343 1.20753,108.64714 -2.16041,120.29747 -13.35543,46.19897 -52.11915,68.91766 -135.49979,79.41388 l -17.96875,2.26197 14.84375,-0.79322 c 77.57217,-4.14535 130.26468,-24.48866 152.01506,-58.68935 10.42511,-16.39262 14.81467,-32.23515 16.60931,-59.94534 1.28405,-19.82645 -0.5472,-179.01347 -2.29626,-199.60938 L 526.23805,500 l 17.2484,0 c 21.15338,0 25.26435,-1.27123 25.26435,-7.8125 0,-6.53245 -4.11283,-7.8125 -25.10172,-7.8125 -9.39717,0 -17.092,-0.17578 -17.0996,-0.39062 -0.008,-0.21485 -1.4034,-29.57032 -3.10179,-65.23438 -1.69838,-35.66406 -3.09843,-67.83203 -3.11119,-71.48438 l -0.0233,-6.64062 20.21078,0 c 24.15401,0 28.22672,-1.12723 28.22672,-7.8125 0,-6.6753 -4.07589,-7.8125 -28.00119,-7.8125 l -19.98525,0 -0.87253,-11.53672 c -0.85445,-11.29801 -3.49542,-18.95683 -7.75616,-22.49292 -4.08993,-3.39436 -14.118,-3.80094 -19.94558,-0.80869 z" />
      <glyph
         glyph-name="glyph 37"
         id="glyph4011"
         unicode="K"
         d="m 655.8776,369.85509 c 1.94361,0.37374 4.75611,0.35955 6.25,-0.0316 1.49388,-0.39108 -0.0964,-0.69687 -3.53385,-0.67953 -3.4375,0.0173 -4.65977,0.33733 -2.71615,0.71106 z m -29.3151,1.51921 c -22.49357,2.31028 -55.63634,7.88914 -72.72591,12.24183 -38.83587,9.89143 -62.48916,23.05231 -70.36613,39.1522 -4.01914,8.21484 -4.08922,8.90542 -3.55089,34.99398 l 0.54918,26.61375 -20.3125,0.15516 c -25.13694,0.19208 -27.95853,0.86766 -28.64968,6.8597 -0.9889,8.57358 -0.71209,8.60908 67.12786,8.60908 36.56762,0 63.7475,-0.62652 66.1076,-1.52383 3.09295,-1.17594 4.00797,-2.61162 4.00797,-6.28867 0,-6.75098 -4.04944,-7.8125 -29.80287,-7.8125 l -21.78692,0 0.93339,-8.20312 c 0.72678,-6.38722 0.0425,-10.97024 -3.0914,-20.70313 -10.89125,-33.82544 0.43602,-51.93583 40.87928,-65.35898 18.26641,-6.06264 44.41022,-11.71883 76.14977,-16.47494 17.42094,-2.6105 18.86672,-3.02802 10.15625,-2.933 -5.58594,0.0609 -12.61719,0.36355 -15.625,0.67247 z M 433.75835,661.40517 c -4.19487,3.06738 -2.80915,10.82891 2.17916,12.20541 6.53461,1.8032 126.38827,1.59261 129.79022,-0.22805 4.71184,-2.5217 4.07725,-10.55878 -0.98569,-12.4837 -6.5032,-2.47252 -127.5498,-2.00458 -130.98369,0.50634 z" />
      <glyph
         glyph-name="glyph 38"
         id="glyph4013"
         unicode="L"
         d="m 435.9375,485.76442 c -4.9883,1.3765 -6.37403,9.13803 -2.17916,12.20541 3.43389,2.51092 124.48049,2.97886 130.98369,0.50634 3.09295,-1.17594 4.00797,-2.61162 4.00797,-6.28867 0,-3.67705 -0.91502,-5.11273 -4.00797,-6.28867 -4.54116,-1.72655 -122.58841,-1.84974 -128.80453,-0.13438 z m -2.17916,175.64075 c -4.19487,3.06738 -2.80914,10.82891 2.17916,12.20541 6.53461,1.8032 126.38828,1.59261 129.79022,-0.22805 4.71184,-2.5217 4.07725,-10.55878 -0.98569,-12.4837 -6.5032,-2.47252 -127.5498,-2.00458 -130.98369,0.50634 z m 55.6365,80.39171 c -4.53131,27.28515 -8.21762,53.6381 -8.19179,58.56212 0.055,10.48527 3.5957,20.41045 8.40548,23.56194 8.82147,5.78006 22.02766,3.84472 26.13506,-3.83003 5.23663,-9.78474 4.9895,-12.76382 -5.91156,-71.26278 -5.80512,-31.15235 -10.92459,-56.64063 -11.37659,-56.64063 -0.45202,0 -4.52928,22.32422 -9.0606,49.60938 z" />
      <glyph
         glyph-name="glyph 39"
         id="glyph4015"
         unicode="M"
         d="m 435.9375,485.76442 c -4.9883,1.3765 -6.37403,9.13803 -2.17916,12.20541 3.43389,2.51092 124.48049,2.97886 130.98369,0.50634 3.09295,-1.17594 4.00797,-2.61162 4.00797,-6.28867 0,-3.67705 -0.91502,-5.11273 -4.00797,-6.28867 -4.54115,-1.72655 -122.5884,-1.84974 -128.80453,-0.13438 z m 57.31811,47.43871 c -7.10105,33.16901 -7.76645,38.2836 -6.91663,53.16359 0.84569,14.80739 10.04099,60.50828 12.17464,60.50828 0.65596,0 3.89057,-10.72266 7.18804,-23.82812 5.31615,-21.12857 5.99159,-25.95238 5.96196,-42.57813 -0.0294,-16.43178 -0.76854,-21.69608 -5.97917,-42.57812 -3.27015,-13.10547 -6.48243,-23.82813 -7.1384,-23.82813 -0.65597,0 -3.03667,8.61328 -5.29044,19.14063 z m -59.49727,128.20204 c -4.19487,3.06738 -2.80914,10.82891 2.17916,12.20541 6.53461,1.8032 126.38828,1.59261 129.79022,-0.22805 4.71184,-2.5217 4.07725,-10.55878 -0.98569,-12.4837 -6.5032,-2.47252 -127.5498,-2.00458 -130.98369,0.50634 z" />
      <glyph
         glyph-name="glyph 40"
         id="glyph4017"
         unicode="N"
         d="m 435.9375,326.38942 c -4.9883,1.3765 -6.37402,9.13803 -2.17916,12.20541 3.43389,2.51092 124.48049,2.97886 130.98369,0.50634 3.09295,-1.17594 4.00797,-2.61162 4.00797,-6.28867 0,-3.67705 -0.91502,-5.11273 -4.00797,-6.28867 -4.54115,-1.72655 -122.5884,-1.84974 -128.80453,-0.13438 z m 56.38252,21.57564 c -7.71194,4.06996 -11.0569,11.4801 -11.13468,24.66681 -0.0619,10.49702 15.56882,110.18022 17.27674,110.1805 0.44321,7e-5 5.58615,-25.29765 11.42877,-56.21715 11.68426,-61.83389 11.97197,-66.81244 4.35353,-75.33817 -5.29736,-5.92825 -14.35271,-7.28793 -21.92436,-3.29199 z m -58.56168,313.44011 c -4.19487,3.06738 -2.80914,10.82891 2.17916,12.20541 6.53462,1.8032 126.38828,1.59261 129.79022,-0.22805 4.71185,-2.5217 4.07726,-10.55878 -0.98569,-12.4837 -6.5032,-2.47252 -127.5498,-2.00458 -130.98369,0.50634 z" />
      <glyph
         glyph-name="glyph 41"
         id="glyph4019"
         unicode="O"
         d="m 600.56204,181.11706 c -15.76062,7.47324 -26.47443,15.35611 -39.73176,29.23333 -12.94574,13.55109 -21.28063,25.88603 -31.20591,46.18212 -6.98024,14.2739 -17.27599,43.41121 -21.84667,61.82686 L 506.12953,325 l -33.14289,0.15578 c -18.2286,0.0856 -34.90072,0.64078 -37.04916,1.23364 -2.82939,0.78075 -4.05089,2.33186 -4.43092,5.62656 -0.92905,8.05455 1.54593,8.60902 38.42861,8.60902 31.069,0 33.34529,0.19086 32.61089,2.73437 -1.74996,6.06083 -5.73602,35.37244 -7.91497,58.20313 -2.68936,28.17875 -4.06616,63.36808 -9.61866,245.84161 -3.82392,125.66678 -3.91832,134.54942 -1.49726,140.88887 4.10793,10.75647 14.52013,15.43806 24.79093,11.14664 5.91187,-2.47014 8.65197,-6.33828 10.5961,-14.95831 0.68854,-3.05287 -1.52188,-76.02012 -5.0421,-166.44302 -6.65418,-170.92439 -7.00562,-210.34396 -2.22695,-249.79298 1.33488,-11.01976 2.85535,-21.74242 3.37883,-23.82812 l 0.95178,-3.79219 22.38514,0 c 26.36094,0 30.40108,-1.03824 30.40108,-7.8125 0,-6.72383 -4.05956,-7.8125 -29.13211,-7.8125 l -21.11619,0 0.99853,-5.07813 c 4.09047,-20.80261 15.7188,-54.66996 25.18491,-73.35067 13.74516,-27.12515 37.95052,-53.64743 59.22647,-64.89561 15.61864,-8.25726 13.59742,-8.59428 -3.34956,-0.55853 z" />
      <glyph
         glyph-name="glyph 42"
         id="glyph4021"
         unicode="P"
         d="m 435.93749,326.38943 c -4.9883,1.3765 -6.37404,9.13803 -2.17916,12.20541 3.43389,2.51092 124.48048,2.97886 130.98369,0.50634 3.09295,-1.17594 4.00796,-2.61162 4.00796,-6.28867 0,-3.67705 -0.91501,-5.11273 -4.00796,-6.28867 -4.54116,-1.72655 -122.58841,-1.84974 -128.80453,-0.13438 z m 67.96875,201.57597 c -7.40938,3.43409 -10.12316,7.4889 -11.51019,17.19801 l -1.02577,7.18035 -39.04453,0.82247 c -21.47448,0.45234 -36.23201,0.98914 -32.79451,1.19284 3.4375,0.20372 18.54762,2.11877 33.57804,4.25566 15.03044,2.1369 29.22722,3.88528 31.54842,3.88528 2.32119,0 4.65139,0.69743 5.17822,1.54986 0.52683,0.85243 -0.20612,15.44228 -1.62879,32.42187 -3.66414,43.73167 -2.12697,54.21853 8.48996,57.91962 7.0018,2.44083 13.3591,-1.19798 16.51075,-9.45048 2.51169,-6.57675 2.48139,-8.61128 -0.59298,-39.82853 -4.30994,-43.76309 -4.46238,-41.04984 2.30647,-41.04984 7.8773,0 13.91272,-3.63936 17.07023,-10.29335 4.77307,-10.05847 0.28494,-22.5065 -9.60451,-26.63857 -6.77875,-2.83235 -10.97786,-2.64266 -18.48081,0.83481 z m 14.94646,11.15208 c 3.37832,1.80801 4.01778,7.69953 1.14728,10.57003 -1.03125,1.03125 -4.19531,1.875 -7.03125,1.875 -4.66542,0 -5.15625,-0.43777 -5.15625,-4.59891 0,-2.98109 1.22163,-5.45455 3.47268,-7.03125 4.1204,-2.88605 3.76836,-2.84814 7.56754,-0.81487 z m -85.09437,122.2877 c -4.19488,3.06737 -2.80914,10.8289 2.17916,12.2054 6.53461,1.80321 126.38828,1.59261 129.79021,-0.22804 4.71185,-2.52171 4.07725,-10.55878 -0.98568,-12.48371 -6.50321,-2.47251 -127.5498,-2.00457 -130.98369,0.50635 z" />
      <glyph
         glyph-name="glyph 43"
         id="glyph4023"
         unicode="Q"
         d="m 435.9375,326.38942 c -4.9883,1.3765 -6.37402,9.13803 -2.17916,12.20541 3.43389,2.51092 124.48049,2.97886 130.98369,0.50634 3.09295,-1.17594 4.00797,-2.61162 4.00797,-6.28867 0,-3.67705 -0.91502,-5.11273 -4.00797,-6.28867 -4.54116,-1.72655 -122.5884,-1.84974 -128.80453,-0.13438 z m 50,99.567 c 29.10842,8.58067 45.76521,24.63883 50.1476,48.34536 4.37332,23.65744 -11.74058,53.98399 -35.42081,66.66242 -10.58045,5.6648 -24.1242,9.0358 -36.3033,9.0358 -13.55268,0 -20.17619,3.30734 -24.01836,11.99317 -3.7961,8.58174 -2.55619,16.17788 3.65446,22.38853 6.06891,6.06891 13.17649,7.16996 27.75014,4.29878 48.01397,-9.45926 84.15405,-45.61234 88.65638,-88.68826 3.21536,-30.76297 -16.60502,-58.58355 -50.41436,-70.76333 -8.90711,-3.20877 -31.17189,-7.67148 -36.27419,-7.27072 -0.58234,0.0458 4.91775,1.84496 12.22244,3.99825 z m -52.17916,235.44875 c -4.19487,3.06738 -2.80914,10.82891 2.17916,12.20541 6.53462,1.8032 126.38828,1.59261 129.79022,-0.22805 4.71185,-2.5217 4.07726,-10.55878 -0.98569,-12.4837 -6.5032,-2.47252 -127.5498,-2.00458 -130.98369,0.50634 z" />
      <glyph
         glyph-name="glyph 44"
         id="glyph4025"
         unicode="R"
         d="m 490.77562,289.38844 c -7.34775,3.94778 -9.98335,9.59109 -10.76211,23.04378 L 479.28597,325 l -19.72112,0.15578 c -24.52292,0.19367 -27.36959,0.88969 -28.05828,6.86024 -0.87122,7.55317 2.39159,8.60898 26.60456,8.60898 19.51566,0 21.57425,0.26116 21.55428,2.73437 -0.0125,1.50391 -1.40845,31.91407 -3.10292,67.57813 -1.69447,35.66406 -3.09078,66.77734 -3.10292,69.14062 l -0.022,4.29688 -16.79688,0.15578 c -21.49061,0.19927 -24.45919,1.00953 -25.13404,6.86024 -0.84819,7.35345 2.58948,8.60898 23.57178,8.60898 10.19895,0 18.19356,0.56631 17.76578,1.25848 -0.42778,0.69218 -1.61553,45.16483 -2.63946,98.82813 -2.33035,122.13417 -1.28942,136.49423 11.84474,163.4018 9.66558,19.80162 29.37197,36.81718 54.99147,47.48261 24.2304,10.08714 65.36075,17.98276 101.15906,19.41907 l 18.8313,0.75557 -18.75,-2.27639 c -60.39211,-7.33207 -96.72708,-20.97774 -118.51111,-44.50708 -14.126,-15.25777 -20.76258,-33.25994 -22.35814,-60.64803 -1.82599,-31.34308 3.53522,-172.36497 8.16334,-214.72978 L 506.5569,500 l 27.08862,0 c 31.14458,0 35.10455,-0.88128 35.10455,-7.8125 0,-6.91259 -3.97132,-7.8125 -34.47672,-7.8125 -24.16589,0 -26.45924,-0.23714 -26.44291,-2.73437 0.009,-1.50391 1.71522,-21.01563 3.78975,-43.35938 2.07452,-22.34375 4.64855,-53.45703 5.72005,-69.14062 l 1.94819,-28.51563 20.72284,0 c 24.67345,0 28.7388,-1.10514 28.7388,-7.8125 0,-6.71867 -4.06139,-7.8125 -29.00797,-7.8125 l -20.99203,0 -0.009,-8.98437 c -0.0176,-18.21971 -5.36645,-26.78532 -17.47211,-27.98004 -3.8174,-0.37675 -8.36578,0.20963 -10.49354,1.35285 z" />
      <glyph
         glyph-name="glyph 45"
         id="glyph4027"
         unicode="S"
         d="m 523.76425,283.697 c -5.57442,3.90448 -9.80653,14.07627 -11.73219,28.19809 l -1.787,13.10491 -35.20065,0.15578 c -19.36036,0.0856 -36.95847,0.64081 -39.10691,1.23367 -2.82939,0.78075 -4.05089,2.33186 -4.43092,5.62657 -0.94133,8.16093 1.25733,8.60901 42.24322,8.60901 l 37.215,0 -0.90827,8.98438 c -1.9242,19.03395 -5.77489,44.31872 -10.29164,67.57812 -5.01325,25.81605 -7.02452,34.56256 -25.33061,110.15625 -13.12973,54.21827 -20.15842,88.11781 -22.83967,110.15625 -2.79106,22.94105 -2.34572,21.875 -9.13824,21.875 -7.9954,0 -11.61073,2.86286 -10.94979,8.6708 0.48015,4.21926 1.21014,4.73233 8.60354,6.0469 7.67015,1.3638 8.13011,1.71952 9.09166,7.03125 4.26803,23.57713 29.42309,48.319 69.20136,68.06475 21.07739,10.46272 42.29303,18.35574 64.8143,24.1134 24.01528,6.1396 35.81325,7.69056 18.34506,2.41162 -60.16648,-18.18244 -108.76975,-58.13542 -113.49064,-93.29184 l -0.99663,-7.42188 37.81511,0 c 23.07886,0 38.99286,-0.63031 40.83738,-1.61747 4.71184,-2.5217 4.07725,-10.55878 -0.98569,-12.4837 -2.20437,-0.83811 -20.49394,-1.52383 -40.64347,-1.52383 l -36.6355,0 0.75946,-5.85937 c 0.4177,-3.22266 1.5486,-12.1875 2.51314,-19.92188 2.9069,-23.3099 10.17134,-57.33915 28.01879,-131.25 18.60735,-77.05781 23.52964,-100.6452 27.38963,-131.25 4.25189,-33.712 3.26262,-30.46875 9.29375,-30.46875 9.1874,0 13.31217,-2.4207 13.31217,-7.8125 0,-5.36658 -4.12236,-7.8125 -13.16719,-7.8125 l -5.15126,0 -1.01847,-9.94084 c -2.59905,-25.36824 -14.11052,-39.44391 -25.64883,-31.36216 z m 93.13028,497.05786 c 1.12792,0.45136 2.47559,0.39586 2.9948,-0.12328 0.5192,-0.5192 -0.40366,-0.8885 -2.05078,-0.82066 -1.82024,0.075 -2.19047,0.44522 -0.94402,0.944 z" />
      <glyph
         glyph-name="glyph 46"
         id="glyph4029"
         unicode="T"
         d="m 538.72786,171.559 c -20.8523,5.6538 -36.48814,21.40236 -43.518,43.83174 -3.72406,11.88195 -5.99201,43.25609 -6.0879,84.21864 L 489.06256,325 l -24.60938,0.15578 c -29.60982,0.18739 -32.24003,0.73507 -32.94654,6.86024 -0.89614,7.76911 2.10509,8.60898 30.76351,8.60898 l 25.73533,0 -1.03395,51.81756 c -0.56869,28.49968 -1.03397,60.84343 -1.03397,71.87501 l 0,20.05743 -23.04688,0.15578 c -27.98189,0.1891 -30.68265,0.77946 -31.38404,6.86024 -0.88605,7.68173 2.23197,8.60901 28.94831,8.60901 l 23.92011,0 0.0141,25.39063 c 0.008,13.96484 -0.77809,77.77344 -1.74722,141.79687 -1.57028,103.73733 -1.50106,117.03072 0.63591,122.1441 3.23647,7.7442 9.29936,11.44966 18.73406,11.44966 6.58608,0 8.21953,-0.67238 12.05097,-4.9605 3.2013,-3.58288 4.71066,-7.27132 5.43485,-13.28125 0.55146,-4.57641 -0.093,-63.86763 -1.43216,-131.75826 -1.33914,-67.89062 -2.43625,-129.58984 -2.43802,-137.10937 l -0.003,-13.67188 22.55453,0 c 26.533,0 30.57047,-1.03181 30.57047,-7.8125 0,-6.80148 -4.02852,-7.8125 -31.12995,-7.8125 l -23.11404,0 -1.05017,-61.32812 c -0.57761,-33.73047 -1.47137,-66.07422 -1.98615,-71.875 l -0.93597,-10.54688 25.10017,0 c 29.12083,0 33.11611,-0.94253 33.11611,-7.8125 0,-6.86336 -3.99875,-7.8125 -32.91422,-7.8125 l -24.89828,0 -0.0509,-6.64062 c -0.028,-3.65235 -0.67586,-23.25567 -1.43969,-43.56294 -2.04664,-54.412 0.87322,-69.73983 16.18402,-84.95798 9.65106,-9.59266 19.64375,-13.27596 36.01731,-13.27596 34.6446,0 83.47394,26.51199 109.35594,59.375 l 4.30703,5.46875 -3.64734,-6.78123 c -13.8893,-25.8233 -48.81835,-51.66331 -82.61344,-61.11627 -16.89649,-4.72619 -37.18353,-5.5122 -50.32256,-1.94975 z" />
      <glyph
         glyph-name="glyph 47"
         id="glyph4031"
         unicode="U"
         d="m 595.88035,282.46395 c -55.02243,52.77788 -90.27731,112.60149 -108.3997,183.9423 l -4.36608,17.1875 -23.97916,0.78125 c -13.18854,0.42969 -24.85808,1.35009 -25.93229,2.04534 -3.1113,2.01368 -2.38746,10.11225 1.06916,11.96219 1.66224,0.88961 12.64857,1.61747 24.41405,1.61747 l 21.39179,0 -1.00277,5.01386 c -5.0455,25.22748 -8.72719,75.89266 -8.74741,120.37677 l -0.0156,33.98437 -16.88886,0 c -19.22467,0 -22.75033,1.38488 -21.91706,8.60902 0.66943,5.80373 3.67759,6.65856 24.14117,6.86023 l 15.80404,0.15578 1.09584,19.92188 c 2.04942,37.25776 7.02223,84.58448 9.51433,90.54892 3.14542,7.52803 6.61897,11.34314 12.65442,13.89872 9.90376,4.19353 22.53355,-1.52974 25.03709,-11.34572 0.65949,-2.5857 -0.35906,-14.51294 -2.44648,-28.6488 -4.72166,-31.97456 -10.95797,-78.20459 -11.01311,-81.64062 -0.0402,-2.50488 2.32523,-2.73438 28.18383,-2.73438 16.47004,0 29.48659,-0.67372 31.25,-1.61747 1.95339,-1.04542 3.02228,-3.26954 3.02228,-6.28867 0,-6.85026 -4.0521,-7.71886 -36.00945,-7.71886 -27.76086,0 -27.9999,-0.0292 -28.76225,-3.51562 -3.74944,-17.14699 -5.698,-115.5425 -2.839,-143.35938 l 1.20445,-11.71875 31.25,-0.78125 c 17.1875,-0.42969 32.1289,-1.35009 33.20312,-2.04534 1.07422,-0.69525 1.95313,-3.34936 1.95313,-5.89805 0,-6.8113 -4.09402,-7.68161 -36.13495,-7.68161 l -28.11904,0 1.03529,-7.42187 c 3.499,-25.08422 13.34601,-61.3598 23.58164,-86.87275 16.42561,-40.94188 38.79911,-75.46905 70.77486,-109.221 7.12381,-7.51953 12.70006,-13.65294 12.39167,-13.6298 -0.30839,0.0231 -7.688,6.87861 -16.39911,15.23437 z" />
      <glyph
         glyph-name="glyph 48"
         id="glyph4033"
         unicode="V"
         d="m 435.9375,326.38942 c -4.9883,1.3765 -6.37403,9.13803 -2.17916,12.20541 3.4339,2.51092 124.48049,2.97886 130.98369,0.50634 3.09296,-1.17593 4.00797,-2.61162 4.00797,-6.28867 0,-3.67705 -0.91501,-5.11273 -4.00797,-6.28867 -4.54115,-1.72655 -122.5884,-1.84974 -128.80453,-0.13438 z m 52.827,116.96996 c -6.54519,7.01751 -7.5145,10.38023 -7.5145,26.06915 l 0,14.94647 -20.70312,0.15578 c -25.5433,0.19216 -28.34758,0.85463 -29.0403,6.86024 C 430.62522,499.032 433.79231,500 459.67364,500 l 23.13886,0 -0.0573,4.29688 c -0.17192,12.89087 14.48692,345.64531 15.39308,349.42165 0.59385,2.47488 5.1406,-73.11106 10.10385,-167.96875 4.96327,-94.85768 9.39879,-175.45681 9.85672,-179.10915 L 518.94148,500 l 20.89628,0 c 24.84948,0 28.91228,-1.09783 28.91228,-7.8125 0,-6.71248 -4.06356,-7.8125 -28.86022,-7.8125 l -20.84428,0 0.81497,-12.10937 c 0.95414,-14.17766 -1.2827,-24.14241 -6.61678,-29.47649 -2.99988,-2.99987 -5.35942,-3.72664 -12.09908,-3.72664 -7.12036,0 -8.9718,0.6426 -12.38011,4.29688 z" />
      <glyph
         glyph-name="glyph 49"
         id="glyph4035"
         unicode="W"
         d="m 639.3948,162.89062 c -36.3584,51.06847 -73.81244,109.74499 -94.74974,148.4375 L 537.24692,325 l -10.0297,0 -10.02972,0 0.003,-12.89063 c 0.002,-7.08984 0.74788,-29.41406 1.65761,-49.60937 1.94978,-43.28361 1.30939,-51.49999 -4.52265,-58.02661 -8.27516,-9.26067 -23.98285,-6.72194 -30.32717,4.90161 -2.81011,5.14844 -2.92979,8.1228 -2.04322,50.78125 0.51793,24.92187 1.35609,49.70703 1.86257,55.07812 L 484.7385,325 l -22.44764,0.15578 c -27.35801,0.18981 -30.08553,0.79763 -30.78482,6.86023 -0.88563,7.68171 2.23239,8.60899 28.94873,8.60899 13.15606,0 23.92786,0.52734 23.93733,1.17187 0.009,0.64454 2.11109,68.32032 4.67028,150.39063 2.55919,82.07031 4.66081,153.26172 4.67028,158.20312 l 0.0172,8.98438 -28.60761,0 c -31.73633,0 -34.54588,0.71909 -33.63581,8.60901 0.715,6.19872 3.20948,6.6755 35.89206,6.86024 l 27.5549,0.15578 1.06682,48.04687 c 0.58675,26.42579 1.60718,49.80469 2.26764,51.95313 0.69979,2.27641 1.64379,-10.43636 2.2625,-30.46875 0.58394,-18.90625 1.50526,-42.28516 2.0474,-51.95313 l 0.98571,-17.57812 29.56092,0 c 17.38905,0 30.80534,-0.666 32.58319,-1.61747 1.95339,-1.04542 3.02228,-3.26955 3.02228,-6.28867 0,-6.86927 -4.04031,-7.71886 -36.70758,-7.71886 l -28.69163,0 0.66746,-8.20313 c 0.36711,-4.51172 1.71103,-39.49218 2.98648,-77.73437 1.27547,-38.24219 2.69417,-77.65633 3.15269,-87.587 1.75008,-37.90325 10.39408,-74.69731 29.25391,-124.52237 l 7.83656,-20.70313 6.74309,0 c 3.70869,0 8.59125,-0.70267 10.85013,-1.5615 3.44665,-1.31041 4.02829,-2.37817 3.61734,-6.64062 -0.4415,-4.57921 -1.14333,-5.22402 -7.13033,-6.5511 -3.65234,-0.80958 -6.64062,-1.86903 -6.64062,-2.35431 0,-0.4853 7.26712,-15.64322 16.14917,-33.68428 23.2277,-47.17972 47.84453,-90.6263 75.46689,-133.19256 6.2738,-9.66797 11.10289,-17.57813 10.73133,-17.57813 -0.37156,0 -8.30961,10.72266 -17.6401,23.82813 z m -115.36689,190.625 c -3.0476,7.08985 -6.54252,15 -7.76647,17.57813 l -2.22539,4.6875 0.77728,-6.25 c 0.4275,-3.4375 0.78501,-11.34766 0.79447,-17.57813 l 0.0172,-11.32812 6.97199,0 6.97198,0 z" />
      <glyph
         glyph-name="glyph 50"
         id="glyph4037"
         unicode="X"
         d="m 435.9375,485.76442 c -4.9883,1.3765 -6.37403,9.13803 -2.17916,12.20541 3.43389,2.51092 124.48049,2.97886 130.98369,0.50634 3.09295,-1.17594 4.00797,-2.61162 4.00797,-6.28867 0,-3.67705 -0.91502,-5.11273 -4.00797,-6.28867 -4.54116,-1.72655 -122.58841,-1.84974 -128.80453,-0.13438 z m 250,59.02946 c -93.34823,5.0597 -143.33594,13.0157 -174.21875,27.7285 -16.41662,7.821 -23.27881,13.52621 -28.08512,23.35 -4.15857,8.49978 -4.20149,8.91957 -3.68622,36.05282 l 0.52134,27.45291 -21.96698,-0.002 c -24.63011,-0.002 -27.8691,1.031 -26.99519,8.60746 0.38003,3.2947 1.60153,4.84581 4.43092,5.62656 6.53461,1.8032 126.38828,1.59261 129.79022,-0.22805 1.95339,-1.04542 3.02228,-3.26955 3.02228,-6.28867 0,-6.63994 -4.14811,-7.71886 -29.67633,-7.71886 l -21.66037,0 0.86745,-8.40494 c 0.67802,-6.56934 -0.0709,-11.35201 -3.42936,-21.8992 -7.43375,-23.34569 -3.64509,-36.84541 13.68109,-48.74853 20.86682,-14.33552 50.34379,-20.37719 158.96752,-32.58236 30.28027,-3.40234 29.62569,-4.63658 -1.5625,-2.94609 z" />
      <glyph
         glyph-name="glyph 51"
         id="glyph4039"
         unicode="Y"
         d="m 585.15623,210.72966 c -62.458,18.64929 -114.80116,56.35221 -130.81184,94.22415 -3.09652,7.32455 -3.50508,10.8678 -3.39243,29.42119 0.21463,35.3458 5.95649,67.18267 30.29357,167.96875 17.84745,73.91084 25.11189,107.94009 28.01879,131.25 0.96453,7.73437 2.09544,16.69922 2.51314,19.92187 l 0.75946,5.85938 -38.00108,0 c -41.83208,0 -43.97289,0.42831 -43.02928,8.60901 0.38003,3.29471 1.60153,4.84582 4.43092,5.62657 2.14844,0.59286 20.16309,1.14801 40.03255,1.23367 l 36.12631,0.15578 1.10384,9.75672 c 3.34641,29.5783 21.98228,41.23528 32.62044,20.4045 2.63211,-5.15399 5.74186,-18.99203 5.74186,-25.55063 0,-4.24378 0.44327,-4.61059 5.57147,-4.61059 8.10226,0 11.61603,-2.39155 11.61603,-7.90614 0,-5.17209 -4.17402,-7.71886 -12.65075,-7.71886 -5.45767,0 -5.22633,0.61942 -7.58648,-20.3125 -2.61736,-23.21313 -9.22924,-55.11542 -24.28755,-117.1875 -14.87949,-61.33498 -19.49955,-81.40362 -24.10036,-104.6875 -9.93622,-50.28544 -13.26042,-91.42295 -8.88209,-109.91769 9.87414,-41.70995 47.76918,-77.659 101.72598,-96.50204 15.872,-5.54291 10.70787,-5.5681 -7.8125,-0.0381 z" />
      <glyph
         glyph-name="glyph 52"
         id="glyph4041"
         unicode="Z"
         d="m 435.9375,485.76439 c -2.8294,0.78075 -4.0509,2.33186 -4.43093,5.62656 -0.8812,7.63974 2.28738,8.60902 28.14311,8.60902 l 23.11491,0 -0.95923,9.17734 c -0.78289,7.49035 -0.16885,11.6595 3.34044,22.68044 11.06101,34.73719 -3.11658,51.66719 -53.8958,64.35901 -20.47929,5.11861 -39.40016,7.95701 -99.21876,14.88426 -50.76872,5.87922 -51.20169,5.95908 -28.125,5.18677 89.54486,-2.99683 151.69471,-12.43102 184.93681,-28.07293 15.45231,-7.271 22.62281,-13.26307 27.4404,-22.93072 3.81725,-7.66021 4.02905,-9.37796 4.02905,-32.67673 0,-13.52533 -0.68572,-26.3951 -1.52383,-28.59947 l -1.52383,-4.00797 21.73462,0 c 25.70031,0 29.75054,-1.0636 29.75054,-7.8125 0,-3.67705 -0.91501,-5.11274 -4.00797,-6.28867 -4.54115,-1.72655 -122.58841,-1.84974 -128.80453,-0.13438 z m -2.17916,175.64076 c -4.19488,3.06738 -2.80914,10.82891 2.17916,12.20541 6.53461,1.8032 126.38828,1.59261 129.79022,-0.22805 4.71185,-2.5217 4.07725,-10.55878 -0.98569,-12.4837 -6.5032,-2.47252 -127.5498,-2.00458 -130.98369,0.50634 z" />
      <glyph
         glyph-name="glyph 63"
         id="glyph3848"
         unicode=" " />
    </font>
</defs>
</svg>
