<?xml version="1.0" standalone="no"?>
<!DOCTYPE svg PUBLIC "-//W3C//DTD SVG 1.1//EN" "http://www.w3.org/Graphics/SVG/1.1/DTD/svg11.dtd" >
<svg>
<metadata>
Created by FontForge 20090914 at Fri Feb 26 23:30:14 2016
 By www-data
Copyright (c) 2016, root
</metadata>
<defs>
<font id="Aymeone-sidedoutline" horiz-adv-x="610" >
  <font-face 
    font-family="Ayme one-sided outline"
    font-weight="400"
    font-stretch="normal"
    units-per-em="1000"
    panose-1="2 0 5 3 0 0 0 0 0 0"
    ascent="800"
    descent="-200"
    x-height="453.996"
    cap-height="666.003"
    bbox="28.4356 -200.002 847.001 734.128"
    underline-thickness="50"
    underline-position="-100"
    unicode-range="U+0020-U+0094"
  />
<missing-glyph horiz-adv-x="364" 
d="M33 0v666h265v-666h-265zM66 33h199v600h-199v-600z" />
    <glyph glyph-name=".notdef" horiz-adv-x="364" 
d="M33 0v666h265v-666h-265zM66 33h199v600h-199v-600z" />
    <glyph glyph-name="space" unicode=" " horiz-adv-x="454" 
 />
    <glyph glyph-name="exclam" unicode="!" horiz-adv-x="279" 
d="M85 59c0 8.66699 5.83398 19.167 17.501 31.5s24.5 21.166 38.5 26.499c8 3.33301 15.167 4.5 21.5 3.5s16.5 -5.16699 30.5 -12.5c27.333 -13.333 44.666 -26.666 51.999 -39.999s5 -28.666 -7 -45.999c-14.667 -20.667 -33.5 -33.334 -56.5 -38.001
s-44.833 -0.666992 -65.5 12c-20.667 13.333 -31 34.333 -31 63zM108.001 143c-8.66699 0 -18.166 4.33496 -28.499 13.002s-15.5 16.667 -15.5 24c0 1.33301 -0.166992 8.16602 -0.5 20.499s-0.666016 30.5 -0.999023 54.5s-0.5 46 -0.5 66
c-0.666992 63.333 -1.83398 102.666 -3.50098 117.999s-6.5 29.666 -14.5 42.999c-11.333 19.333 -15.333 37.666 -12 54.999c3.33301 16.667 10.5 31 21.5 43s21.5 16.667 31.5 14s24.333 0.333008 43 9c34.667 16.667 61 19.834 79 9.50098s22 -33.166 12 -68.499
c-6 -26 -9.66699 -63.5 -11 -112.5s0.333984 -94.5 5.00098 -136.5c3.33301 -31.333 4.66602 -51.5 3.99902 -60.5s-4 -16.5 -10 -22.5c-14 -16 -31.833 -31.5 -53.5 -46.5s-36.834 -22.5 -45.501 -22.5z" />
    <glyph glyph-name="quotedbl" unicode="&#x22;" horiz-adv-x="324" 
d="M248 345c-16.667 0 -28.668 3.83398 -36.001 11.501s-13 22.167 -17 43.5c-5.33301 30 -4.83301 64 1.5 102s15.833 64 28.5 78c4 4.66699 12 7.66699 24 9s21 0 27 -4c18 -12 22.333 -37.333 13 -76c-5.33301 -18.667 -8.66602 -49.334 -9.99902 -92.001
c0 -32 -1.83301 -52 -5.5 -60s-12.167 -12 -25.5 -12zM110.999 428.001c0 -24.667 -4.66797 -41.332 -14.001 -49.999c-6 -5.33301 -10.833 -8.16602 -14.5 -8.49902s-9.83398 1.5 -18.501 5.5c-18 8.66699 -28.667 28 -32 58s-2.33301 59.667 3 89
c0.666992 7.33301 1.33398 12.666 2.00098 15.999c1.33301 27.333 7.33301 45.333 18 54c10.667 9.33301 23.167 13 37.5 11s24.833 -8.66699 31.5 -20c4.66699 -8.66699 6.83398 -16.834 6.50098 -24.501s-2.83301 -22.167 -7.5 -43.5c-8 -36 -12 -65 -12 -87z" />
    <glyph glyph-name="dollar" unicode="$" horiz-adv-x="408" 
d="M254 164c-6.66699 0 -11.6689 -18.999 -15.002 -56.999s-1.66602 -58 5.00098 -60c6 -2 14.833 1.16699 26.5 9.5s18.834 16.166 21.501 23.499c3.33301 6 -1 21.5 -13 46.5s-20.333 37.5 -25 37.5zM175.998 459.001c0.666992 22.667 -1.5 35.667 -6.5 39
s-13.833 -1.66699 -26.5 -15c-22 -22.667 -21 -52.667 3 -90l20 -29c6.66699 31.333 10 63 10 95zM375.998 115.001c5.33301 -45.333 -5.66992 -82.3369 -33.0029 -111.004s-64.666 -40.667 -111.999 -36l4 -30c4 -26 1.66699 -45.667 -7 -59s-22 -18 -40 -14
c-17.333 4.66699 -29 11.667 -35 21s-9.66699 27.666 -11 54.999l-4 51c-42.667 26.667 -72.667 49 -90 67c-8.66699 10.667 -14 19 -16 25s-2.33301 16.667 -1 32c2.66699 23.333 7.33398 38.333 14.001 45c4 4 8.16699 4.66699 12.5 2s12.5 -11.334 24.5 -26.001
c14.667 -18 28.334 -32.333 41.001 -43s20.334 -14.667 23.001 -12c4 10.667 10 64 18 160c-66 66 -104 111.667 -114 137c-18 48 -19.333 87.333 -4 118c7.33301 14.667 23 32.334 47 53.001s43 33 57 37c10 2.66699 16.333 5.83398 19 9.50098
s4.33398 10.834 5.00098 21.501c1.33301 28 3 44.833 5 50.5s8.66699 10.834 20 15.501s24 5.83398 38 3.50098s23.333 -7.16602 28 -14.499c3.33301 -4 4.33301 -21 3 -51c-0.666992 -22 0.333008 -35.833 3 -41.5s10.667 -13.5 24 -23.5c28 -19.333 38.667 -41 32 -65
c-2.66699 -7.33301 -7.16699 -11.833 -13.5 -13.5s-17.833 -1.83398 -34.5 -0.500977c-10.667 0.666992 -16.334 -1 -17.001 -5c2 -11.333 -1.33301 -74.666 -10 -189.999l34 -32c24 -21.333 44.167 -44.5 60.5 -69.5s26.166 -47.167 29.499 -66.5z" />
    <glyph glyph-name="percent" unicode="%" horiz-adv-x="566" 
d="M433 103c0.666992 -6.66699 3.66504 -3.99902 8.99805 8.00098c8.66699 20.667 11.334 30.667 8.00098 30c-2 2 -5.33301 -1 -10 -9c-5.33301 -10.667 -7.66602 -20.334 -6.99902 -29.001zM469.998 283.001c16.667 0 29.666 -6.50098 38.999 -19.501
s11.333 -27.167 6 -42.5c-4 -10.667 -1.33301 -25 8 -43c17.333 -34.667 17.333 -71 0 -109s-45.666 -63.667 -84.999 -77c-23.333 -7.33301 -45.333 -4.5 -66 8.5s-32.667 31.833 -36 56.5c-3.33301 25.333 4.5 60.833 23.5 106.5s39.833 77.834 62.5 96.501
c17.333 15.333 33.333 23 48 23zM270.997 49c0 -22 -3.00195 -39.333 -9.00195 -52s-16.333 -24 -31 -34c-7.33301 -6 -14.333 -9.66699 -21 -11s-13.334 -0.5 -20.001 2.5s-11.834 5.83301 -15.501 8.5s-8.83398 7 -15.501 13c-13.333 17.333 -8.33301 51.333 15 102
c22 49.333 48.167 105.166 78.5 167.499s50.5 104.833 60.5 127.5c8.66699 22.667 11.334 34 8.00098 34c-1.33301 0 -3.33301 -0.666992 -6 -2c-2 -0.666992 -37.333 -9.66699 -106 -27c-11.333 -70.667 -36.666 -113.334 -75.999 -128.001
c-15.333 -6.66699 -28.833 -8.66699 -40.5 -6s-25.167 10.667 -40.5 24c-10.667 10 -17 18.667 -19 26s-3 27.333 -3 60c0 28 1.33301 49 4 63s9.33398 35 20.001 63c25.333 62.667 51.666 98.334 78.999 107.001c8.66699 3.33301 21.334 -3.83398 38.001 -21.501
s23.667 -31.5 21 -41.5c-2.66699 -10.667 -0.833984 -22.167 5.49902 -34.5s13.833 -18.5 22.5 -18.5c36 0 76.667 10.667 122 32c15.333 6.66699 26.5 13.334 33.5 20.001s14.167 17 21.5 31c4 8 8.5 15.667 13.5 23s11.333 15 19 23s15.334 14.167 23.001 18.5
s16.334 6 26.001 5s19.167 -5.5 28.5 -13.5c12.667 -12 17.667 -25 15 -39s-14.334 -33.333 -35.001 -58c-25.333 -31.333 -64.666 -104.666 -117.999 -219.999c-49.333 -108 -78.666 -170.667 -87.999 -188c-6.66699 -12 -10 -30.667 -10 -56z" />
    <glyph glyph-name="ampersand" unicode="&#x26;" horiz-adv-x="458" 
d="M294 342c1.33301 26 -1.83105 42.3311 -9.49805 48.998s-26.834 5.33398 -57.501 -3.99902c-18.667 -6.66699 -40.834 -17.667 -66.501 -33s-38.5 -25.666 -38.5 -30.999c0 -6 7.5 -9.16699 22.5 -9.5s33.167 1.66699 54.5 6s40 8.5 56 12.5zM157.003 221.998
c0 1.33301 -11.001 3.99707 -33.001 7.99707c-12.667 1.33301 -23 4.33301 -31 9s-18.333 13.334 -31 26.001c-20.667 20.667 -31.167 39.167 -31.5 55.5s9.83398 34.833 30.501 55.5c27.333 26.667 62.833 49.5 106.5 68.5s82.5 28.167 116.5 27.5h1h1
c20 -0.666992 32.333 2 37 8c5.33301 9.33301 9.33301 42.666 12 99.999c0.666992 6 1 10.667 1 14c3.33301 53.333 7.33301 85.333 12 96c4 8.66699 12.667 12.667 26 12s25 -5.66699 35 -15c7.33301 -7.33301 11.666 -15.166 12.999 -23.499s1 -30.166 -1 -65.499
c-0.666992 -20.667 -3.83398 -51.834 -9.50098 -93.501s-7.5 -77.5 -5.5 -107.5c2 -22 2.5 -36.5 1.5 -43.5s-4.5 -13.5 -10.5 -19.5c-10.667 -10.667 -17 -22.334 -19 -35.001c-2 -10 -2.16699 -16.667 -0.5 -20s7.16699 -6.33301 16.5 -9
c17.333 -6 27.833 -16.167 31.5 -30.5s2.83398 -40.166 -2.49902 -77.499c-3.33301 -19.333 -6.16602 -54.666 -8.49902 -105.999s-4.83301 -84.666 -7.5 -99.999c-4.66699 -7.33301 -14.334 -11.666 -29.001 -12.999s-26.334 1 -35.001 7
c-11.333 7.33301 -18.5 20 -21.5 38s-2.16699 46.667 2.5 86c4.66699 42 6.33398 64.667 5.00098 68c-2.66699 1.33301 -15 -2.66699 -37 -12c-23.333 -10.667 -49.166 -19.334 -77.499 -26.001s-48.166 -8.66699 -59.499 -6c-10.667 2 -20.334 8.5 -29.001 19.5
s-13.667 23.167 -15 36.5c-0.666992 11.333 7 25 23 41c15.333 15.333 23 24.333 23 27z" />
    <glyph glyph-name="quotesingle" unicode="'" horiz-adv-x="150" 
d="M30 569c0 21.333 0.830078 35.332 2.49707 41.999s5.83398 12.334 12.501 17.001c11.333 8 23.333 11.5 36 10.5s22.334 -6.16699 29.001 -15.5c6 -9.33301 9.5 -36 10.5 -80s-1.5 -69.667 -7.5 -77c-8.66699 -10.667 -21.667 -11.667 -39 -3s-29.666 22 -36.999 40
c-4.66699 15.333 -7 37.333 -7 66z" />
    <glyph glyph-name="parenleft" unicode="(" horiz-adv-x="308" 
d="M156 632c17.333 0 29.6641 -4.99902 36.9971 -14.999c6.66699 -8.66699 10.5 -18.667 11.5 -30s-1.16699 -18.333 -6.5 -21c-6.66699 -4 -16.667 -22.667 -30 -56s-24 -67.333 -32 -102c-12.667 -50 -19.5 -103 -20.5 -159s4.16699 -96 15.5 -120s24.333 -43.5 39 -58.5
s34.334 -28.167 59.001 -39.5c26 -12 41.5 -21.167 46.5 -27.5s3.16699 -13.833 -5.5 -22.5c-6.66699 -8.66699 -22 -13 -46 -13c-29.333 0 -60.166 12.667 -92.499 38s-58.833 57.666 -79.5 96.999c-8 15.333 -13.167 29.5 -15.5 42.5s-4.16602 36.833 -5.49902 71.5
c-3.33301 84 4.66699 161.667 24 233c5.33301 20 16.5 52 33.5 96s28.167 70 33.5 78c4 5.33301 15.333 8 34 8z" />
    <glyph glyph-name="parenright" unicode=")" horiz-adv-x="296" 
d="M54 610c17.333 10 33.333 10 48 0c8.66699 -7.33301 24 -27.5 46 -60.5s40.333 -63.833 55 -92.5c37.333 -72 58 -141.333 62 -208s-8.33301 -137 -37 -211c-8.66699 -20.667 -16.834 -36.5 -24.501 -47.5s-19.834 -24.5 -36.501 -40.5c-27.333 -26 -45.333 -39 -54 -39
c-36.667 -3.33301 -56.667 -1 -60 7s7.33398 27.333 32.001 58c64 80 94.5 167.667 91.5 263s-38.833 185.333 -107.5 270c-23.333 28.667 -36.166 50.167 -38.499 64.5s5.5 26.5 23.5 36.5z" />
    <glyph glyph-name="asterisk" unicode="*" horiz-adv-x="387" 
d="M357 438c0 -10.667 -1.32812 -18.5039 -3.99512 -23.5039s-8.33398 -10.167 -17.001 -15.5c-8 -4.66699 -14 -10.167 -18 -16.5s-7.66699 -15.166 -11 -26.499s-6 -19.666 -8 -24.999c-4.66699 -8.66699 -12.834 -13.834 -24.501 -15.501
s-29.834 0.166016 -54.501 5.49902c-8.66699 2 -16.167 1.5 -22.5 -1.5s-16.5 -10.5 -30.5 -22.5c-20.667 -18.667 -39.667 -28 -57 -28s-29.666 1.83301 -36.999 5.5s-14 11.167 -20 22.5c-7.33301 14.667 -9.83301 26.334 -7.5 35.001s11.833 22.334 28.5 41.001
c20.667 24 31 37 31 39c0 1.33301 -7.33301 5.66602 -22 12.999c-18 8.66699 -30.5 16.834 -37.5 24.501s-11.833 18.834 -14.5 33.501c-3.33301 23.333 2.5 39.666 17.5 48.999s34.833 9 59.5 -1c26 -11.333 39 -8.66602 39 8.00098c0 12 3.16699 25.833 9.5 41.5
s12.166 24.167 17.499 25.5c48.667 12.667 78 -10.666 88 -69.999c2.66699 -18.667 5.5 -30 8.5 -34s9.5 -6.33301 19.5 -7c17.333 -0.666992 28.666 -1.83398 33.999 -3.50098s11.666 -6.16699 18.999 -13.5c9.33301 -9.33301 14 -22.666 14 -39.999z" />
    <glyph glyph-name="plus" unicode="+" horiz-adv-x="659" 
d="M303 527c16.667 0 28.333 -6.66797 35 -20.001s12 -39.333 16 -78c4.66699 -46.667 11.334 -71.334 20.001 -74.001c4 -2 41.667 1.66699 113 11s109 13.333 113 12c11.333 -3.33301 19.5 -10 24.5 -20s6.16699 -21.333 3.5 -34c-3.33301 -15.333 -9 -25 -17 -29
c-13.333 -6.66699 -67.666 -14 -162.999 -22h-1h-1h-1h-1h-1l-1 -1h-1h-1h-1h-1h-1h-1h-1h-1h-1h-1h-1l-1 -1h-1h-1h-1h-2h-1l-57 -5c-5.33301 -42 -8.33301 -87 -9 -135c0 -28.667 -0.666992 -47.5 -2 -56.5s-5 -16.5 -11 -22.5c-16 -16 -37 -16 -63 0l-24 14l5 44
c9.33301 89.333 11.333 136 6 140c-21.333 4 -90 0.666992 -206 -10l-16 18c-11.333 12 -17 25 -17 39s6 25.333 18 34c8 6.66699 17.667 10.334 29 11.001s39.333 0.333984 84 -0.999023c64 -2.66699 98.667 -1 104 5s5.66602 33.333 0.999023 82
c-2.66699 32.667 -3.66699 53.5 -3 62.5s3.66699 16.833 9 23.5c7.33301 8.66699 17.666 13 30.999 13z" />
    <glyph glyph-name="comma" unicode="," horiz-adv-x="188" 
d="M132 -81c-4.66699 -2 -10.499 -3.66504 -17.499 -4.99805s-14.5 -2.16602 -22.5 -2.49902s-14.667 1 -20 4s-7.66602 7.5 -6.99902 13.5c-2.66699 14 -3 25 -1 33c2.66699 10 1.66699 26.667 -3 50s-11.334 44.666 -20.001 63.999
c-6.66699 13.333 -10.334 22.666 -11.001 27.999s1 11.666 5 18.999c4 9.33301 9.33301 16.333 16 21c5.33301 4 13.5 5.83301 24.5 5.5s20.167 -2.5 27.5 -6.5c8.66699 -4.66699 19 -21.5 31 -50.5s19.667 -54.833 23 -77.5c2.66699 -22.667 1.66699 -43.167 -3 -61.5
s-12 -29.833 -22 -34.5z" />
    <glyph glyph-name="hyphen" unicode="-" horiz-adv-x="371" 
d="M305 171c-119.333 0 -182.332 -2.33008 -188.999 -6.99707c-4 -6.66699 -13.167 -9 -27.5 -7s-26.166 7.33301 -35.499 16c-10.667 9.33301 -17.834 22.166 -21.501 38.499s-1.83398 29.166 5.49902 38.499c4.66699 5.33301 13.5 8.83301 26.5 10.5s42.5 2.5 88.5 2.5
c64.667 -1.33301 104 0.666992 118 6c10 4 16.5 5.66699 19.5 5s10.833 -4.66699 23.5 -12c34 -20.667 38 -44.334 12 -71.001z" />
    <glyph glyph-name="period" unicode="." horiz-adv-x="165" 
d="M135 92c0 -13.333 -5.16895 -26.8311 -15.502 -40.498s-20.5 -20.5 -30.5 -20.5c-8.66699 0 -19.667 4.5 -33 13.5s-20.666 17.167 -21.999 24.5c-9.33301 35.333 -5.66602 58.333 11.001 69c20 13.333 41.333 14.666 64 3.99902c10.667 -5.33301 17.667 -11.333 21 -18
s5 -17.334 5 -32.001z" />
    <glyph glyph-name="slash" unicode="/" horiz-adv-x="446" 
d="M298 496c3.33301 11.333 1.99805 16.999 -4.00195 16.999c-5.33301 -1.33301 -11 -6.33301 -17 -15c-4.66699 -8 -10.167 -24.167 -16.5 -48.5s-9.16602 -41.166 -8.49902 -50.499c0 -3.33301 3.66699 2 11 16c18.667 36 30.334 63 35.001 81zM148.998 -32.001
c-12 0 -26.5029 -3.49707 -43.5029 -10.4971s-30.5 -10.5 -40.5 -10.5c-15.333 0 -25.333 4.83301 -30 14.5s-5.66699 26.167 -3 49.5c6.66699 55.333 45.334 174.666 116.001 357.999c23.333 62 37 111 41 147c2.66699 24 5.66699 40.5 9 49.5s9.33301 17.833 18 26.5
c9.33301 9.33301 17.333 15.166 24 17.499s18.334 3.16602 35.001 2.49902c26.667 0 45 1.66699 55 5c16.667 7.33301 32.5 8.83301 47.5 4.5s25.833 -13.5 32.5 -27.5c4.66699 -10.667 6.16699 -20.167 4.5 -28.5s-9.5 -30.5 -23.5 -66.5
c-24.667 -61.333 -54 -126.666 -88 -195.999c-62 -126.667 -93 -204.334 -93 -233.001c0.666992 -13.333 -3.66602 -30 -12.999 -50s-14.333 -31 -15 -33c-3.33301 -8 -7 -13.167 -11 -15.5s-11.333 -3.5 -22 -3.5z" />
    <glyph glyph-name="zero" unicode="0" horiz-adv-x="557" 
d="M200 534c-6.66699 0 -19.168 -16 -37.501 -48s-29.166 -57 -32.499 -75c-12.667 -66 -19 -111.333 -19 -136s6.33301 -55.334 19 -92.001c3.33301 -10 10.166 -22.667 20.499 -38s20.333 -28.166 30 -38.499s15.834 -14.5 18.501 -12.5l4 89c4 225.333 3 342.333 -3 351z
M383.999 569c-7.33301 4.66699 -23 8.33203 -47 10.999s-36.333 2.33398 -37 -0.999023c-8.66699 -28.667 -14 -113 -16 -253s0.333008 -217.333 7 -232c5.33301 -6 13.666 -7 24.999 -3s23.833 13.167 37.5 27.5s24.5 29.833 32.5 46.5c6 10.667 14.833 34 26.5 70
s19.834 64.333 24.501 85c3.33301 13.333 2.16602 38 -3.50098 74s-12.167 61.333 -19.5 76c-7.33301 16 -8 31.667 -2 47c4.66699 12.667 5.33398 22 2.00098 28s-13.333 14 -30 24zM454.999 561.998c0 -8.66699 5.66895 -14.6631 17.002 -17.9961
c23.333 -6 37 -25.667 41 -59c6 -36 9.33301 -54.667 10 -56c4 -18.667 5.16699 -48.167 3.5 -88.5s-5.83398 -73.166 -12.501 -98.499c-7.33301 -30.667 -21.833 -66.667 -43.5 -108s-40.5 -70 -56.5 -86c-17.333 -16 -33.666 -27.333 -48.999 -34
s-39.333 -12.334 -72 -17.001c-48 -6.66699 -87.5 -2.33398 -118.5 12.999s-61.5 46 -91.5 92c-28.667 43.333 -45.167 73.5 -49.5 90.5s-3.83301 51.167 1.5 102.5c6 58 13.333 101.333 22 130c8.66699 24 13 40 13 48c0 6.66699 10 23.667 30 51s38 48.666 54 63.999
c17.333 16.667 31.666 28.167 42.999 34.5s31 13.166 59 20.499c20 5.33301 43.167 7.16602 69.5 5.49902s47.5 -6.16699 63.5 -13.5c13.333 -6 27.666 -17.5 42.999 -34.5s23 -29.833 23 -38.5z" />
    <glyph glyph-name="one" unicode="1" horiz-adv-x="604" 
d="M309 470c-0.666992 34.667 -3.3291 55.0029 -7.99609 61.0029s-15.334 3 -32.001 -9c-10.667 -6.66699 -13.334 -14.667 -8.00098 -24c4 -6.66699 6.66699 -75.334 8 -206.001c0 -24 0.166992 -46 0.5 -66s0.666016 -37.667 0.999023 -53s0.833008 -28.166 1.5 -38.499
s1.5 -18.166 2.5 -23.499s1.83301 -8 2.5 -8c4 1.33301 7 7.66602 9 18.999s4.33301 35.666 7 72.999c0.666992 23.333 3.66699 67.166 9 131.499s7.66602 112.166 6.99902 143.499zM339.005 667.003c19.333 0 33.667 -4.33691 43 -13.0039s13.666 -21.334 12.999 -38.001
c-1.33301 -43.333 -3.33301 -98.666 -6 -165.999s-4.5 -116.333 -5.5 -147s-1.33301 -64 -1 -100s2.16602 -66 5.49902 -90l86 4c42 2.66699 67.167 3.66699 75.5 3s14.5 -4.66699 18.5 -12c6.66699 -12 7.66699 -23.667 3 -35s-13.667 -19.666 -27 -24.999
c-16.667 -8 -57.667 -13.667 -123 -17c-55.333 -4 -92.666 -8 -111.999 -12s-38 -11.333 -56 -22c-12 -7.33301 -20.167 -11 -24.5 -11s-13.833 3.33301 -28.5 10c-18.667 8 -30.667 16.667 -36 26c-4 7.33301 -5.33301 19 -4 35s4.33301 27 9 33
c6.66699 8 11.834 36 15.501 84s4.16699 91 1.5 129c-4 51.333 -5.33301 87 -4 107c0.666992 19.333 -1.33301 29 -6 29c-4.66699 0.666992 -15.334 -10.666 -32.001 -33.999c-13.333 -18 -28.333 -29.833 -45 -35.5s-32.667 -4.16699 -48 4.5
c-30 16.667 -25.333 44.334 14 83.001c23.333 23.333 38 35 44 35c5.33301 0.666992 29.5 18.834 72.5 54.501s74.5 64.167 94.5 85.5c14.667 16 25.334 25.833 32.001 29.5s17 5.5 31 5.5z" />
    <glyph glyph-name="two" unicode="2" horiz-adv-x="514" 
d="M163 150c4.66699 0 7.00098 2.33203 7.00098 6.99902l43 111c20 52.667 42.333 104 67 154c22.667 48 37.167 80.833 43.5 98.5s8.16602 30.167 5.49902 37.5c-4.66699 11.333 -22.667 13 -54 5c-7.33301 -2 -12 -5 -14 -9s-2.66699 -11.667 -2 -23
c0 -22 -7.66699 -57.667 -23 -107s-23.333 -75.666 -24 -78.999c-4.66699 -16.667 -16.667 -55 -36 -115l-12.5 -42c-3 -10 -5 -18 -6 -24s-1 -9.83301 0 -11.5s2.83301 -2.5 5.5 -2.5zM268.001 170.999c6.66699 -2.66699 66.332 -2.33105 178.999 1.00195l19 -22
c10.667 -12 16.5 -21.5 17.5 -28.5s-1.83301 -14.833 -8.5 -23.5s-37.667 -13.667 -93 -15c-45.333 -0.666992 -94.833 -5.66699 -148.5 -15s-93.167 -19.666 -118.5 -30.999c-19.333 -9.33301 -34 -12.666 -44 -9.99902c-8.66699 2.66699 -17.667 11.667 -27 27
s-14 28.666 -14 39.999c0 14 4 32.333 12 55s16.333 40 25 52c18 23.333 38.667 74.166 62 152.499s36.333 129.166 39 152.499c-0.666992 7.33301 -15.667 -3.66699 -45 -33s-46.666 -44 -51.999 -44c-8 0 -15.667 4.66699 -23 14s-11 18.666 -11 27.999
c0 21.333 20.667 49.333 62 84s82.333 58.667 123 72c22.667 7.33301 49 11.333 79 12s51.667 -2.66602 65 -9.99902c12.667 -7.33301 23 -18 31 -32c10.667 -22 12.5 -48.5 5.5 -79.5s-25.5 -78.5 -55.5 -142.5c-16.667 -34.667 -34 -75.334 -52 -122.001s-27 -74 -27 -82z
" />
    <glyph glyph-name="three" unicode="3" horiz-adv-x="469" 
d="M287 229c3.33301 -12 5.00098 -64.999 5.00098 -158.999l21 20c22 21.333 35.667 45.166 41 71.499s0.666016 47.166 -14.001 62.499c-11.333 12.667 -25.333 18.334 -42 17.001c-10 -0.666992 -13.667 -4.66699 -11 -12zM274.001 529.001
c-12 9.33301 -19.333 7.33398 -22 -5.99902c-2 -8.66699 -2.66699 -23.667 -2 -45c1.33301 -37.333 3.33301 -56 6 -56c3.33301 0.666992 8.83301 7.16699 16.5 19.5s13.5 24.5 17.5 36.5s4.83301 21.667 2.5 29s-8.5 14.666 -18.5 21.999zM439.001 174.002
c0 -44.667 -20.6641 -88.333 -61.9971 -131s-90.666 -71.334 -147.999 -86.001c-24.667 -6.66699 -44.667 -9 -60 -7s-36.666 8.66699 -63.999 20c-26 10.667 -43.833 26.334 -53.5 47.001s-7.5 38 6.5 52c8 8 15.667 11 23 9s19.333 -9.66699 36 -23l12 -10
c3.33301 -2.66699 7.33301 -5 12 -7l10.5 -4.5c2.33301 -1 6.33301 -1.66699 12 -2s9.5 -0.5 11.5 -0.5h15.5h17.5c0 100.667 -1.33301 161 -4 181c-2 10 -4.5 15.833 -7.5 17.5s-9.83301 1.5 -20.5 -0.5c-18.667 -3.33301 -35.334 -2.83301 -50.001 1.5
s-24.334 11.5 -29.001 21.5c-8.66699 19.333 -8.66699 35.666 0 48.999s25 22 49 26l29 5l-4 82c-2.66699 44.667 -5.5 74.667 -8.5 90s-7.83301 23 -14.5 23c-7.33301 0 -19.333 -7.16699 -36 -21.5s-27.334 -26.5 -32.001 -36.5c-4 -8 -7.83301 -13 -11.5 -15
s-9.83398 -2.66699 -18.501 -2c-10 0.666992 -16 2.66699 -18 6s-2.66699 11.666 -2 24.999c0.666992 23.333 9.5 43.333 26.5 60s46.5 34 88.5 52c35.333 15.333 73.166 18.833 113.499 10.5s70.166 -25.833 89.499 -52.5c18 -25.333 24.333 -51.833 19 -79.5
s-22.666 -62.5 -51.999 -104.5l-31 -43c43.333 -5.33301 80 -22.666 110 -51.999s45 -62.666 45 -99.999z" />
    <glyph glyph-name="four" unicode="4" horiz-adv-x="565" 
d="M287 255c2.66699 8 2.66699 54.335 0 139.002l-46 -60c-37.333 -48.667 -56.333 -75.334 -57 -80.001c-1.33301 -4.66699 1 -7.33398 7 -8.00098c0.666992 0 13.334 0.666992 38.001 2c35.333 2.66699 54.666 5 57.999 7zM382 520.002
c-6.66699 0 -10.832 -9.66602 -12.499 -28.999s-1.83398 -56 -0.500977 -110c2 -78 5.33301 -115.333 10 -112c1.33301 1.33301 2.33301 16.666 3 45.999c0 42 1 84.333 3 127c2 52 1 78 -3 78zM390.002 674.003c6.66699 0 18.666 -5.6709 35.999 -17.0039
s28.333 -20.666 33 -27.999c4 -5.33301 6 -65 6 -179c0 -114.667 3.33301 -176.667 10 -186c16 -20.667 15.667 -42.334 -1 -65.001c-5.33301 -10.667 -7.5 -18.834 -6.5 -24.501s3.33301 -13.167 7 -22.5s5.16699 -17 4.5 -23c0 -9.33301 4 -14 12 -14
c9.33301 0 19 -5.66699 29 -17s15 -22.333 15 -33c0 -13.333 -6.66699 -24.5 -20 -33.5s-29.333 -13.5 -48 -13.5c-40.667 -1.33301 -80.334 -12 -119.001 -32c-24 -12 -46.667 -13 -68 -3c-15.333 6.66699 -23.5 20.334 -24.5 41.001s5.83301 33.334 20.5 38.001
c6 2 9.83301 6 11.5 12s2.5 19.667 2.5 41v49c-56.667 2 -122 -4.33301 -196 -19c-15.333 -1.33301 -25.5 -1.16602 -30.5 0.500977s-11.167 7.83398 -18.5 18.501c-8.66699 12 -13.667 27.333 -15 46s1.33398 32.334 8.00098 41.001c4.66699 6.66699 14 11.334 28 14.001
c10 1.33301 21.167 8.16602 33.5 20.499s28.833 32.333 49.5 60s31.667 42.5 33 44.5c30 37.333 63 81.833 99 133.5s56.667 84.5 62 98.5c1.33301 2 3.33301 6 6 12s4.66699 10 6 12l6 9c2.66699 4 5.16699 7 7.5 9s5.33301 4 9 6s7.83398 3.33301 12.501 4z" />
    <glyph glyph-name="five" unicode="5" horiz-adv-x="438" 
d="M154 386c4.66699 3.33301 5.66699 14.333 3 33c-2 12.667 -3.66699 19 -5 19s-5 -12 -11 -36v-2c-2 -10 -2 -16.167 0 -18.5s6.33301 -0.833008 13 4.5zM255 456c0 -22.667 1.99512 -37.1719 5.99512 -43.5049s15 -11.833 33 -16.5c34 -10 60.667 -34.667 80 -74
c24 -50 16.667 -110.333 -22 -181c-18.667 -34.667 -43 -61 -73 -79c-19.333 -11.333 -37.166 -16.833 -53.499 -16.5s-43.833 7.5 -82.5 21.5c-12 4 -27.833 15.833 -47.5 35.5s-30.834 34.5 -33.501 44.5c-2.66699 10.667 -0.166992 22 7.5 34s16.167 18 25.5 18
c10.667 0 22.334 -3.83301 35.001 -11.5s23.334 -17.5 32.001 -29.5c6.66699 -9.33301 13 -15.166 19 -17.499s16.667 -3.16602 32 -2.49902c20.667 0.666992 34.834 3.83398 42.501 9.50098s16.5 18.5 26.5 38.5c13.333 26.667 21.333 45.834 24 57.501s2 24.834 -2 39.501
c-4.66699 17.333 -12 28.833 -22 34.5s-24.333 7.16699 -43 4.5c-20.667 -3.33301 -44.167 -12.666 -70.5 -27.999s-39.5 -27 -39.5 -35c0 -7.33301 -5 -15.5 -15 -24.5s-19.333 -13.833 -28 -14.5c-8 0 -19 6.5 -33 19.5s-21.667 23.833 -23 32.5s0.666992 23.667 6 45
c24 94.667 37.667 153 41 175c4.66699 25.333 10.334 42.666 17.001 51.999s20 17.666 40 24.999c12 5.33301 23.5 9 34.5 11s23 3.66699 36 5s24.167 3 33.5 5c10.667 2.66699 37.334 3.33398 80.001 2.00098c64 -2.66699 94 -15 90 -37c-1.33301 -7.33301 -7 -16 -17 -26
c-8.66699 -8.66699 -16.167 -13.5 -22.5 -14.5s-19.833 -0.5 -40.5 1.5c-29.333 3.33301 -48.833 0.833008 -58.5 -7.5s-14.5 -25.833 -14.5 -52.5z" />
    <glyph glyph-name="six" unicode="6" horiz-adv-x="440" 
d="M329 284c-3.33301 20.667 -13.333 22.999 -30 6.99902c-14.667 -13.333 -28.667 -35.666 -42 -66.999c-8.66699 -22 -11.5 -34.833 -8.5 -38.5s13.167 0.833008 30.5 13.5c16.667 12 29.5 25.833 38.5 41.5s12.833 30.167 11.5 43.5zM302 591.999
c0 -10 -11.335 -37.667 -34.002 -83c-19.333 -39.333 -38.333 -85 -57 -137s-27.667 -84.333 -27 -97c0 -11.333 5.66699 -6 17 16c0.666992 2 1.66699 4.33301 3 7c23.333 50 52 83.667 86 101c18.667 10 38.667 9.83301 60 -0.5s37.333 -27.5 48 -51.5
c8 -18 11.833 -40.833 11.5 -68.5s-4.16602 -49.5 -11.499 -65.5c-11.333 -22 -28.833 -44.333 -52.5 -67s-47.834 -40 -72.501 -52c-18 -8.66699 -30.333 -15.667 -37 -21s-10 -11 -10 -17c0 -17.333 -9 -30.333 -27 -39c-10.667 -6 -21.667 -5.33301 -33 2
s-18.666 18.333 -21.999 33c-2.66699 14 -15 26.333 -37 37c-37.333 18 -61.166 49.667 -71.499 95s-6.5 101.666 11.5 168.999c6.66699 36.667 19 83.334 37 140.001s36 88.667 54 96c62 25.333 106 39.333 132 42c4.66699 0.666992 11.167 -4 19.5 -14
s12.5 -18.333 12.5 -25z" />
    <glyph glyph-name="seven" unicode="7" horiz-adv-x="642" 
d="M481 499c0 4.66699 -2.99805 7 -8.99805 7c-10.667 0 -26 -39.667 -46 -119l-25.5 -90.5c-15.667 -55.667 -27.167 -100.5 -34.5 -134.5s-8.66602 -52.667 -3.99902 -56c6.66699 -6.66699 12 -4 16 8c3.33301 8.66699 7.66602 27 12.999 55
c5.33301 28.667 15.166 68.5 29.499 119.5s25.166 85.167 32.499 102.5c3.33301 8.66699 8.83301 27.667 16.5 57s11.5 46.333 11.5 51zM491.002 17c-20.667 0 -30.999 -2.33496 -30.999 -7.00195c0 -7.33301 -7.16699 -12.5 -21.5 -15.5s-28.833 -2.16699 -43.5 2.5
c-17.333 6 -36 5.33301 -56 -2s-37.333 -8.33301 -52 -3c-44.667 15.333 -54.667 50 -30 104c18 40 40.5 110.333 67.5 211s37.5 154 31.5 160c-8 2 -35 -3.5 -81 -16.5s-69.333 -19.5 -70 -19.5l-57 -20c-37.333 -13.333 -63.333 -16.666 -78 -9.99902
c-20.667 2 -33.5 14.5 -38.5 37.5s0.166992 40.833 15.5 53.5c15.333 16 31.333 27.333 48 34s37 12.334 61 17.001s44 10 60 16c14 4.66699 35.167 10.5 63.5 17.5s51.166 15.167 68.499 24.5c13.333 7.33301 27.666 12.666 42.999 15.999s28 7.33301 38 12
c7.33301 5.33301 20.5 7.66602 39.5 6.99902s32.5 0.333008 40.5 3c6 4 20 5.33301 42 4c28 -3.33301 46.5 -14.666 55.5 -33.999s7.5 -46.333 -4.5 -81c-6.66699 -18.667 -7.66699 -38.167 -3 -58.5s1.33398 -38.166 -9.99902 -53.499c-12 -26.667 -19.667 -52 -23 -76
c-4.66699 -26 -7.33398 -65.333 -8.00098 -118s1.33301 -83 6 -91c2.66699 -4.66699 4.33398 -19 5.00098 -43s-0.333008 -41.333 -3 -52c-0.666992 -4 -9.5 -8.16699 -26.5 -12.5s-33.167 -6.5 -48.5 -6.5z" />
    <glyph glyph-name="eight" unicode="8" horiz-adv-x="457" 
d="M138 183c-3.33301 27.333 -6 41.332 -8 41.999c-2 -0.666992 -4 -4.66699 -6 -12c-2.66699 -8.66699 -2.66699 -21.167 0 -37.5s6.66699 -26.166 12 -29.499c2 -1.33301 3.33301 1.66699 4 9c0 6.66699 -0.666992 16 -2 28zM260 107.999c10 0 25.668 7.66699 47.001 23
c22.667 14.667 37.167 31 43.5 49s5.83301 40.667 -1.5 68c-6.66699 25.333 -15.667 49.666 -27 72.999c-7.33301 16.667 -12.666 26.334 -15.999 29.001s-9 2.66699 -17 0c-19.333 -7.33301 -36.5 -30.5 -51.5 -69.5s-20.167 -73.833 -15.5 -104.5
c3.33301 -20 8.66602 -36.333 15.999 -49s14.666 -19 21.999 -19zM140.001 471.999c-2.66699 28 -4.99902 42.999 -6.99902 44.999c-1.33301 2 -3.33301 0 -6 -6c-8.66699 -18 -12.334 -35.333 -11.001 -52l1 -4c2 -10.667 6.66699 -17.667 14 -21
c2.66699 -0.666992 4.5 -0.833984 5.5 -0.500977s2 1.83301 3 4.5s1.5 6.83398 1.5 12.501s-0.333008 12.834 -1 21.501zM257.002 561.998c0.666992 0 0.498047 -1.33398 -0.501953 -4.00098s-2.66699 -6.16699 -5 -10.5s-5.16602 -8.83301 -8.49902 -13.5
c-16 -26 -20.333 -53.333 -13 -82c4 -14 16.167 -19.333 36.5 -16s37.833 13.333 52.5 30c18.667 22 17.334 49.667 -3.99902 83c-8 12 -18.333 20.333 -31 25s-21.667 3.33398 -27 -3.99902c-2.66699 -5.33301 -2.66699 -8 0 -8zM321 617.997
c6.66699 0 16.001 -7.33496 28.001 -22.002s23.333 -31.667 34 -51c22.667 -45.333 22.667 -84.666 0 -117.999c-10 -15.333 -15.5 -25.833 -16.5 -31.5s1.83301 -13.834 8.5 -24.501c4.66699 -6.66699 15.667 -30.334 33 -71.001
c15.333 -37.333 21.666 -67.666 18.999 -90.999c-1.33301 -18 -9.33301 -41.333 -24 -70s-28.667 -49 -42 -61c-10.667 -9.33301 -30 -20 -58 -32s-50.333 -19 -67 -21c-35.333 -4 -70.166 2.66699 -104.499 20s-59.833 40.666 -76.5 69.999
c-19.333 35.333 -26.333 70.5 -21 105.5s23.333 74.833 54 119.5c2.66699 5.33301 3 10.333 1 15s-8.66699 12.334 -20 23.001c-16 16 -26.5 29.833 -31.5 41.5s-7.5 28.834 -7.5 51.501c0 39.333 16.5 76.5 49.5 111.5s66.5 59.167 100.5 72.5
c12.667 1.33301 29.667 2.66602 51 3.99902c15.333 0.666992 26.5 -0.166016 33.5 -2.49902s15.5 -8.16602 25.5 -17.499c15.333 -14 25.666 -21 30.999 -21z" />
    <glyph glyph-name="nine" unicode="9" horiz-adv-x="429" 
d="M161 506c-10 0 -21.665 -12.166 -34.998 -36.499s-20 -45.5 -20 -63.5c0 -12.667 8.66699 -15.667 26 -9c11.333 4.66699 22.333 12.334 33 23.001c3.33301 3.33301 6.5 6.83301 9.5 10.5s5.33301 6.16699 7 7.5s3.16699 3.16602 4.5 5.49902
s2.16602 3.66602 2.49902 3.99902s0.166016 2 -0.500977 5s-1.33398 5 -2.00098 6s-2.16699 4 -4.5 9s-4.16602 9.16699 -5.49902 12.5c-7.33301 17.333 -12.333 26 -15 26zM204.002 604.001c4.66699 0 17.998 6.16895 39.998 18.502s37 17.833 45 16.5
c12 0 21 3.66699 27 11c7.33301 8.66699 18 12 32 10s25.667 -8 35 -18c10.667 -10.667 16.167 -20.667 16.5 -30s-3.83398 -26.333 -12.501 -51c-10 -29.333 -24.167 -81.5 -42.5 -156.5s-32.5 -127.5 -42.5 -157.5c-8.66699 -28 -10.667 -59.333 -6 -94
c4.66699 -44 0.666992 -74 -12 -90s-39.334 -24.667 -80.001 -26c-37.333 -0.666992 -62.166 9.16602 -74.499 29.499s-11.5 50.5 2.5 90.5c7.33301 21.333 16.333 54 27 98s15.334 67 14.001 69c-2 0.666992 -6 -0.666016 -12 -3.99902
c-15.333 -12 -34.666 -15.833 -57.999 -11.5s-42.333 15.166 -57 32.499c-8 10 -12.833 18.167 -14.5 24.5s-1.5 18.166 0.5 35.499c2.66699 32 13.5 65.5 32.5 100.5s40.5 59.833 64.5 74.5c2.66699 0 14.834 4.83301 36.501 14.5s34.5 14.167 38.5 13.5z" />
    <glyph glyph-name="colon" unicode=":" horiz-adv-x="163" 
d="M58 145c12 8 21.335 12 28.002 12c10.667 0 20.5 -6 29.5 -18s13.833 -25 14.5 -39s-4.33301 -26.333 -15 -37c-18.667 -16 -37.334 -20.333 -56.001 -13s-28.334 23 -29.001 47c0 12 1.66699 21 5 27s11 13 23 21zM87.002 324c-21.333 0 -36.499 10.332 -45.499 30.999
s-6.83301 40.334 6.5 59.001c6 8.66699 15.167 13.5 27.5 14.5s23.166 -1.83301 32.499 -8.5c14 -10 22.333 -22.833 25 -38.5s-0.333008 -29.167 -9 -40.5s-21 -17 -37 -17z" />
    <glyph glyph-name="semicolon" unicode=";" horiz-adv-x="182" 
d="M72 -130c-13.333 0 -24.0029 3.33301 -32.0029 10c-6 4.66699 -8.83301 9 -8.5 13s4.83301 15.333 13.5 34c24.667 50 25.334 88.667 2.00098 116c-23.333 28.667 -22.666 50.667 2.00098 66c12 7.33301 19.5 11 22.5 11s10.833 -4 23.5 -12
c12.667 -7.33301 24.334 -19.833 35.001 -37.5s17.667 -36.167 21 -55.5c5.33301 -27.333 -1.5 -58.333 -20.5 -93s-38.5 -52 -58.5 -52zM83.9971 424c11.333 6.66699 18.334 10.3311 21.001 10.998s6.66699 -0.666016 12 -3.99902c14.667 -10 21.667 -25.167 21 -45.5
s-8.33398 -32.166 -23.001 -35.499c-22 -5.33301 -37.5 2.66699 -46.5 24s-3.83301 38 15.5 50z" />
    <glyph glyph-name="equal" unicode="=" horiz-adv-x="457" 
d="M427 252c0 -22.667 -5.66797 -37.1689 -17.001 -43.502s-38.666 -10.166 -81.999 -11.499c-52 -2.66699 -106 -2 -162 2c-42 2.66699 -69.833 6.5 -83.5 11.5s-24.834 15.167 -33.501 30.5c-3.33301 6.66699 -2.16602 18.334 3.50098 35.001s12.167 26.667 19.5 30
c8 2.66699 14.167 3.66699 18.5 3s13.5 -4 27.5 -10c18 -6.66699 70 -9.66699 156 -9c72 1.33301 115.5 0 130.5 -4s22.5 -15.333 22.5 -34zM72.999 461.998c5.33301 -2 55.332 -0.494141 149.999 4.50586s144 6.83301 148 5.5c17.333 -4.66699 28 -14.334 32 -29.001
s0.333008 -29.334 -11 -44.001c-15.333 -20 -36 -26.333 -62 -19c-10.667 3.33301 -50 3.66602 -118 0.999023s-111 -6.33398 -129 -11.001c-11.333 -2.66699 -22.166 0.666016 -32.499 9.99902s-16.833 21.333 -19.5 36c-3.33301 16.667 -1 29.167 7 37.5
s19.667 11.166 35 8.49902z" />
    <glyph glyph-name="greater" unicode="&#x3e;" horiz-adv-x="474" 
d="M124 478c8 -8 14.165 -13.834 18.498 -17.501s7.5 -6.16699 9.5 -7.5s6 -3.33301 12 -6s12 -5.66699 18 -9c29.333 -20.667 64.666 -40 105.999 -58s74.333 -28.333 99 -31c18.667 -2.66699 31.334 -5.83398 38.001 -9.50098s12 -11.167 16 -22.5
c6 -17.333 3.83301 -32.666 -6.5 -45.999s-27.5 -22.333 -51.5 -27c-16 -3.33301 -51.5 -16.166 -106.5 -38.499s-100.5 -42.5 -136.5 -60.5c-30.667 -15.333 -50.334 -23 -59.001 -23c-15.333 0 -26.5 8.66699 -33.5 26s-6.16699 34 2.5 50c-1.33301 4 31 20.833 97 50.5
s99 45.5 99 47.5c0 3.33301 -18 14 -54 32c-76 40 -125.667 71.667 -149 95c-9.33301 8.66699 -13.666 19.334 -12.999 32.001s6.33398 24 17.001 34c22.667 23.333 48.334 19.666 77.001 -11.001z" />
    <glyph glyph-name="question" unicode="?" horiz-adv-x="399" 
d="M279 46c0 -20 -6.5 -35.6641 -19.5 -46.9971s-26.667 -14.333 -41 -9s-23.5 17.666 -27.5 36.999c-2.66699 15.333 -2.33398 29 0.999023 41s8.66602 19 15.999 21c16.667 4.66699 33.334 2.66699 50.001 -6c8.66699 -4.66699 14.334 -9.33398 17.001 -14.001
s4 -12.334 4 -23.001zM288 443.003c10.667 10 7.33203 27.333 -10.001 52c-11.333 15.333 -18 20.333 -20 15c0 -6 4.33301 -18.667 13 -38s14.334 -29 17.001 -29zM225.998 176.003c-14 0 -24.9971 5.66113 -32.9971 16.9941s-12 27 -12 47c0 21.333 8.33301 44 25 68
c16 24.667 24 39.334 24 44.001c0 12 -12.333 44.333 -37 97c-4 8 -13.5 17.167 -28.5 27.5s-26.833 15.5 -35.5 15.5c-5.33301 -0.666992 -12.833 -8.16699 -22.5 -22.5s-17.5 -21.833 -23.5 -22.5c-10.667 -3.33301 -21.334 -1.66602 -32.001 5.00098
s-17.334 15.667 -20.001 27c-3.33301 17.333 2.5 35.833 17.5 55.5s35.167 35.834 60.5 48.501s53 20.834 83 24.501s58 -1.83301 84 -16.5c56.667 -30 87 -68.167 91 -114.5s-18.333 -106.166 -67 -179.499c-16.667 -27.333 -26.667 -50.666 -30 -69.999
c-2.66699 -18 -7.33398 -31 -14.001 -39s-16.667 -12 -30 -12z" />
    <glyph glyph-name="at" unicode="@" horiz-adv-x="779" 
d="M252 215c-2.66699 8.66699 -1.33398 27.168 3.99902 55.501s8 43.833 8 46.5c-2 1.33301 -9 -11 -21 -37c-10.667 -22.667 -16 -42.5 -16 -59.5s5.33301 -26.167 16 -27.5c6 -1.33301 9.33301 -0.833008 10 1.5s0.333984 9.16602 -0.999023 20.499zM408 422.001
c-8 0 -14.332 -8.66699 -18.999 -26s-9 -27.333 -13 -30c-6.66699 -6.66699 -15.834 -26.167 -27.501 -58.5s-17.5 -53.833 -17.5 -64.5c0 -14.667 6 -18 18 -10l24 19c20 18 34.5 34.667 43.5 50s10.833 26.333 5.5 33c-6 8 -7.66699 24.333 -5 49c2 17.333 2.5 28 1.5 32
s-4.5 6 -10.5 6zM513.001 247.001c0 -26.667 1.99805 -41.3291 5.99805 -43.9961c6.66699 -4 21.334 -0.666992 44.001 10s40.667 22.667 54 36c34 35.333 50 80.666 48 135.999s-21.333 100.666 -58 135.999c-22 21.333 -46.833 33.833 -74.5 37.5s-56 0 -85 -11
s-61.5 -28.833 -97.5 -53.5c-22.667 -16.667 -31.334 -26.334 -26.001 -29.001c3.33301 -1.33301 12 1.66699 26 9c14.667 7.33301 36.834 10.5 66.501 9.5s48.834 -5.83301 57.501 -14.5c2.66699 -2.66699 11 -9.16699 25 -19.5s26.333 -20.5 37 -30.5s17 -18.667 19 -26
c3.33301 -12 2.5 -26.333 -2.5 -43s-12.833 -31.334 -23.5 -44.001c-10.667 -12 -16 -31.667 -16 -59zM151.999 262.006c-7.33301 0 -20.167 -27.1758 -38.5 -81.5088s-27.5 -92.5 -27.5 -114.5c0 -31.333 10.333 -60.166 31 -86.499s47.667 -45.5 81 -57.5
c26 -9.33301 63.333 -13.666 112 -12.999c34 0.666992 58.833 2.33398 74.5 5.00098s39.834 10 72.501 22c47.333 17.333 77 27.333 89 30c11.333 2.66699 16.333 -0.333008 15 -9c-1.33301 -16.667 -16.666 -37 -45.999 -61c-6 -5.33301 -12.333 -10.333 -19 -15
c-26 -18 -53.667 -30.5 -83 -37.5s-68.333 -10.833 -117 -11.5c-60 -0.666992 -109.167 6.33301 -147.5 21s-70.166 38.334 -95.499 71.001l-23 31v258c26.667 60.667 51.167 108.167 73.5 142.5s57.166 76.833 104.499 127.5c28.667 31.333 69.167 63.333 121.5 96
s95.833 53.334 130.5 62.001c12.667 1.33301 33.667 2.66602 63 3.99902c30.667 0.666992 56.334 -3.33301 77.001 -12s42.334 -24.667 65.001 -48c61.333 -63.333 89.333 -141.666 84 -234.999c-2 -44.667 -16 -86.167 -42 -124.5s-60.667 -68.166 -104 -89.499
c-39.333 -20.667 -74.5 -28.667 -105.5 -24s-53.833 21 -68.5 49c-1.33301 3.33301 -3 7 -5 11s-3.33301 6.33301 -4 7s-1.33398 2 -2.00098 4s-1.83398 2.33301 -3.50098 1s-3.16699 -2.16602 -4.5 -2.49902s-3.83301 -2 -7.5 -5s-7.16699 -5.5 -10.5 -7.5
c-29.333 -21.333 -60.833 -37.666 -94.5 -48.999s-60.834 -14.666 -81.501 -9.99902c-26 6.66699 -45.833 22.5 -59.5 47.5s-16.834 51.167 -9.50098 78.5c2 8 3.5 14.333 4.5 19s1.16699 7 0.5 7z" />
    <glyph glyph-name="A" unicode="A" horiz-adv-x="692" 
d="M410 394c-2.66699 0 -5.33203 -3.66797 -7.99902 -11.001c-1.33301 -6 -6.5 -24 -15.5 -54s-14.5 -49.667 -16.5 -59c8 -3.33301 23.167 -5.66602 45.5 -6.99902s37.833 -4 46.5 -8c11.333 -4 17 -3.33301 17 2c0 6.66699 -10.333 30.667 -31 72
c-22.667 43.333 -35.334 65 -38.001 65zM334.002 468.999c-0.666992 8 1.16797 16.166 5.50098 24.499s6.16602 14.833 5.49902 19.5c-4 6.66699 -8 8.83398 -12 6.50098s-7.33301 -8.5 -10 -18.5c-1.33301 -8 -20.5 -56.333 -57.5 -145l-86.5 -203
c-12 -27.333 -17.833 -44 -17.5 -50s7.5 -10.333 21.5 -13c18 -2.66699 29.667 -1.33398 35 3.99902c12.667 24.667 34.167 82.834 64.5 174.501s47.5 158.5 51.5 200.5zM506.004 179.998c-12 -4 -67.0029 -6.00293 -165.003 -6.00293l-18 -56
c-18.667 -56.667 -31.667 -92.667 -39 -108s-16.666 -25.666 -27.999 -30.999c-3.33301 -2 -6.66602 -3.5 -9.99902 -4.5s-5.83301 -1.66699 -7.5 -2s-2.5 -0.166016 -2.5 0.500977c0 8 -16.833 16 -50.5 24s-59.167 10 -76.5 6c-38 -8.66699 -62.333 -0.666992 -73 24
c-3.33301 10.667 -5.33301 19.334 -6 26.001s1.33301 14.667 6 24s9.16699 16.833 13.5 22.5s9.83301 12.5 16.5 20.5s11.334 14.333 14.001 19c12.667 20.667 37.834 74.167 75.501 160.5s66.5 155.166 86.5 206.499c4 8 10 27.333 18 58c5.33301 20.667 10 34 14 40
s11 10.667 21 14c12.667 4 27.167 5.33301 43.5 4s28.166 -5.33301 35.499 -12c23.333 -18.667 67.833 -91.834 133.5 -219.501s110.5 -227.167 134.5 -298.5c13.333 -39.333 20.166 -68.666 20.499 -87.999s-5.5 -32.666 -17.5 -39.999c-32 -20.667 -54.333 -2 -67 56
c-6 26 -16.667 59 -32 99c-11.333 30 -19.166 48.333 -23.499 55s-9.83301 8.66699 -16.5 6z" />
    <glyph glyph-name="B" unicode="B" horiz-adv-x="590" 
d="M464 315c0 6.66699 -4 10.5 -12 11.5s-22.667 -0.166992 -44 -3.5c-45.333 -6.66699 -76.333 -15.834 -93 -27.501s-25 -29.834 -25 -54.501c0 -21.333 2.33301 -35.166 7 -41.499s13.667 -8.16602 27 -5.49902c24 5.33301 53.333 22.833 88 52.5s52 52.5 52 68.5z
M401 499c-2.66699 6 -11.332 7.83203 -25.999 5.49902s-31.334 -8.16602 -50.001 -17.499s-30 -18.333 -34 -27c-2.66699 -5.33301 -4.66699 -12.833 -6 -22.5s-2 -18.167 -2 -25.5s1 -11 3 -11c10.667 0 32.5 14 65.5 42s49.5 46.667 49.5 56zM192.002 518.999
c0 30.667 -0.831055 48.999 -2.49805 54.999s-6.16699 9 -13.5 9c-12.667 -0.666992 -30.667 -7.66699 -54 -21c-4.66699 -177.333 -5.33398 -331.666 -2.00098 -462.999l2 -29c10 -0.666992 26.5 1.83301 49.5 7.5s37.5 8.83398 43.5 9.50098
c-6.66699 118 -13.334 184 -20.001 198c-6 6 -7.5 24.667 -4.5 56s3.83301 53.666 2.5 66.999c-0.666992 16.667 -1 53.667 -1 111zM276.004 606.998c0 -25.333 0.668945 -37.998 2.00195 -37.998s16.666 4.66699 45.999 14c58.667 18 102.334 17.667 131.001 -1
c35.333 -21.333 46.666 -53 33.999 -95c-7.33301 -24 -14.333 -38.667 -21 -44c-4.66699 -4 -7.83398 -8.33301 -9.50098 -13s-1.33398 -8.33398 0.999023 -11.001s6.16602 -4 11.499 -4c18.667 0 37 -8.16699 55 -24.5s29 -34.833 33 -55.5
c5.33301 -30.667 -11 -69.5 -49 -116.5s-79.667 -79.833 -125 -98.5c-32.667 -12.667 -51.334 -19 -56.001 -19c-5.33301 0 -11.666 -13.333 -18.999 -40c-6 -23.333 -13.667 -38.333 -23 -45s-31.666 -13.334 -66.999 -20.001c-29.333 -4.66699 -58 -14 -86 -28
c-26 -12.667 -45.667 -17.667 -59 -15c-12 2.66699 -22.667 10.5 -32 23.5s-13.666 25.833 -12.999 38.5c2 46 5.66699 179.333 11 400v1c4 136 8.66699 213 14 231c4 14 12.667 20.333 26 19c2 -0.666992 5.66699 -1.33398 11 -2.00098c12 -2 28.5 0.5 49.5 7.5
s33.833 14.5 38.5 22.5c7.33301 10.667 28.333 9.33398 63 -3.99902c22 -9.33301 33 -37 33 -83z" />
    <glyph glyph-name="C" unicode="C" horiz-adv-x="525" 
d="M169 239c-2 84 -4.66797 144 -8.00098 180c-2.66699 22.667 -5 34 -7 34c-1.33301 -0.666992 -3.66602 -5 -6.99902 -13c-10 -26.667 -18.333 -58.5 -25 -95.5s-9.16699 -76.5 -7.5 -118.5s10.167 -73.667 25.5 -95c14 -21.333 22.667 -29.333 26 -24
c4 7.33301 5 51.333 3 132zM287.999 667c5.33301 0 16.498 -7.66797 33.498 -23.001s31.5 -31 43.5 -47c11.333 -16 20 -38.5 26 -67.5s5.33301 -46.167 -2 -51.5s-12.666 -6.83301 -15.999 -4.5s-7 9.83301 -11 22.5c-3.33301 12 -8 20.333 -14 25
s-11.333 11.334 -16 20.001c-35.333 44 -62 60.667 -80 50c-8.66699 -4 -13.667 -8.66699 -15 -14s-0.666016 -21.333 2.00098 -48c17.333 -210.667 24.666 -362.667 21.999 -456c32.667 -4 65.5 3.66699 98.5 23s50.167 39.666 51.5 60.999c0 24 12 38.667 36 44
c16 3.33301 28 0.833008 36 -7.5s12 -22.166 12 -41.499c0 -32 -14.333 -62 -43 -90s-65 -48.5 -109 -61.5s-86.667 -15.167 -128 -6.5c-79.333 16.667 -135 59.334 -167 128.001c-8.66699 17.333 -13.834 32.666 -15.501 45.999s-2.5 41 -2.5 83
c0.666992 60.667 7.33398 113.667 20.001 159c10 36.667 25.333 77 46 121s38.334 73.667 53.001 89c40 41.333 86.333 57 139 47z" />
    <glyph glyph-name="D" unicode="D" horiz-adv-x="564" 
d="M137 192c6 0 9.33203 47.332 9.99902 141.999c0 40.667 0.833008 80 2.5 118s1.83398 68.333 0.500977 91c-2.66699 18.667 -6.66699 27.334 -12 26.001c-12.667 -0.666992 -20 -6.5 -22 -17.5s-2 -46.167 0 -105.5v-12c4.66699 -161.333 11.667 -242 21 -242z
M340.999 553.999c-28.667 10.667 -63.001 18.6709 -103.001 24.0039v-130c-1.33301 -134.667 -1.33301 -205.334 0 -212.001c1.33301 -4.66699 5.33301 -6.33398 12 -5.00098h4c25.333 1.33301 58.833 16.5 100.5 45.5s68.834 55.833 81.501 80.5
c20 39.333 21 77.666 3 114.999s-50.667 64.666 -98 81.999zM143.998 652.003c44.667 10 95.6641 8.66602 152.997 -4.00098s105 -33 143 -61c62 -46 93.333 -100 94 -162s-29.666 -122.333 -90.999 -181c-34.667 -34 -83 -62.333 -145 -85l-71.5 -26.5l-80.5 -29.5
c-7.33301 -2.66699 -12.666 -11.667 -15.999 -27c-2.66699 -14.667 -9.66699 -25.167 -21 -31.5s-23 -6.16602 -35 0.500977c-11.333 6 -18 10.667 -20 14c-6.66699 12.667 -11.667 74 -15 184c-0.666992 17.333 -3 97.333 -7 240v9c-2 72.667 -0.666992 115 4 127
c4.66699 10 16.334 16.667 35.001 20c2 0 4.66699 0.333008 8 1l4 1c24 4 44.333 7.66699 61 11z" />
    <glyph glyph-name="E" unicode="E" horiz-adv-x="520" 
d="M190 452c0 16.667 -2.33203 26.666 -6.99902 29.999s-10.334 -3 -17.001 -19c-7.33301 -20 -14 -50 -20 -90c-26.667 -167.333 -32 -259 -16 -275c8.66699 -7.33301 13.667 -10.333 15 -9c2 2 10 59.333 24 172s21 176.334 21 191.001zM278.001 247.999
c-10 0 -16.5059 -4.83398 -19.5059 -14.501s-6.5 -35.834 -10.5 -78.501l-4 -54c10 2 29 4.83301 57 8.5s54.167 7.5 78.5 11.5s43.5 8 57.5 12c27.333 7.33301 43 7.66602 47 0.999023c12.667 -19.333 7.33398 -40.666 -15.999 -63.999
c-9.33301 -9.33301 -19.166 -16 -29.499 -20s-28.166 -8.66699 -53.499 -14c-132 -26.667 -217.333 -40 -256 -40c-16.667 0 -28.667 1.16699 -36 3.5s-16 8.5 -26 18.5c-16 14.667 -26.667 35.834 -32 63.501s-6.33301 68.5 -3 122.5c2.66699 51.333 5 79.333 7 84
c4 6.66699 9 36.834 15 90.501s8 85.5 6 95.5c-2.66699 15.333 2 32 14 50c6 8.66699 11 18.334 15 29.001s11 19.334 21 26.001c10.667 8 28.667 10.667 54 8c23.333 -2 45.166 -1.66699 65.499 1s43.5 6.66699 69.5 12s50 9 72 11c42.667 6 68.334 8.83301 77.001 8.5
s16.334 -3.83301 23.001 -10.5c8.66699 -10 12.667 -21.5 12 -34.5s-5.66699 -22.167 -15 -27.5c-10 -5.33301 -42 -13 -96 -23c-46 -8 -72.167 -15.667 -78.5 -23s-11.5 -36 -15.5 -86l-5 -59l33 -9c34 -8.66699 54 -14.834 60 -18.501s9.66699 -11.167 11 -22.5
c1.33301 -14 -2 -24.333 -10 -31c-7.33301 -6.66699 -20.666 -12.834 -39.999 -18.501s-35.666 -8.5 -48.999 -8.5z" />
    <glyph glyph-name="F" unicode="F" horiz-adv-x="494" 
d="M208 477c0.666992 30.667 0.167969 48.999 -1.49902 54.999s-6.16699 9 -13.5 9c-10.667 -1.33301 -21.334 -6 -32.001 -14c-8 -6.66699 -13 -15.5 -15 -26.5s-3.33301 -38.833 -4 -83.5c-2.66699 -77.333 -6.66699 -148.666 -12 -213.999
c-6 -77.333 -6.66699 -118.333 -2 -123s14.167 -7 28.5 -7s24.833 2.33301 31.5 7c4.66699 0 8.5 30 11.5 90s5.16699 125.5 6.5 196.5s2 107.833 2 110.5zM291.001 383.999l102.999 0.00390625l2 -25c6.66699 -24.667 -13 -44.667 -59 -60h-1
c-18 -3.33301 -29 -8.66602 -33 -15.999c-6 -12 -10 -57.333 -12 -136v-27c-1.33301 -84.667 -3.83301 -135.834 -7.5 -153.501s-13.834 -26.5 -30.501 -26.5c-26 0 -43.333 10.667 -52 32c-2.66699 8.66699 -7 13.667 -13 15s-23.333 0.666016 -52 -2.00098
c-30 -2.66699 -52 -2.33398 -66 0.999023s-25.333 11 -34 23c-4.66699 7.33301 -6.5 23.833 -5.5 49.5s5.83301 80.5 14.5 164.5c7.33301 70.667 11 134.167 11 190.5s-3.66699 94.833 -11 115.5c-5.33301 15.333 -8 25.833 -8 31.5s2.33301 13.167 7 22.5
c7.33301 14.667 16.5 24.167 27.5 28.5s30.5 6.83301 58.5 7.5c20 0 40.5 2 61.5 6s40.833 5.66699 59.5 5s30.167 -2.33398 34.5 -5.00098s10.166 -11.334 17.499 -26.001c10 -20 20.5 -31.167 31.5 -33.5s31.5 -0.166016 61.5 6.50098
c24.667 5.33301 40 7.66602 46 6.99902s11.333 -5 16 -13c12.667 -19.333 7.33398 -39.666 -15.999 -60.999c-3.33301 -5.33301 -26.166 -14 -68.499 -26s-65.166 -19 -68.499 -21c-2 -2.66699 -6.66699 -27.334 -14 -74.001z" />
    <glyph glyph-name="G" unicode="G" horiz-adv-x="560" 
d="M148 322c0 24.667 -1.99902 36.998 -5.99902 36.998c-4.66699 0 -10.834 -17.667 -18.501 -53s-12.5 -68.666 -14.5 -99.999c-1.33301 -36.667 1 -61.167 7 -73.5s20 -18.833 42 -19.5c-6.66699 126.667 -10 196.334 -10 209.001zM336.001 537.998
c-27.333 13.333 -58.9961 19.0039 -94.9961 17.0039c-6.66699 -42 -11 -94.167 -13 -156.5s-0.666992 -112.5 4 -150.5c9.33301 -80.667 16.333 -123.334 21 -128.001c6.66699 -1.33301 19 -0.333008 37 3s36.833 7.5 56.5 12.5s31.167 7.83301 34.5 8.5
c12 3.33301 19.333 6.5 22 9.5s4 10.833 4 23.5c0 28 3 65.333 9 112l-61 -4c-32.667 -2.66699 -54.667 -1.66699 -66 3s-20.333 16.667 -27 36c-7.33301 18.667 -2.83301 35.667 13.5 51s35.166 19 56.499 11c14.667 -8.66699 48 -6.66699 100 6
c24.667 6 40.167 8.83301 46.5 8.5s14.833 -4.16602 25.5 -11.499c29.333 -20.667 34.666 -50.667 15.999 -90c-10 -20 -16.167 -38.333 -18.5 -55s-3.83301 -48.667 -4.5 -96c-0.666992 -50.667 -3.5 -82.834 -8.5 -96.501s-16.833 -20.5 -35.5 -20.5
c-16.667 0 -29 5.66699 -37 17c-6.66699 8.66699 -12.334 13.167 -17.001 13.5s-18.334 -1.83398 -41.001 -6.50098c-97.333 -22 -165.333 -31.667 -204 -29c-32.667 3.33301 -56 9 -70 17s-26.333 23.667 -37 47c-8.66699 17.333 -13.834 31.833 -15.501 43.5
s-1.5 34.167 0.5 67.5c1.33301 33.333 7.16602 76.333 17.499 129s20.5 91.667 30.5 117c22.667 58.667 46.5 101.667 71.5 129s55.5 43.666 91.5 48.999c28 4 61.667 -1.83301 101 -17.5s62.666 -32.834 69.999 -51.501c3.33301 -13.333 4.83301 -23.5 4.5 -30.5
s-4.66602 -10.5 -12.999 -10.5s-17.666 1.83301 -27.999 5.5s-24.166 9.5 -41.499 17.5z" />
    <glyph glyph-name="H" unicode="H" 
d="M158 303c-1.33301 126 -3.33105 190.335 -5.99805 193.002c-6.66699 8 -11.334 -56.333 -14.001 -193c-0.666992 -18 -1 -36.333 -1 -55c-0.666992 -58 -0.333984 -94.333 0.999023 -109s4.33301 -22.334 9 -23.001c2.66699 -0.666992 4.66699 0.666016 6 3.99902
s2.5 11.5 3.5 24.5s1.5 32 1.5 57v101.5zM244.002 266.002c-1.33301 -56 2.33105 -98.6689 10.998 -128.002c10 -33.333 11.5 -57.166 4.5 -71.499s-23.167 -21.5 -48.5 -21.5s-51.333 -10.667 -78 -32c-9.33301 -7.33301 -20 -11.666 -32 -12.999s-22 1 -30 7
c-16.667 11.333 -26.334 29.833 -29.001 55.5s-2 99.834 2 222.501c2.66699 104.667 3.66699 170.334 3 197.001s-3.66699 45.667 -9 57c-10.667 22.667 -10 40.5 2 53.5s41.667 28.167 89 45.5c16 5.33301 33 6.66602 51 3.99902s30.667 -8.66699 38 -18
c10 -12.667 16.5 -28.334 19.5 -47.001s5.16699 -52.667 6.5 -102c1.33301 -60 4 -92.667 8 -98c8.66699 -10 37.834 -9.5 87.501 1.5s89.167 22.5 118.5 34.5c-1.33301 75.333 -5 128.333 -11 159c-8 40.667 3 64.334 33 71.001
c18.667 5.33301 36.334 -3.33398 53.001 -26.001c8 -11.333 13.333 -49 16 -113c0.666992 -41.333 3.16699 -73 7.5 -95s6.5 -51.667 6.5 -89c0 -16.667 1.66699 -41 5 -73l9 -85.5c2.66699 -25 3.33398 -49.5 2.00098 -73.5s-6 -40 -14 -48
c-9.33301 -10 -20.5 -15.167 -33.5 -15.5s-24.167 4.83398 -33.5 15.501c-6.66699 6.66699 -11 16 -13 28s-4 38 -6 78c-5.33301 102 -10 158.333 -14 169c-0.666992 6 -17.667 3.33301 -51 -8c-42 -14.667 -98.667 -28.334 -170 -41.001z" />
    <glyph glyph-name="I" unicode="I" horiz-adv-x="592" 
d="M343 276c0 101.333 -2.66602 154.668 -7.99902 160.001c-4.66699 4.66699 -8 2 -10 -8l-2 -11l-24 -138c-15.333 -88 -23 -137.667 -23 -149c0 -12 1.16699 -18.667 3.5 -20s10.5 -1.33301 24.5 0c17.333 1.33301 28.666 3.66602 33.999 6.99902
c3.33301 3.33301 5 56.333 5 159zM308.001 522.002c-3.33301 -6 -1.33301 -10.333 6 -13c6.66699 -2 10 -1 10 3c0 2.66699 -1.33301 5.66699 -4 9c-4.66699 4.66699 -8.66699 5 -12 1zM395.001 550.002c0 -2.66699 4.33398 -8.99902 13.001 -18.999
c10 -8 17 -50.667 21 -128s5 -137 3 -179c-2 -54.667 -0.333008 -84 5 -88c4 -2.66699 12 -1 24 5c16.667 7.33301 34.167 8.5 52.5 3.5s31.166 -14.833 38.499 -29.5c6.66699 -13.333 9.83398 -23.166 9.50098 -29.499s-4.83301 -15.5 -13.5 -27.5
c-6.66699 -9.33301 -13.167 -15 -19.5 -17s-21.5 -3 -45.5 -3c-36 0 -78 -3.83301 -126 -11.5s-75.667 -15.167 -83 -22.5c-8.66699 -7.33301 -26 -10.666 -52 -9.99902c-16 1.33301 -41.333 -1.5 -76 -8.5s-56.334 -10.5 -65.001 -10.5c-13.333 0 -25.333 5.83301 -36 17.5
s-15.667 24.5 -15 38.5c0.666992 18 6.16699 30 16.5 36s31.833 9.33301 64.5 10c40 1.33301 61.667 3 65 5c4.66699 3.33301 8.66699 20 12 50c0.666992 8.66699 9.16699 64.834 25.5 168.501s22.833 171.834 19.5 204.501c-20.667 -8.66699 -48.167 -16.667 -82.5 -24
s-56.833 -9.66602 -67.5 -6.99902c-11.333 3.33301 -20.5 10.666 -27.5 21.999s-9.16699 21.666 -6.5 30.999c3.33301 9.33301 10.333 16.666 21 21.999s28.667 10 54 14c22 3.33301 63 13.166 123 29.499s95 27.166 105 32.499c3.33301 2 21.833 8.66699 55.5 20
s52.5 18.333 56.5 21c12 8.66699 29 6.66699 51 -6s29 -27.334 21 -44.001c-5.33301 -12 -14.333 -21.667 -27 -29s-33.667 -14.333 -63 -21c-34 -8.66699 -51 -14 -51 -16z" />
    <glyph glyph-name="J" unicode="J" horiz-adv-x="483" 
d="M325 260c2.66699 15.333 2.66797 23 0.000976562 23c-1.33301 0 -3 -3 -5 -9c-8.66699 -29.333 -10.334 -44 -5.00098 -44c4.66699 6 8 16 10 30zM328.001 310c2.66699 -1.33301 5.16602 1.16602 7.49902 7.49902s4.5 15 6.5 26s3.83301 22.167 5.5 33.5
s3.5 22.5 5.5 33.5s3.66699 18.5 5 22.5c4.66699 19.333 6.66699 42 6 68s-4 47.333 -10 64c-6.66699 -8 -11.667 -26.833 -15 -56.5s-5.83301 -62.167 -7.5 -97.5s-3.5 -58.666 -5.5 -69.999c-3.33301 -20.667 -2.66602 -31 2.00098 -31zM386 645.999
c6 0 11.4971 -0.505859 16.4971 -1.50586s10.167 -3 15.5 -6s9.33301 -5.33301 12 -7s6.83398 -5 12.501 -10s9.16699 -7.83301 10.5 -8.5c-2 -175.333 -7 -283 -15 -323c-2 -10 -5 -25.833 -9 -47.5s-7.66699 -40.667 -11 -57s-7 -29.5 -11 -39.5
c-2.66699 -2.66699 -8 -16 -16 -40c-6.66699 -19.333 -16.167 -37.166 -28.5 -53.499s-24.833 -27.166 -37.5 -32.499c-18 -7.33301 -46.667 -6.66602 -86 2.00098s-68.333 21.334 -87 38.001c-51.333 44.667 -86.833 86.334 -106.5 125.001s-20.167 68.334 -1.5 89.001
c9.33301 10 22.833 15.167 40.5 15.5s32.167 -4.16699 43.5 -13.5c6.66699 -5.33301 11 -11.333 13 -18s2.66699 -19 2 -37c-0.666992 -22 1.33301 -37.333 6 -46s12.334 -11 23.001 -7c8.66699 2.66699 18.834 16.5 30.501 41.5s21.5 53.167 29.5 84.5
c9.33301 35.333 14.5 81.833 15.5 139.5s-2.5 96.167 -10.5 115.5c-8 18 -8 38.5 0 61.5s20.667 38.833 38 47.5c8 6.66699 26 6.16699 54 -1.5s47 -11.167 57 -10.5z" />
    <glyph glyph-name="K" unicode="K" horiz-adv-x="700" 
d="M193 400c1.33301 58.667 1.83496 96.833 1.50195 114.5s-2.5 26.5 -6.5 26.5c-8 -0.666992 -18.167 -4.83398 -30.5 -12.501s-20.5 -14.834 -24.5 -21.501c-4.66699 -8.66699 -8.33398 -67.5 -11.001 -176.5s-2 -173.833 2 -194.5
c3.33301 -17.333 8.66602 -28.166 15.999 -32.499s17.666 -2.16602 30.999 6.50098c7.33301 4.66699 11.833 11.167 13.5 19.5s2.83398 28.5 3.50098 60.5c0 53.333 1.66699 123.333 5 210zM294.002 72.999c0 -26.667 -8 -46.499 -24 -59.499s-34 -14.167 -54 -3.5
c-6.66699 4 -13 5 -19 3s-22.667 -10.667 -50 -26c-22.667 -13.333 -42.834 -12.833 -60.501 1.5s-31.167 41.833 -40.5 82.5c-5.33301 24 -8.5 48.333 -9.5 73s-0.166992 76.334 2.5 155.001c3.33301 108 4.83301 173.167 4.5 195.5s-3.16602 36.833 -8.49902 43.5
c-6.66699 7.33301 -7.66699 21.5 -3 42.5s12 36.167 22 45.5c7.33301 7.33301 13.166 11.166 17.499 11.499s13.166 -1.5 26.499 -5.5c14 -4.66699 24.667 -6.33398 32 -5.00098s23 7 47 17c31.333 13.333 53 20.333 65 21s23.667 -5 35 -17
c8.66699 -10 13.667 -19.167 15 -27.5s1 -33.5 -1 -75.5c-2 -50.667 -4.66699 -87.667 -8 -111c-2 -16.667 0.333008 -26.667 7 -30s16.334 0.666992 29.001 12c10.667 10 27.667 32.833 51 68.5s42.666 69.167 57.999 100.5c16 32.667 28 51.334 36 56.001
c8.66699 4.66699 20 5 34 1s23 -9.66699 27 -17c8 -15.333 5.83301 -36.333 -6.5 -63s-48.166 -87 -107.499 -181c-17.333 -27.333 -24.666 -47 -21.999 -59c5.33301 -22.667 39.666 -58 102.999 -106s109.333 -74 138 -78c32 -4.66699 44.667 -22 38 -52
c-7.33301 -30.667 -27.666 -42.334 -60.999 -35.001c-26 6 -65.333 26.333 -118 61s-108.667 77.667 -168 129c-16.667 14.667 -27.667 20.667 -33 18c-5.33301 -3.33301 -8 -28 -8 -74s2.33301 -70.667 7 -74c4.66699 -2 7 -14.667 7 -38z" />
    <glyph glyph-name="L" unicode="L" horiz-adv-x="609" 
d="M183 220c-3.33301 16.667 -5.66602 65.499 -6.99902 146.499s-4 128.833 -8 143.5c-4 2.66699 -11.667 -1.66602 -23 -12.999c-8.66699 -8.66699 -13.834 -20 -15.501 -34s-2.83398 -54.667 -3.50098 -122c0.666992 -110.667 4 -190.667 10 -240h23
c10.667 0 17.5 1.16699 20.5 3.5s5.5 8.83301 7.5 19.5c2.66699 15.333 1.33398 47.333 -3.99902 96zM273 419.999c0 -40.667 0.334961 -74.333 1.00195 -101s2.16699 -52.334 4.5 -77.001s5 -43.834 8 -57.501s7.83301 -26.167 14.5 -37.5s13.667 -19 21 -23
s17.5 -6.66699 30.5 -8s26.333 -0.833008 40 1.5s31.167 6.16602 52.5 11.499c36 9.33301 65.667 14 89 14c14 0 23.5 -1 28.5 -3s9.16699 -6.66699 12.5 -14c10 -21.333 0.166992 -40 -29.5 -56s-90.167 -34.667 -181.5 -56c-28.667 -8 -68.667 -11.333 -120 -10
c-50.667 0.666992 -78.667 -1.66602 -84 -6.99902s-17.666 -8 -36.999 -8s-35.333 2.33301 -48 7c-10 4 -17.333 8.33301 -22 13s-8.5 16.334 -11.5 35.001s-4.66699 41.334 -5 68.001s-0.5 68.667 -0.5 126c1.33301 128 0 206 -4 234c-3.33301 26 -0.333008 49.667 9 71
c6 14 11.5 23.167 16.5 27.5s14.833 8.5 29.5 12.5c20 4.66699 46.333 15.334 79 32.001c25.333 13.333 41.166 20.666 47.499 21.999s15.166 -0.666992 26.499 -6c15.333 -6.66699 24.666 -21 27.999 -43s5 -78 5 -168z" />
    <glyph glyph-name="M" unicode="M" horiz-adv-x="744" 
d="M208 487c-8 29.333 -24 34.002 -48 14.002c-8 -6.66699 -13.333 -24.167 -16 -52.5s-8.33398 -124.833 -17.001 -289.5c-2.66699 -52 -2.16699 -82.333 1.5 -91s17.167 -9.33398 40.5 -2.00098c4 1.33301 9 2.66602 15 3.99902c19.333 5.33301 31 11.666 35 18.999
c4 8 5.66699 37.333 5 88v29c-1.33301 148.667 -6.66602 242.334 -15.999 281.001zM299 559.002c-1.33301 -8.66699 2.99707 -21.8311 12.9971 -39.498s15 -29.167 15 -34.5c2.66699 -10 10.667 -29.5 24 -58.5s27.833 -59 43.5 -90s24.834 -49.833 27.501 -56.5
c12.667 -27.333 20.667 -41.666 24 -42.999c4 -2 13 20 27 66l8 33c0 3.33301 9.66699 37.5 29 102.5s31.333 104.5 36 118.5c10 27.333 24.5 44.666 43.5 51.999s36.167 2.66602 51.5 -14.001c6.66699 -7.33301 11 -18 13 -32s3.66699 -49.333 5 -106
c1.33301 -136 16.333 -271 45 -405c6 -22.667 9.33301 -37.834 10 -45.501s-1 -14.834 -5 -21.501c-6.66699 -10 -16.167 -16.167 -28.5 -18.5s-22.5 0.166992 -30.5 7.5c-28 24.667 -49.667 121 -65 289c-6 60 -10.333 88 -13 84c-5.33301 -11.333 -13.333 -36.5 -24 -75.5
l-18 -65.5c-10.667 -38 -16.667 -64.333 -18 -79s1.33398 -29.334 8.00098 -44.001c14.667 -37.333 6.66699 -61.333 -24 -72c-10 -3.33301 -17.167 -4.16602 -21.5 -2.49902s-10.833 8.16699 -19.5 19.5c-13.333 16 -23.666 24 -30.999 24c-6.66699 0 -12.667 7 -18 21
s-7.66602 28.667 -6.99902 44c0 10 -12.167 41 -36.5 93s-38.833 78.333 -43.5 79c-3.33301 0 -5.16602 -13 -5.49902 -39s0.666992 -56 3 -90s5.16602 -60.667 8.49902 -80c7.33301 -39.333 10.666 -66 9.99902 -80s-5.66699 -26 -15 -36
c-11.333 -12 -25.333 -17.833 -42 -17.5s-31.334 6.83301 -44.001 19.5l-19 21c-86 -22 -136 -32 -150 -30c-12 2.66699 -21.667 12.334 -29 29.001s-8.33301 31 -3 43c6.66699 14.667 11.667 56.667 15 126c12.667 214 19 343.667 19 389c0 25.333 3.83301 42.333 11.5 51
s21.834 10.667 42.501 6c10.667 -2 31.5 2 62.5 12s50.167 14.667 57.5 14c12.667 -2.66699 25.5 -11.5 38.5 -26.5s19.5 -28.833 19.5 -41.5z" />
    <glyph glyph-name="N" unicode="N" 
d="M185 480c-2 10 -5.33301 15.668 -10 17.001s-14.334 -0.333984 -29.001 -5.00098c-10.667 -4 -17.5 -12.167 -20.5 -24.5s-6.16699 -44.833 -9.5 -97.5c-2 -47.333 -5.66699 -105.333 -11 -174c-6 -64.667 -6.33301 -98.667 -1 -102
c2.66699 -0.666992 32.334 0.333008 89.001 3c0 195.333 -2.66699 323 -8 383zM301 93.001c0 -28.667 -9.99707 -49.167 -29.9971 -61.5s-57.333 -20.833 -112 -25.5c-42 -3.33301 -71.333 -13 -88 -29c-5.33301 -6.66699 -13.333 -9.33398 -24 -8.00098
c-7.33301 1.33301 -11.833 7.16602 -13.5 17.499s-2.83398 41.5 -3.50098 93.5c-1.33301 68.667 2.33398 166.167 11.001 292.5s16.334 193.166 23.001 200.499c6 6.66699 22 10 48 10c30.667 -1.33301 67 7.33398 109 26.001l27 -17
c12.667 -8.66699 20.167 -15.167 22.5 -19.5s2.83301 -13.5 1.5 -27.5c-1.33301 -14.667 -1 -23.834 1 -27.501s10 -8.83398 24 -15.501c14.667 -6.66699 30.167 -21.667 46.5 -45s37.833 -60.666 64.5 -111.999c11.333 -22 32.333 -55.667 63 -101
c-4.66699 36 -9 111 -13 225c-2.66699 65.333 -3.33398 104.5 -2.00098 117.5s5.66602 23.167 12.999 30.5c16.667 16.667 36.667 14.334 60 -6.99902c7.33301 -6.66699 12 -17.667 14 -33s3.66699 -53.666 5 -114.999c3.33301 -132 13.333 -244.667 30 -338
c1.33301 -10 0.833008 -17.667 -1.5 -23s-8.83301 -13 -19.5 -23c-31.333 -30 -58 -37 -80 -21c-11.333 8 -20.333 18 -27 30c-13.333 26.667 -43.333 82.167 -90 166.5s-71.334 127.833 -74.001 130.5s-4.33398 -9.33301 -5.00098 -36l2 -86c2 -86 5.66699 -130 11 -132
c4.66699 -1.33301 7 -13.666 7 -36.999z" />
    <glyph glyph-name="O" unicode="O" horiz-adv-x="616" 
d="M311 414c-17.333 -67.333 -24.666 -201 -21.999 -401c73.333 4 133 49.333 179 136c15.333 32 24.166 66.667 26.499 104s-2.16699 71.333 -13.5 102c-8.66699 23.333 -26.5 50 -53.5 80s-52.5 51.333 -76.5 64c-10.667 5.33301 -17.167 7.33301 -19.5 6
s-4.5 -8.33301 -6.5 -21l-6 -30zM244 540c0 5.33301 -12.334 -0.00292969 -37.001 -16.0029c-35.333 -23.333 -61.333 -61.666 -78 -114.999s-22.667 -117.666 -18 -192.999c2.66699 -40 8.16699 -72 16.5 -96s21.5 -44.333 39.5 -61
c14.667 -14.667 23.334 -20.667 26.001 -18c2 2 3.66699 32.667 5 92c2 110.667 17.333 246.334 46 407.001zM275.999 624.997c19.333 0 32.334 -1.16602 39.001 -3.49902s14.334 -8.16602 23.001 -17.499c5.33301 -7.33301 17.166 -15.5 35.499 -24.5
s28.5 -14.167 30.5 -15.5c0 -4 6.66699 -8.66699 20 -14c26.667 -12 55.5 -39 86.5 -81s52.5 -83 64.5 -123c20.667 -71.333 13.667 -145.833 -21 -223.5s-86 -133.834 -154 -168.501c-22.667 -11.333 -39.667 -18.333 -51 -21s-32.333 -4 -63 -4
c-28.667 0 -49.334 1.16699 -62.001 3.5s-27.667 7.5 -45 15.5c-34.667 16 -64 39.5 -88 70.5s-40.333 66.5 -49 106.5c-11.333 54 -14.833 114.5 -10.5 181.5s14.833 118.5 31.5 154.5c17.333 38 36 68.167 56 90.5s44 40.166 72 53.499c28.667 13.333 57 20 85 20z" />
    <glyph glyph-name="P" unicode="P" horiz-adv-x="644" 
d="M266 366c0 -30.667 0.664062 -48.833 1.99707 -54.5s6 -8.5 14 -8.5c33.333 0 76.833 19 130.5 57s87.834 74.333 102.501 109c6.66699 15.333 9.33398 25.5 8.00098 30.5s-8 9.5 -20 13.5c-27.333 9.33301 -60.166 9.66602 -98.499 0.999023s-66.5 -22.667 -84.5 -42
c-12 -14 -24.667 -25 -38 -33c-7.33301 -4.66699 -11.833 -10.667 -13.5 -18s-2.5 -25.666 -2.5 -54.999zM185.997 498.001c1.33301 12 0.832031 18.501 -1.50098 19.501s-12.5 -1.5 -30.5 -7.5c-15.333 -6 -24.666 -14.333 -27.999 -25
c-2.66699 -10.667 -2.66699 -84.667 0 -222c2 -104 4.33301 -166.167 7 -186.5s10 -30.833 22 -31.5c12.667 0 19 60.667 19 182c1.33301 133.333 5.33301 223.666 12 270.999zM237.996 632.002c2.66699 0 9.66797 -4.16699 21.001 -12.5s18.666 -14.5 21.999 -18.5
c4 -5.33301 6 -13 6 -23c0 -6.66699 0.833008 -10.334 2.5 -11.001s7.16699 1.33301 16.5 6c38.667 17.333 83.167 26.666 133.5 27.999s93.5 -8 129.5 -28s50.333 -49.667 43 -89c-10.667 -52.667 -43 -103.5 -97 -152.5s-118.333 -85.5 -193 -109.5
c-39.333 -12 -60 -19 -62 -21c-0.666992 -0.666992 -1 -3.66699 -1 -9s0.333008 -12.833 1 -22.5l2 -29.5c2.66699 -39.333 8.66699 -64.666 18 -75.999c9.33301 -10 12.333 -19.667 9 -29c-8.66699 -28 -19.167 -46 -31.5 -54s-46.833 -19.333 -103.5 -34
c-34 -8.66699 -55.5 -12.667 -64.5 -12s-18.5 7.33398 -28.5 20.001l-18 23c-5.33301 323.333 -9.33301 504 -12 542c-2.66699 20.667 -0.5 35.5 6.5 44.5s21.5 15.167 43.5 18.5c8 0 23.167 3.66699 45.5 11l69.5 23.5z" />
    <glyph glyph-name="Q" unicode="Q" horiz-adv-x="727" 
d="M243 192c-0.666992 30 2.66602 95.499 9.99902 196.499s11 160.833 11 179.5c0 19.333 -2 29 -6 29c-3.33301 0 -14.833 -11 -34.5 -33s-33.167 -39.333 -40.5 -52c-51.333 -85.333 -75 -166.333 -71 -243c1.33301 -26 3.16602 -44.667 5.49902 -56
s7.83301 -23.666 16.5 -36.999c14.667 -22 30.334 -38.5 47.001 -49.5s37.334 -17.833 62.001 -20.5v86zM354 107.999c7.33301 0 24.335 4.00488 51.002 12.0049s41.667 13.667 45 17c2 3.33301 -6.33301 24.666 -25 63.999c-18.667 38 -26.667 65 -24 81
c2.66699 11.333 6.5 19.833 11.5 25.5s13.5 9.83398 25.5 12.501c16 4 29 1.16699 39 -8.5s19.667 -28.834 29 -57.501c12 -36.667 20 -56.334 24 -59.001s11.833 1.66602 23.5 12.999s22.5 25.333 32.5 42c24 38.667 29.667 79 17 121
c-4.66699 18 -17.334 42.667 -38.001 74s-37.334 51.666 -50.001 60.999c-12 8 -40.667 33.667 -86 77l12 21c15.333 27.333 6 45.666 -28 54.999c-22 6 -35.167 8.5 -39.5 7.5s-6.83301 -7.16699 -7.5 -18.5c-5.33301 -24 -11.833 -86 -19.5 -186
s-12.167 -179.667 -13.5 -239c-0.666992 -46 0.5 -76.667 3.5 -92s8.83301 -23 17.5 -23zM331.002 731.004c12 3.33301 27.332 3.99902 45.999 1.99902s32.334 -5.33301 41.001 -10c6.66699 -2.66699 22 -22.334 46 -59.001c22.667 -34 40 -52.667 52 -56
c33.333 -8.66699 70.666 -43.834 111.999 -105.501s64 -116.167 68 -163.5c6 -72.667 -24 -141 -90 -205l-27 -26c30 -34.667 51.667 -58.334 65 -71.001c18.667 -19.333 23.834 -35.166 15.501 -47.499s-27.166 -18.5 -56.499 -18.5c-8.66699 0 -19.167 4.66699 -31.5 14
s-27.833 23.833 -46.5 43.5l-29 30.5c-28 -8 -59.667 -18 -95 -30c-50.667 -16.667 -106.834 -19.667 -168.501 -9s-106.167 30.667 -133.5 60c-13.333 14.667 -26.5 36.167 -39.5 64.5s-21.5 54.833 -25.5 79.5c-7.33301 44.667 -3.83301 96.834 10.5 156.501
s36.833 114.834 67.5 165.501c25.333 41.333 59.5 80.333 102.5 117s81.833 59.334 116.5 68.001z" />
    <glyph glyph-name="R" unicode="R" horiz-adv-x="673" 
d="M280 369c0 -24 19.3301 -26.6641 57.9971 -7.99707c16 8 34 19.667 54 35c36 27.333 58.833 45.666 68.5 54.999s13.834 16.666 12.501 21.999s-16.166 9.33301 -44.499 12s-51.166 2.33398 -68.499 -0.999023c-16.667 -3.33301 -35.5 -15.833 -56.5 -37.5
s-30.167 -37.834 -27.5 -48.501s4 -20.334 4 -29.001zM181.997 465.003c0 31.333 -3.66895 48.335 -11.002 51.002c-7.33301 3.33301 -13.166 4.5 -17.499 3.5s-10.833 -4.83301 -19.5 -11.5c-7.33301 -6 -12 -16 -14 -30s-3.33301 -54.667 -4 -122
c-1.33301 -64 -0.5 -129.5 2.5 -196.5s6.5 -102.5 10.5 -106.5c0.666992 -0.666992 2.83398 -1 6.50098 -1s8.83398 0.333008 15.501 1l20 2c26 3.33301 41.167 10.166 45.5 20.499s2.16602 37.166 -6.50098 80.499c-7.33301 36 -13.833 86 -19.5 150s-8.5 117 -8.5 159z
M579.995 503.005c0 -26 -13.0039 -55.001 -39.0039 -87.001c-12 -13.333 -34.667 -34.333 -68 -63s-52 -43 -56 -43c-3.33301 0 -9.33301 -3.66699 -18 -11c-6.66699 -5.33301 -6.66699 -12.666 0 -21.999s30.667 -36 72 -80c57.333 -60.667 96 -97 116 -109
c22.667 -13.333 37.667 -23.666 45 -30.999s11 -16 11 -26c0 -14 -4 -25.667 -12 -35s-17.667 -14 -29 -14c-29.333 0 -91.666 46.667 -186.999 140c-62 60.667 -97.667 91 -107 91s-14 -1.33301 -14 -4c0 -8.66699 4.5 -30.667 13.5 -66s15.5 -57 19.5 -65
c6 -11.333 8 -25.5 6 -42.5s-7.33301 -32.167 -16 -45.5c-4 -6.66699 -8.33301 -10.834 -13 -12.501s-12.334 -1.83398 -23.001 -0.500977c-15.333 2 -48 -2.66699 -98 -14c-35.333 -8.66699 -57.166 -13.334 -65.499 -14.001s-18.5 2.33301 -30.5 9
c-14.667 7.33301 -23.667 15.5 -27 24.5s-8.33301 35.5 -15 79.5s-9.66699 135 -9 273c1.33301 134 0 205 -4 213c-4.66699 7.33301 -2.33398 20.833 6.99902 40.5s19.333 31.5 30 35.5c12.667 6 25.5 10.5 38.5 13.5s27.333 5.33301 43 7s28.167 3.5 37.5 5.5
c4.66699 4 13.334 3 26.001 -3s23.334 -14.333 32.001 -25c8.66699 -10 14.334 -23.333 17.001 -40c2.66699 -15.333 6.5 -23.666 11.5 -24.999s18.167 1.66699 39.5 9c18 6.66699 47.833 10.167 89.5 10.5s72.834 -2.16699 93.501 -7.5
c14.667 -4 32.167 -14.167 52.5 -30.5s30.5 -28.166 30.5 -35.499z" />
    <glyph glyph-name="S" unicode="S" horiz-adv-x="477" 
d="M323 144c4 -3.33301 10.167 -1.33008 18.5 6.00293s13.833 15.666 16.5 24.999s0 17.666 -8 24.999c-6.66699 6.66699 -10.834 9.16699 -12.501 7.5s-4.16699 -10.834 -7.5 -27.501c-5.33301 -23.333 -7.66602 -35.333 -6.99902 -36zM187 464.003
c6 40.667 6.66699 61 2 61l-6 -3c-13.333 -8.66699 -21.333 -24.167 -24 -46.5s1 -40.833 11 -55.5c4.66699 -6 8 -4 10 6c2 6 4.33301 18.667 7 38zM101 569.003c7.33301 2 21.8311 8.82715 43.498 20.4941s36.167 18.5 43.5 20.5c4.66699 1.33301 12.667 3.83301 24 7.5
s18.333 5.83398 21 6.50098c31.333 10.667 71.333 5.33398 120 -15.999c20.667 -8.66699 34.334 -18.334 41.001 -29.001s8.33398 -25.667 5.00098 -45c-2 -13.333 -5.66699 -23.166 -11 -29.499s-14 -11.5 -26 -15.5c-10.667 -3.33301 -22 2.33398 -34 17.001
c-29.333 36 -48.666 16.667 -57.999 -58l-2 -14c-2 -18 -2.16699 -30.833 -0.5 -38.5s6.16699 -17.167 13.5 -28.5c12.667 -19.333 28 -33.333 46 -42c24 -12.667 48 -28.334 72 -47.001s38 -33 42 -43c5.33301 -12.667 7.5 -29.834 6.5 -51.501
s-4.83301 -39.167 -11.5 -52.5c-8.66699 -18 -21.5 -34.5 -38.5 -49.5s-35.167 -25.833 -54.5 -32.5c-16 -5.33301 -31 -8.16602 -45 -8.49902s-40.667 1.16699 -80 4.5c-60.667 5.33301 -102 10.5 -124 15.5s-37.333 13.5 -46 25.5c-20 28.667 -24.667 53.334 -14 74.001
c9.33301 18 24.666 22 45.999 12c5.33301 -2.66699 11 -6.33398 17 -11.001c13.333 -11.333 32.333 -18.666 57 -21.999s44.334 -1.66602 59.001 5.00098c19.333 9.33301 29 26.333 29 51s-9.66699 42.334 -29 53.001c-8 4.66699 -18.333 15.167 -31 31.5
s-24.334 26.833 -35.001 31.5c-22.667 13.333 -41.334 31 -56.001 53c-10 11.333 -19.667 30.333 -29 57s-13 45.334 -11 56.001c2 12 3 22.333 3 31c0.666992 10.667 6.83398 23.5 18.501 38.5s21.167 22.5 28.5 22.5z" />
    <glyph glyph-name="T" unicode="T" horiz-adv-x="871" 
d="M435 459c2.66699 17.333 2 26.001 -2 26.001c-9.33301 -0.666992 -15.833 -6.83398 -19.5 -18.501s-7.5 -36.834 -11.5 -75.501c-4.66699 -56.667 -10.667 -105.667 -18 -147c-14.667 -87.333 -13.667 -133.333 3 -138c11.333 -1.33301 18 -1 20 1
c3.33301 0 7 28.667 11 86s7.5 115.333 10.5 174s5.16699 89.334 6.5 92.001zM500 173.001l-0.00292969 -6.99316c0 -75.333 -2.5 -119.5 -7.5 -132.5s-22.167 -19.833 -51.5 -20.5h-6c-28 -0.666992 -53 -6.33398 -75 -17.001c-20 -10 -36.167 -13.167 -48.5 -9.5
s-23.833 15.5 -34.5 35.5c-8 14.667 -12.167 25.167 -12.5 31.5s2.16699 19.166 7.5 38.499c8 25.333 14 51.666 18 78.999c24.667 166.667 36.334 258.667 35.001 276c-4.66699 10.667 -11 16.334 -19 17.001c-17.333 0 -54.333 -5.66699 -111 -17
c-62.667 -12 -102.167 -17.5 -118.5 -16.5s-28.833 9.16699 -37.5 24.5c-24.667 47.333 -1.66699 71.666 69 72.999c28.667 0 55.667 2 81 6c132 24.667 294 47 486 67c60.667 6 99.167 8.16699 115.5 6.5s29.5 -7.83398 39.5 -18.501
c14.667 -17.333 12.834 -36 -5.49902 -56s-33.833 -27.667 -46.5 -23c-9.33301 6 -45.166 7.16699 -107.499 3.5s-107.833 -9.83398 -136.5 -18.501c-10 -2.66699 -18.167 -34.334 -24.5 -95.001s-9.5 -136.334 -9.5 -227.001z" />
    <glyph glyph-name="U" unicode="U" horiz-adv-x="618" 
d="M225 164c1.33301 -4 2.33301 30 3 102s0.666992 143.833 0 215.5s-1.66699 105.5 -3 101.5c-20 -4.66699 -39.5 -10.5 -58.5 -17.5s-28.167 -11.833 -27.5 -14.5c24 -140 39 -223.667 45 -251c6 -28 13.667 -57.667 23 -89s15.333 -47 18 -47zM344 650
c0 -14.667 -3.66797 -32.3311 -11.001 -52.998c-8 -20.667 -12.333 -100 -13 -238c-0.666992 -99.333 -0.166992 -160.833 1.5 -184.5s6.83398 -48.834 15.501 -75.501c10.667 -36 18 -54 22 -54c7.33301 0 21 12.333 41 37s36 49 48 73c30.667 60 48.667 125.833 54 197.5
s-3.33398 127.167 -26.001 166.5c-8.66699 14.667 -13 26.167 -13 34.5s4.33301 18.166 13 29.499c13.333 18 30.166 19.333 50.499 4s36.833 -41.666 49.5 -78.999c6.66699 -20 10.5 -37.667 11.5 -53s0.833008 -44.333 -0.5 -87c-1.33301 -54 -5.33301 -95.667 -12 -125
s-20.334 -65.333 -41.001 -108c-63.333 -131.333 -135 -197 -215 -197c-19.333 -2 -41.166 6.66699 -65.499 26s-45.166 39.333 -62.499 60c-37.333 52 -73.666 174.333 -108.999 367c-17.333 94 -29.333 145.667 -36 155c-6 8.66699 -11 24.667 -15 48
c-1.33301 13.333 -1.33301 23 0 29s5.33301 12.667 12 20c7.33301 7.33301 14 11.666 20 12.999s17 1.33301 33 0c23.333 -3.33301 48.333 -2 75 4s47.334 14.333 62.001 25c23.333 16.667 47.666 21 72.999 13s38 -24 38 -48z" />
    <glyph glyph-name="V" unicode="V" horiz-adv-x="629" 
d="M135 527c0 -6.66699 5 -20.667 15 -42c23.333 -52 54.333 -134.667 93 -248c28 -81.333 46 -122 54 -122c4 0.666992 5.5 9.5 4.5 26.5s-3.5 34.833 -7.5 53.5c-8.66699 38 -19 76.833 -31 116.5s-22 77.167 -30 112.5l-7.5 33c-3.66699 16 -6.5 27.5 -8.5 34.5l-8 27.5
c-3.33301 11.333 -6.83301 20.666 -10.5 27.999s-7.5 14 -11.5 20c-5.33301 1.33301 -15.333 -3.66699 -30 -15s-22 -19.666 -22 -24.999zM562 504c-4 -9.33301 -23.8311 -53.001 -59.498 -131.001s-55.5 -123.333 -59.5 -136c-8.66699 -24 -23 -60.667 -43 -110
s-35 -88.333 -45 -117c-12 -34 -25.333 -55.167 -40 -63.5s-32.334 -4.83301 -53.001 10.5c-8 8 -43.667 103.667 -107 287c-52 152.667 -87 238.667 -105 258c-12 12 -18.833 34.833 -20.5 68.5s3.16602 51.167 14.499 52.5c23.333 2.66699 42 6.66699 56 12
s31.667 15 53 29c39.333 26 67.5 35 84.5 27s30.5 -35.667 40.5 -83c6 -29.333 18 -77.166 36 -143.499s28.333 -105.5 31 -117.5c10 -38.667 16.667 -58.667 20 -60c8.66699 12 22.667 40.833 42 86.5s31.666 73.5 36.999 83.5c18 38.667 32 77.667 42 117
c8.66699 33.333 17.167 54 25.5 62s22.833 10.333 43.5 7c17.333 -2.66699 28.833 -8.16699 34.5 -16.5s8.83398 -22.833 9.50098 -43.5c0.666992 -22.667 -5.33301 -40.667 -18 -54c-12.667 -12.667 -19 -21 -19 -25z" />
    <glyph glyph-name="W" unicode="W" horiz-adv-x="737" 
d="M144 241c-2.66699 4 -13.168 48.167 -31.501 132.5s-29.166 128.833 -32.499 133.5c-3.33301 3.33301 -11.333 0.333008 -24 -9c-10.667 -7.33301 -16 -16.5 -16 -27.5s5.33301 -36.5 16 -76.5c35.333 -146.667 57 -224.334 65 -233.001
c1.33301 -1.33301 3 -1.16602 5 0.500977s4.33301 4.66699 7 9s5 9.16602 7 14.499c6 13.333 9.16699 23.333 9.5 30s-1.5 15.334 -5.5 26.001zM595.999 134c0 -46.667 -11.3418 -76.9932 -34.0088 -90.9932c-13.333 -7.33301 -24 -11 -32 -11s-19.333 4.33301 -34 13
c-11.333 6.66699 -20.666 16.5 -27.999 29.5s-11 26.833 -11 41.5c0 7.33301 -7 25 -21 53c-11.333 23.333 -26.166 58.666 -44.499 105.999s-30.166 82 -35.499 104c-5.33301 20.667 -10 30.667 -14 30c-4.66699 -1.33301 -12 -14.333 -22 -39
c-6.66699 -19.333 -21.667 -56.666 -45 -111.999l-33.5 -78l-27 -59.5c-9 -19.667 -16.333 -34.667 -22 -45s-11.667 -20.333 -18 -30s-11.666 -16.334 -15.999 -20.001s-9.5 -6.83398 -15.5 -9.50098s-11.667 -3.83398 -17 -3.50098s-11.666 1.16602 -18.999 2.49902
c-14.667 2.66699 -26 7.33398 -34 14.001s-15.167 16.167 -21.5 28.5s-10.833 32.5 -13.5 60.5s-4.66699 60 -6 96s-2 85.667 -2 149v224l19 30c10.667 16 23.5 27 38.5 33s28.167 5 39.5 -3l10 -5c4 -2 6.83301 -3.5 8.5 -4.5s3.66699 -2.33301 6 -4
s3.83301 -3.33398 4.5 -5.00098s1.66699 -3.83398 3 -6.50098s2.5 -6.16699 3.5 -10.5s2 -9 3 -14s2.16699 -11.5 3.5 -19.5c2 -15.333 4.33301 -30.833 7 -46.5s5.33398 -30.334 8.00098 -44.001l8 -39.5c2.66699 -12.667 5.33398 -23.834 8.00098 -33.501l7 -25.5
c2 -7.33301 4 -12.666 6 -15.999s3.66699 -4.66602 5 -3.99902c4.66699 3.33301 13 22.666 25 57.999c14 40 29.833 78.167 47.5 114.5s29.834 55.833 36.501 58.5c18 7.33301 35.667 6.66602 53 -2.00098s27.666 -21.667 30.999 -39c4 -36 15.333 -85.333 34 -148
s35.334 -110 50.001 -142c2.66699 -6 5.83398 -10.833 9.50098 -14.5s6.16699 -5.16699 7.5 -4.5c4.66699 2.66699 9.33398 18.667 14.001 48c13.333 67.333 31.5 139 54.5 215s40.833 122 53.5 138c21.333 26 41.333 28.667 60 8c9.33301 -10 13.833 -21.167 13.5 -33.5
s-5.5 -33.833 -15.5 -64.5c-24.667 -76 -46.834 -157.333 -66.501 -244s-29.5 -147.667 -29.5 -183z" />
    <glyph glyph-name="X" unicode="X" horiz-adv-x="633" 
d="M432 189c-8.66699 14.667 -15.333 27.6641 -20 38.9971s-9.33398 21 -14.001 29c-4.66699 5.33301 -8.83398 6.83301 -12.501 4.5s-11.167 -11.166 -22.5 -26.499c-16.667 -24 -24.667 -40.333 -24 -49s10.334 -23.667 29.001 -45c14.667 -16.667 24.5 -26 29.5 -28
s13.833 -1 26.5 3c8.66699 2.66699 15.167 5.83398 19.5 9.50098s7.5 6.83398 9.5 9.50098s1.5 7.66699 -1.5 15s-5.16699 12.5 -6.5 15.5s-5.66602 10.833 -12.999 23.5zM278.001 470.997c-1.33301 1.33301 -8.33301 12.999 -21 34.999s-20.667 33.667 -24 35
c-4.66699 -1.33301 -17.667 -10.166 -39 -26.499s-32.666 -24.833 -33.999 -25.5c-6.66699 -4.66699 -9.66699 -9 -9 -13s5.66699 -14.333 15 -31c18 -32 38.833 -64.667 62.5 -98s37.5 -50 41.5 -50c6.66699 2 27 28 61 78c-26.667 52.667 -44.334 84.667 -53.001 96z
M386.001 463.996c3.33301 0 10.1719 5.8291 20.5049 17.4961s23 27.5 38 47.5s22.833 30.333 23.5 31c4 4 8 16.333 12 37c2.66699 16 8.5 27.667 17.5 35s23.833 12.666 44.5 15.999c17.333 2.66699 31.833 -0.166016 43.5 -8.49902s17.5 -19.833 17.5 -34.5
c0 -13.333 -6.16699 -31.333 -18.5 -54s-24.833 -39.334 -37.5 -50.001c-13.333 -10 -20 -17.667 -20 -23c-2 -6 -30 -48.667 -84 -128l40 -77c27.333 -51.333 44.833 -83.166 52.5 -95.499s17.167 -23.5 28.5 -33.5c24.667 -22 23.667 -46.333 -3 -73
c-8.66699 -8.66699 -15.834 -14 -21.501 -16s-13.834 -2.33301 -24.501 -1c-16.667 2.66699 -36 -1.66602 -58 -12.999c-16 -8 -27.5 -15.5 -34.5 -22.5s-18.833 -14.167 -35.5 -21.5c-15.333 -7.33301 -26.333 -11.333 -33 -12s-15.334 1 -26.001 5
c-18 6.66699 -30.333 18.334 -37 35.001s-5.66699 32.667 3 48c8 13.333 8.66699 23 2 29c-3.33301 1.33301 -5.83301 2.5 -7.5 3.5s-4.5 -1.16699 -8.5 -6.5s-8.33301 -11.666 -13 -18.999s-11.334 -18.666 -20.001 -33.999c-11.333 -20.667 -23.333 -35.167 -36 -43.5
s-30 -14.166 -52 -17.499c-15.333 -2 -26.166 -2.33301 -32.499 -1s-12.5 5 -18.5 11c-22.667 22.667 -20 50.334 8 83.001c6 6 14 16.667 24 32l30.5 49c10.333 17.333 17.166 28.333 20.499 33c5.33301 6.66699 8.5 10.667 9.5 12s2.66699 4.66602 5 9.99902
s3 9.83301 2 13.5s-2.83301 8.66699 -5.5 15s-7 13.833 -13 22.5c-66 114 -104.667 171 -116 171c-6.66699 0 -15.334 6.83301 -26.001 20.5s-16.334 24.834 -17.001 33.501c0 10 4.66699 24.333 14 43s17.333 29 24 31c6 2.66699 14 2.66699 24 0
c12 -2.66699 29.5 4.33301 52.5 21s43.833 37.667 62.5 63c8.66699 11.333 15.334 18.166 20.001 20.499s12 2.5 22 0.5c33.333 -6.66699 52 -26 56 -58c1.33301 -12.667 13.833 -40.334 37.5 -83.001s38.167 -64 43.5 -64z" />
    <glyph glyph-name="Y" unicode="Y" horiz-adv-x="570" 
d="M419 515c2.66699 8.66699 -0.00488281 12.6689 -8.00488 12.002c-7.33301 0 -15 -4 -23 -12c-8.66699 -15.333 -18.667 -42.833 -30 -82.5s-22.666 -83.334 -33.999 -131.001s-19.666 -79.5 -24.999 -95.5c-8 -29.333 -13.667 -51.166 -17 -65.499
s-5.16602 -26 -5.49902 -35s0.833984 -14.333 3.50098 -16s7.33398 -2.16699 14.001 -1.5c18 2 33.833 23.333 47.5 64s31.167 119 52.5 235c3.33301 18.667 7 38.167 11 58.5s7.33301 36.666 10 48.999s4 19.166 4 20.499zM301.995 -7.99805
c-32.667 -10 -58.498 -12.166 -77.498 -6.49902s-36.167 20.834 -51.5 45.501c-4.66699 8.66699 -6.16699 18.334 -4.5 29.001s8.16699 34 19.5 70c27.333 87.333 41 135.666 41 144.999c0 5.33301 -3 14.333 -9 27c-10.667 18.667 -36.667 54 -78 106
c-74.667 94 -112 154 -112 180c0 10 4.66699 19 14 27c22 20 52.333 0 91 -60c13.333 -21.333 29.5 -44.833 48.5 -70.5s35.833 -47 50.5 -64s23 -24.5 25 -22.5c7.33301 16 14.333 50.667 21 104s13.334 88.666 20.001 105.999c5.33301 11.333 13.166 19.666 23.499 24.999
s20.166 6.33301 29.499 3c6.66699 -2.66699 26 -0.666992 58 6s50.333 12.334 55 17.001c10 10 28 6 54 -12c11.333 -8 18 -20.667 20 -38s-1.66699 -34.666 -11 -51.999c-5.33301 -9.33301 -12.833 -35 -22.5 -77s-19.834 -89.833 -30.501 -143.5
s-18.334 -89.167 -23.001 -106.5c-12 -54.667 -16.667 -95.334 -14 -122.001c3.33301 -28 4.5 -46.333 3.5 -55s-5.5 -17.334 -13.5 -26.001c-9.33301 -10 -31.166 -17.833 -65.499 -23.5s-54.833 -9.5 -61.5 -11.5z" />
    <glyph glyph-name="Z" unicode="Z" 
d="M387 498c5.33301 5.33301 6.49902 10.502 3.49902 15.502s-10.5 7.16699 -22.5 6.5c-10 0 -16.667 -1 -20 -3s-5 -5.66699 -5 -11c0 -9.33301 -6.66699 -27.333 -20 -54c-6.66699 -12.667 -25.334 -53.334 -56.001 -122.001s-48.667 -108.334 -54 -119.001
c-6.66699 -12 -9.66699 -19.333 -9 -22s5.33398 -4 14.001 -4c9.33301 0 14 3.33301 14 10c8.66699 23.333 27.334 62.5 56.001 117.5s45.667 88.167 51 99.5c28 56 44 84.667 48 86zM440.999 634.002c0 2.66699 3.49609 4.33008 10.4961 4.99707s15.167 0.166992 24.5 -1.5
s17 -3.83398 23 -6.50098c8 -4 15.5 -13.5 22.5 -28.5s10.5 -29.5 10.5 -43.5c0 -7.33301 -7.66699 -18.666 -23 -33.999c-14 -16 -45 -68.167 -93 -156.5s-74.667 -144.833 -80 -169.5c4 0 27 1.16699 69 3.5s75.833 3.16602 101.5 2.49902s40.5 -3.33398 44.5 -8.00098
c24 -13.333 33 -33 27 -59c-2.66699 -10 -10.167 -16.167 -22.5 -18.5s-49.166 -5.16602 -110.499 -8.49902c-37.333 -2 -66.833 -3.83301 -88.5 -5.5s-48.834 -4.66699 -81.501 -9s-58.667 -7.5 -78 -9.5c-42 -4.66699 -69.667 -5.16699 -83 -1.5s-23 14.834 -29 33.501
c-4.66699 14.667 -5.16699 29 -1.5 43s12.834 31.667 27.501 53c10.667 16.667 18.167 29.834 22.5 39.501l17.5 40.5c7.33301 17.333 18 39.666 32 66.999l21 45.5c8.66699 18.333 14.667 31.333 18 39s6.83301 16.5 10.5 26.5s6.16699 18.667 7.5 26h-73
c-49.333 0 -83.333 4 -102 12s-30 23.667 -34 47c-3.33301 22.667 2.33398 38.334 17.001 47.001s33.334 7.33398 56.001 -3.99902c28.667 -14.667 85.334 -17 170.001 -7c64.667 7.33301 101.667 12 111 14c13.333 2.66699 26 6.83398 38 12.501s18 10.167 18 13.5z" />
    <glyph glyph-name="underscore" unicode="_" horiz-adv-x="60" 
 />
    <glyph glyph-name="grave" unicode="`" horiz-adv-x="170" 
d="M38 614c5.33301 6.66699 14.5 10.335 27.5 11.002s23.167 -2 30.5 -8c6 -6.66699 12.667 -33.334 20 -80.001s13 -74 17 -82c12.667 -32.667 9 -52.334 -11 -59.001c-17.333 -5.33301 -35 1 -53 19c-8 8 -14 17.333 -18 28c-10 22.667 -16.5 54.667 -19.5 96
s-0.833008 66.333 6.5 75z" />
    <glyph glyph-name="a" unicode="a" horiz-adv-x="468" 
d="M313 292c0.666992 -4 0 -22.6689 -2 -56.002s-3.33301 -62.166 -4 -86.499s1 -40.5 5 -48.5c5.33301 0 8 37.333 8 112c0 78.667 -1.33301 115.334 -4 110.001c-0.666992 -2 -1.66699 -12.333 -3 -31zM222 121.998c-2 24.667 0.5 71.6699 7.5 141.003
s10.833 109.666 11.5 120.999c0 10 -2.5 16.833 -7.5 20.5s-11.167 4 -18.5 1s-15 -9.16699 -23 -18.5c-46.667 -54.667 -75 -121.334 -85 -200.001c-4.66699 -34.667 0.333008 -57.834 15 -69.501s39.667 -12.5 75 -2.5zM348 555.001
c9.33301 5.33301 17.6631 6.83398 24.9961 4.50098s17 -9.5 29 -21.5c16 -16 22.667 -30.667 20 -44c-4 -19.333 -8 -71.166 -12 -155.499s-5.33301 -142.5 -4 -174.5c2.66699 -44.667 8.66699 -77.334 18 -98.001c10 -20.667 14.667 -36.834 14 -48.501
s-7 -24.167 -19 -37.5l-20 -22l-65 8c-33.333 4 -57.666 9.33301 -72.999 16s-26 16.667 -32 30c-3.33301 7.33301 -8.5 11.833 -15.5 13.5s-25.167 2.16699 -54.5 1.5h-63l-27 29c-21.333 23.333 -33.833 46 -37.5 68s-0.166992 57.333 10.5 106
c12.667 59.333 35.834 115 69.501 167s65.167 80.667 94.5 86c15.333 2.66699 27.666 11.667 36.999 27c6.66699 10 13.334 17 20.001 21s18.334 7.33301 35.001 10c26.667 6 43.334 10.667 50.001 14z" />
    <glyph glyph-name="b" unicode="b" horiz-adv-x="553" 
d="M401 270c-14.667 12.667 -25.1699 20.665 -31.5029 23.998s-18.166 5.33301 -35.499 6c-7.33301 2 -18.166 -0.166992 -32.499 -6.5s-23.833 -13.166 -28.5 -20.499c-8.66699 -14.667 -11.667 -51.5 -9 -110.5s9 -92.167 19 -99.5c4.66699 -3.33301 9.66699 -10 15 -20
c6 -17.333 24.667 -16.666 56 2.00098c37.333 22.667 62.333 57.667 75 105s3.33398 87.333 -27.999 120zM173.997 30.998c5.33301 2.66699 7.83203 18.499 7.49902 47.499s-2.16602 60.833 -5.49902 95.5s-6 52.667 -8 54c-4.66699 16.667 -4.33398 37.667 0.999023 63
c5.33301 22.667 7.33301 65.334 6 128.001c-1.33301 56 -3.33301 77.333 -6 64c-3.33301 -16.667 -6.66602 -78 -9.99902 -184c-6 -178.667 -1 -268 15 -268zM260.996 505.997c0 -82.667 3.33594 -125.336 10.0029 -128.003c6 -2.66699 11.333 -1.66699 16 3
c5.33301 5.33301 22.5 7.83301 51.5 7.5s50.5 -3.83301 64.5 -10.5c15.333 -6.66699 33.5 -20 54.5 -40s35.5 -38 43.5 -54c22 -45.333 27.333 -92 16 -140s-36 -92.667 -74 -134c-23.333 -24 -46 -40.5 -68 -49.5s-53 -14.167 -93 -15.5c-42.667 -2 -73.667 -7 -93 -15
c-12.667 -5.33301 -21.834 -7.83301 -27.501 -7.5s-16.834 4.83301 -33.501 13.5c-24 12.667 -38.333 23.667 -43 33c-2 3.33301 -3.5 20.833 -4.5 52.5s-1.33301 72.334 -1 122.001l1 144c0.333008 46.333 1 94.333 2 144s1.5 81.5 1.5 95.5
c-16.667 -3.33301 -29.334 0.833984 -38.001 12.501s-14 28.167 -16 49.5c0 13.333 4.83301 25.166 14.5 35.499s19.167 13.833 28.5 10.5c16.667 -5.33301 50 3.33398 100 26.001c20.667 10 36.167 14.333 46.5 13s19.5 -8.66602 27.5 -21.999
c6.66699 -10.667 10.667 -23.667 12 -39s2 -51 2 -107z" />
    <glyph glyph-name="c" unicode="c" horiz-adv-x="372" 
d="M147 150c1.33301 6 0.000976562 27.001 -3.99902 63.001c-2.66699 25.333 -6 38.666 -10 39.999c-4 0.666992 -6.33301 -14.333 -7 -45c-0.666992 -21.333 3.66602 -40.333 12.999 -57c4 -6.66699 6.66699 -7 8 -1zM333.001 150.001
c8 0 10.6719 -11.6641 8.00488 -34.9971c-2 -24.667 -4.83301 -42.334 -8.5 -53.001s-10.5 -20.334 -20.5 -29.001c-18 -15.333 -44.333 -22.333 -79 -21s-70.334 11.333 -107.001 30c-37.333 19.333 -65 53 -83 101c-10.667 28 -14.834 53.833 -12.501 77.5
s11.166 52.5 26.499 86.5c30.667 66 65.667 112 105 138c18.667 11.333 33.667 17.333 45 18s27.333 -3.33301 48 -12c12 -4.66699 20.667 -9.66699 26 -15s9.66602 -13.666 12.999 -24.999c4 -12.667 5.5 -21.334 4.5 -26.001s-5.5 -11 -13.5 -19
c-7.33301 -7.33301 -12.833 -11.5 -16.5 -12.5s-8.5 0.166992 -14.5 3.5c-10.667 7.33301 -17.334 4.66602 -20.001 -8.00098c-2 -10.667 -2.66699 -34 -2 -70c2 -114 8.66699 -172.667 20 -176c6.66699 -2.66699 14.667 2 24 14c20.667 22 39.667 33 57 33z" />
    <glyph glyph-name="d" unicode="d" horiz-adv-x="568" 
d="M278 303c-10 -4 -23.166 -5.49902 -39.499 -4.49902s-28.833 3.5 -37.5 7.5c-8 3.33301 -19.667 -5.33398 -35 -26.001s-29 -45.834 -41 -75.501s-18 -54.167 -18 -73.5c0 -22 3.5 -37.167 10.5 -45.5s20.5 -14.166 40.5 -17.499c16 -2 40.333 0.666992 73 8
s49.667 14.333 51 21c1.33301 8 4.66602 79.333 9.99902 214zM406.001 365.001c-2 102.667 -6.33398 154.333 -13.001 155c-1.33301 0 -3 -1.66699 -5 -5c-4 -8 -9 -114 -15 -318c-1.33301 -64.667 -0.333008 -98 3 -100s11.833 -0.666992 25.5 4
s21.834 9.33398 24.501 14.001c3.33301 4.66699 1.33301 21.667 -6 51c-7.33301 31.333 -12 97.666 -14 198.999zM359 611c14 0.666992 30.3291 3.99609 48.9961 9.99609s33.334 8.33301 44.001 7s22.334 -8.66602 35.001 -21.999
c7.33301 -8.66699 11.5 -17.834 12.5 -27.501s0.166992 -33.834 -2.5 -72.501c-6 -88.667 -6.5 -166.167 -1.5 -232.5s14.5 -108.5 28.5 -126.5c34 -44 3.66699 -88 -91 -132c-36.667 -17.333 -64.667 -26.666 -84 -27.999s-35 4.66699 -47 18c-11.333 14 -17 24.333 -17 31
c-0.666992 6.66699 -3 8 -7 4c-1.33301 -1.33301 -3.66602 -4 -6.99902 -8c-13.333 -16 -35.833 -27.667 -67.5 -35s-60.5 -7.66602 -86.5 -0.999023c-39.333 10.667 -65.333 33.5 -78 68.5s-11.334 79.167 3.99902 132.5c14.667 50 36 94.167 64 132.5s54 58.833 78 61.5
c4.66699 0.666992 12.667 2.16699 24 4.5s20 3.83301 26 4.5s12.833 -0.166016 20.5 -2.49902s13.834 -6.83301 18.501 -13.5c11.333 -12.667 18.333 -17 21 -13c4 6.66699 5.5 32.334 4.5 77.001s-3.5 71.667 -7.5 81c-5.33301 10.667 -6.66602 22.334 -3.99902 35.001
c4 16.667 10.667 28.167 20 34.5s26.333 10.5 51 12.5z" />
    <glyph glyph-name="e" unicode="e" horiz-adv-x="465" 
d="M139 178c-0.666992 20.667 -1.00098 46.333 -1.00098 77c0 19.333 -0.333008 29.333 -1 30c-1.33301 0 -5.66602 -16.333 -12.999 -49c-0.666992 -4.66699 -1.66699 -10 -3 -16c-14 -73.333 -8.66699 -122.333 16 -147zM293.999 409.999
c-2 17.333 -14.667 21.335 -38 12.002c-9.33301 -4 -15.5 -10.833 -18.5 -20.5s-5.83301 -30.834 -8.5 -63.501l-3 -52c14.667 14.667 30.167 36.167 46.5 64.5s23.5 48.166 21.5 59.499zM385.999 410.001c0 -31.333 -23.333 -81.667 -70 -151
c-19.333 -28.667 -34.666 -48.167 -45.999 -58.5s-23 -15.5 -35 -15.5c-7.33301 0 -11.833 -2 -13.5 -6s-2.5 -15.333 -2.5 -34c0 -31.333 3 -48.666 9 -51.999s22 3.33398 48 20.001c30 18.667 46.667 32.334 50 41.001c3.33301 7.33301 10.833 14.333 22.5 21
s22.5 10 32.5 10c11.333 0 23.166 -5.5 35.499 -16.5s18.5 -21.5 18.5 -31.5c0 -10.667 -3.33301 -21.667 -10 -33s-13 -17 -19 -17c-4 0.666992 -16.5 -7.5 -37.5 -24.5s-32.5 -25.5 -34.5 -25.5c-5.33301 -2 -21.333 -12 -48 -30c-18 -12 -32.167 -19.833 -42.5 -23.5
s-26.5 -5.83398 -48.5 -6.50098c-21.333 -1.33301 -36.833 -1.33301 -46.5 0s-21.167 5.66602 -34.5 12.999c-16.667 8.66699 -32.167 22 -46.5 40s-24.5 37 -30.5 57c-10.667 36 -6 93 14 171c18 69.333 42 128.166 72 176.499s62.333 80.5 97 96.5
c36.667 16.667 72.667 16 108 -2c10.667 -6 23 -23.333 37 -52s21 -51 21 -67z" />
    <glyph glyph-name="f" unicode="f" horiz-adv-x="411" 
d="M133 334c-0.666992 30.667 -2.66602 45.999 -5.99902 45.999c-4.66699 0 -8.33398 -24.667 -11.001 -74c-8 -122 -6 -188 6 -198c15.333 -12.667 24 -4 26 26c1.33301 16.667 0.333008 39.334 -3 68.001c-2 17.333 -4 33 -6 47s-3.5 26.333 -4.5 37s-1.5 26.667 -1.5 48z
M370.001 591.999c0 -9.33301 -5.67285 -21.002 -17.0059 -35.002c-7.33301 -8.66699 -13.333 -13.667 -18 -15s-13 -0.333008 -25 3c-19.333 6 -33 17 -41 33c-8.66699 17.333 -20.667 28.333 -36 33c-15.333 5.33301 -25 6.33301 -29 3s-3.66699 -12.333 1 -27
c6 -6.66699 7 -33.5 3 -80.5s-5.33301 -76.167 -4 -87.5l2 -42l70 2c34.667 1.33301 55.667 1.33301 63 0s16 -7.33301 26 -18c8.66699 -8.66699 13.834 -15.167 15.501 -19.5s0.833984 -9.83301 -2.49902 -16.5c-4.66699 -8.66699 -11.667 -15.334 -21 -20.001
s-26 -9.66699 -50 -15c-17.333 -3.33301 -46 -11 -86 -23c6 -50 10.333 -102.333 13 -157c2 -35.333 2.33301 -57 1 -65s-6.33301 -16.333 -15 -25s-19.5 -14.167 -32.5 -16.5s-38.833 -3.16602 -77.5 -2.49902c-16 0 -31.333 2.83301 -46 8.5s-23.334 12.167 -26.001 19.5
c-4.66699 14.667 -7.16699 41.834 -7.5 81.501s0.5 79 2.5 118l7 131c2.66699 48.333 4.33398 80.833 5.00098 97.5c0.666992 36.667 2.33398 61.5 5.00098 74.5s9.33398 30.167 20.001 51.5c26 54.667 54.333 90.334 85 107.001c18.667 10 37.834 14 57.501 12
s43.834 -10.333 72.501 -25c56.667 -28.667 85 -57 85 -85z" />
    <glyph glyph-name="g" unicode="g" horiz-adv-x="475" 
d="M239 303c-36 -1.33301 -60.001 0.332031 -72.001 4.99902c-11.333 4 -23.833 -8 -37.5 -36s-18.167 -51 -13.5 -69c2.66699 -13.333 14.334 -21.666 35.001 -24.999s42 -0.333008 64 9l24 11v105zM331.999 238.998c0 -66.667 -1.66504 -124 -4.99805 -172
c-3.33301 -53.333 -2.33301 -78.666 3 -75.999c3.33301 1.33301 6.66602 19.666 9.99902 54.999c13.333 144 15.666 234 6.99902 270c-6 26 -10.333 22.667 -13 -10zM421.001 -78.002c0 -30 -22.333 -60.3359 -67 -91.0029c-20 -14 -34.5 -22.167 -43.5 -24.5
s-30.167 -3.5 -63.5 -3.5h-67l-30 33c-37.333 40 -61 71 -71 93s-9 39.667 3 53c10.667 12 21.667 15.667 33 11s28.333 -19 51 -43c18.667 -20.667 32.5 -33.5 41.5 -38.5s15.333 -3.83301 19 3.5s5.5 22.666 5.5 45.999c0 28 3 72.667 9 134l-41 -5
c-28.667 -4 -48.167 -5.5 -58.5 -4.5s-25.833 5.83301 -46.5 14.5c-26 10.667 -43.667 25.167 -53 43.5s-13 44.5 -11 78.5c3.33301 45.333 16.333 86.333 39 123s51.334 62.334 86.001 77.001c23.333 10.667 42 13.334 56 8.00098c11.333 -4 21.166 -5 29.499 -3
s19.833 8 34.5 18c9.33301 6.66699 27 14.667 53 24c14 4.66699 26.5 7.33398 37.5 8.00098s20 0 27 -2s14 -6.16699 21 -12.5s12.333 -12.166 16 -17.499s8.5 -13 14.5 -23c0 -280 -4.33301 -426.667 -13 -440c-7.33301 -26 -11 -46 -11 -60z" />
    <glyph glyph-name="h" unicode="h" horiz-adv-x="597" 
d="M164 494c-2.66699 8.66699 -6.66602 12.5 -11.999 11.5s-14 -7.16699 -26 -18.5l-21 -19l7 -140c8 -176 18.667 -274.333 32 -295c6.66699 -10 11.667 -15.167 15 -15.5s11.333 4.16699 24 13.5c11.333 8 17.666 18.667 18.999 32s-0.666992 39.333 -6 78
c-2 10.667 -7.16699 69.167 -15.5 175.5s-13.833 165.5 -16.5 177.5zM259.001 377c0 -4 8.99902 2.99902 26.999 20.999c39.333 43.333 77.333 67.666 114 72.999c51.333 8.66699 89.166 -9 113.499 -53s38.5 -120.667 42.5 -230c1.33301 -32 3.33301 -66.833 6 -104.5
s4.33398 -64.5 5.00098 -80.5c-0.666992 -19.333 -9.83398 -32.166 -27.501 -38.499s-33.834 -2.83301 -48.501 10.5c-7.33301 6.66699 -11.666 16.167 -12.999 28.5s-2 47.833 -2 106.5c-0.666992 66 -2 111.167 -4 135.5s-6.66699 50.166 -14 77.499
c-12 42.667 -28.667 64 -50 64c-8.66699 0 -23 -10.667 -43 -32c-22.667 -22.667 -36.667 -46 -42 -70c-6.66699 -27.333 -23 -52.666 -49 -75.999l10 -59c22 -137.333 29.667 -213.333 23 -228c-7.33301 -16.667 -20.166 -24.5 -38.499 -23.5s-31.166 10.167 -38.499 27.5
c-6 14 -11 21 -15 21c-10.667 0 -29.334 -10.667 -56.001 -32c-12.667 -10.667 -26.667 -14.667 -42 -12c-17.333 2.66699 -29.333 9 -36 19s-11.334 27.667 -14.001 53c-11.333 83.333 -21 211.333 -29 384c-2.66699 76 -5.33398 116.333 -8.00098 121
c-1.33301 4.66699 0.333984 20 5.00098 46c4.66699 22.667 11.834 38.834 21.501 48.501s23.5 14.834 41.5 15.501c16 0 30 3.66699 42 11c9.33301 5.33301 22.333 8.5 39 9.5s28.334 -0.5 35.001 -4.5c19.333 -12.667 32 -58 38 -136c0.666992 -14 1.66699 -28.5 3 -43.5
s2.33301 -26.833 3 -35.5s1 -13.334 1 -14.001z" />
    <glyph glyph-name="i" unicode="i" horiz-adv-x="346" 
d="M172 183c-8.66699 61.333 -15.333 92.001 -20 92.001c-1.33301 0 -2.66602 -2.33301 -3.99902 -7c-4 -15.333 -9.33301 -47.833 -16 -97.5s-10.334 -89.5 -11.001 -119.5l20 5c30 8 45 17.667 45 29c0 1.33301 -0.666992 6.66602 -2 15.999l-5.5 38zM145.001 406.001
c12.667 9.33301 26.998 14.167 42.998 14.5s28.667 -4.5 38 -14.5c8 -6 13.667 -20.167 17 -42.5s5.83301 -49 7.5 -80s3.5 -52.5 5.5 -64.5c0.666992 -2 2.33398 -12.333 5.00098 -31s4.33398 -31.334 5.00098 -38.001c3.33301 -22.667 6.66602 -38.667 9.99902 -48
s9.66602 -19 18.999 -29c17.333 -18.667 24.333 -38 21 -58s-16.333 -36.333 -39 -49c-11.333 -6 -20.166 -9.33301 -26.499 -10s-17.833 1 -34.5 5c-22 4.66699 -52.667 4.33398 -92 -0.999023c-35.333 -6 -57.666 -7.33301 -66.999 -4c-10 4 -17.5 14.333 -22.5 31
s-5.83301 34.667 -2.5 54c6.66699 44.667 12.334 86.334 17.001 125.001c6 44 8.83301 71.667 8.5 83s-4.16602 25.666 -11.499 42.999c-7.33301 16.667 -11.333 28.334 -12 35.001s1.66602 16 6.99902 28c5.33301 11.333 10.333 18.666 15 21.999s15 6 31 8
c25.333 4 44.666 11 57.999 21zM76.999 638.002c10.667 10 18.999 16.166 24.999 18.499s13.667 2.5 23 0.5l22.5 -4.5c11.667 -2.33301 19.834 -3.83301 24.501 -4.5c64.667 -10 101 -37 109 -81c2 -14.667 -2.5 -29.334 -13.5 -44.001s-25.5 -25 -43.5 -31
c-10.667 -3.33301 -18.5 -4.66602 -23.5 -3.99902s-11.5 4 -19.5 10c-12 8.66699 -30.667 14.334 -56 17.001c-23.333 2.66699 -40.333 7 -51 13s-19 16.333 -25 31c-6.66699 15.333 -8 28.5 -4 39.5s14.667 24.167 32 39.5z" />
    <glyph glyph-name="j" unicode="j" horiz-adv-x="410" 
d="M280 220c-0.666992 24.667 -6.66504 43.333 -17.998 56c-6 5.33301 -10.667 5.33301 -14 0c-2.66699 -18 -1.5 -56 3.5 -114s7.5 -97.333 7.5 -118c1.33301 -42 3.66602 -64 6.99902 -66c4.66699 -2.66699 8 10.333 10 39c3.33301 37.333 4.66602 105 3.99902 203z
M229.002 -200.001c-32.667 0 -55.333 0.833008 -68 2.5s-25 5.83398 -37 12.501c-18 9.33301 -35.5 22.5 -52.5 39.5s-28.833 33.167 -35.5 48.5c-4 10 -5.83301 17.5 -5.5 22.5s3.5 12.5 9.5 22.5c9.33301 15.333 20.333 24 33 26c7.33301 1.33301 11 -1.33398 11 -8.00098
c0 -14 13.667 -32.333 41 -55s49.333 -34 66 -34c10.667 0 16 1.33301 16 4c0 1.33301 -1 3 -3 5c-6.66699 8 -13.167 32.667 -19.5 74s-10.166 86 -11.499 134c-3.33301 101.333 -12 160.666 -26 177.999c-4 5.33301 -7.66699 16 -11 32
c-4 22.667 1.66699 40.834 17 54.501s37.666 20.834 66.999 21.501c16 1.33301 31.333 6 46 14c26.667 14.667 52.667 14 78 -2c24 -14 35.333 -55 34 -123c-0.666992 -11.333 0 -68.666 2 -171.999c1.33301 -74.667 -2 -130.834 -10 -168.501s-24.667 -73.834 -50 -108.501
c-6.66699 -10 -14 -15.833 -22 -17.5s-31 -2.5 -69 -2.5zM273.003 575.999c13.333 0 27.001 -3.3291 41.001 -9.99609s23.333 -14.334 28 -23.001c5.33301 -9.33301 6 -22.5 2 -39.5s-10.667 -29.833 -20 -38.5c-7.33301 -7.33301 -14 -11.666 -20 -12.999s-16 -1 -30 1
c-19.333 3.33301 -39.666 5.66602 -60.999 6.99902c-42.667 2.66699 -68 19 -76 49c-5.33301 15.333 -3.83301 31.166 4.5 47.499s18.166 27.5 29.499 33.5c7.33301 3.33301 18 4.16602 32 2.49902s26 -4.83398 36 -9.50098c9.33301 -4.66699 20.666 -7 33.999 -7z" />
    <glyph glyph-name="k" unicode="k" horiz-adv-x="636" 
d="M214 354c-1.33301 89.333 -4.33496 138.002 -9.00195 146.002c-4 5.33301 -12.333 5.66602 -25 0.999023c-11.333 -4 -18.833 -11.833 -22.5 -23.5s-5.5 -32.167 -5.5 -61.5c0.666992 -137.333 12.334 -240.333 35.001 -309c10 -30 20 -43.333 30 -40
c1.33301 0 2.33301 0.333008 3 1c4 2.66699 4.33301 25.667 1 69c-3.33301 41.333 -5.66602 113.666 -6.99902 216.999zM398.998 276.002c4 0 0.99707 -6.33594 -9.00293 -19.0029c-8.66699 -10.667 -11.667 -20.334 -9 -29.001c2.66699 -9.33301 21.667 -30.166 57 -62.499
s64.666 -56.166 87.999 -71.499c43.333 -28.667 68.333 -47.667 75 -57s3.66699 -20.666 -9 -33.999c-9.33301 -8.66699 -19.666 -13 -30.999 -13s-26.666 4.33301 -45.999 13c-16 8 -45.5 27.833 -88.5 59.5s-70.167 53.5 -81.5 65.5c-22 24.667 -32.333 21.667 -31 -9
c0.666992 -10 2.66699 -23 6 -39c3.33301 -22 2 -37.667 -4 -47c-4.66699 -10.667 -22.667 -25.834 -54 -45.501s-61.666 -36.5 -90.999 -50.5c-26.667 11.333 -45.834 24.833 -57.501 40.5s-18.834 41.5 -21.501 77.5c-12.667 102.667 -20.334 196 -23.001 280
c-2.66699 66 -5 105.5 -7 118.5s-7.66699 24.5 -17 34.5c-18 19.333 -20.5 38.833 -7.5 58.5s34.5 29.834 64.5 30.501c10 0 29.333 1.83301 58 5.5s50.834 6 66.501 7s31.834 -0.5 48.501 -4.5c8.66699 -6 14.667 -17 18 -33s5.33301 -43.333 6 -82
c0.666992 -52 4 -108.667 10 -170c11.333 18.667 26.166 39.167 44.499 61.5s40 47.333 65 75s41.833 46.834 50.5 57.501c28 34.667 52.667 40.667 74 18c11.333 -12.667 15.333 -25.5 12 -38.5s-15.666 -31.833 -36.999 -56.5
c-11.333 -13.333 -20.666 -23.833 -27.999 -31.5s-12.333 -12.667 -15 -15s-7.16699 -7 -13.5 -14s-14.5 -17.167 -24.5 -30.5c-18.667 -25.333 -31 -40.333 -37 -45c-3.33301 -3.33301 -3.66602 -5 -0.999023 -5z" />
    <glyph glyph-name="l" unicode="l" horiz-adv-x="284" 
d="M156 499c-12 -0.666992 -18.332 -14.999 -18.999 -42.999s0.666016 -49.667 3.99902 -65c0.666992 -16 2.33398 -22 5.00098 -18c4.66699 7.33301 8.66699 31.333 12 72c0.666992 9.33301 1.16699 18.166 1.5 26.499s0.166016 15 -0.500977 20s-1.66699 7.5 -3 7.5z
M138.001 583.001c35.333 10 59.9971 14.1641 73.9971 12.4971s28 -9.16699 42 -22.5c-8 -70 -14.333 -168.333 -19 -295s-3.33398 -202 3.99902 -226c7.33301 -14 11 -31.333 11 -52s-3.66699 -36.334 -11 -47.001c-6.66699 -9.33301 -18.5 -17.666 -35.5 -24.999
s-28.5 -9 -34.5 -5c-3.33301 0.666992 -10.333 0 -21 -2s-23.5 -4.83301 -38.5 -8.5s-23.5 -5.83398 -25.5 -6.50098c-2 2 -6.16699 5.83301 -12.5 11.5s-11.166 10.334 -14.499 14.001s-7.16602 8.33398 -11.499 14.001s-7.16602 11.334 -8.49902 17.001
s-1.33301 11.5 0 17.5c0.666992 15.333 3.66699 27 9 35c4.66699 6 8.83398 55.167 12.501 147.5s4.16699 164.833 1.5 217.5c-2.66699 58.667 -8.33398 93.667 -17.001 105c-7.33301 9.33301 -11.5 20.833 -12.5 34.5s1.83301 22.834 8.5 27.501
c8 4.66699 17 8.83398 27 12.501s22.333 7.66699 37 12s26.334 8.16602 35.001 11.499z" />
    <glyph glyph-name="m" unicode="m" horiz-adv-x="878" 
d="M212 159c0 28 -1.66699 61.999 -5 101.999c-3.33301 28 -7.33301 42 -12 42c-8.66699 -1.33301 -24.667 -12.666 -48 -33.999l-6 -198l16 5c26 8 41.667 16 47 24s8 27.667 8 59zM311 33.999c-2.66699 -8.66699 -4.66797 -17.5 -6.00098 -26.5
s-2.16602 -15.833 -2.49902 -20.5s-2.16602 -9.83398 -5.49902 -15.501s-8.33301 -11.834 -15 -18.501c-8.66699 -8.66699 -16.5 -14.167 -23.5 -16.5s-20.167 -3.5 -39.5 -3.5c-27.333 0 -55.333 -6 -84 -18c-19.333 -8.66699 -32.166 -13.334 -38.499 -14.001
s-14.166 1.66602 -23.499 6.99902c-13.333 6 -23 17.667 -29 35c-5.33301 15.333 -8 36 -8 62s2.66699 44 8 54c5.33301 8.66699 9.33301 41.334 12 98.001c1.33301 38 1.5 62.5 0.5 73.5s-4.83301 22.833 -11.5 35.5c-11.333 20 -16 38.833 -14 56.5
s10.333 30.834 25 39.501c15.333 8.66699 34.666 13.667 57.999 15c20.667 1.33301 36 4.5 46 9.5s21 14.5 33 28.5c12.667 14.667 25.667 23.334 39 26.001s27 1.16699 41 -4.5s22.667 -12.834 26 -21.501c6 -17.333 13.333 -19.333 22 -6
c3.33301 6 16.666 14.333 39.999 25c34.667 16 66.667 19.667 96 11s51.666 -28.667 66.999 -60c2.66699 -4.66699 5.16699 -9.33398 7.5 -14.001s4.16602 -8.16699 5.49902 -10.5s2.33301 -4.83301 3 -7.5s1.66699 -4.16699 3 -4.5s2.33301 -1 3 -2
s2.33398 -0.666992 5.00098 1s4.83398 2.83398 6.50098 3.50098s5 2.66699 10 6s9.5 6 13.5 8c48 28.667 95.667 43 143 43c52 -1.33301 88.333 -17.666 109 -48.999c8 -12 12.5 -24.667 13.5 -38s0.5 -54 -1.5 -122c-3.33301 -86.667 -6.5 -138.667 -9.5 -156
s-10.833 -27.333 -23.5 -30c-14.667 -3.33301 -26.334 -2.83301 -35.001 1.5s-16.334 13.166 -23.001 26.499c-4.66699 10 -7.33398 20.333 -8.00098 31s0.666016 29 3.99902 55c4.66699 42.667 7 83.5 7 122.5s-2.66699 61.167 -8 66.5s-16.166 8 -32.499 8
s-31.833 -3 -46.5 -9c-18.667 -8 -37.667 -21.667 -57 -41s-33.666 -39.666 -42.999 -60.999c-8 -17.333 -12.667 -31.833 -14 -43.5s-1.33301 -32.834 0 -63.501c1.33301 -37.333 0.5 -61.166 -2.5 -71.499s-12.167 -18.5 -27.5 -24.5c-8 -6 -20.167 -4.16699 -36.5 5.5
s-25.166 17.834 -26.499 24.501c-1.33301 6 -1.33301 46.333 0 121c1.33301 121.333 -8.66699 188 -30 200c-6 4 -13.667 4.33301 -23 1c-31.333 -10 -70.333 -51.333 -117 -124c7.33301 -82 13 -130 17 -144c6 -19.333 6.33301 -39.333 1 -60z" />
    <glyph glyph-name="n" unicode="n" horiz-adv-x="620" 
d="M161 297c-9.33301 0 -16.166 -7.66699 -20.499 -23s-7.5 -45.333 -9.5 -90c-3.33301 -58 -5.66602 -89.667 -6.99902 -95c-2.66699 -9.33301 2.66602 -28.666 15.999 -57.999c5.33301 -10.667 9.33301 -15.667 12 -15c2.66699 11.333 5.16699 50.166 7.5 116.499
s4.5 105.5 6.5 117.5c2.66699 20.667 3.66699 33.667 3 39s-3.33398 8 -8.00098 8zM394 394c13.333 0 27.835 -3.33691 43.502 -10.0039s28.167 -15 37.5 -25c12.667 -14 24.667 -35.833 36 -65.5s19 -59.834 23 -90.501c2.66699 -24 10 -51.833 22 -83.5
s18.667 -49.5 20 -53.5c0.666992 -4 2.5 -12.167 5.5 -24.5l6.5 -26.5c4.66699 -17.333 2.33398 -33.666 -6.99902 -48.999s-22.333 -23.666 -39 -24.999s-29.667 1.5 -39 8.5s-20.333 22.833 -33 47.5c-11.333 21.333 -18 37.833 -20 49.5s-3 39.167 -3 82.5
c-0.666992 58.667 -5.66699 100 -15 124c-8.66699 24.667 -17.667 39.334 -27 44.001s-23.333 1.33398 -42 -9.99902c-20 -12 -34.5 -23.5 -43.5 -34.5s-22.5 -34.167 -40.5 -69.5c-15.333 -30 -24 -49.5 -26 -58.5s-1.66699 -24.833 1 -47.5c4 -31.333 9.33301 -52 16 -62
c8.66699 -12 12.334 -25.167 11.001 -39.5s-7.33301 -27.166 -18 -38.499l-7.5 -7.5c-3 -3 -5 -4.83301 -6 -5.5s-2.33301 -1.83398 -4 -3.50098s-3.16699 -2.66699 -4.5 -3s-2.83301 -0.833008 -4.5 -1.5s-3.83398 -0.833984 -6.50098 -0.500977s-5.33398 0.5 -8.00098 0.5
h-12.5h-15.5c-10.667 0 -23.334 -2.16699 -38.001 -6.5s-27.334 -8.5 -38.001 -12.5s-22.167 -5.83301 -34.5 -5.5s-23.166 4.5 -32.499 12.5c-5.33301 5.33301 -8.66602 14.333 -9.99902 27s-2.33301 41.334 -3 86.001c0 72 1.66699 131.333 5 178
c3.33301 52 2 82.333 -4 91c-6 8 -8.83301 16.5 -8.5 25.5s2.16602 16.667 5.49902 23s7 14 11 23s6.33301 17.167 7 24.5c3.33301 18 10 30.333 20 37c9.33301 6.66699 19.666 8.83398 30.999 6.50098s21.333 -8.83301 30 -19.5l12 -15l32 16
c20.667 10 35.834 14.833 45.501 14.5s20.167 -5.83301 31.5 -16.5c16 -16 22.333 -34 19 -54c-0.666992 -3.33301 0 -5 2 -5c5.33301 1.33301 21.666 9.33301 48.999 24c32 16 54.667 24 68 24z" />
    <glyph glyph-name="o" unicode="o" horiz-adv-x="471" 
d="M122 118c10.667 -12 16.335 -13.332 17.002 -3.99902c0 4 -0.333008 11.667 -1 23c-1.33301 16 -2 28.333 -2 37c0 35.333 -2.83301 53.166 -8.5 53.499s-9.83398 -17.167 -12.501 -52.5c-2.66699 -28.667 -0.333984 -47.667 6.99902 -57zM267.001 373.001
c-1.33301 0 -4.49902 0.832031 -9.49902 2.49902s-9.66699 2.5 -14 2.5s-6.83301 -1.66699 -7.5 -5c-12.667 -39.333 -19 -85.666 -19 -138.999c0 -88 6 -137 18 -147c4.66699 -4 16.167 -1.66699 34.5 7s34.166 19.667 47.499 33c44.667 44 52.667 98.667 24 164
c-7.33301 17.333 -19.5 35.333 -36.5 54s-29.5 28 -37.5 28zM134.002 443c17.333 20.667 40.332 31.666 68.999 32.999s60.667 -7.33398 96 -26.001c25.333 -13.333 49.5 -31.333 72.5 -54s37.167 -43 42.5 -61c3.33301 -11.333 9 -28.666 17 -51.999
c8.66699 -24 11.667 -52 9 -84s-10.334 -60 -23.001 -84c-19.333 -36 -49.333 -66.5 -90 -91.5s-80.334 -37.5 -119.001 -37.5c-25.333 0.666992 -52.166 7.5 -80.499 20.5s-48.833 27.833 -61.5 44.5c-23.333 32 -35.166 70.833 -35.499 116.5
s10.834 90.834 33.501 135.501c6 12.667 18.167 37 36.5 73s29.5 58.333 33.5 67z" />
    <glyph glyph-name="p" unicode="p" horiz-adv-x="598" 
d="M468 354c-5.33301 8.66699 -10.4971 13.999 -15.4971 15.999s-14.833 2.66699 -29.5 2c-61.333 -1.33301 -104 -30.666 -128 -87.999c-9.33301 -22.667 -19.333 -37 -30 -43s-16.834 -12.833 -18.501 -20.5s-1.83398 -30.167 -0.500977 -67.5l3 -63l35 -14
c23.333 -8.66699 40.166 -12.167 50.499 -10.5s22.833 9.5 37.5 23.5c41.333 40 72 87.667 92 143s21.333 96 4 122zM233.003 445.999c0 -9.33301 2.67188 -20.335 8.00488 -33.002s10 -19 14 -19s12.333 6.33301 25 19c36 34 83 51 141 51c27.333 0 48.5 -3.5 63.5 -10.5
s33.167 -21.833 54.5 -44.5c29.333 -30.667 37.166 -79.667 23.499 -147s-43.834 -130 -90.501 -188c-49.333 -61.333 -95.333 -96.666 -138 -105.999c-20 -4.66699 -31.333 -9.5 -34 -14.5s-1.33398 -18.833 3.99902 -41.5c8 -30.667 15.333 -68 22 -112h-272
c-2.66699 42.667 -5.66699 75.667 -9 99c-4 24.667 -2.66699 45.334 4 62.001c7.33301 18 9.66602 54 6.99902 108c-1.33301 12 -2.5 59.167 -3.5 141.5s-5.16699 133.5 -12.5 153.5c-10.667 28 -12.334 51.667 -5.00098 71s21.666 29 42.999 29
c20.667 1.33301 37.334 6 50.001 14c24 13.333 47.5 16.5 70.5 9.5s34.5 -20.833 34.5 -41.5z" />
    <glyph glyph-name="q" unicode="q" horiz-adv-x="515" 
d="M243 362c-16.667 20 -39.999 13 -69.999 -21c-27.333 -30.667 -47.166 -66 -59.499 -106s-13.833 -73.667 -4.5 -101c7.33301 -22.667 23.166 -34.167 47.499 -34.5s49.5 10.167 75.5 31.5l26 21c-0.666992 8 -1.33398 31.333 -2.00098 70s-2 71 -4 97s-5 40.333 -9 43z
M360.001 380c-3.33301 0 -8.66699 -5.33008 -16 -15.9971c-6 -8.66699 -9 -24.334 -9 -47.001s3 -108.667 9 -258c4.66699 -112.667 9.33398 -166 14.001 -160c1.33301 -4.66699 2.66602 34.166 3.99902 116.499s2 164.666 2 246.999s-1.33301 121.5 -4 117.5zM461 431.003
c-3.33301 -30 -5.16895 -123.494 -5.50195 -280.494s3.83398 -241.167 12.501 -252.5c10.667 -23.333 16.167 -41.833 16.5 -55.5s-3.5 -27.834 -11.5 -42.501h-208v106c0 32 -0.333008 56.167 -1 72.5s-1.83398 29.666 -3.50098 39.999s-4.16699 15.666 -7.5 15.999
s-7.66602 0.166016 -12.999 -0.500977c-36 -12 -60.667 -18.667 -74 -20s-28.666 0.666992 -45.999 6c-72 20 -101 83 -87 189c7.33301 59.333 30.166 113.166 68.499 161.499s78.5 74.5 120.5 78.5c22 2 36.667 8.33301 44 19c14.667 22 32.334 27.667 53.001 17
c6.66699 -3.33301 12.5 -3.83301 17.5 -1.5s14.5 9.83301 28.5 22.5c35.333 32 64.333 36.667 87 14c6.66699 -6.66699 10.5 -14.334 11.5 -23.001s0.166992 -30.667 -2.5 -66z" />
    <glyph glyph-name="r" unicode="r" horiz-adv-x="463" 
d="M181 66c2.66699 0 4.50098 3 5.50098 9s1.16699 16.333 0.5 31s-2.33398 33.667 -5.00098 57s-6.33398 52.666 -11.001 87.999c-9.33301 71.333 -17.666 98 -24.999 80l-1 -4c-6 -23.333 -8.33301 -80.666 -7 -171.999c0.666992 -23.333 2 -39.333 4 -48
s6.33301 -16.667 13 -24c10 -11.333 18.667 -17 26 -17zM345.001 450c20 0 38.999 -6.66406 56.999 -19.9971s28 -28 30 -44s-6.66699 -30 -26 -42c-11.333 -5.33301 -18.666 -8 -21.999 -8s-9 2.33301 -17 7c-7.33301 4.66699 -13 7 -17 7s-10 -2.33301 -18 -7
c-10 -6.66699 -20 -17.5 -30 -32.5s-15 -26.167 -15 -33.5c0 -6 -4.66699 -15 -14 -27c-10 -12 -13.667 -32.333 -11 -61c8.66699 -86.667 16.667 -136.667 24 -150c4.66699 -8.66699 2.5 -19.334 -6.5 -32.001s-20.5 -21.334 -34.5 -26.001
c-19.333 -7.33301 -30.666 -12.333 -33.999 -15c-12.667 -10 -37 -9.83301 -73 0.5s-64.667 25.166 -86 44.499c-6.66699 6.66699 -10.5 13.667 -11.5 21s-0.833008 24 0.5 50c4 54 5.5 105.833 4.5 155.5s-4.16699 82.5 -9.5 98.5c-10.667 32 -3.33398 61 21.999 87
c10 10 25.667 16.5 47 19.5s36.333 9.16699 45 18.5c18 16.667 36.833 21.667 56.5 15s31.5 -22.334 35.5 -47.001c2.66699 -14.667 5.66699 -23.167 9 -25.5s8.66602 0.833984 15.999 9.50098c6.66699 7.33301 18.834 15.333 36.501 24s31.5 13 41.5 13z" />
    <glyph glyph-name="s" unicode="s" horiz-adv-x="376" 
d="M48 110c0 18.667 4.33105 29.833 12.998 33.5s23.334 1.16699 44.001 -7.5c24 -10.667 39.5 -14.334 46.5 -11.001s8.83301 14.666 5.5 33.999c-4 21.333 -6 35.333 -6 42c-1.33301 7.33301 -15 23 -41 47c-46.667 40.667 -73 82.334 -79 125.001
c-2.66699 20.667 2 41 14 61c20 34.667 46.667 58.667 80 72c10 4 28.5 6.33301 55.5 7s44.5 -0.666016 52.5 -3.99902c7.33301 -2.66699 19.333 -15.334 36 -38.001c11.333 -15.333 18 -26.333 20 -33s1.66699 -16 -1 -28c-4 -18 -11.667 -28 -23 -30
c-8 -1.33301 -13.333 3.66699 -16 15c-2 9.33301 -6.33301 13.333 -13 12c-15.333 -5.33301 -24.666 -31.333 -27.999 -78l-4 -41c30.667 -16.667 61.167 -38.167 91.5 -64.5s46.833 -49.166 49.5 -68.499s-0.666016 -38.5 -9.99902 -57.5s-24 -34.5 -44 -46.5
c-47.333 -28.667 -98.333 -33 -153 -13c-32.667 12 -55.834 23.5 -69.501 34.5s-20.5 23.5 -20.5 37.5z" />
    <glyph glyph-name="t" unicode="t" horiz-adv-x="371" 
d="M266 171c6.66699 0 12.834 -4.33008 18.501 -12.9971s8.5 -18 8.5 -28c0 -22 -24.5 -55.667 -73.5 -101s-85.5 -68 -109.5 -68c-13.333 0 -27 5.66699 -41 17s-23 24 -27 38c-10 31.333 -10.667 104 -2 218c13.333 163.333 15.333 249.666 6 258.999
c-12.667 12.667 -17.834 30.334 -15.501 53.001s10.833 36.334 25.5 41.001c8.66699 4 13 7.33301 13 10c1.33301 2.66699 7.66602 4.83398 18.999 6.50098s24 3 38 4s22.333 1.83301 25 2.5c22.667 -0.666992 42.834 -8.83398 60.501 -24.501s23.5 -35.167 17.5 -58.5
c-6 -12 -11 -47 -15 -105c26 12.667 53 18 81 16c14 -1.33301 23.667 -3.16602 29 -5.49902s9.33301 -6.83301 12 -13.5c8.66699 -19.333 6.16699 -35.5 -7.5 -48.5s-43.5 -27.167 -89.5 -42.5c-14.667 -4.66699 -24.667 -9.33398 -30 -14.001
s-8.66602 -11.334 -9.99902 -20.001c-3.33301 -16.667 -4.66602 -44.834 -3.99902 -84.501s2.66699 -60.834 6 -63.501c3.33301 -1.33301 14.166 2.66699 32.499 12s29.166 13.666 32.499 12.999z" />
    <glyph glyph-name="u" unicode="u" horiz-adv-x="511" 
d="M359 324c-13.333 0 -20.3301 -43.335 -20.9971 -130.002c-0.666992 -62.667 2.66602 -97.667 9.99902 -105s14.666 -9.66602 21.999 -6.99902c4.66699 1.33301 7.5 7 8.5 17s0.833008 31 -0.5 63c-2 36.667 -4.66699 76.334 -8 119.001
c-2.66699 28.667 -6.33398 43 -11.001 43zM385.003 465.998c14 7.33301 25.168 11.165 33.501 11.498s19.166 -2.83398 32.499 -9.50098c13.333 -7.33301 21.333 -16.166 24 -26.499s0.666992 -27.5 -6 -51.5c-4 -17.333 -6.5 -35.166 -7.5 -53.499
s-1.16699 -34.166 -0.5 -47.499s1.83398 -32 3.50098 -56s2.83398 -44.667 3.50098 -62c3.33301 -54.667 7 -95 11 -121c2 -14.667 2.33301 -25.167 1 -31.5s-5.33301 -13.5 -12 -21.5c-4.66699 -8.66699 -15 -14.334 -31 -17.001s-34.5 -4.16699 -55.5 -4.5
s-36.167 -1.83301 -45.5 -4.5c-37.333 -11.333 -65.333 6.66699 -84 54l-4 23c-38 -40.667 -77 -58.334 -117 -53.001c-12 1.33301 -26.667 10 -44 26c-20 18 -33.5 40.333 -40.5 67s-11.5 73 -13.5 139c-2.66699 87.333 -3.66699 138.833 -3 154.5s4.66699 26.167 12 31.5
c10 6.66699 21.167 9.5 33.5 8.5s22.5 -5.83301 30.5 -14.5c7.33301 -7.33301 12 -19 14 -35s3.33301 -55.667 4 -119c1.33301 -66.667 2.66602 -107.167 3.99902 -121.5s5.33301 -24.833 12 -31.5c10.667 -11.333 21.5 -13 32.5 -5s23.5 26.667 37.5 56
c16.667 34.667 28.667 69.334 36 104.001s8.66602 61.334 3.99902 80.001c-4 15.333 -4.66699 32.666 -2 51.999s7.66699 35.333 15 48c6.66699 10.667 19.334 16.334 38.001 17.001c30 1.33301 49.167 2.5 57.5 3.5s17.166 4.5 26.499 10.5z" />
    <glyph glyph-name="v" unicode="v" horiz-adv-x="527" 
d="M183 270c-2.66699 3.33301 -4.66797 10.332 -6.00098 20.999s-4 17 -8 19c-12 1.33301 -13.333 -14.667 -4 -48c8 -28.667 11.667 -43.667 11 -45c0 -12.667 4.33301 -30.5 13 -53.5s15.334 -34.5 20.001 -34.5c6 0 9 3.33301 9 10c0 7.33301 -4.83301 29.333 -14.5 66
s-16.5 58.334 -20.5 65.001zM460.999 368.999c-8 -11.333 -13.3281 -19.665 -15.9951 -24.998s-5.5 -12.5 -8.5 -21.5s-7.83301 -20.5 -14.5 -34.5c-6.66699 -13.333 -18 -39.666 -34 -78.999s-27.667 -65.333 -35 -78c-6.66699 -8.66699 -9.33398 -18 -8.00098 -28
c2 -12.667 0.333008 -27 -5 -43s-12.333 -28 -21 -36c-11.333 -10 -17 -17.667 -17 -23c0 -8 -6.33301 -18.333 -19 -31s-26 -22.334 -40 -29.001c-28.667 -12.667 -49.667 -18.834 -63 -18.501s-27.333 7.5 -42 21.5c-18 16.667 -29.5 34.5 -34.5 53.5
s-9.83301 60.5 -14.5 124.5c-2 28.667 -4.33301 48.667 -7 60s-8.33398 28.666 -17.001 51.999c-18 44 -29 77.833 -33 101.5s-2 43.167 6 58.5c4 8.66699 13.667 18.167 29 28.5s26.666 14.833 33.999 13.5c6 -1.33301 15.333 0.666992 28 6c28.667 12 55 13.333 79 4
c12.667 -4.66699 22.167 -14.5 28.5 -29.5s12.166 -35.167 17.499 -60.5s10 -43.666 14 -54.999l20 -67c2 -8.66699 5.66699 -9.33398 11 -2.00098c4 6 11.667 20.667 23 44c8.66699 17.333 21.5 49.5 38.5 96.5s31.5 79.5 43.5 97.5c23.333 30 48.666 30.333 75.999 1
c10 -10 15.5 -17.167 16.5 -21.5s-0.833008 -13.5 -5.5 -27.5c-6.66699 -18 -16.667 -35.667 -30 -53z" />
    <glyph glyph-name="w" unicode="w" horiz-adv-x="725" 
d="M150 308c2.66699 -15.333 6.83496 -34 12.502 -56l19 -74.5l15.5 -62.5c7.33301 -29.333 11.666 -44 12.999 -44s3.66602 3.66699 6.99902 11c4 10 4 23.833 0 41.5s-17.333 62.167 -40 133.5c-9.33301 31.333 -16.333 48.333 -21 51c-4 2.66699 -6 2.66699 -6 0z
M611.001 69c0 -24 -1 -40.499 -3 -49.499s-6.66699 -18.5 -14 -28.5c-18.667 -25.333 -41 -31 -67 -17s-40.667 39.667 -44 77c-2.66699 18.667 -6.16699 35 -10.5 49s-10.166 29.833 -17.499 47.5s-13.666 34.834 -18.999 51.501c-22.667 65.333 -36.334 98 -41.001 98
c-4 -5.33301 -17.333 -40.333 -40 -105s-35.667 -99.667 -39 -105c-2.66699 -6.66699 -6.66699 -16.167 -12 -28.5l-13 -29.5c-3.33301 -7.33301 -6.83301 -16.833 -10.5 -28.5s-6.16699 -22.834 -7.5 -33.501c-2 -14.667 -5 -24.334 -9 -29.001s-14 -11 -30 -19
c-16 -7.33301 -26.333 -11.166 -31 -11.499s-11.334 2.16699 -20.001 7.5c-22.667 14.667 -37 38 -43 70c-3.33301 18.667 -13.333 64.667 -30 138s-25.667 113.666 -27 120.999c-7.33301 33.333 -18.666 62.333 -33.999 87c-10.667 17.333 -16.834 29 -18.501 35
s-0.5 14 3.5 24c3.33301 9.33301 14.5 20.833 33.5 34.5s30.167 22.167 33.5 25.5c12 15.333 27.167 24 45.5 26s34.166 -3.66699 47.499 -17c11.333 -11.333 34.333 -70.666 69 -177.999c8.66699 -25.333 13.667 -38 15 -38c4.66699 -4.66699 15.667 25.333 33 90
c7.33301 26 12.333 47.667 15 65c6.66699 35.333 16.834 57.5 30.501 66.5s35.834 7.5 66.501 -4.5c16 -6.66699 26.833 -13.834 32.5 -21.501s10.167 -22.5 13.5 -44.5c2.66699 -16 13 -53.667 31 -113s28.333 -89 31 -89c2 0 9 25.667 21 77
c10 41.333 23.5 85.5 40.5 132.5s29.833 75.5 38.5 85.5c14.667 15.333 31 14.333 49 -3c23.333 -20.667 22.666 -56 -2.00098 -106c-12.667 -26.667 -26.5 -73.5 -41.5 -140.5s-23.5 -123.167 -25.5 -168.5z" />
    <glyph glyph-name="x" unicode="x" horiz-adv-x="490" 
d="M446 24c0.666992 -6 3.33398 -12.6689 8.00098 -20.002s6.66699 -17 6 -29c0 -38 -21 -53.333 -63 -46c-19.333 2.66699 -34.666 0.666992 -45.999 -6c-18 -12 -42 -13 -72 -3c-24 8 -36 24.333 -36 49c0 10 -5.16699 25.167 -15.5 45.5s-17.833 30.5 -22.5 30.5
c-6 0 -10.667 -4.66699 -14 -14c-48 -97.333 -77.667 -147.666 -89 -150.999c-13.333 -4 -26.5 -3.33301 -39.5 2s-21.833 14 -26.5 26c-5.33301 13.333 -6.83301 24.833 -4.5 34.5s9.83301 21.834 22.5 36.501c12 13.333 31.333 42.333 58 87s40 70 40 76
c0 8.66699 -11.333 34.834 -34 78.501s-37.334 67.5 -44.001 71.5c-16 9.33301 -27.333 24.833 -34 46.5s-3 43.167 11 64.5c5.33301 7.33301 21.333 18.166 48 32.499s44 21.5 52 21.5c6.66699 0 18.834 -4.16699 36.501 -12.5s26.834 -14.166 27.501 -17.499
c0 -4.66699 7.5 -21.834 22.5 -51.501s23.833 -44.5 26.5 -44.5c2.66699 0.666992 18.5 31 47.5 91s45.167 90 48.5 90c8 5.33301 16 8 24 8s19.333 -8.5 34 -25.5s20.667 -28.833 18 -35.5c-0.666992 -2 -1.33398 -5.16699 -2.00098 -9.5s-1.33398 -7.33301 -2.00098 -9
s-1.5 -4 -2.5 -7s-2 -5.5 -3 -7.5s-2.66699 -4.33301 -5 -7l-7.5 -9c-11.333 -11.333 -26.333 -34.833 -45 -70.5s-30.334 -57.167 -35.001 -64.5l-22 -34c42 -74 76.333 -128 103 -162c20.667 -26.667 31 -45 31 -55z" />
    <glyph glyph-name="y" unicode="y" horiz-adv-x="566" 
d="M355 223l-27 -61c-17.333 -40.667 -25.666 -63.334 -24.999 -68.001c-1.33301 -11.333 -5.33301 -19.333 -12 -24c-11.333 -8 -38.666 -61.667 -81.999 -161c-16 -36.667 -19 -57.667 -9 -63c6.66699 -2.66699 16.334 3.33301 29.001 18
c11.333 13.333 21.666 31.333 30.999 54s31.666 85.667 66.999 189c32.667 96 48 146 46 150c-0.666992 2.66699 -3 0.333984 -7 -6.99902c-6.66699 -11.333 -10.334 -20.333 -11.001 -27zM249 227c4 0 15.6641 23 34.9971 69s29 73.667 29 83c0 10 2 15 6 15
c3.33301 0 7 9.33301 11 28c2.66699 20.667 10.334 34 23.001 40s38 8.33301 76 7c40 -1.33301 63.5 -2.83301 70.5 -4.5s14.833 -6.83398 23.5 -15.501c10 -11.333 14.167 -24.166 12.5 -38.499s-9.16699 -36.833 -22.5 -67.5c-6 -12 -16.833 -40 -32.5 -84l-48 -139
c-16.333 -48.667 -26.166 -77.334 -29.499 -86.001c-30.667 -85.333 -48.334 -144 -53.001 -176c-3.33301 -21.333 -4 -40.666 -2 -57.999h-281c4 23.333 19 65.333 45 126l91 194l-24.5 50l-31 62.5l-29.5 56.5c-11.333 21.333 -21.666 39.333 -30.999 54
s-17.666 25.667 -24.999 33c-19.333 22 -29.833 38.333 -31.5 49s4.5 22 18.5 34c13.333 11.333 29 14 47 8s33.333 -19.333 46 -40c17.333 -28.667 37.333 -64.167 60 -106.5s35 -67.5 37 -75.5c2.66699 -12 6 -18 10 -18z" />
    <glyph glyph-name="z" unicode="z" horiz-adv-x="516" 
d="M290 326c0 2.66699 -3.33301 4.33203 -10 4.99902s-13.834 0.333984 -21.501 -0.999023s-12.167 -3.33301 -13.5 -6c-4 -5.33301 -4 -16 0 -32c2.66699 -14 0 -28.667 -8 -44s-12.333 -27 -13 -35c-1.33301 -8.66699 -5.5 -19.667 -12.5 -33s-10.833 -23.333 -11.5 -30
c0 -4.66699 14.333 21 43 77c30.667 59.333 46.334 92.333 47.001 99zM290 84.998c0 -8 2.16797 -13 6.50098 -15s18.166 -4 41.499 -6c28.667 -3.33301 58.334 -5 89.001 -5c23.333 0 39 -2.5 47 -7.5s12 -14.167 12 -27.5c0 -7.33301 -1.83301 -13 -5.5 -17
s-10.5 -8.33301 -20.5 -13c-19.333 -8 -40.833 -13.167 -64.5 -15.5s-72.834 -3.83301 -147.501 -4.5c-31.333 -2 -58 -2.16699 -80 -0.5s-39.167 2.83398 -51.5 3.50098s-22.333 3.5 -30 8.5s-13 10.333 -16 16s-6.16699 14.167 -9.5 25.5
c-6 23.333 -8.33301 40.666 -7 51.999s7 24.666 17 39.999c14 20 28.167 49.667 42.5 89s20.5 64.666 18.5 75.999c-1.33301 8.66699 -3.83301 13.834 -7.5 15.501s-12.167 1.5 -25.5 -0.5c-36.667 -5.33301 -59 10.334 -67 47.001c-3.33301 16 -0.666016 29.667 8.00098 41
c6 7.33301 13 12 21 14s25.667 3.66699 53 5c44.667 1.33301 88.667 6.16602 132 14.499s73.333 17.166 90 26.499c33.333 20.667 61.666 23 84.999 7c12.667 -10 18.167 -24.333 16.5 -43s-9.16699 -36 -22.5 -52s-30.333 -48.167 -51 -96.5s-34 -78.166 -40 -89.499
c-22.667 -49.333 -34 -78.666 -34 -87.999z" />
    <glyph glyph-name="uni0093" horiz-adv-x="316" 
d="M243 241c-15.333 0 -28.8311 4.66797 -40.498 14.001s-19.834 22.333 -24.501 39c-6 19.333 -4.83301 41.166 3.5 65.499s19.5 40.166 33.5 47.499c22.667 12.667 42.167 9.33398 58.5 -9.99902s17.833 -38 4.5 -56c-11.333 -18 -12.333 -38.333 -3 -61
c5.33301 -12 5.16602 -21.5 -0.500977 -28.5s-16.167 -10.5 -31.5 -10.5zM170.002 455.001c0 -10 -5.66699 -23.334 -17 -40.001c-10 -16 -19 -35.167 -27 -57.5s-12 -40.5 -12 -54.5c0 -11.333 -2.33301 -22.666 -7 -33.999s-10.334 -19 -17.001 -23
c-12 -8 -25 -5.66699 -39 7s-21 28.667 -21 48c0 16 3.5 37.333 10.5 64s15.167 49.667 24.5 69c4.66699 8 8 15.667 10 23s3.83301 12.833 5.5 16.5s5.5 7.5 11.5 11.5c14.667 8.66699 31.334 9.5 50.001 2.5s28 -17.833 28 -32.5z" />
    <glyph glyph-name="uni0094" horiz-adv-x="373" 
d="M35 425c3.33301 9.33301 7.16504 14.833 11.498 16.5s14.833 1.83398 31.5 0.500977c14.667 -1.33301 26 -4 34 -8s17.333 -11.333 28 -22c52 -52 63 -100 33 -144c-6.66699 -10 -12.5 -16.5 -17.5 -19.5s-12.5 -4.16699 -22.5 -3.5
c-23.333 1.33301 -36.333 3.16602 -39 5.49902s-2.66699 12.833 0 31.5c2.66699 21.333 2.33398 36 -0.999023 44s-13.666 17.667 -30.999 29c-28.667 18.667 -37.667 42 -27 70zM342.999 344c0 -18.667 -4.33203 -37.332 -12.999 -55.999s-18.667 -31 -30 -37
c-11.333 -6.66699 -24.5 -10.167 -39.5 -10.5s-24.167 2.16699 -27.5 7.5c-2 4.66699 0.666992 21 8 49c8.66699 27.333 10.667 46.5 6 57.5s-18.334 19.833 -41.001 26.5c-24.667 7.33301 -39.834 18.5 -45.501 33.5s-0.166992 29.833 16.5 44.5
c10 8.66699 24.333 12.667 43 12s36.334 -6.33398 53.001 -17.001c18 -12 34.167 -29 48.5 -51s21.5 -41.667 21.5 -59z" />
    <glyph glyph-name=".null" horiz-adv-x="0" 
 />
    <glyph glyph-name="nonmarkingreturn" horiz-adv-x="333" 
 />
    </font>
</defs>
</svg>
