<?xml version="1.0" standalone="no"?>
<!DOCTYPE svg PUBLIC "-//W3C//DTD SVG 1.1//EN" "http://www.w3.org/Graphics/SVG/1.1/DTD/svg11.dtd" >
<svg>
<metadata>
Created by FontForge 20090914 at Fri Feb 26 23:35:51 2016
 By www-data
Copyright (c) 2016, root
</metadata>
<defs>
<font id="Embellished" horiz-adv-x="183" >
  <font-face 
    font-family="Embellished"
    font-weight="400"
    font-stretch="normal"
    units-per-em="1000"
    panose-1="2 0 5 3 0 0 0 0 0 0"
    ascent="800"
    descent="-200"
    x-height="442.001"
    cap-height="763.001"
    bbox="29.002 -200.007 931.997 763.667"
    underline-thickness="50"
    underline-position="-100"
    unicode-range="U+0020-U+0094"
  />
<missing-glyph horiz-adv-x="364" 
d="M33 0v666h265v-666h-265zM66 33h199v600h-199v-600z" />
    <glyph glyph-name=".notdef" horiz-adv-x="364" 
d="M33 0v666h265v-666h-265zM66 33h199v600h-199v-600z" />
    <glyph glyph-name="space" unicode=" " horiz-adv-x="577" 
 />
    <glyph glyph-name="exclam" unicode="!" horiz-adv-x="160" 
d="M64 148c22.667 6.66699 41.666 4.33105 56.999 -7.00195c9.33301 -10 12 -28.667 8 -56c-3.33301 -29.333 -13.666 -43.333 -30.999 -42c-4.66699 0 -9.66699 1.66699 -15 5c-22 12.667 -35.5 30.834 -40.5 54.501s2.16699 38.834 21.5 45.501zM41.999 586.997
c8.66699 6.66699 19.4971 10.001 32.4971 10.001s22.833 -3.33301 29.5 -10c6.66699 -6 9.83398 -37.167 9.50098 -93.5s0.5 -91.833 2.5 -106.5c3.33301 -29.333 6.33301 -62.666 9 -99.999c1.33301 -24.667 1.33301 -40.834 0 -48.501s-5.66602 -15.834 -12.999 -24.501
c-11.333 -14 -24 -19.667 -38 -17c-14 1.33301 -23.333 6.33301 -28 15c-3.33301 6.66699 -6.66602 41.167 -9.99902 103.5s-5.33301 123.5 -6 183.5c-0.666992 34.667 -0.166992 57 1.5 67s5.16699 17 10.5 21z" />
    <glyph glyph-name="quotedbl" unicode="&#x22;" horiz-adv-x="321" 
d="M252 366c-28.667 0 -44.999 12.333 -48.999 37c-2.66699 11.333 -4.66699 39 -6 83c-2.66699 55.333 3.66602 88.333 18.999 99c12 8 27.333 7.66699 46 -1s28 -20 28 -34c0 -41.333 0.166992 -74.166 0.5 -98.499s-1.16699 -42.833 -4.5 -55.5
s-7.33301 -20.834 -12 -24.501s-12 -5.5 -22 -5.5zM121.001 581c6 -54 9.66504 -97.001 10.998 -129.001c1.33301 -31.333 1.33301 -50.333 0 -57s-5.66602 -11.667 -12.999 -15c-36 -14 -61.333 -11 -76 9c-6.66699 8.66699 -10.667 18.834 -12 30.501
s-1.66602 38.5 -0.999023 80.5c1.33301 62.667 3 95.667 5 99c4.66699 7.33301 20.167 8.33301 46.5 3s39.5 -12.333 39.5 -21z" />
    <glyph glyph-name="dollar" unicode="$" horiz-adv-x="401" 
d="M263 145c-6 15.333 -11.332 15.665 -15.999 0.998047c-1.33301 -3.33301 -2.33301 -7.66602 -3 -12.999c-4 -26 -2.33301 -42.333 5 -49c1.33301 -1.33301 2.66602 -1.66602 3.99902 -0.999023c4 2.66699 7.33301 12 10 28s2.66699 27.333 0 34zM171.001 363.999
c2.66699 0.666992 4.66797 24.667 6.00098 72s0.666016 72 -2.00098 74c-2 3.33301 -10.667 -2 -26 -16c-30.667 -27.333 -39 -54.333 -25 -81c4 -8 9.5 -16.5 16.5 -25.5s13.5 -15.833 19.5 -20.5s9.66699 -5.66699 11 -3zM261.002 391.999l-0.00683594 -83.998l30 -30
c28.667 -28 48.167 -60.333 58.5 -97s10.833 -74.667 1.5 -114c-12 -53.333 -38.667 -90 -80 -110c-10 -4.66699 -18.333 -14.667 -25 -30c-15.333 -31.333 -35.666 -45.333 -60.999 -42c-7.33301 0.666992 -13.166 3.5 -17.499 8.5s-10.166 13.833 -17.499 26.5
c-11.333 22 -28.666 38.333 -51.999 49c-24 11.333 -41.667 26.666 -53 45.999c-13.333 24.667 -18 47.667 -14 69s16.333 34.666 37 39.999c7.33301 2.66699 16.833 -0.166016 28.5 -8.49902s21.167 -18.833 28.5 -31.5c6 -12.667 12 -14 18 -4
c3.33301 6.66699 5 15.334 5 26.001c0 15.333 2.5 35.666 7.5 60.999s7.83301 43.666 8.5 54.999c0.666992 14.667 0.333984 24.667 -0.999023 30s-5 9.33301 -11 12c-53.333 30 -85.666 58 -96.999 84c-22 46.667 -23.667 94.667 -5 144
c8 20.667 21.167 41.834 39.5 63.501s33.833 34.5 46.5 38.5c12 4 20.667 9 26 15s11.333 18 18 36c13.333 36 33.666 53.333 60.999 52c8.66699 -2 16.334 -11 23.001 -27s8.66699 -29.667 6 -41c-8 -29.333 2.33301 -50.333 31 -63c42 -18.667 65 -46 69 -82
c2 -18.667 0 -31.334 -6 -38.001s-17.667 -9.33398 -35 -8.00098c-10.667 0 -17.834 2.5 -21.501 7.5s-6.66699 11.5 -9 19.5s-6.16602 14 -11.499 18c-11.333 10.667 -18.666 8.66699 -21.999 -6c-2.66699 -13.333 -4 -41.666 -4 -84.999z" />
    <glyph glyph-name="percent" unicode="%" horiz-adv-x="671" 
d="M485 185c-14 0 -22.335 -1.83594 -25.002 -5.50293s-6.66699 -16.5 -12 -38.5c-3.33301 -12.667 -2.5 -28.167 2.5 -46.5s11.833 -31.166 20.5 -38.499c6 -5.33301 10.833 -8.16602 14.5 -8.49902s9.83398 1.5 18.501 5.5c13.333 6 23.333 22 30 48
c4.66699 19.333 6.66699 31.833 6 37.5s-4.66699 13.834 -12 24.501c-6.66699 8.66699 -12.667 14.5 -18 17.5s-13.666 4.5 -24.999 4.5zM446.998 296.997c26.667 12 49.1689 14.668 67.502 8.00098s45.833 -28 82.5 -64l44 -44l-4 -74c-4 -62 -8.66699 -99.667 -14 -113
c-6.66699 -14.667 -23.334 -28.667 -50.001 -42c-6 -3.33301 -18 -9.33301 -36 -18c-26 -12 -54.167 -13.167 -84.5 -3.5s-55.833 27.834 -76.5 54.501c-10.667 14.667 -17.334 26.5 -20.001 35.5s-5.33398 29.5 -8.00098 61.5
c-1.33301 21.333 -1.16602 37.666 0.500977 48.999s6.5 27.666 14.5 48.999c10.667 28 22.5 49.5 35.5 64.5s29.167 27.167 48.5 36.5zM220 391.998c0 22.667 -3.16602 42.833 -9.49902 60.5s-14.5 28.5 -24.5 32.5c-9.33301 4.66699 -19.833 7.16699 -31.5 7.5
s-18.834 -1.5 -21.501 -5.5c-4.66699 -7.33301 -7.66699 -26.833 -9 -58.5s0 -53.167 4 -64.5c5.33301 -15.333 12.833 -24.333 22.5 -27s23.5 0.666016 41.5 9.99902c12.667 6.66699 20.5 12.334 23.5 17.001s4.5 14 4.5 28zM276.001 65.9971
c0 -6 -2.33105 -11.835 -6.99805 -17.502s-7 -11.5 -7 -17.5c0 -7.33301 -5.66699 -13.833 -17 -19.5s-24.333 -8.5 -39 -8.5c-12 0 -22.833 5.83301 -32.5 17.5s-16.167 27.167 -19.5 46.5c-2 11.333 -2.16699 19.166 -0.5 23.499s6.5 9.83301 14.5 16.5
c11.333 10 21.666 22.833 30.999 38.5s19.166 34 29.499 55s19.166 37.167 26.499 48.5l-23 -5c-45.333 -10.667 -88.333 -8.16699 -129 7.5s-63.667 38.5 -69 68.5c-4 21.333 -5 53 -3 95s5.66699 70.667 11 86c6.66699 20 18.167 40.333 34.5 61s32.5 36 48.5 46
c44 26 74.667 22.333 92 -11c7.33301 -14 14 -21 20 -21c5.33301 0 15.5 -8.33301 30.5 -25s22.5 -28.334 22.5 -35.001c1.33301 -4 3.83301 -11 7.5 -21l9 -25c2.33301 -6.66699 4.66602 -15.5 6.99902 -26.5s3.83301 -21.5 4.5 -31.5l3 -49
c15.333 31.333 38.333 75.833 69 133.5s49.334 90.834 56.001 99.501c4 5.33301 12.333 8 25 8c29.333 -0.666992 46.833 -8 52.5 -22s-0.166016 -36.333 -17.499 -67c-14.667 -26 -38 -71.167 -70 -135.5s-48 -98.166 -48 -101.499c0 -1.33301 -5.66699 -10.333 -17 -27
c-12 -15.333 -30.833 -48.166 -56.5 -98.499s-38.5 -79.166 -38.5 -86.499z" />
    <glyph glyph-name="ampersand" unicode="&#x26;" horiz-adv-x="736" 
d="M196 199c-2.66699 8.66699 -8.33008 13.166 -16.9971 13.499s-14.334 -3.5 -17.001 -11.5c-5.33301 -18.667 -9 -34.667 -11 -48c-3.33301 -14.667 -4.5 -25.167 -3.5 -31.5s4.83301 -13.833 11.5 -22.5c12.667 -23.333 40 -22.666 82 2.00098
c9.33301 6.66699 14.666 11.5 15.999 14.5s0.666016 7.83301 -2.00098 14.5c-2 5.33301 -11.833 16.333 -29.5 33s-27.5 28.667 -29.5 36zM222.004 488.999c-2.66699 8.66699 -5.83496 14.668 -9.50195 18.001s-8.66699 4.33301 -15 3s-14.5 -5.33301 -24.5 -12
c-26 -16 -28.667 -43.667 -8 -83l14 -29l18 16c10.667 10 18.334 23.667 23.001 41s5.33398 32.666 2.00098 45.999zM311.003 211c0 -3.33301 2.33984 -5.00293 7.00684 -5.00293c3.33301 0 6.33301 12.333 9 37c2.66699 27.333 12.334 53.5 29.001 78.5
s36.667 43.167 60 54.5c8.66699 4.66699 29.167 7.33398 61.5 8.00098s50.5 -1 54.5 -5c2 -2.66699 9.66699 -2 23 2c14 4.66699 26.667 23 38 55c1.33301 6 9 13.333 23 22c13.333 7.33301 27.166 9 41.499 5s26.5 -13 36.5 -27c7.33301 -10 11.333 -17.167 12 -21.5
s-1.66602 -12.5 -6.99902 -24.5c-6.66699 -17.333 -9 -27 -7 -29c1.33301 -1.33301 -0.166992 -4.5 -4.5 -9.5s-9.5 -9.66699 -15.5 -14s-10.333 -6.5 -13 -6.5c-3.33301 0 -5 -3 -5 -9c0 -5.33301 -10.667 -13.666 -32 -24.999c-20 -10.667 -51.667 -16.334 -95 -17.001
c-36.667 -0.666992 -60.167 -3.83398 -70.5 -9.50098s-19.833 -21.5 -28.5 -47.5c-17.333 -47.333 -26 -82 -26 -104c0 -8 7 -13.667 21 -17c14 -5.33301 23.667 -13.833 29 -25.5s5 -23.167 -1 -34.5c-12.667 -23.333 -39 -27.666 -79 -12.999
c-14.667 4.66699 -24.334 7.16699 -29.001 7.5s-8.33398 -1.5 -11.001 -5.5c-3.33301 -6.66699 -7 -8.66699 -11 -6c-2.66699 4 -9 1 -19 -9c-16 -14.667 -41.333 -24.667 -76 -30s-64.667 -3.66602 -90 5.00098c-16 5.33301 -28.167 11.666 -36.5 18.999
s-16.166 17.666 -23.499 30.999c-3.33301 8.66699 -9.5 17.834 -18.5 27.501s-16.167 20 -21.5 31s-7.33301 25.167 -6 42.5c1.33301 18.667 4.66602 35.334 9.99902 50.001s13.166 31.167 23.499 49.5s17.5 31.5 21.5 39.5c13.333 24 21.666 36 24.999 36s5 3.5 5 10.5
s-1.66699 11.167 -5 12.5c-7.33301 2.66699 -15.5 13 -24.5 31s-15.5 37 -19.5 57c-4 20.667 -5.5 34.834 -4.5 42.501s5.83301 20.5 14.5 38.5c6.66699 14.667 14 26 22 34s19.167 16 33.5 24s25.166 14.667 32.499 20c29.333 20.667 59.666 23.334 90.999 8.00098
c12 -6 25.667 -20.333 41 -43c11.333 -16.667 18 -29.334 20 -38.001s2.33301 -28.667 1 -60c-2.66699 -68.667 -19.667 -113 -51 -133c-7.33301 -5.33301 -11.5 -9.83301 -12.5 -13.5s0.5 -10.5 4.5 -20.5c1.33301 -8 10.166 -21.667 26.499 -41s25.166 -31 26.499 -35z
" />
    <glyph glyph-name="quotesingle" unicode="'" horiz-adv-x="159" 
d="M111 442c-18.667 -13.333 -34.168 -15.333 -46.501 -6s-22.833 26.666 -31.5 51.999c-5.33301 19.333 -5.16602 42.5 0.500977 69.5s13.834 43.833 24.501 50.5c18 12.667 36.333 11.334 55 -3.99902c8.66699 -6.66699 13.667 -13.667 15 -21s1.33301 -27.666 0 -60.999
c-1.33301 -30.667 -2.83301 -50.334 -4.5 -59.001s-5.83398 -15.667 -12.501 -21z" />
    <glyph glyph-name="parenleft" unicode="(" horiz-adv-x="283" 
d="M71 464c4 0 9.66406 8.66797 16.9971 26.001c8.66699 17.333 20.667 35.166 36 53.499s28.333 30.5 39 36.5c12 6.66699 21.667 9.66699 29 9s15.666 -5.33398 24.999 -14.001c20.667 -18.667 18.667 -38.667 -6 -60c-28.667 -25.333 -51.167 -70.666 -67.5 -135.999
s-21.5 -130.666 -15.5 -195.999c6.66699 -71.333 17.834 -129.666 33.501 -174.999s39.834 -87.333 72.501 -126c10.667 -12.667 16.834 -21.334 18.501 -26.001s-0.166016 -11.334 -5.49902 -20.001c-17.333 -29.333 -46.333 -34 -87 -14c-22.667 10 -37 21.333 -43 34
c-40 84 -66 163.833 -78 239.5s-11.333 156.5 2 242.5c13.333 84 23.333 126 30 126z" />
    <glyph glyph-name="parenright" unicode=")" horiz-adv-x="314" 
d="M204 541c5.33301 -5.33301 9.16699 -11.833 11.5 -19.5s6.5 -15.167 12.5 -22.5c2.66699 -3.33301 4.83398 -6.33301 6.50098 -9l4 -6.5c1 -1.66699 1.66699 -3.66699 2 -6s0.666016 -3.83301 0.999023 -4.5s0.833008 -3 1.5 -7s1 -7 1 -9
c0.666992 -1.33301 2.33398 -5.33301 5.00098 -12l9.50098 -25s6.83398 -19.667 9.50098 -29c8 -24.667 12.833 -44.334 14.5 -59.001s1.5 -37.667 -0.5 -69c-1.33301 -27.333 -3 -46.5 -5 -57.5s-5.5 -22.5 -10.5 -34.5s-9.5 -26 -13.5 -42
c-2.66699 -12 -12.834 -37.5 -30.501 -76.5s-33.167 -75.333 -46.5 -109s-18.333 -53.167 -15 -58.5c2 -4 -1 -14 -9 -30s-16.667 -29 -26 -39c-10 -10.667 -28 -16 -54 -16c-18.667 0 -29.834 1 -33.501 3s-6.16699 8.33301 -7.5 19
c-3.33301 20.667 7.33398 57.667 32.001 111c6.66699 15.333 13.667 32.333 21 51s14.166 35 20.499 49s14.833 30.667 25.5 50c9.33301 17.333 15.833 30.333 19.5 39s7 18.334 10 29.001s7.16699 22.334 12.5 35.001c10.667 24 14.667 56 12 96s-11.334 82 -26.001 126
c-16.667 46.667 -30.334 76.334 -41.001 89.001c-24 28.667 -38.167 47 -42.5 55s-5.83301 18.333 -4.5 31c2.66699 16 9.33398 28.333 20.001 37c10 7.33301 17 11.166 21 11.499s14 -2.83398 30 -9.50098c16.667 -6.66699 29.667 -20.667 39 -42
c8 -19.333 16 -32.333 24 -39z" />
    <glyph glyph-name="asterisk" unicode="*" horiz-adv-x="363" 
d="M149 618c10 0 21.668 -5.33203 35.001 -15.999s20 -20.334 20 -29.001s3.16699 -13.334 9.5 -14.001s17.166 1.66602 32.499 6.99902c35.333 12.667 59 12 71 -2c12 -13.333 16.833 -24.333 14.5 -33s-12.833 -19.667 -31.5 -33c-24 -18 -40 -27 -48 -27
c-7.33301 0 -11.333 -1.83301 -12 -5.5s2.33301 -11.167 9 -22.5c14.667 -26.667 12 -47 -8 -61c-16 -10.667 -28 -16.5 -36 -17.5s-19 1.83301 -33 8.5c-14.667 7.33301 -24.167 10.5 -28.5 9.5s-11.666 -2.83301 -21.999 -5.5s-21.5 -2.66699 -33.5 0
c-30 4.66699 -41.333 19.667 -34 45c3.33301 8.66699 1 17 -7 25c-6 6 -11 18 -15 36c-2 10.667 -2.16699 18.5 -0.5 23.5s6.83398 11.167 15.501 18.5c6 4.66699 12.167 8.33398 18.5 11.001s11.166 4.33398 14.499 5.00098s6.5 3.5 9.5 8.5s5.83301 12.833 8.5 23.5
c5.33301 16.667 11.166 28.167 17.499 34.5s17.5 9.83301 33.5 10.5z" />
    <glyph glyph-name="plus" unicode="+" horiz-adv-x="459" 
d="M187 346c-2.66699 60 6.00098 100.002 26.001 120.002c14.667 16.667 33 15.334 55 -3.99902c9.33301 -8.66699 14.5 -15.334 15.5 -20.001s-0.5 -17 -4.5 -37c-6.66699 -31.333 -8.83398 -49 -6.50098 -53s15.166 -5.33301 38.499 -4c18 1.33301 39 4 63 8
c23.333 5.33301 40 -2 50 -22s7.66699 -41.333 -7 -64c-4 -6.66699 -10.333 -11 -19 -13s-26.667 -3.33301 -54 -4l-63 -2c1.33301 -84 4.66602 -143.333 9.99902 -178c2.66699 -17.333 3.33398 -29.5 2.00098 -36.5s-6 -16.5 -14 -28.5
c-20.667 -30.667 -44.334 -35.334 -71.001 -14.001c-7.33301 5.33301 -12 14.5 -14 27.5s-3.66699 47.167 -5 102.5c-1.33301 78.667 -3.33301 120 -6 124c-2.66699 4.66699 -23 5.66699 -61 3c-30.667 -1.33301 -51.167 -0.333008 -61.5 3s-19.166 12 -26.499 26
c-4.66699 10 -5 20.833 -1 32.5s11.333 20.5 22 26.5c6 2.66699 17.5 4.66699 34.5 6s33.833 1.66602 50.5 0.999023s32.334 -0.666992 47.001 0z" />
    <glyph glyph-name="comma" unicode="," 
d="M30 97c2.66699 17.333 11 32.999 25 46.999s30 15.667 48 5c6.66699 -2.66699 12.334 -8.33398 17.001 -17.001s10.667 -24 18 -46c8.66699 -25.333 13.5 -42.666 14.5 -51.999s-0.166992 -22.666 -3.5 -39.999c-7.33301 -34.667 -25.333 -59.334 -54 -74.001
c-23.333 -12.667 -41.666 -9 -54.999 11c-6 8.66699 -8.83301 15.334 -8.5 20.001s4.16602 13.667 11.499 27c8.66699 18 13.167 31.667 13.5 41s-3.83398 23 -12.501 41c-9.33301 18.667 -14 31 -14 37z" />
    <glyph glyph-name="hyphen" unicode="-" horiz-adv-x="452" 
d="M44 265c8.66699 7.33301 21.3281 10.8301 37.9951 10.4971s30.334 -4.16602 41.001 -11.499c12.667 -8.66699 48.834 -13.167 108.501 -13.5s96.167 3.83398 109.5 12.501c20.667 14 43.334 8 68.001 -18c19.333 -20.667 17.333 -43.667 -6 -69
c-6.66699 -6.66699 -17.167 -10.667 -31.5 -12s-53.166 -2.33301 -116.499 -3c-71.333 -0.666992 -121.833 1.33301 -151.5 6s-50.167 13.334 -61.5 26.001c-8.66699 9.33301 -12.667 22 -12 38s5.33398 27.333 14.001 34z" />
    <glyph glyph-name="period" unicode="." horiz-adv-x="172" 
d="M78 136c17.333 3.33301 26.168 4.8291 26.501 4.49609s7.16602 -6.5 20.499 -18.5c8.66699 -9.33301 14 -16.666 16 -21.999s2 -13.333 0 -24c-4.66699 -23.333 -15.834 -40.166 -33.501 -50.499s-34.667 -11.666 -51 -3.99902s-25.166 22.834 -26.499 45.501
c-0.666992 16.667 3.5 31.5 12.5 44.5s20.833 21.167 35.5 24.5z" />
    <glyph glyph-name="slash" unicode="/" horiz-adv-x="369" 
d="M241 584c0 11.333 4 21.002 12 29.002c8.66699 10 20.667 14.333 36 13s27.333 -7.66602 36 -18.999c20.667 -24.667 19.667 -48.667 -3 -72c-17.333 -15.333 -53.666 -91.333 -108.999 -228c-7.33301 -18.667 -31.333 -86.334 -72 -203.001
c-6.66699 -16.667 -10.667 -34.334 -12 -53.001c0 -10.667 -1.33301 -18.167 -4 -22.5s-9.33398 -8.83301 -20.001 -13.5c-16.667 -7.33301 -28.167 -10.833 -34.5 -10.5s-13.833 4.83301 -22.5 13.5c-12 13.333 -17.833 26.666 -17.5 39.999s7.5 35.333 21.5 66
c6 13.333 26.667 65.333 62 156s70 171 104 241c15.333 30.667 23 51.667 23 63z" />
    <glyph glyph-name="zero" unicode="0" horiz-adv-x="635" 
d="M133 322c0 -50 3.16504 -83.666 9.49805 -100.999s21.166 -33 44.499 -47c44.667 -26 88.667 -25 132 3c22.667 14 37.834 31.167 45.501 51.5s11.5 51.833 11.5 94.5c-1.33301 43.333 -2.66602 66.333 -3.99902 69c-2 1.33301 -24.667 3.66602 -68 6.99902
c-28.667 2 -48 4.33301 -58 7s-20 8.66699 -30 18c-15.333 12 -24.333 24.333 -27 37c-7.33301 28 -20.666 21.667 -39.999 -19c-7.33301 -15.333 -11.833 -29.5 -13.5 -42.5s-2.5 -38.833 -2.5 -77.5zM306.998 516.001c-2.66699 7.33301 -10.6641 11.665 -23.9971 12.998
c-8.66699 1.33301 -13.834 1.33301 -15.501 0s-0.833984 -4.66602 2.49902 -9.99902c4.66699 -9.33301 13.667 -13.666 27 -12.999c9.33301 0.666992 12.666 4 9.99902 10zM498.001 671c24.667 9.33301 47.334 9.83105 68.001 1.49805s33 -21 37 -38s-1 -35.5 -15 -55.5
c-11.333 -12.667 -25.666 -18.667 -42.999 -18c-7.33301 1.33301 -14.833 0.333008 -22.5 -3s-14 -7.16602 -19 -11.499s-11.167 -10.333 -18.5 -18l-15 -15.5l5 -72c4.66699 -68.667 6.83398 -113.667 6.50098 -135s-3.5 -46.333 -9.5 -75
c-5.33301 -26 -10.5 -44.5 -15.5 -55.5s-14.167 -24.167 -27.5 -39.5c-19.333 -22 -33.333 -33.667 -42 -35c-5.33301 0 -11 -2.33301 -17 -7c-16.667 -16.667 -45.334 -28.667 -86.001 -36s-75 -7.33301 -103 0c-16.667 4.66699 -37.834 16.334 -63.501 35.001
s-42.167 34.667 -49.5 48c-27.333 51.333 -39.833 113 -37.5 185s18.833 131.667 49.5 179c15.333 24 31.166 42.667 47.499 56s40.833 28 73.5 44c21.333 10 36.833 15.833 46.5 17.5s23.167 1.5 40.5 -0.5c38 -4.66699 79 -13 123 -25c35.333 40 64.333 64.667 87 74z" />
    <glyph glyph-name="one" unicode="1" horiz-adv-x="318" 
d="M100 338c-8.66699 0 -22.5 6.5 -41.5 19.5s-28.5 22.833 -28.5 29.5c0 30 14.333 47.333 43 52c14.667 2.66699 27.5 7.33398 38.5 14.001s16.5 13.334 16.5 20.001c0 5.33301 10.5 19.833 31.5 43.5s36.167 37.834 45.5 42.501c10 5.33301 22.833 7.66602 38.5 6.99902
s27.167 -4.33398 34.5 -11.001c6 -4.66699 9.33301 -15.834 10 -33.501s-1.66602 -29.167 -6.99902 -34.5c-6.66699 -6.66699 -11.667 -61.5 -15 -164.5s-2.33301 -176.167 3 -219.5c4 -32 5.66699 -51.5 5 -58.5s-5.33398 -13.833 -14.001 -20.5
c-15.333 -12.667 -31.833 -17.167 -49.5 -13.5s-30.167 14.5 -37.5 32.5c-2.66699 2 -4.83398 12.333 -6.50098 31s-2.5 43 -2.5 73s0.333008 58 1 84s1.33398 55 2.00098 87s1 52 1 60c-42 -26 -64.667 -39.333 -68 -40z" />
    <glyph glyph-name="two" unicode="2" horiz-adv-x="593" 
d="M333 289c-9.33301 -10 -16.998 -20.168 -22.998 -30.501s-16.333 -22.833 -31 -37.5c-18.667 -18.667 -33.667 -40.667 -45 -66s-13.666 -41.333 -6.99902 -48c4 -4 33.333 -1.83301 88 6.5s84.667 15.166 90 20.499c11.333 11.333 12 35.666 2 72.999
c-13.333 52.667 -12 89.334 4 110.001c9.33301 11.333 14 20.333 14 27c0 7.33301 8.83301 15.166 26.5 23.499s34.167 12.5 49.5 12.5c19.333 0 34.666 -6 45.999 -18c13.333 -15.333 18.166 -31.833 14.499 -49.5s-14.5 -30.167 -32.5 -37.5
c-12 -4.66699 -18.333 -8.66699 -19 -12s2.66602 -17 9.99902 -41c15.333 -55.333 1.66602 -110.333 -41.001 -165c-12 -15.333 -25 -25.666 -39 -30.999s-38 -9.66602 -72 -12.999c-17.333 -1.33301 -40.166 -4.83301 -68.499 -10.5s-56.166 -8.5 -83.499 -8.5
c-58 0.666992 -97 20.334 -117 59.001c-11.333 22.667 -11 53.834 1 93.501s31.667 73.5 59 101.5c22 22 47.333 52 76 90c26.667 34.667 38.334 66.5 35.001 95.5s-21 48.833 -53 59.5c-9.33301 3.33301 -18 4 -26 2s-21.667 -7.66699 -41 -17
c-31.333 -14 -47 -25.667 -47 -35c0 -8 -4.33301 -13.333 -13 -16s-18.334 -2 -29.001 2s-18.667 10.333 -24 19c-5.33301 7.33301 -7.83301 13.166 -7.5 17.499s3.83301 12.5 10.5 24.5c13.333 25.333 28 44.5 44 57.5s40 24.833 72 35.5
c32.667 11.333 62 14.666 88 9.99902s55.333 -19 88 -43c15.333 -10.667 26.833 -28.667 34.5 -54s10.167 -52 7.5 -80c-6.66699 -63.333 -20.334 -105.666 -41.001 -126.999z" />
    <glyph glyph-name="three" unicode="3" horiz-adv-x="480" 
d="M273 248c-18 2 -34.4961 8.00195 -49.4961 18.002s-21.5 23.667 -19.5 41c2 16.667 5.16699 29 9.5 37s13.166 16.333 26.499 25c32.667 20 44.334 44.667 35.001 74c-6.66699 22.667 -20.334 39 -41.001 49s-40.334 10 -59.001 0c-10 -5.33301 -14.167 -10 -12.5 -14
s8.5 -5.66699 20.5 -5c22.667 0.666992 37.667 -10.166 45 -32.499s3.33301 -43.166 -12 -62.499c-7.33301 -8.66699 -14.333 -14.5 -21 -17.5s-18 -4.83301 -34 -5.5c-34.667 -2.66699 -60.667 5 -78 23s-26 46 -26 84c0 40 9 68.667 27 86
c8.66699 8.66699 22 18.167 40 28.5s34.333 18.166 49 23.499c10 3.33301 22 6 36 8s26 2.83301 36 2.5s15 -2.16602 15 -5.49902c0 -4.66699 5.66699 -8.33398 17 -11.001c14 -2.66699 39.667 -27.334 77 -74.001c17.333 -22 28.5 -48.833 33.5 -80.5
s1.5 -59.834 -10.5 -84.501c-5.33301 -6.66699 -1 -17.334 13 -32.001c19.333 -22.667 35 -53.5 47 -92.5s16 -72.833 12 -101.5c-4.66699 -32.667 -13.834 -58.834 -27.501 -78.501s-34.167 -36.5 -61.5 -50.5c-16.667 -8.66699 -40.334 -14.834 -71.001 -18.501
s-48.667 -2.83398 -54 2.49902c-3.33301 3.33301 -8.66602 5 -15.999 5c-6.66699 0 -26.834 8.5 -60.501 25.5s-57.834 31.167 -72.501 42.5c-20.667 15.333 -36.334 39.833 -47.001 73.5s-11.667 61.834 -3 84.501c3.33301 8 9 14.333 17 19s26.333 11.334 55 20.001
c18.667 6 39.334 5.83301 62.001 -0.5s43.334 -17.5 62.001 -33.5c14 -12 22.167 -20.333 24.5 -25s2.16602 -13.667 -0.500977 -27c-4 -23.333 -16.667 -43.666 -38 -60.999l16 -6c20 -7.33301 34.833 -10.833 44.5 -10.5s20.167 4.5 31.5 12.5
c28.667 18.667 36.334 50 23.001 94c-6 20 -13 33.5 -21 40.5s-21 10.5 -39 10.5z" />
    <glyph glyph-name="four" unicode="4" horiz-adv-x="614" 
d="M275 415c-6.66699 0 -25.834 -23.001 -57.501 -69.001s-47.5 -74 -47.5 -84c0 -9.33301 15.333 -15.666 46 -18.999c37.333 -4 58.333 -4.5 63 -1.5s7.33398 19.167 8.00098 48.5c1.33301 68 -2.66699 109.667 -12 125zM482 137.999
c-8.66699 -4 -19.3359 -6.8291 -32.0029 -8.49609s-23 -4.83398 -31 -9.50098c-8.66699 -4 -13.667 -8.33301 -15 -13s-1 -18.334 1 -41.001c2.66699 -32 0.333984 -53.667 -6.99902 -65c-6.66699 -10.667 -16.834 -19 -30.501 -25s-26.167 -8.33301 -37.5 -7
c-12 1.33301 -22.5 12.333 -31.5 33s-14.167 45.667 -15.5 75l-3 50c-42 10 -87.333 15.333 -136 16c-32.667 0 -56.334 2.5 -71.001 7.5s-25.667 14.167 -33 27.5c-6 12.667 -9.16699 23.667 -9.5 33s2.33398 19.666 8.00098 30.999s11.667 21 18 29l21 26.5
c7.66699 9.66699 12.834 17.834 15.501 24.501c39.333 68 78 129.667 116 185c9.33301 13.333 16.666 27.666 21.999 42.999s15.333 30 30 44c12 11.333 21.167 18.166 27.5 20.499s15.5 2.5 27.5 0.5c20.667 -3.33301 34.834 -12.5 42.501 -27.5s10.5 -38.5 8.5 -70.5
c0 -31.333 7.33301 -86.666 22 -165.999c22 7.33301 48.5 11.166 79.5 11.499s52.833 -4.16699 65.5 -13.5c12.667 -10 24 -25 34 -45s15.333 -38.667 16 -56c0.666992 -16 -5.16602 -33 -17.499 -51s-27.166 -31.333 -44.499 -40c-14.667 -6.66699 -28 -13 -40 -19z" />
    <glyph glyph-name="five" unicode="5" horiz-adv-x="489" 
d="M191 359c7.33301 0 23.002 -12.668 47.002 -38.001c17.333 -18 27.833 -30.667 31.5 -38s5.5 -19.333 5.5 -36v-14.5c0 -4.33301 -0.833008 -8.5 -2.5 -12.5s-2.83398 -7.16699 -3.50098 -9.5s-2.66699 -5.5 -6 -9.5s-5.33301 -6.33301 -6 -7l-7.5 -7.5l-7.5 -7.5
c31.333 -8 54.166 -6.66699 68.499 4s21.166 34.334 20.499 71.001c0 21.333 -2.5 36 -7.5 44s-21.833 25.667 -50.5 53c-12.667 11.333 -26.667 18.5 -42 21.5s-28.666 0.833008 -39.999 -6.5c-7.33301 -4.66699 -7.33301 -7 0 -7zM341.002 491.999
c-46 0 -71.6641 -0.666992 -76.9971 -2c-40 -8 -60.333 -14 -61 -18c0.666992 -2.66699 13.667 -4 39 -4c24.667 0 44.5 -4 59.5 -12s38.167 -27.333 69.5 -58c44.667 -44 66.667 -92.667 66 -146c-0.666992 -54.667 -10 -96.334 -28 -125.001s-47.667 -48 -89 -58
c-2.66699 -0.666992 -8 -2.16699 -16 -4.5s-13 -3.83301 -15 -4.5c-11.333 -4 -35 -4.83301 -71 -2.5s-58.667 6.16602 -68 11.499c-6.66699 4 -20 11 -40 21c-14.667 6.66699 -29 18 -43 34s-23.667 31.333 -29 46c-4.66699 13.333 -7.16699 28.333 -7.5 45
s1.5 25.667 5.5 27c3.33301 1.33301 10.166 9.66602 20.499 24.999s15.5 24.333 15.5 27c0 4 4 10 12 18c5.33301 6 7.66602 10.333 6.99902 13s-5.33398 8 -14.001 16c-12.667 12.667 -19 23.334 -19 32.001c1.33301 32.667 15 85.334 41 158.001
c5.33301 18 11 29.833 17 35.5s19.333 10.834 40 15.501c12 2.66699 20 4.5 24 5.5s9 1.66699 15 2s10.5 0.166016 13.5 -0.500977s10.167 -2 21.5 -4s23 -3.66699 35 -5c47.333 -7.33301 87.333 -11.666 120 -12.999c33.333 -0.666992 55 -6 65 -16
c6 -5.33301 9.16699 -10 9.5 -14s-1.5 -9.33301 -5.5 -16c-5.33301 -11.333 -16 -19 -32 -23s-43 -6 -81 -6z" />
    <glyph glyph-name="six" unicode="6" horiz-adv-x="538" 
d="M295 205c0 17.333 -7.33301 36 -22 56s-30 32 -46 36c-2.66699 0 -13.167 -4.66699 -31.5 -14s-28.833 -15.333 -31.5 -18s0 -10.167 8 -22.5s17 -22.833 27 -31.5c9.33301 -8 17.5 -13.167 24.5 -15.5s18.167 -3.5 33.5 -3.5c16 0 26.333 0.833008 31 2.5
s7 5.16699 7 10.5zM141 451c0 -3.33301 13.999 -8.83301 41.999 -16.5s53.333 -12.834 76 -15.501c23.333 -2.66699 46 -13.834 68 -33.501s40.667 -45.834 56 -78.501c36.667 -76.667 31 -142.667 -17 -198c-10.667 -12 -27 -22.333 -49 -31s-40.333 -12 -55 -10
c-22 3.33301 -44.5 8.5 -67.5 15.5s-37.167 13.5 -42.5 19.5c-8 8 -14.667 12 -20 12c-6.66699 0.666992 -19.167 15.167 -37.5 43.5s-32.5 55.166 -42.5 80.499c-12 33.333 -19 70.666 -21 111.999c-1.33301 31.333 -1 52.333 1 63s8.33301 27.334 19 50.001
c12.667 28.667 28.834 52 48.501 70s45.167 33.333 76.5 46c46 19.333 91.833 22.5 137.5 9.5s75.834 -37.833 90.501 -74.5c6 -13.333 11.5 -20.5 16.5 -21.5s11.833 4.16699 20.5 15.5c8 10.667 18.167 17.834 30.5 21.501s22.166 2.5 29.499 -3.5
c12.667 -10.667 9.83398 -33.667 -8.49902 -69s-37.833 -55 -58.5 -59c-10.667 -2 -19.5 -1.83301 -26.5 0.5s-14.167 6.33301 -21.5 12s-14.333 9.83398 -21 12.501c-16 8.66699 -28.667 20 -38 34c-25.333 38 -67.333 49.333 -126 34
c-12.667 -3.33301 -25.834 -9.66602 -39.501 -18.999s-20.5 -16.666 -20.5 -21.999z" />
    <glyph glyph-name="seven" unicode="7" horiz-adv-x="533" 
d="M384 167c1.33301 10.667 -2.33105 16.332 -10.998 16.999c-4.66699 -0.666992 -8 -3.33398 -10 -8.00098c-2.66699 -8 -12.334 -17.333 -29.001 -28s-30 -13.667 -40 -9c-14 2.66699 -22.333 2 -25 -2c-3.33301 -5.33301 -0.333008 -12.666 9 -21.999
s19.666 -15.333 30.999 -18c8 -1.33301 14.833 -0.666016 20.5 2.00098s14.5 10 26.5 22c18.667 20 28 35.333 28 46zM362.003 312.998c8.66699 0.666992 18.166 -0.5 28.499 -3.5s20.833 -6.66699 31.5 -11s18 -7.16602 22 -8.49902c2.66699 0 13.667 -7.66699 33 -23
c12.667 -10.667 20.167 -19.334 22.5 -26.001s3.5 -20.667 3.5 -42c0.666992 -25.333 -3 -50.333 -11 -75s-18 -44 -30 -58c-3.33301 -3.33301 -8.66602 -9.16602 -15.999 -17.499l-14.5 -16.5c-2.33301 -2.66699 -7 -6.66699 -14 -12s-13.333 -9.16602 -19 -11.499
s-13.334 -5 -23.001 -8s-20.5 -5.5 -32.5 -7.5c-30.667 -6.66699 -56 -8.16699 -76 -4.5s-39 13.167 -57 28.5c-16.667 14 -26.667 21 -30 21c-14.667 0 -21.667 41.333 -21 124c0.666992 48.667 5.33398 91.667 14.001 129s25 84.333 49 141
c18 42.667 26.333 65.334 25 68.001s-33 6 -95 10c-42 2.66699 -68.833 5.16699 -80.5 7.5s-21.167 7.16602 -28.5 14.499c-8.66699 8.66699 -13 17.167 -13 25.5s4.33301 20.833 13 37.5c5.33301 11.333 12.5 17.833 21.5 19.5s25.167 -0.5 48.5 -6.5
c26 -7.33301 49 -10.833 69 -10.5s45.667 4.5 77 12.5c38 10.667 62 16.334 72 17.001c40.667 5.33301 70.834 -3 90.501 -25s13.5 -47.667 -18.5 -77c-18.667 -18 -33.667 -34.833 -45 -50.5s-24.333 -37.834 -39 -66.501c-30.667 -58.667 -43.667 -99.334 -39 -122.001
c1.33301 -6.66699 4.66602 -8 9.99902 -4c2.66699 1.33301 8 5.33301 16 12c10 8.66699 18.5 14.167 25.5 16.5s17.167 3.16602 30.5 2.49902z" />
    <glyph glyph-name="eight" unicode="8" horiz-adv-x="715" 
d="M334 262c-8.66699 0 -15.6689 7 -21.002 21c-6.66699 17.333 -13.667 23 -21 17c-1.33301 -2.66699 -15.666 -4.66699 -42.999 -6c-46 -3.33301 -78 -20 -96 -50c-13.333 -22.667 -15.166 -44.834 -5.49902 -66.501s28.167 -36.5 55.5 -44.5
c15.333 -4.66699 27 -6.66699 35 -6s21.333 4.33398 40 11.001c54 20 83.667 44 89 72c2.66699 14.667 0.666992 27 -6 37s-15.667 15 -27 15zM216.998 489c0 12 -6.66699 14 -20 6l-16 -14c-2 -2 -3.83301 -4 -5.5 -6s-2.83398 -3.5 -3.50098 -4.5s-1.5 -2 -2.5 -3l-2 -2
c-0.333008 -0.333008 -0.666016 -1.16602 -0.999023 -2.49902s-0.5 -2.33301 -0.5 -3s-0.166992 -2.33398 -0.5 -5.00098s-0.833008 -5 -1.5 -7c-2.66699 -8 0 -16.667 8 -26c6 -5.33301 12.5 -8.5 19.5 -9.5s20.167 -0.833008 39.5 0.5l47 4
c-38.667 38.667 -59 62.667 -61 72zM601.998 555c-7.33301 0 -16.1621 -2.50391 -26.4951 -7.50391s-21.333 -11 -33 -18s-18.5 -11.167 -20.5 -12.5c-27.333 -14.667 -41.666 -40 -42.999 -76c0 -8 -2 -17.5 -6 -28.5s-7.33301 -19.333 -10 -25s-8.16699 -15.5 -16.5 -29.5
s-12.833 -21.333 -13.5 -22l22 -22c10 -10 16.167 -18.667 18.5 -26s3.5 -22.333 3.5 -45c0 -59.333 -20.667 -105.666 -62 -138.999c-15.333 -12 -26.333 -21.333 -33 -28c-13.333 -13.333 -43.333 -26.5 -90 -39.5s-81 -17.833 -103 -14.5c-12 2 -30 10 -54 24
s-44 28.667 -60 44c-14.667 13.333 -26.334 29.833 -35.001 49.5s-11.667 36.834 -9 51.501c6 36 12.667 62.333 20 79s20 34 38 52c5.33301 6 7.83301 10.833 7.5 14.5s-4.16602 10.834 -11.499 21.501c-10.667 14.667 -16.834 33.167 -18.501 55.5
s1.16602 43.833 8.49902 64.5c9.33301 26 26.333 50.833 51 74.5s48 37.5 70 41.5c15.333 4 24.666 10.333 27.999 19c3.33301 6.66699 9.16602 10.334 17.499 11.001s28.833 0 61.5 -2c48 -4 73 -7.33301 75 -10c2 -3.33301 14.333 -9.33301 37 -18
c15.333 -6 25.5 -9 30.5 -9s11.5 2.66699 19.5 8c6.66699 4 12.167 9.16699 16.5 15.5s12.5 11.5 24.5 15.5c10.667 3.33301 24.5 11.5 41.5 24.5s29.5 21.167 37.5 24.5c29.333 11.333 55.5 9.5 78.5 -5.5s28.833 -37.833 17.5 -68.5
c-2.66699 -8.66699 -13.334 -18.167 -32.001 -28.5s-34.334 -15.5 -47.001 -15.5z" />
    <glyph glyph-name="nine" unicode="9" horiz-adv-x="509" 
d="M227 101c1.33301 -4 6.66602 -5.83789 15.999 -5.50488s21.333 2.83301 36 7.5s27.334 10.334 38.001 17.001c12.667 7.33301 22 14.833 28 22.5s11.333 18.834 16 33.501c7.33301 24.667 10 41.334 8 50.001c-2 7.33301 -5 11.833 -9 13.5
s-7.33301 -0.166016 -10 -5.49902c-2.66699 -4 -18 -9.66699 -46 -17c-20 -6 -31.833 -10.5 -35.5 -13.5s-4.5 -9.16699 -2.5 -18.5c1.33301 -6.66699 0 -17.167 -4 -31.5s-9 -26.666 -15 -36.999s-10.667 -14.5 -14 -12.5c-4 4 -6 3 -6 -3zM328 474.995
c-17.333 18 -33.999 25.334 -49.999 22.001s-37.667 -18.666 -65 -45.999c-26.667 -26.667 -38.334 -49.5 -35.001 -68.5s22 -35.833 56 -50.5c28 -12.667 52.167 -15.834 72.5 -9.50098s36 16.666 47 30.999s14.5 33 10.5 56s-16 44.833 -36 65.5zM31.001 182.996
c-1.33301 5.33301 4.16797 15.667 16.501 31s18.5 24.333 18.5 27c0 4.66699 3 7 9 7s14.667 4.33301 26 13c8 6.66699 12.333 11.667 13 15s-2 10.666 -8 21.999c-28.667 61.333 -24.334 126 12.999 194c12.667 23.333 22.834 38.833 30.501 46.5s23.167 16.5 46.5 26.5
c5.33301 2.66699 19.666 11.667 42.999 27s41.666 23 54.999 23c1.33301 0 9.66602 -1.66699 24.999 -5s29.166 -6.66602 41.499 -9.99902s19.166 -6.33301 20.499 -9c0 -2.66699 10.333 -15.667 31 -39c28 -30.667 44.333 -71 49 -121c1.33301 -14.667 5 -25.667 11 -33
c7.33301 -9.33301 8.33301 -56 3 -140c-0.666992 -10 -1.66699 -26 -3 -48s-2 -36.333 -2 -43c0 -16 -2.16699 -30 -6.5 -42s-11.666 -27.5 -21.999 -46.5s-17.166 -31.833 -20.499 -38.5c-10.667 -20 -19.667 -30 -27 -30c-8.66699 0 -18 -4.33301 -28 -13
c-11.333 -8.66699 -31.666 -18 -60.999 -28c-61.333 -21.333 -123.666 -15 -186.999 19c-28.667 15.333 -51 41 -67 77s-22.667 75.333 -20 118z" />
    <glyph glyph-name="colon" unicode=":" 
d="M39 120c6 17.333 17.835 31.1641 35.502 41.4971s35.167 9.5 52.5 -2.5c11.333 -10 18.5 -19.167 21.5 -27.5s2.5 -19.166 -1.5 -32.499c-6.66699 -24 -22.334 -39 -47.001 -45s-44.334 0.666992 -59.001 20c-6.66699 8.66699 -10.167 15.334 -10.5 20.001
s2.5 13.334 8.5 26.001zM36.002 417.998c0 13.333 4.83203 27.998 14.499 43.998s20.5 27.333 32.5 34c14.667 7.33301 25.834 10 33.501 8s15.834 -10 24.501 -24c14.667 -24.667 16.5 -48.167 5.5 -70.5s-30.833 -34.833 -59.5 -37.5
c-14.667 -1.33301 -26.834 2.33398 -36.501 11.001s-14.5 20.334 -14.5 35.001z" />
    <glyph glyph-name="semicolon" unicode=";" horiz-adv-x="198" 
d="M80 180c16 2.66699 27.168 3.17188 33.501 1.50488s13.833 -6.83398 22.5 -15.501c11.333 -11.333 18.666 -25.833 21.999 -43.5s3.66602 -43.5 0.999023 -77.5c-4.66699 -54.667 -18 -95.334 -40 -122.001s-45.667 -30.334 -71 -11.001
c-11.333 9.33301 -17.166 18.666 -17.499 27.999s4.83398 24.666 15.501 45.999c10.667 20 16.167 35.667 16.5 47s-3.83398 27.333 -12.501 48c-9.33301 21.333 -10.833 42.5 -4.5 63.5s17.833 32.833 34.5 35.5zM76.001 457.005c26.667 26.667 51.668 28 75.001 4
c18 -16.667 21 -35 9 -55c-10.667 -21.333 -29 -32.333 -55 -33c-14.667 0 -25 3 -31 9s-10.667 16.667 -14 32c-2.66699 14.667 2.66602 29 15.999 43z" />
    <glyph glyph-name="equal" unicode="=" horiz-adv-x="702" 
d="M167 129c0 -4.66699 -7.33105 -9.33301 -21.998 -14c-9.33301 -3.33301 -16.333 -4.66602 -21 -3.99902s-10.334 4.33398 -17.001 11.001c-18 17.333 -22.333 37.333 -13 60c8 28 45.333 59.333 112 94c9.33301 -0.666992 27.333 -1.66699 54 -3s48.167 -2.33301 64.5 -3
s35.833 -1.33398 58.5 -2.00098s42.5 -0.666992 59.5 0s31.5 2 43.5 4c17.333 2 44.5 0.5 81.5 -4.5s60.167 -10.167 69.5 -15.5c16.667 -10 27.667 -28.5 33 -55.5s2 -46.5 -10 -58.5c-6.66699 -6.66699 -10.667 -12.334 -12 -17.001
c-3.33301 -10 -17.833 -13.833 -43.5 -11.5s-39.834 8.83301 -42.501 19.5c-6 16.667 -24 27.334 -54 32.001c-11.333 1.33301 -54 3.66602 -128 6.99902s-119.667 4.66602 -137 3.99902c-10 -0.666992 -25.167 -6.66699 -45.5 -18s-30.5 -19.666 -30.5 -24.999z
M78.002 401.001c-5.33301 0 -13.833 7.33398 -25.5 22.001s-18.5 27 -20.5 37c-2 8 -2 14.833 0 20.5s7.66699 13.167 17 22.5c16 16.667 32.333 24.167 49 22.5s31 -12.167 43 -31.5c4.66699 -8 10.834 -13.833 18.501 -17.5s22.5 -7.16699 44.5 -10.5
c40.667 -6 99 -8.33301 175 -7c38.667 0 65.167 0.166992 79.5 0.5s27.833 2.66602 40.5 6.99902s20.5 8.83301 23.5 13.5s7.83301 13.667 14.5 27c5.33301 10 12.166 18.667 20.499 26s18.166 11.666 29.499 12.999s22.333 -3.66699 33 -15
c27.333 -27.333 25 -64.333 -7 -111c-20.667 -30 -39.667 -49.833 -57 -59.5s-43.333 -14.834 -78 -15.501c-37.333 -1.33301 -59.333 0 -66 4c-11.333 2.66699 -96.666 5.33398 -255.999 8.00098c-1.33301 0.666992 -9 5.33398 -23 14.001s-25.833 15.667 -35.5 21
s-16.167 8.33301 -19.5 9z" />
    <glyph glyph-name="greater" unicode="&#x3e;" horiz-adv-x="558" 
d="M287 450c18.667 0 30.3311 -1.65918 34.998 -4.99219c3.33301 -3.33301 33.666 -14.333 90.999 -33c44.667 -14 75 -26 91 -36s24 -21.667 24 -35c0 -10.667 -5.5 -24.167 -16.5 -40.5s-20.833 -26.166 -29.5 -29.499c-4 -1.33301 -21 -8.5 -51 -21.5
s-48.667 -19.833 -56 -20.5c-14.667 -2.66699 -40.167 -12.5 -76.5 -29.5s-57.166 -26.5 -62.499 -28.5c-24.667 -11.333 -37 -20 -37 -26c0 -7.33301 6.83301 -11.833 20.5 -13.5s27.834 0.5 42.501 6.5c48.667 19.333 78 10 88 -28
c2 -7.33301 -0.333008 -21.166 -7 -41.499s-12 -30.5 -16 -30.5c-1.33301 0 -24.666 -3.66699 -69.999 -11c-48 -7.33301 -81.167 -8.66602 -99.5 -3.99902s-41.166 20 -68.499 46c-20.667 20 -33.167 33.667 -37.5 41s-6.5 17.666 -6.5 30.999c0 34 15.833 63.667 47.5 89
s76.5 44 134.5 56c10.667 2 22.834 5.66699 36.501 11s24.834 10.666 33.501 15.999s12 9 10 11c-6.66699 5.33301 -24.667 12.666 -54 21.999s-56.333 16.333 -81 21c-43.333 7.33301 -77.833 22.833 -103.5 46.5s-38.5 51.5 -38.5 83.5c0 33.333 14 59.666 42 78.999
c7.33301 4.66699 17.166 12.167 29.499 22.5s23.5 18.166 33.5 23.499s21.667 8.66602 35 9.99902c27.333 3.33301 51.666 5.33301 72.999 6c18 1.33301 29.667 1.16602 35 -0.500977s10.666 -6.83398 15.999 -15.501c13.333 -20 11.166 -41 -6.50098 -63
s-37.834 -28.667 -60.501 -20c-8 3.33301 -15.5 4.16602 -22.5 2.49902s-18.167 -6.83398 -33.5 -15.501c-25.333 -14.667 -36.166 -25.834 -32.499 -33.501s23.834 -16.5 60.501 -26.5c44 -10.667 73.333 -16 88 -16z" />
    <glyph glyph-name="question" unicode="?" horiz-adv-x="449" 
d="M273 94c3.33301 0 8.66895 -10.332 16.002 -30.999c9.33301 -30.667 1.66602 -56 -23.001 -76c-16.667 -13.333 -33.334 -13.333 -50.001 0c-12 10 -20 22.833 -24 38.5s-2.66699 29.834 4 42.501c6.66699 13.333 10 23.666 10 30.999c0.666992 6 5.5 9.5 14.5 10.5
s14.833 3.5 17.5 7.5c5.33301 5.33301 13.666 3.66602 24.999 -5.00098c8.66699 -6 11.334 -10.333 8.00098 -13c-2 -3.33301 -1.33301 -5 2 -5zM220.003 432.001c0 -4.66699 4.66895 -15.667 14.002 -33s15.333 -26 18 -26s15 11.667 37 35
c16.667 16.667 26.334 27.834 29.001 33.501s2.66699 14.5 0 26.5c-3.33301 15.333 -6.83301 24.833 -10.5 28.5s-13.834 8.5 -30.501 14.5c-16.667 5.33301 -30.334 7.83301 -41.001 7.5s-27.334 -4.5 -50.001 -12.5c-26 -8.66699 -43.5 -18.334 -52.5 -29.001
s-15.5 -27.667 -19.5 -51l19 19c26 28 49.333 32 70 12c11.333 -10 17 -18.333 17 -25zM220.005 613.001c17.333 2.66699 30.8359 3.49707 40.5029 2.49707s27.167 -5.16699 52.5 -12.5c28 -8.66699 48.5 -18.5 61.5 -29.5s21.5 -26.5 25.5 -46.5
c2.66699 -15.333 7 -30.666 13 -45.999c20 -48 -7.66699 -112.333 -83 -193c-26.667 -27.333 -41.334 -53.666 -44.001 -78.999c-2.66699 -34 -16.334 -57.833 -41.001 -71.5s-47 -4.5 -67 27.5c-14.667 24 -15.667 47 -3 69l20 36c4.66699 8.66699 8 15.834 10 21.501
s2.83301 9.66699 2.5 12s-1.83301 3.83301 -4.5 4.5c-6 2.66699 -19.333 -1 -40 -11c-32 -15.333 -59.833 -13.333 -83.5 6s-38.834 53 -45.501 101c-6 40.667 -4.83301 72.167 3.5 94.5s26.833 43.833 55.5 64.5c36 25.333 78.333 42 127 50z" />
    <glyph glyph-name="at" unicode="@" horiz-adv-x="787" 
d="M421 251c0 19.333 -3.66504 29.334 -10.998 30.001c-2.66699 -0.666992 -5 -2.33398 -7 -5.00098c-2.66699 -4 -13.667 -5 -33 -3c-14.667 2 -23.667 2 -27 0s-7.33301 -9.33301 -12 -22c-8.66699 -24.667 -9.33398 -48.5 -2.00098 -71.5s22.666 -32.167 45.999 -27.5
c7.33301 3.33301 16.833 17.333 28.5 42s17.5 43.667 17.5 57zM596.002 170.001c0 2.66699 6.16797 12.001 18.501 28.001s17.833 26.667 16.5 32c-0.666992 5.33301 2.33301 14.333 9 27s9 22 7 28c-2.66699 7.33301 -1 14.666 5 21.999c8.66699 10 10.5 29.833 5.5 59.5
s-14.167 55.167 -27.5 76.5c-15.333 24.667 -31 43.834 -47 57.501s-37 26.167 -63 37.5c-24.667 10 -40 15.167 -46 15.5s-15.667 -2.5 -29 -8.5c-8.66699 -2.66699 -27.667 -6.5 -57 -11.5s-53.333 -11.833 -72 -20.5l-47 -21c11.333 -31.333 25.666 -61 42.999 -89l39 25
c22.667 14.667 42.167 22.667 58.5 24s36.5 -3.33398 60.5 -14.001c8 -4 23 -10 45 -18c8 -2.66699 17.667 -11.5 29 -26.5s17 -26.833 17 -35.5c0 -5.33301 -4 -16.666 -12 -33.999c-6 -12 -12.333 -34.333 -19 -67s-10 -58 -10 -76c-0.666992 -18.667 2 -29.834 8 -33.501
s18 -2.16699 36 4.5c21.333 8.66699 32 14.667 32 18zM260.003 -80.998c0 2 -9.33301 7.49805 -28 16.498s-28 14.833 -28 17.5c0 5.33301 -10.333 14 -31 26c-37.333 24.667 -73.666 73.334 -108.999 146.001c-13.333 28 -21.833 48.667 -25.5 62s-6.16699 34.333 -7.5 63
c-6 118 22 205.667 84 263l19 16.5c8.66699 7.66699 16.667 14.334 24 20.001s14.666 10.5 21.999 14.5c20 10 62.833 25.5 128.5 46.5s108.834 32.833 129.501 35.5c79.333 10 152 -14.333 218 -73c32.667 -29.333 54.167 -49.833 64.5 -61.5s15.5 -21.834 15.5 -30.501
c1.33301 -9.33301 4.33301 -23 9 -41s8 -35.5 10 -52.5s2.66699 -37.167 2 -60.5c0 -55.333 -4.83301 -96.333 -14.5 -123s-30.5 -54.667 -62.5 -84c-26 -24 -46.167 -40.833 -60.5 -50.5s-38.5 -22.5 -72.5 -38.5c-24.667 -12 -42.5 -18.667 -53.5 -20
s-24.833 1.66699 -41.5 9c-16 6.66699 -24 16 -24 28c0 10.667 -3.5 16.334 -10.5 17.001s-20.833 -2.66602 -41.5 -9.99902c-16 -6 -34 -5.66699 -54 1c-21.333 7.33301 -40.5 17.666 -57.5 30.999s-27.833 27 -32.5 41c-6.66699 16.667 -9.83398 44 -9.50098 82
s3.83301 64.667 10.5 80c14 31.333 18.333 48.666 13 51.999c-4.66699 3.33301 -7 8.33301 -7 15c0.666992 4.66699 -7.33301 15.334 -24 32.001s-25 27 -25 31c0 13.333 -9 11.666 -27 -5.00098c-10 -9.33301 -17.167 -20.166 -21.5 -32.499s-7.83301 -30.5 -10.5 -54.5
c-4 -38 0.5 -77.833 13.5 -119.5s33.5 -76.834 61.5 -105.501c35.333 -36.667 89.5 -68.667 162.5 -96s138.5 -32.333 196.5 -15c8 2.66699 16.167 4.83398 24.5 6.50098s14.666 3 18.999 4s10 3 17 6s15.167 7.16699 24.5 12.5c22.667 12.667 41.334 20.667 56.001 24
s23.334 0.666016 26.001 -8.00098c2 -6 5.16699 -10 9.5 -12s7.16602 -4.66699 8.49902 -8c0 -4.66699 -3.33301 -7 -10 -7s-9.66699 -10 -9 -30c0.666992 -18.667 -4 -32.667 -14 -42s-28.667 -18.666 -56 -27.999c-94 -32 -173 -41.333 -237 -28
c-16 3.33301 -34 8.33301 -54 15s-42 11 -66 13c-29.333 1.33301 -44 4.33301 -44 9z" />
    <glyph glyph-name="A" unicode="A" horiz-adv-x="852" 
d="M471 395c-13.333 27.333 -21.001 45.332 -23.001 53.999c-0.666992 4.66699 -4 2.33398 -10 -6.99902c-1.33301 -2 -2.66602 -4.33301 -3.99902 -7l-76 -152l19 -8c11.333 -4 34 -6.66699 68 -8s53 -0.333008 57 3c4 4 2.5 19.833 -4.5 47.5s-15.833 53.5 -26.5 77.5z
M266.999 327.999c0 4 4.83105 11.0039 14.498 21.0039s14.167 17.333 13.5 22c0 6 2.66699 12.333 8 19c6.66699 8 23.667 35.333 51 82s45 79.334 53 98.001c6.66699 14 14.667 22.667 24 26c10 5.33301 20.167 8 30.5 8s17.5 -2.66699 21.5 -8
c8.66699 -10.667 25.834 -42.667 51.501 -96s41.5 -89.666 47.5 -108.999c20.667 -66.667 34 -103 40 -109c4 -4 17.167 -0.166992 39.5 11.5s34.833 21.167 37.5 28.5c0.666992 2 -0.833008 4.66699 -4.5 8s-8.5 5.66602 -14.5 6.99902
c-22.667 7.33301 -31 22.666 -25 45.999c5.33301 23.333 18.5 39 39.5 47s43.5 6 67.5 -6c16 -8.66699 28 -18.334 36 -29.001s14.667 -27 20 -49c3.33301 -14.667 4.5 -25.167 3.5 -31.5s-5.5 -17.5 -13.5 -33.5c-25.333 -51.333 -59 -86.333 -101 -105
c-18.667 -8 -29.167 -14.833 -31.5 -20.5s1.5 -15.167 11.5 -28.5c6 -6.66699 10.333 -15.834 13 -27.501s5.33398 -19.834 8.00098 -24.501c5.33301 -5.33301 3.83301 -16.5 -4.5 -33.5s-18.5 -29.167 -30.5 -36.5c-12.667 -6.66699 -28 -7.66699 -46 -3
c-15.333 4 -27 12.333 -35 25s-17.333 37.667 -28 75c-6.66699 22 -13.167 35.167 -19.5 39.5s-26.166 8.16602 -59.499 11.499c-29.333 3.33301 -46.333 2 -51 -4c-4 -7.33301 -6 -7.66602 -6 -0.999023c0 6 -12.667 9 -38 9s-45 2.33301 -59 7
c-16 5.33301 -27.333 4.66602 -34 -2.00098c-7.33301 -7.33301 -12.833 -20 -16.5 -38s-2.83398 -28.667 2.49902 -32c6.66699 -3.33301 5.66699 -5 -3 -5s-13 -7 -13 -21c0 -15.333 -5.16699 -27.333 -15.5 -36s-24.833 -13 -43.5 -13c-21.333 0 -35.5 3.83301 -42.5 11.5
s-9.5 22.167 -7.5 43.5c4 43.333 11.333 71 22 83c7.33301 6.66699 8.66602 13.5 3.99902 20.5s-14 12.5 -28 16.5c-34 14 -70 33.333 -108 58c-10 6.66699 -15.667 12.667 -17 18s-1 18.666 1 39.999c3.33301 33.333 9.5 56.5 18.5 69.5s28.5 27.167 58.5 42.5
c22.667 12 41.334 16.667 56.001 14c15.333 -3.33301 28 -8.83301 38 -16.5s15 -16.167 15 -25.5c0 -11.333 -7 -24.333 -21 -39s-26.333 -22 -37 -22c-12.667 0 -19 -2 -19 -6c0 -5.33301 5.66699 -9 17 -11s24.166 -3.66699 38.499 -5s23.833 -3.66602 28.5 -6.99902
c6.66699 -7.33301 15.334 -6.33301 26.001 3s16 17 16 23z" />
    <glyph glyph-name="B" unicode="B" horiz-adv-x="562" 
d="M380 263c-14 13.333 -30.8311 24.833 -50.498 34.5s-31.5 12.834 -35.5 9.50098c-1.33301 -1.33301 -27 -5 -77 -11c-42 -4.66699 -65.833 -10.334 -71.5 -17.001s-6.5 -29.667 -2.5 -69c2.66699 -24 6 -39.667 10 -47s16 -18 36 -32
c21.333 -14.667 63.666 -17.167 126.999 -7.5s97.666 24.167 102.999 43.5c8 34 -5 66 -39 96zM361.002 448c8.66699 2 10.333 6 5 12c-6 6.66699 -11.333 6.66699 -16 0c-0.666992 -0.666992 -1.33398 -1.66699 -2.00098 -3
c-5.33301 -7.33301 -4.66602 -11.333 2.00098 -12c3.33301 0 7 1 11 3zM495.001 477c0 -18.667 -2.66699 -33.9971 -8 -45.9971s-19 -32.667 -41 -62c-4.66699 -6 2.66602 -17.667 21.999 -35c19.333 -20 35 -42.667 47 -68c8.66699 -18.667 13.834 -33 15.501 -43
s1.5 -26.667 -0.5 -50c-2.66699 -32.667 -9.5 -56.667 -20.5 -72s-32.167 -31.666 -63.5 -48.999c-28 -14.667 -60 -25.667 -96 -33s-62.667 -8.66602 -80 -3.99902c-17.333 3.33301 -29.5 4.66602 -36.5 3.99902s-18.833 -2 -35.5 -4s-33 -2.66699 -49 -2
c-26 0.666992 -44 2 -54 4s-20.333 6.66699 -31 14c-12.667 8.66699 -21.5 18.5 -26.5 29.5s-7.5 26.833 -7.5 47.5c0 12.667 2.66699 21 8 25c4 3.33301 5.5 45.666 4.5 126.999s-4.16699 162.333 -9.5 243c-3.33301 52 -1 86 7 102
c6.66699 13.333 17.5 24.666 32.5 33.999s26.833 11.666 35.5 6.99902c5.33301 -2 36.166 -5.16699 92.499 -9.5s87.166 -8.16602 92.499 -11.499c13.333 -5.33301 22.666 -4.33301 27.999 3c4.66699 7.33301 13.334 11 26.001 11c12 0 21 6.66699 27 20
c6.66699 13.333 18 23.666 34 30.999c16 8 26 11.667 30 11s12.667 -6.66699 26 -18c10.667 -8.66699 16.834 -16 18.501 -22s1.5 -19 -0.5 -39c-3.33301 -28 -8 -43.667 -14 -47c-8.66699 -4.66699 -12.167 -11.667 -10.5 -21s7.83398 -17.666 18.501 -24.999
c8.66699 -6.66699 14 -12.834 16 -18.501s3 -16.834 3 -33.501z" />
    <glyph glyph-name="C" unicode="C" horiz-adv-x="526" 
d="M247 187c-1.33301 2.66699 -5 8.49902 -11 17.499s-10.667 18 -14 27s-4.33301 18.167 -3 27.5c0 14.667 1.5 24.334 4.5 29.001s11.833 11.667 26.5 21c19.333 12 29.333 20 30 24c-0.666992 3.33301 -4.66699 6.33301 -12 9s-17.333 15.667 -30 39
s-19 40.666 -19 51.999c0 10.667 3.66699 20.667 11 30s16.333 15.333 27 18s23.834 -0.166016 39.501 -8.49902s26.167 -18.166 31.5 -29.499c2 -5.33301 3.66699 -8.66602 5 -9.99902s3.16602 -1.5 5.49902 -0.5s6.16602 3.83301 11.499 8.5
c7.33301 6.66699 13.166 18.167 17.499 34.5s4.16602 27.833 -0.500977 34.5c-9.33301 9.33301 -19.333 17 -30 23c-13.333 8 -26.833 12.833 -40.5 14.5s-22.167 -0.5 -25.5 -6.5c-2.66699 -4 -6 -5.33301 -10 -4c-9.33301 6 -26.333 -7 -51 -39s-42.667 -64.333 -54 -97
c-25.333 -68 -28.166 -124.833 -8.49902 -170.5s59.167 -70.167 118.5 -73.5c24.667 -2 41.334 -2.33301 50.001 -1s21.334 6.33301 38.001 15c13.333 6.66699 22.5 12.167 27.5 16.5s7.16699 9.16602 6.5 14.499c-3.33301 16 -11.333 25.667 -24 29
c-12 1.33301 -18.333 -4.33398 -19 -17.001c0 -7.33301 -6.5 -17.5 -19.5 -30.5s-23.5 -19.5 -31.5 -19.5s-17.833 2.83301 -29.5 8.5s-17.5 10.5 -17.5 14.5zM30 280.999c0 11.333 6.16504 45.332 18.498 101.999s19.833 86 22.5 88c4 2.66699 15.667 17.334 35 44.001
c27.333 38.667 53.666 67.334 78.999 86.001c6.66699 4.66699 21.667 12.167 45 22.5s39.333 16.166 48 17.499c21.333 3.33301 54 -2 98 -16c24 -8 42.833 -21.333 56.5 -40s24.834 -45.667 33.501 -81c4.66699 -16.667 7.5 -30.167 8.5 -40.5s1.33301 -17.333 1 -21
s-3 -10.667 -8 -21s-8.5 -18.166 -10.5 -23.499c-6 -12.667 -18.333 -26.667 -37 -42c-18.667 -12.667 -25.667 -20.334 -21 -23.001c1.33301 -0.666992 3.33301 -1.33398 6 -2.00098c13.333 -3.33301 28 -11.333 44 -24s26.333 -24.667 31 -36
c14.667 -28.667 19.167 -58 13.5 -88s-17.167 -52 -34.5 -66c-6 -2 -17.667 -10 -35 -24c-20 -17.333 -49.833 -29.5 -89.5 -36.5s-76.167 -6.16699 -109.5 2.5c-4 0.666992 -10.833 2 -20.5 4s-15.5 3.16699 -17.5 3.5s-6.33301 1.33301 -13 3s-10.834 3 -12.501 4
s-5.16699 2.33301 -10.5 4s-9.16602 3.83398 -11.499 6.50098s-5.83301 5.5 -10.5 8.5s-9.16699 6.66699 -13.5 11s-9.16602 8.83301 -14.499 13.5s-11.666 10.667 -18.999 18c-8 8.66699 -18.667 31.667 -32 69s-20 63 -20 77z" />
    <glyph glyph-name="D" unicode="D" horiz-adv-x="609" 
d="M165 386c-8.66699 8.66699 -13.999 8.33203 -15.999 -1.00098c-2 -6.66699 -4 -22.667 -6 -48c-7.33301 -95.333 -4.66602 -149 8.00098 -161c15.333 -14 39.166 -23.5 71.499 -28.5s60.833 -3.16699 85.5 5.5c21.333 6.66699 43.5 20.667 66.5 42s37.5 41 43.5 59
s5 40 -3 66c-8.66699 30.667 -22.5 50.834 -41.5 60.501s-48.5 11.167 -88.5 4.5c-22.667 -4 -47.334 -5.83301 -74.001 -5.5s-42 2.5 -46 6.5zM494.001 135.998c-4 0 -6.00391 -3.00195 -6.00391 -9.00195c0 -6.66699 -6.66699 -14.834 -20 -24.501s-26 -16.167 -38 -19.5
c-13.333 -2 -27 -8 -41 -18c-20 -14 -73.333 -24.333 -160 -31c-41.333 -2.66699 -67.333 -4 -78 -4s-26.667 1.66699 -48 5c-22.667 3.33301 -37.667 7.83301 -45 13.5s-14 17.834 -20 36.501c-8 25.333 -9.66699 75.333 -5 150c2 37.333 4.5 73.166 7.5 107.499
s5.5 68.333 7.5 102s3 81.5 3 143.5c39.333 25.333 70.666 38.333 93.999 39c16.667 0 42.5 -5 77.5 -15s56.167 -18.667 63.5 -26c15.333 -13.333 30.333 -8 45 16c15.333 25.333 31.5 43.833 48.5 55.5s44.833 23.834 83.5 36.501c58 18.667 93 18.667 105 0
c8 -11.333 11.5 -25.666 10.5 -42.999s-5.83301 -31.666 -14.5 -42.999c-6.66699 -8 -12.667 -13 -18 -15s-16.333 -2.66699 -33 -2c-22.667 0.666992 -39.667 -2 -51 -8s-22.666 -18.667 -33.999 -38s-16.666 -32.833 -15.999 -40.5s7.66699 -16.5 21 -26.5
c48.667 -35.333 79.334 -73.666 92.001 -114.999c7.33301 -24.667 11.333 -54.5 12 -89.5s-2.66602 -55.167 -9.99902 -60.5c-4 -1.33301 -9.66699 -14.333 -17 -39s-12.666 -37.334 -15.999 -38.001z" />
    <glyph glyph-name="E" unicode="E" horiz-adv-x="574" 
d="M386 299c-2.66699 2.66699 -14.668 3.83594 -36.001 3.50293s-40.333 -1.5 -57 -3.5c-76 -10.667 -116 -19.334 -120 -26.001c-5.33301 -7.33301 -7.33301 -26.5 -6 -57.5s5 -49.167 11 -54.5c32 -32 84.333 -39.333 157 -22c42 10 64.667 19 68 27
c0.666992 2 -0.666016 3.33301 -3.99902 4c-2 0.666992 -4.66699 1 -8 1c-32 1.33301 -50 20.333 -54 57c-1.33301 15.333 -1 25.166 1 29.499s10 10.833 24 19.5c16.667 11.333 24.667 18.666 24 21.999zM304.999 550.002
c-1.33301 -2.66699 -29.5049 -4.33203 -84.5049 -4.99902s-83.167 -2 -84.5 -4s2 -24.167 10 -66.5s13.667 -66.166 17 -71.499c2.66699 -4 18.834 -5.83301 48.501 -5.5s52.167 2.5 67.5 6.5c20.667 6 61 10.667 121 14c20.667 1.33301 33 1.16602 37 -0.500977
s9.33301 -9.16699 16 -22.5c17.333 -35.333 10.666 -62 -20.001 -80c-15.333 -8.66699 -20.666 -16 -15.999 -22c2 -3.33301 6.66699 -4.33301 14 -3c6.66699 0.666992 13.334 0.166992 20.001 -1.5s13.834 -4.16699 21.501 -7.5s13.834 -5.66602 18.501 -6.99902
c12.667 -5.33301 24 -17.333 34 -36c8.66699 -17.333 14.5 -40.333 17.5 -69s1.5 -48.667 -4.5 -60c-4 -7.33301 -15.5 -18 -34.5 -32s-37.833 -26 -56.5 -36c-20.667 -10.667 -65.5 -16.667 -134.5 -18s-121.833 2.66699 -158.5 12
c-31.333 7.33301 -51.5 13.833 -60.5 19.5s-17.167 16.834 -24.5 33.501c-5.33301 12 -8.5 24.5 -9.5 37.5s-0.833008 36.5 0.5 70.5c1.33301 36.667 1.5 59.667 0.5 69s-3.5 22.5 -7.5 39.5s-6.66699 34.5 -8 52.5c-0.666992 12.667 -2.5 32.167 -5.5 58.5
s-5.5 49.5 -7.5 69.5s-2.66699 42.167 -2 66.5s3.33398 44.833 8.00098 61.5c3.33301 13.333 11 22.666 23 27.999c10 4.66699 64.5 7.16699 163.5 7.5s156.833 -1.83398 173.5 -6.50098c8 -1.33301 18.5 -2.5 31.5 -3.5s23.5 -3 31.5 -6s18 -8.5 30 -16.5
c16 -10.667 26.333 -19.334 31 -26.001s9 -18 13 -34c6 -24 7.33301 -40 4 -48c-16 -35.333 -32.667 -56.333 -50 -63c-30.667 -10.667 -49.667 -16.334 -57 -17.001s-15.333 2.66602 -24 9.99902c-14.667 10.667 -20.167 23.334 -16.5 38.001s15.834 27.334 36.501 38.001
l14 8l-15 12c-8.66699 7.33301 -29.334 13 -62.001 17s-52.667 3.66699 -60 -1z" />
    <glyph glyph-name="F" unicode="F" horiz-adv-x="628" 
d="M160 478l0.00488281 -119.998c37.333 5.33301 89.333 9.16602 156 11.499s106.334 1.5 119.001 -2.5c14.667 -5.33301 29.5 -17.166 44.5 -35.499s23.833 -34.833 26.5 -49.5c2.66699 -19.333 -1.66602 -40.666 -12.999 -63.999c-10.667 -24 -23.167 -40 -37.5 -48
s-34.833 -11.333 -61.5 -10c-16.667 0.666992 -28.5 2.66699 -35.5 6s-14.833 9.66602 -23.5 18.999c-13.333 14.667 -18.666 29.334 -15.999 44.001c1.33301 7.33301 1.66602 12.833 0.999023 16.5s-2.33398 6.16699 -5.00098 7.5s-7.66699 2.66602 -15 3.99902
c-14.667 3.33301 -24.334 3.33301 -29.001 0s-24.334 -4.33301 -59.001 -3c-24.667 0.666992 -39.834 0.166992 -45.501 -1.5s-10.167 -6.83398 -13.5 -15.501c-4.66699 -11.333 -7 -35 -7 -71c0 -30 -3.16699 -52.667 -9.5 -68s-16.833 -26 -31.5 -32
c-25.333 -10 -46 -5.33301 -62 14c-3.33301 4 -6.33301 12 -9 24s-4.16699 22.333 -4.5 31s0.833984 13.667 3.50098 15c2 -0.666992 3.33301 3.33301 4 12c0.666992 4.66699 1 14 1 28c0 24.667 1.33301 37 4 37c8.66699 0 15 45.333 19 136c4.66699 120 2 188.333 -8 205
c-3.33301 5.33301 -2 8.66602 4 9.99902c12 0.666992 23.667 3.66699 35 9c7.33301 3.33301 26.666 3.66602 57.999 0.999023c28 -3.33301 62 -2.83301 102 1.5s68.667 10.5 86 18.5c9.33301 4.66699 24.833 7 46.5 7s37.167 0.666992 46.5 2
c7.33301 4.66699 28.166 2.83398 62.499 -5.49902s57.5 -17.166 69.5 -26.499c15.333 -12 26 -27.833 32 -47.5s5.66699 -37.5 -1 -53.5c-15.333 -39.333 -29.333 -66.5 -42 -81.5s-30 -25.167 -52 -30.5c-17.333 -4 -34 -0.666992 -50 10
c-16.667 11.333 -27.334 22.166 -32.001 32.499s-4.33398 22.166 0.999023 35.499c6 15.333 12.333 26.333 19 33c13.333 13.333 7.33301 22.333 -18 27c-17.333 2.66699 -31 2.33398 -41 -0.999023c-8.66699 -4 -43.334 -8.33301 -104.001 -13
c-53.333 -4.66699 -91.666 -10.667 -114.999 -18z" />
    <glyph glyph-name="G" unicode="G" horiz-adv-x="639" 
d="M358 254c-14.667 0 -27.668 -2.00098 -39.001 -6.00098s-17 -8.66699 -17 -14c0 -12 13 -14.667 39 -8c11.333 2.66699 19.333 3.33398 24 2.00098s10.667 -5.66602 18 -12.999c24.667 -24.667 19.334 -52.667 -15.999 -84c-13.333 -12 -18.5 -20 -15.5 -24
s15.167 -6 36.5 -6c30 0 56.833 8.83301 80.5 26.5s36.834 38.834 39.501 63.501c1.33301 13.333 -2.33398 23.166 -11.001 29.499s-29 13.166 -61 20.499c-36 8.66699 -62 13 -78 13zM545.999 451.999c0 -12 -4.50195 -24.665 -13.502 -37.998s-17.833 -20 -26.5 -20
c-6.66699 0 -15.667 4.83301 -27 14.5s-17 17.167 -17 22.5c-2.66699 11.333 -24.667 34 -66 68c-104 -2.66699 -174.667 -10 -212 -22c-13.333 -3.33301 -22.5 -7.5 -27.5 -12.5s-11.833 -16.167 -20.5 -33.5c-22.667 -46.667 -27 -96 -13 -148
c8.66699 -34.667 20.5 -63.167 35.5 -85.5s29.833 -33.5 44.5 -33.5c3.33301 0 5.5 3.16699 6.5 9.5s0.833008 13.333 -0.5 21s-3.66602 13.167 -6.99902 16.5c-6.66699 7.33301 -9.5 28.833 -8.5 64.5s5.16699 59.167 12.5 70.5c10 14.667 22.333 24.167 37 28.5
s35.667 4.16602 63 -0.500977c41.333 -6 65.666 -9.33301 72.999 -10c44 -4.66699 86.333 -13.5 127 -26.5s61 -24.167 61 -33.5c0 -3.33301 6.33301 -12.666 19 -27.999c13.333 -15.333 21 -30.5 23 -45.5s-0.333008 -37.5 -7 -67.5
c-6.66699 -30.667 -17.167 -57.834 -31.5 -81.501s-28.5 -37.167 -42.5 -40.5c-9.33301 -2 -19 -8.66699 -29 -20c-7.33301 -8.66699 -20.5 -17.334 -39.5 -26.001s-34.5 -13 -46.5 -13c-47.333 0 -87.333 5.66699 -120 17c-11.333 4 -22.666 7 -33.999 9
s-21.166 4.5 -29.499 7.5s-19.166 8.83301 -32.499 17.5c-18.667 11.333 -39.334 22.333 -62.001 33c-28.667 10.667 -50 40.667 -64 90c-4 16 -11.667 34 -23 54c-10.667 18 -16.667 44.833 -18 80.5s2 73.167 10 112.5c8.66699 40.667 14.334 61 17.001 61
c2 0 7.66699 9 17 27c9.33301 18.667 23.333 36.5 42 53.5s35.667 27.5 51 31.5c30 10 76.167 15.5 138.5 16.5s106.5 -3.16699 132.5 -12.5c21.333 -8.66699 44.666 -28 69.999 -58s38 -53.333 38 -70z" />
    <glyph glyph-name="H" unicode="H" horiz-adv-x="697" 
d="M489 688c18 0 33.3281 -4.99805 45.9951 -14.998c8.66699 -6.66699 16.834 -10.834 24.501 -12.501s20.167 -2.16699 37.5 -1.5c18.667 0.666992 31.334 0 38.001 -2s13.334 -6.33301 20.001 -13c6.66699 -7.33301 10.334 -13.333 11.001 -18s-0.333008 -13 -3 -25
c-6 -21.333 -13.667 -35.5 -23 -42.5s-28 -11.833 -56 -14.5c-31.333 -3.33301 -51.333 -4.33301 -60 -3c-3.33301 0.666992 -5.5 -3.83301 -6.5 -13.5s-1.16699 -22 -0.5 -37s1.83398 -30.833 3.50098 -47.5s4.16699 -32.5 7.5 -47.5s6.66602 -26.167 9.99902 -33.5
c10 -20 13.333 -36.667 10 -50c-10 -39.333 -11 -91.333 -3 -156c4.66699 -40 5 -69.333 1 -88s-13.333 -33 -28 -43c-22.667 -16 -46.334 -13 -71.001 9c-8.66699 7.33301 -14.167 22.833 -16.5 46.5s-0.166016 43.167 6.50098 58.5c4 5.33301 6 14 6 26
s-0.833008 23.667 -2.5 35s-3.83398 24.833 -6.50098 40.5s-4.33398 26.167 -5.00098 31.5c-42.667 1.33301 -92.667 1 -150 -1s-94 -5.66699 -110 -11c-14 -4 -22.5 -7.66699 -25.5 -11s-4.5 -10.333 -4.5 -21c0.666992 -7.33301 3.16699 -21.333 7.5 -42
s6.83301 -43.667 7.5 -69c0.666992 -42.667 -2.66602 -69.667 -9.99902 -81c-17.333 -28 -41.666 -26.333 -72.999 5c-11.333 11.333 -18.166 20.166 -20.499 26.499s-3.16602 17.833 -2.49902 34.5c1.33301 26 -1 71 -7 135c-12.667 167.333 -15 271 -7 311
c2 8.66699 9.16699 20.5 21.5 35.5s19.166 25.5 20.499 31.5c0 6 7.33301 12.667 22 20c13.333 7.33301 30.333 8.33301 51 3c20 -5.33301 41 -4.33301 63 3c21.333 7.33301 36 11 44 11s16 -3.66699 24 -11c8 -6.66699 12.167 -18.667 12.5 -36s-3.16699 -31.333 -10.5 -42
c-17.333 -23.333 -52 -36.666 -104 -39.999c-28 -1.33301 -43 -3.66602 -45 -6.99902c-2.66699 -2.66699 -4 -24.667 -4 -66s1.33301 -63.333 4 -66c8.66699 -8 56.667 -12.833 144 -14.5s135 1.5 143 9.5c3.33301 3.33301 3 28.666 -1 75.999
c-8.66699 78 -12.167 125.833 -10.5 143.5s12.5 38.5 32.5 62.5c8.66699 11.333 16 18.666 22 21.999s14.667 5 26 5z" />
    <glyph glyph-name="I" unicode="I" horiz-adv-x="418" 
d="M167 548c-10 0 -18.6719 -6.33008 -26.0049 -18.9971c-5.33301 -8.66699 -8.66602 -21.834 -9.99902 -39.501s-1.66602 -56.5 -0.999023 -116.5c1.33301 -76.667 4.33301 -140.667 9 -192c6 -52 9 -89.167 9 -111.5s-3 -38.833 -9 -49.5
c-10.667 -19.333 -26 -29.166 -46 -29.499s-36 9.16699 -48 28.5c-7.33301 11.333 -12 92.5 -14 243.5s0.333008 243.833 7 278.5c8.66699 40 20.834 69.167 36.501 87.5s38.167 30.166 67.5 35.499c18.667 4 36 10 52 18s33.333 18.167 52 30.5s34.667 21.833 48 28.5
c25.333 13.333 40.333 20.666 45 21.999s11.667 0.666016 21 -2.00098c16.667 -4.66699 25.834 -20 27.501 -46s-5.16602 -45.667 -20.499 -59c-6 -6 -26.833 -18.333 -62.5 -37s-56.5 -30.667 -62.5 -36c-12 -9.33301 -25.5 -17.5 -40.5 -24.5s-26.5 -10.5 -34.5 -10.5z
" />
    <glyph glyph-name="J" unicode="J" horiz-adv-x="465" 
d="M252 206c6.66699 9.33301 8 13.667 4 13c-5.33301 0 -11.333 -5 -18 -15c-3.33301 -4.66699 -4 -7.66699 -2 -9c2 -2 7.33301 1.66699 16 11zM195 59.001c-16 0 -31.833 3.3291 -47.5 9.99609s-27.834 15.334 -36.501 26.001c-9.33301 12 -17.666 19 -24.999 21
c-6.66699 3.33301 -18 16 -34 38c-10.667 16 -17.167 28.333 -19.5 37s-3.16602 25.334 -2.49902 50.001c0.666992 23.333 2.16699 40.333 4.5 51s8.16602 23.667 17.499 39c6 9.33301 10.667 17.833 14 25.5s5.5 12.834 6.5 15.501s3.5 6 7.5 10s11 9.33301 21 16
c12 8.66699 21.833 13.667 29.5 15s20.5 1.33301 38.5 0c16.667 -1.33301 28.667 -3.83301 36 -7.5s16.333 -11.167 27 -22.5c14.667 -16 25.5 -35.5 32.5 -58.5s9.16699 -45.5 6.5 -67.5c-2 -18 -1.66699 -27 1 -27c2 -0.666992 5 0.333008 9 3
c8.66699 4.66699 16.167 17.834 22.5 39.501s16.166 68.167 29.499 139.5c4.66699 29.333 6.33398 76.666 5.00098 141.999c-1.33301 70 1.33398 107.667 8.00098 113c8.66699 5.33301 19.167 7.5 31.5 6.5s21.833 -4.83301 28.5 -11.5
c15.333 -12 24.666 -32.333 27.999 -61s3 -68.667 -1 -120s-6 -83.666 -6 -96.999c0 -99.333 -21.667 -179 -65 -239c-10 -14 -36 -31.833 -78 -53.5s-71.667 -32.5 -89 -32.5z" />
    <glyph glyph-name="K" unicode="K" horiz-adv-x="733" 
d="M198 548c-35.333 0 -53.6641 -1.66699 -54.9971 -5s0.166992 -33 4.5 -89s7.5 -85 9.5 -87c33.333 15.333 72.666 45 117.999 89s83.666 86.333 114.999 127c20 29.333 41 49.666 63 60.999c15.333 7.33301 26.666 11.333 33.999 12s22.333 -1.66602 45 -6.99902
c34 -7.33301 59.333 -8.66602 76 -3.99902c44 10.667 73.333 0.666992 88 -30c5.33301 -12 7.33301 -20 6 -24s-8 -12.333 -20 -25l-23 -25l-81 -2c-45.333 -0.666992 -74.333 -3.83398 -87 -9.50098s-27 -22.167 -43 -49.5c-12 -20 -20 -30 -24 -30
c-3.33301 0.666992 -10.833 -5.16602 -22.5 -17.499l-39 -41.5c-14.333 -15.333 -24.833 -25.333 -31.5 -30c-12 -10 -15.5 -18.667 -10.5 -26s25.833 -24 62.5 -50c20 -13.333 52.333 -37.666 97 -72.999s73.667 -57.666 87 -66.999c11.333 -8 18.5 -14.667 21.5 -20
s4.5 -14 4.5 -26c0 -34 -12 -55.333 -36 -64c-14.667 -6.66699 -28.834 -6.33398 -42.501 0.999023s-36.834 26.666 -69.501 57.999c-18.667 18 -33.167 31.5 -43.5 40.5s-23 19.167 -38 30.5l-41.5 32c-4 3.33301 -7.66699 6.16602 -11 8.49902l-9 6.5
c-2.66699 2 -5.66699 4 -9 6s-6 3.5 -8 4.5s-5 2.33301 -9 4s-6.66699 2.83398 -8 3.50098s-4.33301 1.66699 -9 3s-7.66699 2.16602 -9 2.49902s-5 1.33301 -11 3s-10 2.83398 -12 3.50098c-3.33301 4.66699 -9.16602 5.66699 -17.499 3s-14.5 -5 -18.5 -7
s-10 -5.83301 -18 -11.5l-15 -10.5l4 -70c2 -31.333 2.5 -52 1.5 -62s-4.5 -20 -10.5 -30c-8.66699 -14 -20 -23 -34 -27c-12.667 -3.33301 -27.167 -0.5 -43.5 8.5s-25.833 19.167 -28.5 30.5c-2.66699 8.66699 -3.33398 69.667 -2.00098 183
c0.666992 116 -1.66602 183.667 -6.99902 203c-10 38 -10.833 72.833 -2.5 104.5s24.5 54.167 48.5 67.5c19.333 11.333 51.333 17.333 96 18c44 0.666992 73.333 5 88 13c30.667 15.333 52.334 16.666 65.001 3.99902c7.33301 -7.33301 9.83301 -17.833 7.5 -31.5
s-8.5 -25.5 -18.5 -35.5c-18 -16.667 -36 -28.167 -54 -34.5s-41.333 -9.5 -70 -9.5z" />
    <glyph glyph-name="L" unicode="L" horiz-adv-x="566" 
d="M370 215c0 -20 -2.33203 -29.9941 -6.99902 -29.9941s-7 -2.33301 -7 -7c0 -10.667 11.667 -10.334 35 0.999023c10.667 5.33301 20.667 11.666 30 18.999c8 8 12 17 12 27c0 13.333 -6.33301 29.666 -19 48.999s-25.334 32.333 -38.001 39
c-12 6.66699 -21.167 10.167 -27.5 10.5s-14.833 -1.83398 -25.5 -6.50098c-11.333 -4.66699 -16 -9.83398 -14 -15.501s12 -15.834 30 -30.501c14 -11.333 22.667 -20 26 -26s5 -16 5 -30zM195.001 157.006c22.667 -0.666992 34.1689 0.670898 34.502 4.00391
s-6.5 10.666 -20.5 21.999c-12 11.333 -22.167 30.333 -30.5 57s-10.5 47.667 -6.5 63c6 24.667 18.833 49.5 38.5 74.5s36.167 37.5 49.5 37.5c7.33301 0 13 2.66699 17 8c2.66699 5.33301 24 6.66602 64 3.99902c70.667 -5.33301 114 -22 130 -50l54 -92
c8.66699 -21.333 11 -48 7 -80s-12.5 -62.333 -25.5 -91s-24.833 -42.334 -35.5 -41.001c-6.66699 0 -10 -2.33301 -10 -7c0 -20 -107.333 -23.333 -322 -10c-26 1.33301 -43.333 3.33301 -52 6s-17.334 8 -26.001 16c-26.667 24.667 -36 60 -28 106
c6.66699 32 11 88 13 168s0.333008 131.333 -5 154c-6.66699 29.333 -9.33398 51.166 -8.00098 65.499s6.66602 26.5 15.999 36.5c12 12.667 26.833 18.334 44.5 17.001s29.834 -9 36.501 -23c4.66699 -12.667 7.66699 -84.334 9 -215.001
c0.666992 -115.333 3.16699 -182.5 7.5 -201.5s19.833 -28.5 46.5 -28.5h2z" />
    <glyph glyph-name="M" unicode="M" horiz-adv-x="885" 
d="M406 62c0 4 -3.6709 10.6582 -11.0039 19.9912s-10.666 17.666 -9.99902 24.999c-1.33301 10.667 -3.16602 18.834 -5.49902 24.501s-5.66602 12.5 -9.99902 20.5s-8.5 17.667 -12.5 29c-6.66699 19.333 -13.667 36 -21 50s-15 32.333 -23 55c-10 27.333 -16 41 -18 41
c-2 -1.33301 -4.33301 -5.33301 -7 -12c-4 -13.333 -7.83301 -43.166 -11.5 -89.499s-7.83398 -77.5 -12.501 -93.5c-2.66699 -11.333 -5.66699 -25 -9 -41c-4.66699 -21.333 -9.33398 -36.333 -14.001 -45s-17.334 -25 -38.001 -49l-21 -24
c-12 -14 -21.167 -22.333 -27.5 -25s-20.166 -3.66699 -41.499 -3c-31.333 0.666992 -52.333 5.33398 -63 14.001c-8.66699 6.66699 -13.834 14.5 -15.501 23.5s-3.16699 33.167 -4.5 72.5c-1.33301 54 0 81 4 81s10 -4.83301 18 -14.5s12 -16.5 12 -20.5
c0 -4.66699 2 -7 6 -7c4.66699 0 7.66699 -5.33301 9 -16c1.33301 -14 8.66602 -20.5 21.999 -19.5s26 9.16699 38 24.5c14.667 17.333 25 37.166 31 59.499s10.333 58.833 13 109.5c4 58 7 88.667 9 92c6 9.33301 10.667 70.333 14 183c2.66699 61.333 6.66699 99 12 113
c5.33301 12.667 14.5 21.334 27.5 26.001s27.5 5 43.5 1c13.333 -4 21.833 -9.16699 25.5 -15.5s7.5 -22.166 11.5 -47.499c4 -20 11 -42.167 21 -66.5s18 -47.166 24 -68.499l27.5 -83c14.333 -43.333 25.166 -77.666 32.499 -102.999c7.33301 -26 14 -40.667 20 -44
c5.33301 -4 8 -8 8 -12c0 -17.333 13 -4.66602 39 38.001c36.667 61.333 69.334 129 98.001 203c6.66699 18.667 13.167 33.167 19.5 43.5s12.5 23.833 18.5 40.5c2.66699 9.33301 6.16699 17.833 10.5 25.5s7.5 14.334 9.5 20.001s3 13.167 3 22.5c-3.33301 28 6 49 28 63
c30 18.667 55.333 16.5 76 -6.5s22.667 -50.833 6 -83.5c-5.33301 -8.66699 -9 -27.667 -11 -57s-4.66699 -48 -8 -56c-5.33301 -12 -11 -67 -17 -165s-7.66699 -156.667 -5 -176c2.66699 -20 7 -34 13 -42c4.66699 -6 8.33398 -9 11.001 -9s9 2.66699 19 8
c24.667 14.667 45.334 16.667 62.001 6s24.667 -30.334 24 -59.001c-1.33301 -25.333 -11.5 -46.5 -30.5 -63.5s-42.833 -25.5 -71.5 -25.5c-19.333 0 -39.666 8 -60.999 24s-38.666 36.667 -51.999 62c-6.66699 12.667 -12.167 37.834 -16.5 75.501
s-5.83301 74.167 -4.5 109.5c2.66699 38.667 2.66699 58 0 58c-1.33301 0 -9.16602 -14.833 -23.499 -44.5s-21.5 -46.167 -21.5 -49.5c-0.666992 -3.33301 -9.66699 -19.166 -27 -47.499s-26 -46.166 -26 -53.499c-3.33301 -14 -12.333 -27 -27 -39
s-27.667 -16.667 -39 -14c-32.667 7.33301 -49 16.333 -49 27z" />
    <glyph glyph-name="N" unicode="N" horiz-adv-x="801" 
d="M666 688c18 0 37.6689 -8.16895 59.002 -24.502s34.333 -33.5 39 -51.5c4.66699 -17.333 6.66699 -29.833 6 -37.5s-5 -18.167 -13 -31.5c-8.66699 -14.667 -19.834 -22.5 -33.501 -23.5s-26.834 4.83301 -39.501 17.5l-17 17
c-18.667 -37.333 -28.334 -60.333 -29.001 -69c0 -8 -2.33301 -14.333 -7 -19c-5.33301 -5.33301 -8.66602 -48 -9.99902 -128c-1.33301 -86 -3.66602 -159.333 -6.99902 -220c-2.66699 -45.333 -5.16699 -74.166 -7.5 -86.499s-8.16602 -25.5 -17.499 -39.5
c-23.333 -34.667 -47.666 -52 -72.999 -52c-11.333 0 -26.5 6.16699 -45.5 18.5s-29.833 23.5 -32.5 33.5c-4.66699 14 -13.5 34.5 -26.5 61.5s-21.167 41.5 -24.5 43.5c-8 9.33301 -16.5 21.5 -25.5 36.5s-20.333 35 -34 60s-21.167 38.5 -22.5 40.5
c-35.333 53.333 -57 83.333 -65 90c-2.66699 0 -4 -13 -4 -39c0 -84.667 -4.66699 -166 -14 -244c-2.66699 -22.667 -8.83398 -43.834 -18.501 -63.501s-19.834 -31.834 -30.501 -36.501c-13.333 -6 -35.666 -8.66699 -66.999 -8s-51.666 4.33398 -60.999 11.001
c-6.66699 4.66699 -10.834 11.167 -12.501 19.5s-2.5 29.166 -2.5 62.499v71c6.66699 -7.33301 21 -24.666 43 -51.999c7.33301 -9.33301 16.833 -14 28.5 -14s19.167 4.33301 22.5 13c8.66699 30 14.667 204.333 18 523c0 4.66699 7.16699 9.66699 21.5 15s27.833 8 40.5 8
c13.333 -0.666992 23.666 -4.5 30.999 -11.5s13.333 -19.5 18 -37.5c10.667 -34.667 20.167 -60.5 28.5 -77.5s20.166 -33.167 35.499 -48.5c52.667 -55.333 83.667 -92.333 93 -111c2.66699 -5.33301 12.834 -19.666 30.501 -42.999l51 -66
c16.333 -20.667 24.833 -30.667 25.5 -30c0.666992 3.33301 1.66699 33.666 3 90.999s3.16602 112.833 5.49902 166.5s4.83301 82.167 7.5 85.5c4.66699 24.667 5.66699 39.334 3 44.001c-2.66699 8.66699 -1 14.334 5 17.001c6 4 11.667 14.667 17 32
c1.33301 14 15.5 32 42.5 54s48.833 33 65.5 33z" />
    <glyph glyph-name="O" unicode="O" horiz-adv-x="702" 
d="M127 302c0 -58 20 -106.002 60 -144.002s87.667 -54 143 -48c46 4.66699 79 20.667 99 48c16.667 23.333 27 42.833 31 58.5s6 46.167 6 91.5c0 38 -0.833008 62.833 -2.5 74.5s-5.83398 21.834 -12.501 30.501c-15.333 22 -39.333 27.667 -72 17
c-45.333 -16 -81.166 -24.333 -107.499 -25s-56.166 4.33301 -89.499 15c-10.667 6 -20.334 7.66699 -29.001 5c-5.33301 -2 -11 -17.167 -17 -45.5s-9 -54.166 -9 -77.499zM244 526.998c4 0.666992 13.332 -0.332031 27.999 -2.99902s22.334 -2.33398 23.001 0.999023
c0 5.33301 -5.83301 9.83301 -17.5 13.5s-23.167 5.16699 -34.5 4.5s-17.333 -3.66699 -18 -9c0 -4.66699 6.33301 -7 19 -7zM546.999 139.999c0 -10.667 -14.998 -30.167 -44.998 -58.5s-54 -45.833 -72 -52.5c-90.667 -34.667 -170.334 -34 -239.001 2
c-72.667 36.667 -123 97.334 -151 182.001c-8 24 -11.167 61.333 -9.5 112s7.83398 91.334 18.501 122.001c33.333 101.333 66.333 164.333 99 189c8 6 18 9.83301 30 11.5s34.667 2.5 68 2.5c39.333 0 63.666 -1 72.999 -3s22 -8.66699 38 -20
c41.333 -30.667 76.333 -30.667 105 0c7.33301 10 22.166 19.5 44.499 28.5s42.833 14.833 61.5 17.5c10.667 0.666992 26.167 -4.33301 46.5 -15s34.5 -21.334 42.5 -32.001c20.667 -27.333 20 -51 -2 -71c-7.33301 -6.66699 -14.833 -11 -22.5 -13
s-21.834 -2.66699 -42.501 -2c-31.333 1.33301 -51.333 -1.33398 -60 -8.00098c-6.66699 -4.66699 -10 -9.16699 -10 -13.5s3 -15.5 9 -33.5c8.66699 -26 19 -48 31 -66c8 -12.667 12.667 -23.667 14 -33s2 -32.333 2 -69c0 -21.333 -1.66699 -42.666 -5 -63.999
s-7.66602 -42.833 -12.999 -64.5s-9 -37.834 -11 -48.501z" />
    <glyph glyph-name="P" unicode="P" horiz-adv-x="717" 
d="M368 415c-17.333 0 -33.833 -3.66309 -49.5 -10.9961s-22.167 -14.333 -19.5 -21c2.66699 -8 4 -18.333 4 -31c0 -14 6.33301 -24 19 -30c31.333 -17.333 63.333 -20 96 -8c13.333 5.33301 38.666 8.66602 75.999 9.99902c31.333 0 48.333 3.66699 51 11
c2.66699 6.66699 -3 20.167 -17 40.5s-28.333 35.166 -43 44.499c-14 9.33301 -29.667 14.166 -47 14.499s-30.666 -3.83398 -39.999 -12.501c-6 -4.66699 -16 -7 -30 -7zM227 -45.9961c-4 -0.666992 -13.9951 -5.83105 -29.9951 -15.498s-29.333 -13.834 -40 -12.501
c-16 0 -33.333 3 -52 9s-29 11.667 -31 17c-1.33301 2.66699 -3.83301 5.5 -7.5 8.5s-7.33398 5.66699 -11.001 8s-8.33398 5 -14.001 8s-9.5 5.16699 -11.5 6.5v113c0.666992 26 1.33398 46.333 2.00098 61s1.66699 26 3 34s2.66602 13.167 3.99902 15.5
s3.66602 3.83301 6.99902 4.5c16 2.66699 28.667 -6.66602 38 -27.999s10.333 -44 3 -68c-8.66699 -30.667 -2 -52.334 20 -65.001c28.667 -17.333 50 -17.333 64 0c18 19.333 27.333 73.666 28 162.999c0 14.667 0.166992 32.5 0.5 53.5s0.666016 38.167 0.999023 51.5
s0.5 22.333 0.5 27c1.33301 24 0.333008 40.5 -3 49.5s-11 15.833 -23 20.5c-24.667 10.667 -46.167 29.667 -64.5 57s-25.5 51.333 -21.5 72c3.33301 14.667 9 26 17 34s21 14.333 39 19c18 5.33301 48.167 11.166 90.5 17.499s64.833 8.5 67.5 6.5
c1.33301 -0.666992 21.5 -5.16699 60.5 -13.5s60.167 -13.833 63.5 -16.5c17.333 -8.66699 40.333 3.33301 69 36c9.33301 10.667 27.166 25 53.499 43s46.5 29.333 60.5 34c20.667 7.33301 38.667 5.83301 54 -4.5s23 -26.166 23 -47.499c0 -15.333 -5 -29.5 -15 -42.5
s-21 -19.5 -33 -19.5c-8 0 -23.667 -10.333 -47 -31c-16 -14.667 -25 -24 -27 -28s0 -9.33301 6 -16c4.66699 -6 8.83398 -12.833 12.501 -20.5s9.83398 -16.5 18.501 -26.5c31.333 -38.667 52.333 -70 63 -94s13.667 -47.333 9 -70
c-2.66699 -11.333 -13.834 -25.5 -33.501 -42.5s-36.834 -27.167 -51.501 -30.5c-31.333 -8 -74.5 -17.667 -129.5 -29s-90.167 -17 -105.5 -17c-20.667 0 -34 -4.5 -40 -13.5s-10.667 -29.5 -14 -61.5c-4 -38 -9.33301 -66.667 -16 -86
c-6.66699 -17.333 -16 -33.333 -28 -48s-21.667 -22 -29 -22z" />
    <glyph glyph-name="Q" unicode="Q" horiz-adv-x="751" 
d="M352 94c-4.66699 6.66699 -14.667 8.66504 -30 5.99805c-14 -3.33301 -17 -9 -9 -17c4.66699 -2 10.167 -2.66699 16.5 -2s12 2.33398 17 5.00098s6.83301 5.33398 5.5 8.00098zM482 296.998c1.33301 14 -4.33203 43.333 -16.999 88s-19 67.667 -19 69
c0 6.66699 -8.33301 14.667 -25 24c-40 24 -92.667 25.667 -158 5c-45.333 -14 -78.5 -34.167 -99.5 -60.5s-31.167 -60.5 -30.5 -102.5c0.666992 -40 9 -79.5 25 -118.5s31.667 -58.5 47 -58.5c5.33301 0 17.333 8 36 24c17.333 16 35.666 25.667 54.999 29
c18 2.66699 40.667 1.5 68 -3.5s50.333 -12.167 69 -21.5c20 -9.33301 30.667 -13.333 32 -12c2.66699 2.66699 6.16699 21.5 10.5 56.5s6.5 62.167 6.5 81.5zM117.002 54.998c-0.666992 1.33301 -4.82812 6.00293 -12.4951 14.0029s-14.834 16.333 -21.501 25
s-9.33398 15 -8.00098 19c0 10 -4 20 -12 30c-12 16 -20 33.667 -24 53s-6.33301 50.666 -7 93.999l-2 87c36.667 71.333 59.334 110 68.001 116c3.33301 2 16.5 12.667 39.5 32s39.167 30 48.5 32c63.333 14.667 102.666 24.667 117.999 30
c26.667 10.667 63.5 9.5 110.5 -3.5s78.5 -31.167 94.5 -54.5c16 -20.667 31 -39 45 -55c18 -20.667 25.667 -35.667 23 -45c-2.66699 -10.667 -2.33398 -20.667 0.999023 -30c9.33301 -24.667 13 -66 11 -124s-9 -102.667 -21 -134
c-9.33301 -25.333 -13.333 -41.166 -12 -47.499s8.66602 -9.16602 21.999 -8.49902c16 1.33301 32.667 7.66602 50 18.999c32.667 20.667 58.667 23.5 78 8.5s21 -39.167 5 -72.5c-10.667 -23.333 -29.5 -43.5 -56.5 -60.5s-53.167 -25.5 -78.5 -25.5c-24 0 -59 12 -105 36
c-9.33301 5.33301 -18.833 8.5 -28.5 9.5s-18.167 0.333008 -25.5 -2l-27.5 -9c-11 -3.66699 -20.167 -6.16699 -27.5 -7.5c-18.667 -5.33301 -42 -8 -70 -8s-44.667 2.33301 -50 7c-5.33301 5.33301 -11 6.66602 -17 3.99902
c-6.66699 -2.66699 -26.334 6.66602 -59.001 27.999s-49 35.666 -49 42.999z" />
    <glyph glyph-name="R" unicode="R" horiz-adv-x="911" 
d="M476 485c-18.667 9.33301 -33.1689 15.333 -43.502 18s-27.166 3.66699 -50.499 3c-53.333 0 -83.333 -9.66699 -90 -29c-4 -21.333 -2.33301 -71.666 5 -150.999c32 -9.33301 79.167 -8.5 141.5 2.5s98.833 24.167 109.5 39.5c4 7.33301 3.83301 20.166 -0.5 38.499
s-10.833 32.833 -19.5 43.5c-5.33301 7.33301 -22.666 19 -51.999 35zM746.998 136c6.66699 0 11.166 1.83789 13.499 5.50488s4.16602 11.5 5.49902 23.5c2.66699 18 9.66699 32.833 21 44.5s24.666 17.5 39.999 17.5c12.667 0 25.334 -7.16699 38.001 -21.5
s17.667 -26.833 15 -37.5c-1.33301 -5.33301 -2.33301 -14.833 -3 -28.5s-2 -25.834 -4 -36.501s-5.33301 -18.334 -10 -23.001c-3.33301 -3.33301 -11 -13 -23 -29c-10 -15.333 -37.667 -25.166 -83 -29.499s-70.333 0.166992 -75 13.5c-2 6.66699 -6.33301 10 -13 10
s-15.5 8 -26.5 24s-20.167 33.667 -27.5 53c-10 23.333 -20.667 42 -32 56c-10 12 -17.667 19 -23 21s-18.333 2.33301 -39 1c-30.667 -1.33301 -52 1.66699 -64 9c-10.667 5.33301 -27.167 7.83301 -49.5 7.5s-43.166 -3.83301 -62.499 -10.5c-4 -2 -11.5 -4 -22.5 -6
s-19.5 -4.83301 -25.5 -8.5s-8.66699 -9.83398 -8 -18.501c0 -10.667 -4 -31.834 -12 -63.501s-13.667 -48.167 -17 -49.5c-2.66699 -1.33301 -12.334 -10 -29.001 -26c-10.667 -10.667 -19.667 -17.334 -27 -20.001s-19.333 -4 -36 -4c-26.667 0 -48.667 5.66699 -66 17
s-33.333 30 -48 56c-16 28.667 -24 55.667 -24 81c0 26 4.5 44.333 13.5 55s22.833 14.334 41.5 11.001c16 -3.33301 29.333 -10.666 40 -21.999s17.334 -26 20.001 -44c3.33301 -23.333 8 -32.333 14 -27c10 9.33301 17.667 51 23 125c2 24.667 3.16699 45.167 3.5 61.5
s0.5 28.666 0.5 36.999s-0.333008 23 -1 44l-2 61.5c-1.33301 39.333 -1.33301 63.5 0 72.5s5.66602 17.5 12.999 25.5c10.667 11.333 31.334 20 62.001 26c14 3.33301 27.167 7.33301 39.5 12s23.166 7.16699 32.499 7.5s29.333 0.5 60 0.5
c34 0.666992 58.667 -0.333008 74 -3s31.333 -8.33398 48 -17.001s33 -15.667 49 -21c30.667 -11.333 51.5 -20.833 62.5 -28.5s22.833 -20.834 35.5 -39.501c15.333 -22.667 21.666 -43 18.999 -61c-7.33301 -56 -19 -96.333 -35 -121
c-15.333 -21.333 -20.666 -33.333 -15.999 -36c1.33301 -0.666992 3.33301 -1 6 -1c4.66699 0 18.834 -14.667 42.501 -44s37.167 -49 40.5 -59l5.5 -16.5c3 -9 6.33301 -15.667 10 -20s8.83398 -6.5 15.501 -6.5z" />
    <glyph glyph-name="S" unicode="S" horiz-adv-x="620" 
d="M344 220c-4.66699 0 -15 5.66504 -31 16.998c-26.667 17.333 -40 21.333 -40 12c0 -3.33301 1.66699 -8.66602 5 -15.999c11.333 -27.333 6.33301 -51.666 -15 -72.999c-10 -9.33301 -13.667 -15.333 -11 -18c2.66699 -2 17 -6.33301 43 -13
c24.667 -6.66699 47.167 -5.66699 67.5 3s30.833 21.667 31.5 39c0 5.33301 -7 14.833 -21 28.5s-23.667 20.5 -29 20.5zM121 368.998c-0.666992 3.33301 -3.66602 12.6689 -8.99902 28.002s-9.16602 29.166 -11.499 41.499s-3.5 27.166 -3.5 44.499
c0 28.667 1.16699 46.667 3.5 54s10.5 19.333 24.5 36c16 19.333 39 37.5 69 54.5s58 25.5 84 25.5c47.333 0 82.666 -9.33301 105.999 -28c4.66699 -4 10.667 -8.33301 18 -13s12.666 -8.5 15.999 -11.5s7.33301 -7.16699 12 -12.5s8.5 -12 11.5 -20s6.16699 -18 9.5 -30
c10.667 -35.333 17.667 -53 21 -53c4 0 7.33301 9.33301 10 28c4 24 16.833 40.833 38.5 50.5s40.167 6.83398 55.5 -8.49902c9.33301 -9.33301 14 -28 14 -56c0 -32 -3.5 -56.833 -10.5 -74.5s-20.167 -34.834 -39.5 -51.501c-18 -14.667 -31.833 -23.167 -41.5 -25.5
s-27.5 -0.833008 -53.5 4.5c-19.333 4 -33.5 12 -42.5 24s-20.167 38 -33.5 78c-11.333 33.333 -23.333 56.166 -36 68.499s-30.334 18.5 -53.001 18.5c-40.667 0 -61 -8 -61 -24c0 -7.33301 -2.66699 -11 -8 -11s-6.66602 -9.33301 -3.99902 -28
c2.66699 -21.333 14.834 -42.166 36.501 -62.499s48.5 -36.5 80.5 -48.5l38.5 -14.5l38.5 -14.5c18 -6.66699 41.667 -25.334 71 -56.001c21.333 -21.333 34.666 -36.333 39.999 -45s9 -22 11 -40c2.66699 -24.667 0.666992 -45 -6 -61s-21.334 -36 -44.001 -60
c-33.333 -31.333 -54 -49.166 -62 -53.499s-28.667 -8.16602 -62 -11.499c-70.667 -10.667 -134 -5.16699 -190 16.5s-95 55.834 -117 102.501c-8.66699 17.333 -12.834 43 -12.501 77s4.83301 56 13.5 66c20.667 23.333 50.334 36.666 89.001 39.999
c22.667 2.66699 34.667 5.66699 36 9c0.666992 2.66699 -3 7.16699 -11 13.5l-24.5 19c-8.33301 6.33301 -12.166 11.166 -11.499 14.499z" />
    <glyph glyph-name="T" unicode="T" horiz-adv-x="731" 
d="M575 647c0 18.667 8.66504 36.6719 25.998 54.0049c12.667 12 32.5 10.333 59.5 -5s40.5 -33 40.5 -53c0 -13.333 -6 -30.166 -18 -50.499s-27.333 -39.833 -46 -58.5c-15.333 -14.667 -27 -24 -35 -28s-21 -7 -39 -9c-32.667 -2.66699 -62.667 -2.66699 -90 0
c-23.333 1.33301 -37.833 1.5 -43.5 0.5s-10.5 -5.16699 -14.5 -12.5c-5.33301 -10.667 -7 -27.667 -5 -51c1.33301 -6.66699 4 -41.834 8 -105.501s7.66699 -100.5 11 -110.5c2.66699 -4.66699 3.33398 -12.167 2.00098 -22.5s0 -17.166 4 -20.499
c5.33301 -6.66699 6 -11.334 2 -14.001c-4.66699 -2.66699 -5.66699 -21 -3 -55c1.33301 -24.667 1.16602 -40.334 -0.500977 -47.001s-7.16699 -14.334 -16.5 -23.001c-28 -26 -56.667 -26 -86 0c-12.667 11.333 -19.667 23 -21 35s1 45.333 7 100
c4 40 5.83301 69.5 5.5 88.5s-3.16602 48.833 -8.49902 89.5c-9.33301 67.333 -16 107.333 -20 120c-3.33301 13.333 -6.83301 21.833 -10.5 25.5s-11.5 6.16699 -23.5 7.5c-17.333 2.66699 -36 2.66699 -56 0c-27.333 -3.33301 -70.333 8.66699 -129 36
c-12 5.33301 -22.5 16 -31.5 32s-13.5 31.667 -13.5 47c0 23.333 18.333 48.333 55 75c36.667 27.333 59 31.666 67 12.999c8 -20 5.66699 -35 -7 -45c-17.333 -14 -9.66602 -28.333 23.001 -43c14.667 -6.66699 26.167 -10.334 34.5 -11.001s22.833 0.666016 43.5 3.99902
c42.667 8 120.667 7.33301 234 -2c24.667 -2 46.667 1 66 9s29 18 29 30z" />
    <glyph glyph-name="U" unicode="U" horiz-adv-x="850" 
d="M191 130c0 4 -5.66504 13.668 -16.998 29.001c-16 21.333 -26.5 48.333 -31.5 81s-12.833 130.667 -23.5 294c-0.666992 8 -3.33398 13.167 -8.00098 15.5s-17 3.83301 -37 4.5l-44 2v97h140c28.667 -24 49.667 -54.667 63 -92c7.33301 -20 11.5 -37.167 12.5 -51.5
s0.166992 -44.5 -2.5 -90.5c-3.33301 -60 -5 -99.667 -5 -119c0 -44 14.667 -80.667 44 -110c12 -12 21.333 -19.333 28 -22s19 -4 37 -4c14.667 -0.666992 25.667 0.333008 33 3s14.166 6.66699 20.499 12s13.166 9.66602 20.499 12.999c9.33301 4 17.166 10.667 23.499 20
s12.5 20.833 18.5 34.5s11 23.5 15 29.5c6.66699 11.333 11.167 24.833 13.5 40.5s5.83301 28.5 10.5 38.5c6.66699 15.333 10.334 54 11.001 116c1.33301 60.667 3.66602 91 6.99902 91c4.66699 0 7 3 7 9c0 24.667 19.667 47 59 67c20 10 38.833 16.667 56.5 20
s28.834 2.33301 33.501 -3c1.33301 -2 11.333 -6.33301 30 -13c12 -4 20.167 -5.83301 24.5 -5.5s9.83301 3.5 16.5 9.5c21.333 20.667 41 19.334 59 -3.99902c10 -12.667 14.667 -27.667 14 -45s-6 -33.666 -16 -48.999c-9.33301 -14 -21.333 -22.5 -36 -25.5
s-37 -1.5 -67 4.5c-27.333 6 -45.5 5.83301 -54.5 -0.5s-16.5 -24.166 -22.5 -53.499c-6.66699 -29.333 -9.33398 -52 -8.00098 -68c0.666992 -14.667 -4 -42.834 -14 -84.501s-18.667 -69.167 -26 -82.5c-9.33301 -17.333 -16.666 -34 -21.999 -50
c-21.333 -68 -58.666 -109.667 -111.999 -125c-25.333 -8.66699 -41 -15 -47 -19c-10 -6.66699 -34.5 -4.83398 -73.5 5.49902s-62.5 19.166 -70.5 26.499c-40 27.333 -60 45.333 -60 54z" />
    <glyph glyph-name="V" unicode="V" horiz-adv-x="817" 
d="M643 550c-6 -10.667 -9.99609 -23.3242 -11.9961 -37.9912s-5 -26.667 -9 -36c-4 -8.66699 -10.167 -29.667 -18.5 -63s-13.166 -52.333 -14.499 -57c-4.66699 -14 -13.5 -37.333 -26.5 -70s-23.333 -62.167 -31 -88.5s-12.834 -52.5 -15.501 -78.5
c-2.66699 -24.667 -6.5 -42.167 -11.5 -52.5s-14.167 -18.833 -27.5 -25.5c-13.333 -7.33301 -28.666 -8.33301 -45.999 -3c-10.667 3.33301 -17.334 6.5 -20.001 9.5s-5.66699 7.5 -9 13.5s-8.66602 12.333 -15.999 19c-9.33301 10 -23 32.167 -41 66.5s-32 64.5 -42 90.5
c-20.667 53.333 -34.667 80 -42 80c-3.33301 0 -6.33301 7 -9 21c-0.666992 8 -6 17.833 -16 29.5s-15.667 19.167 -17 22.5c-2 6 -7 15 -15 27s-13.667 23 -17 33c-6.66699 15.333 -16.167 32.166 -28.5 50.499s-23.833 32.833 -34.5 43.5s-17.334 14 -20.001 10
c-0.666992 -0.666992 -6.33398 -8.33398 -17.001 -23.001c-11.333 -14 -16.333 -28.667 -15 -44c0 -6.66699 2 -8.66699 6 -6c2.66699 2 14 1 34 -3c19.333 -5.33301 32.333 -16 39 -32c13.333 -26 6.66602 -51.333 -20.001 -76c-11.333 -10 -19.833 -15.5 -25.5 -16.5
s-19.167 1.83301 -40.5 8.5l-32 9l-4 261c22 23.333 40.667 35 56 35c17.333 0 40.333 -8.33301 69 -25s49 -33.334 61 -50.001c4 -6 11.167 -16 21.5 -30l28 -39.5c8.33301 -12.333 14.166 -22.5 17.499 -30.5c0 -7.33301 29.667 -56.333 89 -147
c24.667 -38 37 -58.667 37 -62c0.666992 -2.66699 2.83398 -6.33398 6.50098 -11.001s8.16699 -9.83398 13.5 -15.501s8.66602 -9.5 9.99902 -11.5c3.33301 9.33301 12.5 33.666 27.5 72.999s25.167 70.666 30.5 93.999c1.33301 10 6.83301 31.5 16.5 64.5
s14.5 56.833 14.5 71.5c0 20.667 11 51.5 33 92.5s38.667 61.5 50 61.5c4.66699 0 7 2.66699 7 8s4.33301 11 13 17c14.667 10.667 33.167 13 55.5 7s42.166 -18.667 59.499 -38c24 -26.667 37.5 -51.167 40.5 -73.5s-0.5 -47.833 -10.5 -76.5
c-4 -20 -13.833 -33.833 -29.5 -41.5s-31.5 -7.83398 -47.5 -0.500977s-27.333 20.666 -34 39.999l-10 29z" />
    <glyph glyph-name="W" unicode="W" horiz-adv-x="962" 
d="M31 419c0 26 0.667969 39.333 2.00098 40c0.666992 0.666992 3 -2.33301 7 -9c11.333 -20.667 11.333 -41.667 0 -63c-4.66699 -8 -7.33398 -10 -8.00098 -6c-0.666992 3.33301 -1 16 -1 38zM782.001 516c4.66699 4.66699 11.333 8.33398 20 11.001s15.334 7 20.001 13
c8 8.66699 9.33301 15.667 4 21s-9.33301 8 -12 8c-10.667 -2.66699 -18.334 -5.83398 -23.001 -9.50098s-8.66699 -10.167 -12 -19.5c-6.66699 -20 -8.66699 -30 -6 -30c1.33301 -0.666992 4.33301 1.33301 9 6zM36 653c2.66699 0 10.3311 -6 22.998 -18
s20.334 -17.667 23.001 -17c8 0 17.667 -8.16699 29 -24.5s20.333 -34.5 27 -54.5c7.33301 -27.333 14.666 -42.333 21.999 -45c4.66699 -1.33301 6.66699 -4.33301 6 -9s1.66602 -7 6.99902 -7c7.33301 0 9.33301 -2.33301 6 -7c-2.66699 -4.66699 -6 -5.66699 -10 -3
c-4.66699 3.33301 -6.33398 1.66602 -5.00098 -5.00098c0.666992 -5.33301 3.66699 -14.333 9 -27c5.33301 -11.333 11.333 -38 18 -80c12 -74 23.667 -114.667 35 -122c2 -1.33301 3.66699 -1 5 1c6.66699 8.66699 19.5 33.667 38.5 75s33.5 75.666 43.5 102.999
c10 29.333 18.667 50.333 26 63c5.33301 6.66699 11.166 23 17.499 49s9.5 46 9.5 60c0 28.667 13 50 39 64s48.667 12 68 -6c12.667 -12.667 19 -22 19 -28c0 -7.33301 1.66699 -11 5 -11s3.33301 -14.333 0 -43c-3.33301 -26 -3.66602 -45.5 -0.999023 -58.5
s11.667 -35.833 27 -68.5c8.66699 -16.667 16.667 -37.334 24 -62.001s13 -42 17 -52c5.33301 -6 9.33301 -5.33301 12 2l5 18c5.33301 18.667 16.833 49 34.5 91s29.167 71.667 34.5 89c21.333 64 43 106.833 65 128.5s58.333 38.5 109 50.5
c9.33301 3.33301 15.833 3.83301 19.5 1.5s8.33398 -6 14.001 -11s10.5 -7.83301 14.5 -8.5c8 0 22.667 -21.333 44 -64c10.667 -20.667 16 -43 16 -67s-5 -45 -15 -63c-9.33301 -17.333 -23.166 -34.833 -41.499 -52.5s-31.833 -26.5 -40.5 -26.5
c-9.33301 0 -21.166 6.16699 -35.499 18.5s-21.5 22.5 -21.5 30.5c0 4.66699 -2 9.83398 -6 15.501s-8.33301 9.33398 -13 11.001s-9 -1.16602 -13 -8.49902c-6.66699 -8 -10 -16.667 -10 -26c0 -8.66699 -8 -28.334 -24 -59.001c-16 -31.333 -29 -75.666 -39 -132.999
c-10 -58.667 -14 -90.667 -12 -96c2.66699 -6 2 -20.667 -2 -44c-5.33301 -29.333 -18.666 -49 -39.999 -59s-44.333 -7.33301 -69 8c-4.66699 2 -8.66699 4.66699 -12 8s-6.33301 7.5 -9 12.5s-4.66699 9 -6 12s-3.16602 7.66699 -5.49902 14s-3.83301 10.5 -4.5 12.5
c-1.33301 3.33301 -6.5 24 -15.5 62s-17.833 65 -26.5 81c-15.333 33.333 -28.333 72.666 -39 117.999c-6 20.667 -14 18.667 -24 -6l-4 -11c-13.333 -40 -41.333 -103.667 -84 -191c-2 -4.66699 -7.16699 -21.167 -15.5 -49.5s-15.166 -45.833 -20.499 -52.5
c-4 -5.33301 -6.83301 -15.666 -8.5 -30.999s-4.16699 -25.333 -7.5 -30l-16 -21c-4.66699 -6.66699 -15.667 -11 -33 -13s-33.333 -0.666992 -48 4c-9.33301 3.33301 -15.833 9.5 -19.5 18.5s-6.83398 27.5 -9.50098 55.5c-2.66699 22.667 -12 71.667 -28 147
s-25.333 123 -28 143c-6.66699 40 -17.334 80.667 -32.001 122c-10 28 -16.5 49.5 -19.5 64.5s-4.5 34.5 -4.5 58.5c0 39.333 2 59 6 59z" />
    <glyph glyph-name="X" unicode="X" horiz-adv-x="850" 
d="M64 632c1.33301 0.666992 14.0029 9.66895 38.0029 27.002s40 24.666 48 21.999c13.333 0 35.333 -6.16699 66 -18.5s50.334 -23.166 59.001 -32.499c48.667 -50.667 77.334 -85.667 86.001 -105c12 -22.667 29.667 -47.667 53 -75
c19.333 42.667 33.666 67.334 42.999 74.001c6 4 23.333 28 52 72c6.66699 10.667 15 20.5 25 29.5s17.667 13.5 23 13.5c7.33301 0.666992 31.666 10.667 72.999 30l23 -14c13.333 -8 31 -13.833 53 -17.5s36.667 -3.16699 44 1.5c6.66699 3.33301 16.667 2 30 -4
c12.667 -7.33301 19 -9 19 -5s3.66699 1 11 -9s10.5 -22.833 9.5 -38.5s-5.5 -29.5 -13.5 -41.5c-6.66699 -8.66699 -12.334 -14 -17.001 -16s-14.667 -2.33301 -30 -1c-28 3.33301 -51.333 7.66602 -70 12.999c-29.333 7.33301 -52 7.16602 -68 -0.500977
s-36.333 -27.834 -61 -60.501c-38.667 -52 -63.667 -98 -75 -138c-4 -9.33301 2 -27.333 18 -54s24.333 -42 25 -46c6 -12 11.667 -18 17 -18c5.33301 -2 14.166 -11.667 26.499 -29s21.833 -27.333 28.5 -30c11.333 -7.33301 21 -19.666 29 -36.999
c22 -47.333 12 -79.666 -30 -96.999c-16.667 -6.66699 -28.334 -9.83398 -35.001 -9.50098s-13.667 4.83301 -21 13.5c-8 9.33301 -15 14 -21 14s-9 4.33301 -9 13c-3.33301 11.333 -11.666 25.666 -24.999 42.999s-22.666 31 -27.999 41c-13.333 24 -21.666 36 -24.999 36
s-6 4.66699 -8 14c-2 7.33301 -7.33301 13.333 -16 18c-7.33301 2.66699 -15.333 -1 -24 -11s-19.667 -28.667 -33 -56l-51 -103c-10.667 -22.667 -20.667 -38 -30 -46s-21.666 -12 -36.999 -12c-26 0 -46 14.667 -60 44c-9.33301 20.667 -13.333 35.5 -12 44.5
s9 20.833 23 35.5c11.333 10.667 20.666 23 27.999 37s15 25.333 23 34c8.66699 9.33301 23.5 30.5 44.5 63.5s35.167 53.833 42.5 62.5c13.333 17.333 20 28 20 32c0 15.333 -24 59 -72 131c-26.667 40 -41.334 58 -44.001 54
c-1.33301 -1.33301 -0.666016 -5.33301 2.00098 -12c2 -6 2.33301 -9 1 -9c-0.666992 0 -2.33398 1.33301 -5.00098 4c-5.33301 4 -8.66602 10 -9.99902 18c1.33301 14 -9.33398 25 -32.001 33s-38.334 5 -47.001 -9c-8.66699 -8.66699 -19.5 -15.167 -32.5 -19.5
s-24.167 -10.833 -33.5 -19.5c-18.667 -16.667 -30.334 -23 -35.001 -19s-7 22.667 -7 56c0 24.667 0.833008 41.5 2.5 50.5s5.5 16.833 11.5 23.5c10 10 16.667 15 20 15z" />
    <glyph glyph-name="Y" unicode="Y" horiz-adv-x="871" 
d="M820 588c1.33301 -2.66699 4.66504 -7.83203 9.99805 -15.499s8.83301 -15.334 10.5 -23.001s1.5 -18.5 -0.5 -32.5c-1.33301 -25.333 -7 -46 -17 -62s-26.333 -30.667 -49 -44c-22 -12.667 -40.333 -17.334 -55 -14.001s-30.667 15.666 -48 36.999
c-17.333 22 -25.333 35.333 -24 40c1.33301 4 10.5 11.167 27.5 21.5s31.167 17.5 42.5 21.5c8.66699 3.33301 12.334 10 11.001 20c-2 15.333 -15.667 17 -41 5c-22.667 -10.667 -42 -26.667 -58 -48c-7.33301 -10 -28.666 -34.667 -63.999 -74
c-28.667 -31.333 -46.667 -53.333 -54 -66s-12.666 -30.667 -15.999 -54c-4 -24.667 -10.333 -45.334 -19 -62.001c-6.66699 -14 -9.5 -30 -8.5 -48s6.83301 -47.667 17.5 -89c9.33301 -36 4.66602 -62.667 -14.001 -80c-5.33301 -5.33301 -10 -8.16602 -14 -8.49902
s-10.333 1.5 -19 5.5c-17.333 7.33301 -31.333 17.166 -42 29.499s-16 24.166 -16 35.499c-0.666992 12 -5 48 -13 108s-12.333 91.667 -13 95c-2 14.667 -13.167 36 -33.5 64s-32.166 45.667 -35.499 53c-4 8 -11.833 19.667 -23.5 35s-18.834 27 -21.501 35
c-1.33301 7.33301 -9.66602 19.666 -24.999 36.999c-11.333 13.333 -20 21.166 -26 23.499s-17.667 3.16602 -35 2.49902c-18 -0.666992 -33.833 -4.33398 -47.5 -11.001s-20.5 -14 -20.5 -22c0 -16.667 21 -24.667 63 -24c25.333 0.666992 42.166 -2.16602 50.499 -8.49902
s12.5 -19.166 12.5 -38.499c0 -15.333 -6.33301 -28 -19 -38c-8.66699 -6.66699 -16.667 -10.5 -24 -11.5s-20 -0.5 -38 1.5c-38 4 -66.667 15 -86 33c-7.33301 6.66699 -11.666 14.834 -12.999 24.501s-2 35.834 -2 78.501v88c31.333 24 65.666 38.667 102.999 44
c22.667 3.33301 37.5 4.66602 44.5 3.99902s16.5 -5 28.5 -13c18 -12 28 -18 30 -18c3.33301 0 16.5 -11.667 39.5 -35s34.5 -36.666 34.5 -39.999s3.66699 -8.66602 11 -15.999c6.66699 -6 16.334 -20.667 29.001 -44c8.66699 -17.333 20.334 -34 35.001 -50
s25.667 -24.333 33 -25c3.33301 0.666992 13 10.334 29 29.001s25.333 28.334 28 29.001c5.33301 3.33301 15.666 16.333 30.999 39c18.667 25.333 56 66.333 112 123c7.33301 8 22.666 16.667 45.999 26c20 7.33301 35 11.333 45 12s20.667 -1.66602 32 -6.99902
c10 -4.66699 25.667 -17.5 47 -38.5s32 -34.167 32 -39.5z" />
    <glyph glyph-name="Z" unicode="Z" horiz-adv-x="732" 
d="M230 684c0 -13.333 -5.49609 -26.6709 -16.4961 -40.0039s-20.833 -18.666 -29.5 -15.999c-8 3.33301 -17.167 -3 -27.5 -19s-12.5 -27.333 -6.5 -34c3.33301 -3.33301 23.666 0 60.999 10c98.667 24 188 32.667 268 26c37.333 -3.33301 58.666 -24 63.999 -62
c1.33301 -14 0.666016 -25.333 -2.00098 -34s-11.334 -26.667 -26.001 -54c-4.66699 -9.33301 -18 -27.166 -40 -53.499s-36.667 -45.833 -44 -58.5c-2.66699 -8 -9.5 -18.5 -20.5 -31.5s-17.5 -21.5 -19.5 -25.5c0 -2.66699 -6.33301 -10.334 -19 -23.001
c-23.333 -23.333 -43.666 -49 -60.999 -77c-11.333 -19.333 -22 -34 -32 -44c-9.33301 -8 -14 -15 -14 -21c1.33301 -4 8.16602 -5.33301 20.499 -4s44.166 6 95.499 14c32.667 5.33301 61.334 5.66602 86.001 0.999023c20 -4 45.5 -4.16699 76.5 -0.5
s46.5 8.83398 46.5 15.501c-0.666992 5.33301 -5.66699 8.5 -15 9.5s-18.333 -0.833008 -27 -5.5c-10.667 -6 -23.334 -6 -38.001 0c-22 8.66699 -35.333 23.334 -40 44.001s0.666016 39.334 15.999 56.001c7.33301 7.33301 14.333 12.333 21 15s17 4 31 4
c86 0 138 -32 156 -96c4.66699 -18 7.16699 -31.167 7.5 -39.5s-1.83398 -20.166 -6.50098 -35.499c-7.33301 -22.667 -15 -38.667 -23 -48c-7.33301 -8.66699 -21.5 -17.5 -42.5 -26.5s-35.5 -12.833 -43.5 -11.5c-8 2.66699 -13.333 2 -16 -2
c-1.33301 -4 -12.333 -4 -33 0c-78 14.667 -181.333 11 -310 -11c-34.667 -6.66699 -59.667 -10 -75 -10c-14 0 -27.667 6.33301 -41 19s-21.333 27.334 -24 44.001c-2 13.333 -1.5 23.166 1.5 29.499s12.833 18.833 29.5 37.5c72 80.667 135 161 189 241
c6.66699 10 19.334 25.667 38.001 47s34 39.666 46 54.999s16.667 25.333 14 30c-4 2.66699 -34.5 0.333984 -91.5 -6.99902s-98.167 -14 -123.5 -20c-33.333 -8.66699 -71.666 3 -114.999 35c-20 14.667 -33 28.667 -39 42s-7.33301 31 -4 53c4 28 11 49.5 21 64.5
s25.333 27.5 46 37.5c25.333 12.667 41 20 47 22c22.667 7.33301 42.334 6.83301 59.001 -1.5s25 -21.833 25 -40.5z" />
    <glyph glyph-name="underscore" unicode="_" horiz-adv-x="60" 
 />
    <glyph glyph-name="grave" unicode="`" horiz-adv-x="182" 
d="M55 522c7.33301 0 25.333 -13.832 54 -41.499s43 -45.167 43 -52.5c0 -14 -8.16699 -24.833 -24.5 -32.5s-30.5 -7.5 -42.5 0.5c-4 2.66699 -15.333 21 -34 55c-11.333 21.333 -18 35.666 -20 42.999s-1 13.333 3 18c5.33301 6.66699 12.333 10 21 10z" />
    <glyph glyph-name="a" unicode="a" horiz-adv-x="556" 
d="M414 99c-0.666992 7.33301 -10.501 11 -29.501 11s-40.167 -3 -63.5 -9c-46.667 -13.333 -69 -26.333 -67 -39c4.66699 -30.667 38.334 -36.667 101.001 -18c24.667 7.33301 41.167 14.833 49.5 22.5s11.5 18.5 9.5 32.5zM299.999 356
c7.33301 0.666992 19.165 3.00195 35.498 7.00195s32.5 6 48.5 6c17.333 0.666992 29.833 -0.333008 37.5 -3s17.167 -9 28.5 -19c40 -35.333 59.667 -95 59 -179c-1.33301 -38.667 4 -96.667 16 -174c2 -12.667 -2.66699 -25.334 -14 -38.001
c-7.33301 -8.66699 -13.833 -13.667 -19.5 -15s-14.834 -1 -27.501 1c-27.333 4.66699 -73 4.66699 -137 0c-29.333 -2 -49.5 -2.33301 -60.5 -1s-23.833 5.33301 -38.5 12c-43.333 18.667 -65.333 53.667 -66 105c-0.666992 18.667 0.833008 33.834 4.5 45.501
s11.167 25.167 22.5 40.5c6 8.66699 29.333 19.167 70 31.5s76.334 20.166 107.001 23.499c26.667 2 42 6 46 12s2.5 21.167 -4.5 45.5s-13.5 36.833 -19.5 37.5c-68 6 -129 -26.333 -183 -97c-13.333 -17.333 -35 -25.5 -65 -24.5s-53.667 10.5 -71 28.5
c-22 23.333 -34.667 45.166 -38 65.499s2.66699 35.833 18 46.5c14.667 10.667 25.834 15 33.501 13s16.5 -10.667 26.5 -26c12.667 -18.667 20.334 -28 23.001 -28c2 0 11.333 6.16699 28 18.5s27.667 17.833 33 16.5c6 0 23.667 8.33301 53 25s47.333 24.667 54 24z" />
    <glyph glyph-name="b" unicode="b" horiz-adv-x="535" 
d="M144 101c0 -4.66699 11.999 -13.168 35.999 -25.501s40.667 -18.5 50 -18.5c8.66699 0 18.834 6.83301 30.501 20.5s16.167 23.834 13.5 30.501c0 4 -9 7.5 -27 10.5s-36.333 5.66699 -55 8s-28.667 4.5 -30 6.5c-8 8.66699 -18 10 -30 4c-9.33301 -6 -9.33301 -13 0 -21
c8 -6 12 -11 12 -15zM459.999 285.999c11.333 0 21.667 -4.83203 31 -14.499s14 -20.834 14 -33.501c0 -10.667 -4.5 -22.667 -13.5 -36s-16.833 -20 -23.5 -20c-10.667 0 -24.5 -9.5 -41.5 -28.5s-28.833 -38.167 -35.5 -57.5c-9.33301 -26 -15.666 -39 -18.999 -39
c-4 0 -7 -5.66699 -9 -17c-7.33301 -30 -33.5 -58.167 -78.5 -84.5s-86.167 -28.5 -123.5 -6.5c-11.333 7.33301 -20.333 10.833 -27 10.5s-13.667 -4.83301 -21 -13.5c-14 -16 -32.667 -15.333 -56 2c-13.333 9.33301 -21.333 18.5 -24 27.5s-3.66699 29.833 -3 62.5
c1.33301 44 1.66602 143.667 0.999023 299c-0.666992 80 -0.5 131.333 0.5 154s3.83301 35.334 8.5 38.001c16 10 32 6.66699 48 -10c7.33301 -8 12.333 -17.333 15 -28s4.66699 -31.667 6 -63c2.66699 -48 5 -73 7 -75c5.33301 -4 19.333 -6 42 -6s39 2 49 6
c16 7.33301 29.5 10.333 40.5 9s26.833 -7.33301 47.5 -18c37.333 -18.667 64.666 -43.667 81.999 -75c3.33301 -6 6.83301 -8.83301 10.5 -8.5s12.167 4.16602 25.5 11.499c18.667 9.33301 34.334 14 47.001 14z" />
    <glyph glyph-name="c" unicode="c" horiz-adv-x="535" 
d="M341 340c1.33301 -2 5.49512 -3.83105 12.4951 -5.49805s11.167 -4.5 12.5 -8.5c2.66699 -6 8 -6 16 0c2.66699 0.666992 7.66699 3.5 15 8.5s13.833 8.83301 19.5 11.5s12.667 4.66699 21 6s14.833 -0.666992 19.5 -6c20.667 -13.333 26.5 -36.166 17.5 -68.499
s-27.5 -54.833 -55.5 -67.5c-18.667 -8.66699 -38.334 -13 -59.001 -13c-12 0 -21 1.66699 -27 5s-14.667 11.333 -26 24c-18 19.333 -27 31.333 -27 36c-0.666992 8 -7.16699 17.5 -19.5 28.5s-24.166 17.5 -35.499 19.5c-14 4.66699 -29.667 0.333984 -47 -12.999
s-29 -26.333 -35 -39c-6 -15.333 -11 -42 -15 -80s-4.66699 -68 -2 -90c2.66699 -20 5.33398 -32.333 8.00098 -37s10.334 -9 23.001 -13c16 -5.33301 36.333 -4.66602 61 2.00098c22.667 7.33301 34 14 34 20c0 9.33301 10.5 23.666 31.5 42.999s43.167 35 66.5 47
c26 13.333 46.833 20.166 62.5 20.499s32.5 -5.5 50.5 -17.5c12.667 -8.66699 23.834 -22.334 33.501 -41.001s11.834 -30.667 6.50098 -36s-8 -12 -8 -20c0 -11.333 -6.66699 -19.833 -20 -25.5s-30.666 -7.16699 -51.999 -4.5c-17.333 2 -28.833 2.33301 -34.5 1
s-12.167 -6.66602 -19.5 -15.999c-28 -34 -47.667 -54.833 -59 -62.5s-30 -13.5 -56 -17.5c-46.667 -6.66699 -87.167 -3.16699 -121.5 10.5s-59.833 36.167 -76.5 67.5c-13.333 25.333 -21.5 61.666 -24.5 108.999s0.166992 88.666 9.5 123.999
c11.333 42.667 25.5 74.667 42.5 96s42.5 38.666 76.5 51.999c28.667 11.333 52.5 15.833 71.5 13.5s40.833 -11.833 65.5 -28.5c28 -19.333 42.667 -31 44 -35z" />
    <glyph glyph-name="d" unicode="d" horiz-adv-x="595" 
d="M453 87c0 64.667 -1.66406 98.335 -4.99707 101.002c-3.33301 -0.666992 -11.333 -4.66699 -24 -12s-22 -11 -28 -11c-4 -0.666992 -8.83301 -1.83398 -14.5 -3.50098s-9.66699 -2.66699 -12 -3s-5.83301 -0.5 -10.5 -0.5s-9.83398 0.5 -15.501 1.5
s-12.834 2.5 -21.501 4.5c-28.667 6.66699 -44.334 7.66699 -47.001 3c-2.66699 -4 1.33301 -16.667 12 -38s21 -37.333 31 -48c8.66699 -9.33301 17.5 -14.333 26.5 -15s29.167 2.66602 60.5 9.99902zM450.003 540.001c7.33301 14.667 14.0039 23.6719 20.0039 27.0049
s16.667 1 32 -7c10 -6 17 -14 21 -24s7.16699 -26.833 9.5 -50.5s4.83301 -65.834 7.5 -126.501c7.33301 -177.333 14.666 -281.333 21.999 -312c7.33301 -36.667 4.66602 -65 -8.00098 -85c-6.66699 -8.66699 -17.667 -15 -33 -19c-12 -2.66699 -21.833 -1.16699 -29.5 4.5
s-16.834 17.5 -27.501 35.5c-2.66699 5.33301 -6.33398 8 -11.001 8s-14.667 -3.33301 -30 -10c-10 -4 -17.833 -6.83301 -23.5 -8.5s-9.83398 -2.5 -12.501 -2.5s-7.5 -0.333008 -14.5 -1s-15.167 -1.66699 -24.5 -3c-43.333 -10 -78.333 2.33301 -105 37
c-7.33301 8 -14 17.5 -20 28.5s-11.667 23.333 -17 37s-9.66602 23.5 -12.999 29.5c-4.66699 5.33301 -7 30.333 -7 75c0.666992 31.333 0.333984 50.166 -0.999023 56.499s-6 10.5 -14 12.5c-14.667 4 -44.667 1.33301 -90 -8c-9.33301 -2 -16.166 -2 -20.499 0
s-9.83301 7.33301 -16.5 16c-8.66699 12 -13.334 22 -14.001 30s1.66602 17.333 6.99902 28c8.66699 15.333 30.667 25.666 66 30.999s67.666 3 96.999 -7c18 -7.33301 28.333 -9 31 -5c9.33301 13.333 35.333 26.166 78 38.499s79 17.833 109 16.5l39 -2
c3.33301 27.333 1.33301 58.666 -6 93.999c-7.33301 28.667 -7.66602 50.667 -0.999023 66z" />
    <glyph glyph-name="e" unicode="e" horiz-adv-x="476" 
d="M178 259c0 -4.66699 9.33203 -8.83203 27.999 -12.499s31.334 -3.83398 38.001 -0.500977c15.333 10 11.333 16 -12 18c-27.333 2 -45.333 0.333008 -54 -5zM73.999 322.002c-0.666992 4.66699 3.83594 12.1621 13.5029 22.4951s14.5 16.833 14.5 19.5
c0 4.66699 3.66699 10.167 11 16.5s13.666 9.5 18.999 9.5c6.66699 0 17.334 3.66699 32.001 11c12.667 6.66699 31 9.16699 55 7.5s47.333 -6.83398 70 -15.501c14.667 -6 26.5 -7.66699 35.5 -5s13.5 9.33398 13.5 20.001c0 6.66699 8 18 24 34
c14.667 16.667 30.667 25 48 25c10.667 0 17.834 -1.16699 21.501 -3.5s7.16699 -7.16602 10.5 -14.499c6.66699 -17.333 5.5 -38.333 -3.5 -63s-22.167 -43.667 -39.5 -57c-8 -6 -12 -13.167 -12 -21.5s4.33301 -20.833 13 -37.5c30.667 -60.667 25 -100.667 -17 -120
c-11.333 -5.33301 -21 -8.16602 -29 -8.49902s-24 1.5 -48 5.5c-36 6.66699 -54.333 11.334 -55 14.001c-2.66699 6 -26.334 3.33301 -71.001 -8c-17.333 -4 -27 -10 -29 -18s2.66699 -22.333 14 -43c9.33301 -17.333 18.5 -28.666 27.5 -33.999s23.5 -8 43.5 -8
c12.667 0 22.167 1.33301 28.5 4s13.166 8.33398 20.499 17.001c12 13.333 18 21.666 18 24.999c0 5.33301 5.5 10.333 16.5 15s22.833 7.33398 35.5 8.00098c34.667 0 52 -15.333 52 -46c0 -42.667 -30 -82.334 -90 -119.001c-14 -8.66699 -26.167 -14 -36.5 -16
s-30.5 -3 -60.5 -3c-38 0.666992 -65.333 4.5 -82 11.5s-37.334 23.833 -62.001 50.5c-15.333 16.667 -25 31.334 -29 44.001s-8.66699 41 -14 85c-4.66699 37.333 -2.33398 74.333 6.99902 111c8.66699 34.667 16.667 55.667 24 63c6.66699 6.66699 10 14 10 22z" />
    <glyph glyph-name="f" unicode="f" horiz-adv-x="577" 
d="M389 543c8.66699 0 12.9951 -2.66895 12.9951 -8.00195c0.666992 -3.33301 4.16699 -4.83301 10.5 -4.5s14.833 2.5 25.5 6.5s20.334 8.66699 29.001 14c28 16.667 50 15 66 -5c13.333 -17.333 17.333 -37.333 12 -60s-18.666 -42.667 -39.999 -60
c-14 -11.333 -29.667 -19.833 -47 -25.5s-29.666 -6.5 -36.999 -2.5c-3.33301 1.33301 -12.5 3.33301 -27.5 6s-25.167 7 -30.5 13c-22.667 19.333 -43 29 -61 29c-9.33301 0 -18.166 -4.66699 -26.499 -14s-12.5 -18.666 -12.5 -27.999c0 -6 1.66699 -9.5 5 -10.5
s12 -0.5 26 1.5c44 6 66 -9.33301 66 -46c0 -20 -6.16699 -35.667 -18.5 -47s-29.166 -16.333 -50.499 -15l-32 2c4.66699 -172.667 8 -265 10 -277c4.66699 -23.333 2.66699 -40.166 -6 -50.499s-25.334 -15.5 -50.001 -15.5c-12.667 0 -22.667 7 -30 21
c-6 12 -9.33301 24.333 -10 37s-0.333984 59.334 0.999023 140.001c1.33301 73.333 1 117 -1 131c-1.33301 6 -4.83301 9.33301 -10.5 10s-20.5 0 -44.5 -2c-30 -2.66699 -51 -1.33398 -63 3.99902s-19.667 16 -23 32c-3.33301 17.333 -1.16602 28.666 6.50098 33.999
s26.167 9.33301 55.5 12c36.667 3.33301 58.834 6.83301 66.501 10.5s12.834 13.834 15.501 30.501c0.666992 4 1.66699 9.33301 3 16s2.5 12.167 3.5 16.5s1.5 7.5 1.5 9.5c1.33301 8.66699 8.66602 22 21.999 40s25.666 31.333 36.999 40
c10.667 8.66699 27.667 16.667 51 24c21.333 6.66699 36 10 44 10s16.333 -3 25 -9c8.66699 -6.66699 17.334 -10 26.001 -10z" />
    <glyph glyph-name="g" unicode="g" horiz-adv-x="501" 
d="M376 192c-82.667 0 -130.665 2.00293 -143.998 6.00293c-12.667 4 -20.167 3 -22.5 -3s-1.5 -20 2.5 -42c5.33301 -24.667 17.333 -46.334 36 -65.001c13.333 -13.333 22.833 -21.333 28.5 -24s14.167 -3.33398 25.5 -2.00098c16.667 3.33301 25.667 6.66602 27 9.99902
c1.33301 4 5.33301 6 12 6c6 0 14 6.33301 24 19c3.33301 3.33301 6.16602 7.5 8.49902 12.5s3.66602 11.167 3.99902 18.5s0.5 13.833 0.5 19.5s-0.333008 13.5 -1 23.5s-1 17 -1 21zM182.002 -171.997c-7.33301 0 -17.1709 5.83008 -29.5039 17.4971
s-22.166 24.167 -29.499 37.5c-6 11.333 -9.33301 19.666 -10 24.999s1.33301 13 6 23c8 19.333 21.5 29.833 40.5 31.5s37.833 -6.16602 56.5 -23.499c22 -20 45.667 -26.667 71 -20c33.333 9.33301 28.666 18.333 -14.001 27c-1.33301 0.666992 -3 1 -5 1
c-28 4.66699 -45.667 11.334 -53 20.001c-7.33301 9.33301 -13.666 14 -18.999 14c-5.33301 0.666992 -15.166 11.167 -29.499 31.5s-25.5 39.833 -33.5 58.5c-5.33301 13.333 -8.5 27.166 -9.5 41.499s-0.5 40.833 1.5 79.5l4 89l-28 -5
c-12 -1.33301 -20.833 -1.16602 -26.5 0.500977s-13.167 6.83398 -22.5 15.501c-13.333 12 -20.666 25.5 -21.999 40.5s4 28.833 16 41.5c10 10.667 25.167 16.167 45.5 16.5s41.5 -4.5 63.5 -14.5l32 -15c18.667 12.667 43.5 24.167 74.5 34.5s57.833 15.5 80.5 15.5
c13.333 0 21.833 1 25.5 3s6.5 7 8.5 15c3.33301 14 13.833 23.333 31.5 28s31.167 1 40.5 -11c8.66699 -8.66699 13.5 -16.167 14.5 -22.5s2.5 -37.166 4.5 -92.499c5.33301 -169.333 5 -283 -1 -341s-22.333 -102.333 -49 -133c-15.333 -18.667 -31.666 -32 -48.999 -40
s-40 -13 -68 -15c-36 -2.66699 -63 1 -81 11c-18.667 10 -31 15 -37 15z" />
    <glyph glyph-name="h" unicode="h" horiz-adv-x="441" 
d="M34 505c0 14.667 4.83398 29.9971 14.501 45.9971s20.5 21.333 32.5 16c18 -4 28.667 -11.167 32 -21.5s4.66602 -39.5 3.99902 -87.5c0 -61.333 0.666992 -92.333 2 -93c2 -2 9 2.33301 21 13c20 18 57 29.667 111 35c30.667 3.33301 60.5 -5 89.5 -25
s45.833 -43.667 50.5 -71c2.66699 -19.333 5.66699 -64.833 9 -136.5s6 -117.167 8 -136.5c4 -44 4.66699 -70.667 2 -80c-4 -17.333 -15.333 -27.666 -34 -30.999s-36.667 2 -54 16l-21 18v123c-1.33301 80 -4 131 -8 153s-13.333 37.667 -28 47
c-16 10.667 -30.667 14 -44 10c-15.333 -4.66699 -32.833 -15 -52.5 -31s-32.167 -29.667 -37.5 -41c-4 -8.66699 -5.5 -36.5 -4.5 -83.5s3.83301 -85.833 8.5 -116.5c2.66699 -16.667 -2.33301 -32.334 -15 -47.001c-7.33301 -9.33301 -13.833 -15.166 -19.5 -17.499
s-13.834 -3.16602 -24.501 -2.49902c-10 0.666992 -17.167 2.5 -21.5 5.5s-9.16602 9.5 -14.499 19.5c-5.33301 10.667 -8.5 30.334 -9.5 59.001s-0.833008 96 0.5 202c2.66699 166 3.66699 252 3 258z" />
    <glyph glyph-name="i" unicode="i" horiz-adv-x="372" 
d="M211 362c4 0 8.49805 -8.33105 13.498 -24.998s6.5 -27.667 4.5 -33c-1.33301 -4 0.333984 -27.667 5.00098 -71s9 -73 13 -89c2 -8.66699 6.33301 -12.334 13 -11.001c17.333 4.66699 30.333 6.5 39 5.5s17.667 -6.16699 27 -15.5c8 -8.66699 12.833 -16 14.5 -22
s1.83398 -17.333 0.500977 -34c-3.33301 -31.333 -15.833 -57.333 -37.5 -78s-45.834 -29.334 -72.501 -26.001c-13.333 1.33301 -28.333 8.83301 -45 22.5s-27 27.167 -31 40.5c-4 12 -6.33301 27 -7 45s-0.666992 67.333 0 148c0 58 0.833008 92.667 2.5 104
s6.83398 21.333 15.501 30c12 12.667 27 15.667 45 9zM117.998 439.002c-18.667 0 -38 12.666 -58 37.999s-30 49.666 -30 72.999c0 25.333 11.333 50 34 74s48 38.667 76 44c10 3.33301 20 4.16602 30 2.49902s17.167 -3.66699 21.5 -6s10.5 -5.83301 18.5 -10.5
s14.667 -8 20 -10c12 -3.33301 23.333 -14.666 34 -33.999s18.667 -42.333 24 -69c4 -22 5.5 -37.167 4.5 -45.5s-5.16699 -22.166 -12.5 -41.499c-10.667 -25.333 -18.5 -41.166 -23.5 -47.499s-14.5 -10.833 -28.5 -13.5c-16 -2.66699 -36.333 4.33301 -61 21
s-41 25 -49 25z" />
    <glyph glyph-name="j" unicode="j" horiz-adv-x="486" 
d="M345 376c-6 0 -7.66992 -6.00684 -5.00293 -18.0068c3.33301 -27.333 6 -69.166 8 -125.499s4 -97.5 6 -123.5c2.66699 -69.333 3.33398 -110.333 2.00098 -123s-7 -38 -17 -76c0.666992 -4.66699 -5.33301 -16 -18 -34s-19.334 -27.667 -20.001 -29
c-2.66699 -6 -15.334 -21.667 -38.001 -47h-190c-10 12.667 -19.5 30.834 -28.5 54.501s-13.833 44.5 -14.5 62.5c-0.666992 19.333 8.16602 40 26.499 62s37.833 35.333 58.5 40c12 3.33301 25.167 -1.16699 39.5 -13.5s21.5 -25.166 21.5 -38.499
c0 -12.667 -2.83301 -25.167 -8.5 -37.5s-11.5 -18.5 -17.5 -18.5c-5.33301 0 -7.66602 -5 -6.99902 -15c0.666992 -6.66699 2.33398 -10.834 5.00098 -12.501s8.33398 -2.16699 17.001 -1.5c12 1.33301 27.167 10.833 45.5 28.5s27.5 31.834 27.5 42.501
c0 6.66699 2.33301 12.334 7 17.001c15.333 9.33301 23 87.333 23 234c0 102 3 156 9 162s9 11 9 15s-3.33301 9.66699 -10 17c-7.33301 8.66699 -11.666 20.334 -12.999 35.001c-0.666992 10.667 -2.5 17.5 -5.5 20.5s-10.5 5.16699 -22.5 6.5
c-14 2.66699 -28.333 10.334 -43 23.001s-22.667 24.667 -24 36c-6.66699 52 21.333 95.667 84 131c13.333 7.33301 24.333 11.833 33 13.5s20.667 1.83398 36 0.500977c20 -1.33301 36.167 -5.33301 48.5 -12s30.5 -20.667 54.5 -42c18.667 -17.333 29 -43 31 -77
s-5.33301 -62.667 -22 -86c-9.33301 -12.667 -24.666 -27.667 -45.999 -45s-35.333 -26 -42 -26z" />
    <glyph glyph-name="k" unicode="k" horiz-adv-x="603" 
d="M455 8c1.33301 4 -4.16504 14.501 -16.498 31.501s-18.5 26.167 -18.5 27.5c0 6 -17.667 27.333 -53 64c-15.333 16 -30 20.333 -44 13s-21 -23 -21 -47c0 -20 2.66699 -32.667 8 -38s6 -15.166 2 -29.499s-11 -27.166 -21 -38.499c-10.667 -12 -16 -22.333 -16 -31
c0 -9.33301 -10.167 -22 -30.5 -38s-38.166 -25.333 -53.499 -28c-53.333 -9.33301 -94 15 -122 73c-9.33301 18.667 -12.666 40.667 -9.99902 66c2.66699 20.667 6.33398 35.167 11.001 43.5s14.334 17.833 29.001 28.5c10.667 8 18.167 12 22.5 12s13.166 -3 26.499 -9
c18.667 -10 30 -19.667 34 -29c3.33301 -6.66699 6 -10.334 8 -11.001s4.66699 1.33301 8 6c5.33301 6 9 44.667 11 116c0.666992 21.333 1.83398 54.833 3.50098 100.5s2.5 74.167 2.5 85.5c1.33301 37.333 1.33301 61.5 0 72.5s-6.33301 24.833 -15 41.5
c-10.667 20 -18.834 31.833 -24.501 35.5s-14.834 2.83398 -27.501 -2.49902c-7.33301 -2.66699 -12.5 -6.16699 -15.5 -10.5s-3.5 -8.83301 -1.5 -13.5s6.66699 -9.33398 14 -14.001c10 -6.66699 16.333 -16.667 19 -30s1 -26 -5 -38c-8.66699 -18 -24.667 -27 -48 -27
c-26.667 0 -47.834 11.5 -63.501 34.5s-20.834 50.167 -15.501 81.5c2.66699 18.667 12 42.167 28 70.5s27.667 42.5 35 42.5c3.33301 1.33301 10.333 6.5 21 15.5s19.667 13.833 27 14.5c13.333 0.666992 20.833 1.16699 22.5 1.5s7.66699 -0.5 18 -2.5
s18.166 -3.33301 23.499 -4c11.333 -2 21.333 -5.83301 30 -11.5s25.334 -18.834 50.001 -39.501c8.66699 -7.33301 13.834 -14.333 15.501 -21s2.16699 -20.334 1.5 -41.001c-0.666992 -19.333 -0.833984 -57.666 -0.500977 -114.999s0.833008 -96.333 1.5 -117
c1.33301 -13.333 3.33301 -21 6 -23c5.33301 -5.33301 18.666 -1 39.999 13s43.666 32.667 66.999 56c34.667 34.667 55.667 52 63 52c9.33301 0 17.833 -4.16699 25.5 -12.5s11.5 -17.833 11.5 -28.5c2.66699 -8 -11.666 -28.667 -42.999 -62s-47 -53 -47 -59
c-4 -8.66699 -3.33301 -16.834 2 -24.501s23 -26.167 53 -55.5c40 -38 65 -64.667 75 -80s15 -34 15 -56c0 -15.333 -1 -25.333 -3 -30s-7.33301 -9 -16 -13c-12 -6 -24 -9 -36 -9c-10.667 0 -23.834 5.16699 -39.501 15.5s-23.5 18.833 -23.5 25.5z" />
    <glyph glyph-name="l" unicode="l" horiz-adv-x="410" 
d="M240 161c11.333 0 30.332 9.00098 56.999 27.001c19.333 13.333 34.333 21 45 23s19.667 -0.666992 27 -8c3.33301 -3.33301 6 -11.833 8 -25.5s2.83301 -26.834 2.5 -39.501s-2.16602 -19 -5.49902 -19c-4.66699 0 -7 -3 -7 -9c0 -21.333 -29.333 -45.666 -88 -72.999
c-20 -9.33301 -30 -18.666 -30 -27.999s-3 -15.666 -9 -18.999c-3.33301 -2.66699 -12 -12.334 -26 -29.001s-25.667 -26.334 -35 -29.001c-15.333 -6.66699 -36.666 -5.33398 -63.999 3.99902c-17.333 5.33301 -29.166 10.5 -35.499 15.5s-12.5 12.5 -18.5 22.5
c-14 26.667 -22.833 47.334 -26.5 62.001s-4.83398 34.334 -3.50098 59.001c0.666992 24.667 2.33398 61.667 5.00098 111s4.16699 84.166 4.5 104.499s0.166016 59.5 -0.500977 117.5c-0.666992 50 -0.333984 80.333 0.999023 91s5.66602 19 12.999 25
c18 14 35.667 15 53 3c6.66699 -4.66699 11 -15.667 13 -33s4.33301 -66 7 -146c5.33301 -154.667 8.33301 -235.667 9 -243c0.666992 -10.667 1.83398 -17.834 3.50098 -21.501s4.16699 -4.16699 7.5 -1.5s8 8.33398 14 17.001c8 11.333 19.833 21.166 35.5 29.499
s30.167 12.5 43.5 12.5z" />
    <glyph glyph-name="m" unicode="m" horiz-adv-x="881" 
d="M322 367c0 -18 12.9961 -18.3291 38.9961 -0.996094l11 6c6.66699 3.33301 10.834 5.5 12.501 6.5s6 3 13 6s12.167 5 15.5 6s8.33301 2.66699 15 5s12.167 3.66602 16.5 3.99902s9.33301 0.666016 15 0.999023s11 -0.166992 16 -1.5s9.83301 -3 14.5 -5
c28 -10.667 52.333 -31.334 73 -62.001l25 22c13.333 11.333 35.5 22.5 66.5 33.5s55.833 16.5 74.5 16.5c12 3.33301 30.333 -6.83398 55 -30.501s39.334 -41.5 44.001 -53.5c2.66699 -10.667 5.16699 -49.5 7.5 -116.5s5.5 -106.5 9.5 -118.5
c5.33301 -22.667 7.33301 -40.667 6 -54c-1.33301 -8.66699 -9.83301 -21.5 -25.5 -38.5s-26.5 -25.5 -32.5 -25.5c-5.33301 0 -14.333 7 -27 21c-8.66699 10 -14.5 19.667 -17.5 29s-5.16699 27 -6.5 53c-2.66699 39.333 -2 73.333 2 102
c7.33301 58 -1.66699 99.667 -27 125c-13.333 12.667 -26.666 17 -39.999 13s-31.666 -18.333 -54.999 -43c-18 -18.667 -28.5 -31.334 -31.5 -38.001s-3.16699 -16.667 -0.5 -30c4 -19.333 6.16699 -54.5 6.5 -105.5s-1.16699 -81.167 -4.5 -90.5
c-4.66699 -12 -12.667 -19.833 -24 -23.5s-23.333 -2.5 -36 3.5c-6 2.66699 -11 6.66699 -15 12s-6.83301 13.166 -8.5 23.499s-2.66699 18.333 -3 24s-0.333008 16.334 0 32.001s0.5 24.834 0.5 27.501c2 30.667 0.166992 67.167 -5.5 109.5s-12.167 68.166 -19.5 77.499
c-10.667 13.333 -34 17.333 -70 12c-7.33301 -5.33301 -21.666 -17 -42.999 -35s-37.333 -30.667 -48 -38c6 -108.667 10.333 -171.667 13 -189c1.33301 -16 1.33301 -26.667 0 -32s-5.33301 -10.333 -12 -15c-25.333 -18 -48.333 -15.667 -69 7
c-8.66699 8.66699 -13.5 19.834 -14.5 33.501s-1.16699 56.167 -0.5 127.5c0.666992 63.333 0.333984 104.5 -0.999023 123.5s-4.33301 33.833 -9 44.5c-8.66699 17.333 -18.334 26.333 -29.001 27s-19.667 -7.33301 -27 -24c-10 -20.667 -27.5 -36.5 -52.5 -47.5
s-49.167 -13.5 -72.5 -7.5c-7.33301 2 -11.833 5.83301 -13.5 11.5s-2.5 20.5 -2.5 44.5v51c18.667 -0.666992 30.667 0.5 36 3.5s12.333 13.167 21 30.5c6 12.667 11.833 22 17.5 28s13.167 10.333 22.5 13c35.333 12 73.666 8.33301 114.999 -11c21.333 -10 40 -23 56 -39
s24 -29.667 24 -41z" />
    <glyph glyph-name="n" unicode="n" horiz-adv-x="845" 
d="M283 341c0 -6.66699 -10.165 -19.499 -30.498 -38.499s-38.833 -32.833 -55.5 -41.5c-19.333 -9.33301 -42.333 -15.166 -69 -17.499s-47 0.166992 -61 7.5c-24.667 13.333 -37.167 36.666 -37.5 69.999s11.834 52.666 36.501 57.999c14 4 27 4.66699 39 2
c14 -2.66699 26.833 -0.833984 38.5 5.49902s29.834 21.166 54.501 44.499c28 28 49 42.667 63 44c31.333 2 62.333 -2.33301 93 -13s50.334 -27.334 59.001 -50.001c10.667 -27.333 18.667 -42.333 24 -45s15.666 1.66602 30.999 12.999
c13.333 8.66699 23.666 13.667 30.999 15s25 1 53 -1c30 -2.66699 50.167 -7.16699 60.5 -13.5s30.166 -25.833 59.499 -58.5c16.667 -18.667 25 -72.667 25 -162c0 -7.33301 -0.333008 -17.666 -1 -30.999c-0.666992 -26.667 1.66602 -40.667 6.99902 -42
c4 -0.666992 11 3 21 11c24.667 19.333 48.667 19.333 72 0c19.333 -14.667 22.333 -45.667 9 -93c-2.66699 -9.33301 -5.83398 -17.5 -9.50098 -24.5s-8.5 -13 -14.5 -18s-11 -8.66699 -15 -11s-11 -5.83301 -21 -10.5l-21 -10c-14 -6.66699 -33.5 -5.16699 -58.5 4.5
s-44.833 23.167 -59.5 40.5c-18 24 -28.333 38.667 -31 44c-4.66699 8.66699 -6 28.5 -4 59.5s6 54.167 12 69.5c4 11.333 3.66699 33.833 -1 67.5s-10.334 54.167 -17.001 61.5c-8 6.66699 -21 10 -39 10c-15.333 -0.666992 -27.5 -4 -36.5 -10s-28.5 -24 -58.5 -54
c-8 -8 -12.667 -15.333 -14 -22s-1 -21.334 1 -44.001c0.666992 -7.33301 1.66699 -22.166 3 -44.499s2.33301 -37.5 3 -45.5c1.33301 -25.333 0 -43.833 -4 -55.5s-12.333 -20.834 -25 -27.501c-23.333 -11.333 -42.666 -7.66602 -57.999 11.001s-21 45.334 -17 80.001
c0.666992 6.66699 2 17.834 4 33.501s3.33301 25.834 4 30.501c4 34 4.83301 76.167 2.5 126.5s-6.5 78.5 -12.5 84.5c-4 4 -10.833 4.66699 -20.5 2s-14.5 -6.66699 -14.5 -12z" />
    <glyph glyph-name="o" unicode="o" horiz-adv-x="842" 
d="M396 166c-20 9.33301 -36.333 15.333 -49 18c-8.66699 2.66699 -14.167 3.16699 -16.5 1.5s-3.5 -6.83398 -3.5 -15.501c1.33301 -28 16 -49.333 44 -64c16 -8.66699 29.167 -13 39.5 -13s24.833 4.33301 43.5 13c20.667 9.33301 36.167 18.333 46.5 27
s14.166 15.334 11.499 20.001c-4 5.33301 -7.66699 7 -11 5c-7.33301 -4.66699 -23.166 -6 -47.499 -4s-43.5 6 -57.5 12zM362 307c0 -6.66699 6.83105 -13.1689 20.498 -19.502s28.834 -10.166 45.501 -11.499c34.667 -2 52.334 1 53.001 9
c0 4.66699 -7 9.33398 -21 14.001s-23.667 11.667 -29 21c-4.66699 10 -11 15 -19 15c-8 -0.666992 -18.333 -4.5 -31 -11.5s-19 -12.5 -19 -16.5zM632.998 233.998c0 -9.33301 -4.49707 -29.0049 -13.4971 -59.0049s-17.833 -54.667 -26.5 -74
c-22.667 -52.667 -64.667 -90 -126 -112c-13.333 -4.66699 -32.833 -4.66699 -58.5 0s-48.5 12.334 -68.5 23.001c-4 2.66699 -17 9.33398 -39 20.001c-9.33301 4.66699 -22.5 21.834 -39.5 51.501s-28.167 54.834 -33.5 75.501c-4.66699 13.333 -6.16699 26.833 -4.5 40.5
s2.16699 28 1.5 43s-4.33398 25.5 -11.001 31.5c-18 16 -33 26.333 -45 31s-30 6.33398 -54 5.00098c-38 -2.66699 -63 -0.333984 -75 6.99902s-13.333 21 -4 41c1.33301 14.667 31.166 26.167 89.499 34.5s91.833 7.83301 100.5 -1.5c6 -4.66699 18.333 -9.66699 37 -15
c13.333 -3.33301 23 -4.66602 29 -3.99902s13.667 4 23 10c47.333 28.667 77.666 43 90.999 43c10.667 0 29.667 -3.66699 57 -11s42.333 -12.666 45 -15.999c2 -1.33301 11 -5.33301 27 -12s26.667 -13.334 32 -20.001c11.333 -11.333 18 -17 20 -17
c2.66699 0 12.667 8.66699 30 26c40.667 41.333 75.667 66.333 105 75c26.667 7.33301 52 0.333008 76 -21c18 -16 17.667 -38.333 -1 -67c-7.33301 -10 -14 -16.833 -20 -20.5s-16.667 -6.16699 -32 -7.5c-23.333 -2.66699 -43 -10.667 -59 -24
c-12.667 -11.333 -24.667 -25 -36 -41s-17 -27.667 -17 -35z" />
    <glyph glyph-name="p" unicode="p" horiz-adv-x="748" 
d="M460 225c-12.667 -4.66699 -28.001 -7.66895 -46.001 -9.00195s-33.5 -1.5 -46.5 -0.5s-31 2.83301 -54 5.5s-39.5 4.33398 -49.5 5.00098c4.66699 -64 9.33398 -99.667 14.001 -107c5.33301 -5.33301 21 -12.333 47 -21s44.667 -13 56 -13
c24.667 1.33301 45 15.833 61 43.5s22 59.834 18 96.501zM551.999 191.998c0.666992 -27.333 0.170898 -48.6699 -1.49609 -64.0029s-3.5 -25.666 -5.5 -30.999s-6.5 -13 -13.5 -23s-12.833 -19.333 -17.5 -28c-2.66699 -7.33301 -8.66699 -14.333 -18 -21
s-20 -13.334 -32 -20.001s-20 -11.334 -24 -14.001c-6.66699 -5.33301 -26.834 -9.33301 -60.501 -12s-57.5 -2 -71.5 2c-13.333 4 -21.833 2.66699 -25.5 -4s-5.83398 -24.334 -6.50098 -53.001c0.666992 -15.333 -0.833008 -28.833 -4.5 -40.5s-8.5 -22.667 -14.5 -33
s-10 -18.833 -12 -25.5c0 -9.33301 -7 -15.833 -21 -19.5s-39 -5.5 -75 -5.5c-34.667 0 -55.5 0.833008 -62.5 2.5s-13.5 7.16699 -19.5 16.5c-24.667 36 -37 65.333 -37 88c0 10.667 4.83301 22.167 14.5 34.5s18.5 18.5 26.5 18.5c8.66699 0 19 -5 31 -15
s18.667 -19.333 20 -28c2.66699 -18.667 9.33398 -20 20.001 -4l7 12c8.66699 18.667 12.667 45.334 12 80.001c-0.666992 33.333 3.33301 81.5 12 144.5s12.667 115.167 12 156.5c1.33301 61.333 6 96 14 104c8.66699 8.66699 43.667 13.334 105 14.001
c40 0.666992 67 0.333984 81 -0.999023s28 -5 42 -11c22 -10.667 35.667 -19 41 -25c4.66699 -6 11.5 -9.5 20.5 -10.5s14.833 1.16699 17.5 6.5c4 3.33301 11 5.83301 21 7.5s18 4.83398 24 9.50098c4 2 11 5.83301 21 11.5s15.667 8.83398 17 9.50098
c15.333 8 34.666 11.5 57.999 10.5s40.666 -5.83301 51.999 -14.5c27.333 -22 25.666 -48.333 -5.00098 -79c-16 -16 -31 -22.667 -45 -20c-28.667 9.33301 -61 -3.66699 -97 -39v-87z" />
    <glyph glyph-name="q" unicode="q" horiz-adv-x="761" 
d="M391 83c0.666992 -2.66699 3.83203 -3.83301 9.49902 -3.5s12.834 2.33301 21.501 6s15.667 8.16699 21 13.5c8.66699 8.66699 11 13 7 13h-7c-9.33301 -0.666992 -20.333 -4.5 -33 -11.5s-19 -12.833 -19 -17.5zM476.998 302.001
c-10 5.33301 -26.6689 8.33203 -50.002 8.99902s-40 -1.33301 -50 -6c-16.667 -8 -30.5 -21 -41.5 -39s-17.5 -37.667 -19.5 -59c-2 -23.333 -1.33301 -35.333 2 -36l7 1c6 2.66699 16.333 8.33398 31 17.001c48.667 28 95.334 40.333 140.001 37
c0 2 -0.166992 5.83301 -0.5 11.5s-0.666016 10.167 -0.999023 13.5s-0.833008 7.83301 -1.5 13.5s-1.5 10.167 -2.5 13.5s-2 7 -3 11s-2.5 7 -4.5 9s-4 3.33301 -6 4zM603.996 -200c-74.667 0 -117.003 2.33105 -127.003 6.99805c-8 4 -10.667 14.333 -8 31
c0 1.33301 0.333008 4.33301 1 9c4 28.667 7.33301 55.5 10 80.5s4.5 44.667 5.5 59s1.16699 21.5 0.5 21.5c-2 0 -16.333 -6 -43 -18c-17.333 -7.33301 -31.166 -11.666 -41.499 -12.999s-25.5 -1 -45.5 1c-30.667 2.66699 -51 8.66699 -61 18
c-10 8.66699 -19.333 10.667 -28 6c-6 -2.66699 -18.667 -6 -38 -10s-32 -7.33301 -38 -10c-14.667 -7.33301 -59 -13 -133 -17l-14 23c-18 29.333 -19.5 53.833 -4.5 73.5s37.833 23.167 68.5 10.5c14 -6 26.167 -8.66699 36.5 -8s25.5 5.33398 45.5 14.001
c19.333 8.66699 30.833 17.334 34.5 26.001s6.5 35.667 8.5 81c1.33301 38 6.83301 68.5 16.5 91.5s26.167 46.833 49.5 71.5c23.333 24 43.5 39.667 60.5 47s41.833 10.666 74.5 9.99902c24 -0.666992 40.167 0 48.5 2s17.166 7 26.499 15c25.333 22 47.333 22.667 66 2
c6 -7.33301 9.66699 -23.833 11 -49.5s2.33301 -94.834 3 -207.501c0 -159.333 2 -243.666 6 -252.999c6 -14 9.33301 -29 10 -45c0.666992 -12.667 4.33398 -19.5 11.001 -20.5s12.334 4.5 17.001 16.5c8 18.667 22 30.667 42 36
c16.667 5.33301 30.334 -3.16699 41.001 -25.5s15.667 -47.5 15 -75.5h-127z" />
    <glyph glyph-name="r" unicode="r" horiz-adv-x="570" 
d="M272 376c2 0 10.165 6.00098 24.498 18.001s22.833 17.667 25.5 17c6 0 16 4.66699 30 14c14 8.66699 25.5 12.834 34.5 12.501s26.833 -4.83301 53.5 -13.5c29.333 -9.33301 49.333 -21.333 60 -36c16.667 -22 28.334 -46.333 35.001 -73s6.66699 -50.334 0 -71.001
c-4 -13.333 -13.333 -28.333 -28 -45s-28 -27.334 -40 -32.001c-25.333 -10.667 -51.833 -10.5 -79.5 0.5s-45.167 28.167 -52.5 51.5c-4.66699 14.667 -9.5 22.667 -14.5 24s-14.5 -3.66699 -28.5 -15l-19 -16l3 -104c1.33301 -50 1.33301 -80.333 0 -91
s-5.66602 -19.667 -12.999 -27c-20.667 -20 -41.334 -19.667 -62.001 1c-8.66699 8.66699 -13.5 17.334 -14.5 26.001s-0.833008 33 0.5 73c2.66699 57.333 0.666992 117.666 -6 180.999c-5.33301 52 -7.16602 85.333 -5.49902 100s9.16699 25.667 22.5 33
c21.333 12 39.333 8.66699 54 -10c9.33301 -12 16 -18 20 -18zM32.998 580.001c-5.33301 1.33301 -5 2.33398 1 3.00098c14 1.33301 21.333 0.666016 22 -2.00098c0.666992 0 0 -0.333008 -2 -1c-6.66699 -1.33301 -13.667 -1.33301 -21 0z" />
    <glyph glyph-name="s" unicode="s" horiz-adv-x="541" 
d="M429 474c12 0 20.9961 -1.65918 26.9961 -4.99219s13.667 -10 23 -20c14 -15.333 19.667 -24.333 17 -27c-1.33301 -1.33301 0 -5.33301 4 -12c6.66699 -8.66699 10.5 -22.5 11.5 -41.5s-1.16699 -36.833 -6.5 -53.5c-8 -23.333 -21 -42 -39 -56
c-14 -10.667 -24.833 -17 -32.5 -19s-23.167 -2.33301 -46.5 -1c-35.333 2.66699 -64.333 11.667 -87 27s-34 33.333 -34 54c0 9.33301 -5 15.166 -15 17.499s-21.333 -0.166992 -34 -7.5c-16 -9.33301 -22.667 -17.833 -20 -25.5s17.334 -20.834 44.001 -39.501
c40.667 -27.333 66.334 -41 77.001 -41c6.66699 0 17.667 -4.33301 33 -13s25.666 -16.334 30.999 -23.001s11.333 -13.667 18 -21c14 -15.333 21.833 -34 23.5 -56s-3.16602 -44.333 -14.499 -67c-19.333 -38 -53.166 -63.833 -101.499 -77.5
s-100.166 -11.834 -155.499 5.49902c-56.667 18.667 -93 46 -109 82c-8.66699 17.333 -13.167 31.666 -13.5 42.999s2.83398 23.333 9.50098 36c5.33301 9.33301 18.166 23.333 38.499 42s33.166 28 38.499 28c3.33301 0 1.66602 4 -5.00098 12
c-8 8.66699 -14.5 26 -19.5 52s-6.5 49 -4.5 69c3.33301 29.333 17.5 54.166 42.5 74.499s57.833 33.5 98.5 39.5c16.667 2.66699 35.334 1.5 56.001 -3.5s34.334 -11.167 41.001 -18.5c4.66699 -4.66699 11.667 -9.83398 21 -15.501s16 -8.5 20 -8.5
c2.66699 0 2.66699 2.33301 0 7c-2.66699 4 -1.66699 11.167 3 21.5s11.334 20.166 20.001 29.499c7.33301 8 20.666 12 39.999 12z" />
    <glyph glyph-name="t" unicode="t" horiz-adv-x="462" 
d="M299 108c-4.66699 2 -7.66406 3.16797 -8.99707 3.50098s-2.83301 0.5 -4.5 0.5s-2.83398 -0.333008 -3.50098 -1s-1.66699 -2.33398 -3 -5.00098c-3.33301 -5.33301 -3.16602 -9.83301 0.500977 -13.5s9.16699 -4.5 16.5 -2.5c5.33301 1.33301 9.16602 3 11.499 5
s2.66602 4.16699 0.999023 6.5s-4.83398 4.5 -9.50098 6.5zM324.003 446.001c11.333 0 23.333 -6.50098 36 -19.501s19 -25.167 19 -36.5c-0.666992 -25.333 -7 -42 -19 -50s-36.667 -12 -74 -12c-33.333 0 -51.333 -1.33301 -54 -4c-1.33301 -6 2.33398 -33 11.001 -81
c20 7.33301 49.333 10.666 88 9.99902c23.333 -0.666992 39.833 -4 49.5 -10s25.5 -23.333 47.5 -52c11.333 -60.667 1 -116 -31 -166s-72.333 -74 -121 -72c-46 0 -78.5 20.333 -97.5 61s-28.5 109.334 -28.5 206.001v6c0 56 -2.16699 88.333 -6.5 97s-19.833 11 -46.5 7
h-2c-18 -2.66699 -31.333 -1.66699 -40 3c-9.33301 5.33301 -16.5 16.5 -21.5 33.5s-5.16699 30.833 -0.5 41.5c8 18 32.333 25.667 73 23l34 -3v35c0 34 8 54.333 24 61c34 12 54 -6.33301 60 -55c3.33301 -23.333 6.33301 -36.166 9 -38.499s15.667 -0.833008 39 4.5
c23.333 7.33301 40.666 11 51.999 11z" />
    <glyph glyph-name="u" unicode="u" horiz-adv-x="831" 
d="M801 374c0 -10 -7.33301 -20.166 -22 -30.499s-29.334 -15.5 -44.001 -15.5c-11.333 0 -29.166 5.83301 -53.499 17.5s-38.5 21.167 -42.5 28.5c-8.66699 16 -17 14 -25 -6c-2.66699 -7.33301 -6 -35.833 -10 -85.5s-6.33301 -92.5 -7 -128.5
c-1.33301 -40.667 4.66699 -78 18 -112c5.33301 -14.667 13.333 -20.667 24 -18s26.334 14.667 47.001 36c20.667 22 36.834 34.167 48.501 36.5s24.834 -3.83398 39.501 -18.501c11.333 -11.333 18 -25.166 20 -41.499s-1.66699 -28.166 -11 -35.499
c-6.66699 -5.33301 -10 -11.333 -10 -18c0 -11.333 -11.167 -24.666 -33.5 -39.999s-48.833 -28 -79.5 -38c-22 -7.33301 -47.333 -7.5 -76 -0.5s-51.667 19.167 -69 36.5c-18 18 -28.333 32.667 -31 44c0 6.66699 -3 10.834 -9 12.501s-13.333 1.5 -22 -0.5
s-15.834 -3.83301 -21.501 -5.5s-10.5 -3.5 -14.5 -5.5c-12 -6 -29.167 -8.16699 -51.5 -6.5s-41.833 6.5 -58.5 14.5c-60 31.333 -86 98 -78 200c2 22.667 0.666992 58 -4 106c-4 32.667 -10.167 55 -18.5 67s-20.833 16 -37.5 12
c-64.667 -15.333 -105.334 -19 -122.001 -11c-7.33301 3.33301 -12 7.33301 -14 12s-3 13.667 -3 27c0 35.333 17 53 51 53c13.333 0 28.666 4.66699 45.999 14c24 12 45.5 18.167 64.5 18.5s39.167 -4.83398 60.5 -15.501c28.667 -14.667 45.667 -30 51 -46
s8.66602 -60 9.99902 -132c2.66699 -115.333 12.334 -173 29.001 -173c4.66699 0 7 -3 7 -9c0 -14 13 -23.667 39 -29c14 -2.66699 28.333 2.66602 43 15.999c10.667 10 17.667 17.667 21 23s6.66602 14.333 9.99902 27c17.333 45.333 25.333 105.666 24 180.999
c-0.666992 39.333 -0.166992 63.833 1.5 73.5s7.16699 21.5 16.5 35.5c21.333 29.333 54.333 49 99 59c24 6 44.333 6.5 61 1.5s33.334 -16.167 50.001 -33.5c16 -16 31.667 -28.667 47 -38c26.667 -16.667 40 -36.334 40 -59.001z" />
    <glyph glyph-name="v" unicode="v" horiz-adv-x="814" 
d="M718 286c-8 0 -19.332 6 -33.999 18c-16.667 12.667 -34.334 21 -53.001 25s-32.334 2.33301 -41.001 -5c-8.66699 -6.66699 -13 -14 -13 -22c0 -6 -1.66699 -9 -5 -9c-9.33301 -10.667 -21.833 -32 -37.5 -64s-33 -69.5 -52 -112.5l-36.5 -81.5
c-8.66699 -20 -16.667 -33 -24 -39s-18.333 -8.33301 -33 -7c-30.667 2.66699 -52.667 27.667 -66 75c-6.66699 29.333 -18.834 65 -36.501 107s-29.5 71.667 -35.5 89c-12 34.667 -21.5 58.167 -28.5 70.5s-14.5 18.5 -22.5 18.5c-8.66699 0 -16.334 -1.66699 -23.001 -5
s-10 -7.33301 -10 -12c-0.666992 -5.33301 -3.83398 -11.166 -9.50098 -17.499s-12.334 -12.833 -20.001 -19.5s-12.5 -11.334 -14.5 -14.001c-6 -7.33301 -14.333 -11.166 -25 -11.499s-21.667 0.5 -33 2.5c-9.33301 0.666992 -18 8 -26 22s-10.667 26.333 -8 37
c7.33301 20 33.333 44.667 78 74s85.334 45.333 122.001 48c12 0 26.333 -7.16699 43 -21.5s26.334 -27.833 29.001 -40.5c4.66699 -23.333 15.834 -53.833 33.501 -91.5s28.834 -62.834 33.501 -75.501c12 -32.667 21 -49.334 27 -50.001
c3.33301 -0.666992 6.66602 2.66602 9.99902 9.99902c2 3.33301 3.66699 7 5 11c26.667 62.667 50.334 129 71.001 199c1.33301 6.66699 10.333 16 27 28c10.667 8 20.667 13 30 15s29 3.33301 59 4c31.333 0.666992 52.5 -0.166016 63.5 -2.49902
s29.833 -10.166 56.5 -23.499c24.667 -12 40.334 -21 47.001 -27s11.667 -14.667 15 -26c6.66699 -19.333 2.16699 -36.5 -13.5 -51.5s-32.167 -23.167 -49.5 -24.5z" />
    <glyph glyph-name="w" unicode="w" horiz-adv-x="928" 
d="M523 262c0 -6 4.99316 -18.501 14.9932 -37.501s16.667 -28.5 20 -28.5c4 0 14.167 17.5 30.5 52.5s26.833 62.5 31.5 82.5c12 45.333 30 71 54 77c6.66699 1.33301 16 4 28 8s20.833 6.16699 26.5 6.5s17.5 -1.16699 35.5 -4.5c4.66699 -0.666992 10.834 -2 18.501 -4
s14.5 -3.66699 20.5 -5s10.667 -2.33301 14 -3c12.667 -2.66699 19 -5.66699 19 -9s3 -5.66602 9 -6.99902c7.33301 0 18 -10 32 -30s21 -35 21 -45c0 -29.333 -8.33301 -48 -25 -56c-14 -6 -25.5 -7.83301 -34.5 -5.5s-21.167 10.833 -36.5 25.5
c-32.667 31.333 -63.167 35 -91.5 11s-53.166 -74.333 -74.499 -151c-8 -28 -18.667 -58.667 -32 -92c-8.66699 -18.667 -15 -29.834 -19 -33.501s-12.667 -5.5 -26 -5.5c-38.667 0 -61.667 26.667 -69 80c-3.33301 17.333 -9.66602 37.166 -18.999 59.499
s-16.333 40.833 -21 55.5l-19 59c-28 -84 -43.667 -135 -47 -153c-6.66699 -36 -11.5 -58.667 -14.5 -68s-8.16699 -18.333 -15.5 -27c-15.333 -17.333 -31.666 -25.166 -48.999 -23.499s-30.666 12.5 -39.999 32.5c-7.33301 16 -14.833 36.167 -22.5 60.5
s-11.5 41.5 -11.5 51.5c-2 11.333 -5.83301 23.333 -11.5 36s-10.5 27 -14.5 43c-10.667 37.333 -19.167 61.666 -25.5 72.999s-15.833 17.666 -28.5 18.999c-14.667 0.666992 -32 -8.33301 -52 -27c-19.333 -19.333 -32.333 -27.666 -39 -24.999
c-5.33301 2.66699 -12 4 -20 4c-2.66699 -1.33301 -4.83398 0.833984 -6.50098 6.50098s-2.66699 13.667 -3 24s-0.5 20.666 -0.5 30.999v31.5v22c32 23.333 56.333 36.666 73 39.999c5.33301 0.666992 13.166 2.33398 23.499 5.00098l27 7c7.66699 2 16.167 2.66699 25.5 2
s17.333 -3.33398 24 -8.00098c14 -7.33301 24.5 -17.166 31.5 -29.499s12.833 -31.166 17.5 -56.499c6.66699 -38.667 20.334 -82.334 41.001 -131.001c8 -16 13 -23.333 15 -22c8.66699 8.66699 21.834 43.834 39.501 105.501s24.834 98.5 21.501 110.5
c-1.33301 6.66699 0.833984 14.834 6.50098 24.501s12.834 16.834 21.501 21.501c49.333 26 80.333 4.66699 93 -64c2 -13.333 7.66699 -34.333 17 -63s14.666 -46.334 15.999 -53.001z" />
    <glyph glyph-name="x" unicode="x" horiz-adv-x="671" 
d="M88 285c-12.667 -2.66699 -24.832 1.66797 -36.499 13.001s-18.834 22.333 -21.501 33c0 17.333 15.333 39.666 46 66.999s56 41 76 41c14.667 0 23.667 2.33301 27 7c3.33301 5.33301 12 5.66602 26 0.999023s28.667 -13 44 -25c18.667 -14.667 35.667 -36 51 -64
c14.667 -28.667 25.667 -44.334 33 -47.001c6 -2 9 -6.66699 9 -14c0 -16 6.66699 -16.667 20 -2c17.333 19.333 31.333 46 42 80c7.33301 20.667 13.333 34.167 18 40.5s13.667 13.833 27 22.5c24.667 12.667 53.334 13.167 86.001 1.5s52 -24.5 58 -38.5
c0.666992 -2.66699 8.83398 -16.334 24.501 -41.001s23.5 -43.667 23.5 -57c0 -16 -2.5 -27.167 -7.5 -33.5s-15.5 -10.833 -31.5 -13.5c-9.33301 -1.33301 -18 -0.166016 -26 3.50098s-21.333 13.167 -40 28.5l-44 35c-16.667 -18.667 -33.167 -40.5 -49.5 -65.5
s-24.166 -43.167 -23.499 -54.5c0 -10 14.667 -29 44 -57c28.667 -28 47.167 -49.833 55.5 -65.5s9.83301 -31.5 4.5 -47.5c-4 -12 -9.16699 -20.333 -15.5 -25s-16.5 -7 -30.5 -7c-9.33301 0 -24.333 9.66699 -45 29s-35.334 37.666 -44.001 54.999
c-4.66699 8 -12.334 19.333 -23.001 34c-5.33301 6 -9 9 -11 9s-6 -3.66699 -12 -11c-10 -13.333 -21.333 -32.666 -34 -57.999c-11.333 -22.667 -23 -38 -35 -46s-26.667 -10.333 -44 -7c-25.333 4.66699 -37.333 18.667 -36 42s15.666 49 42.999 77
c24 25.333 40.333 45.333 49 60c8 12.667 12.5 21 13.5 25s-0.5 9.33301 -4.5 16c-9.33301 15.333 -28.5 39.5 -57.5 72.5s-46.167 50.5 -51.5 52.5c-6 2.66699 -16 -1.66602 -30 -12.999s-21 -20.666 -21 -27.999s-4.33301 -13.333 -13 -18s-19.667 -7 -33 -7z" />
    <glyph glyph-name="y" unicode="y" horiz-adv-x="698" 
d="M266 546c0 -15.333 -2.83398 -32.3242 -8.50098 -50.9912s-10.834 -28 -15.501 -28c-6.66699 0 -10.667 -3 -12 -9c-2 -6 -13 -8.33301 -33 -7c-33.333 1.33301 -33 -5.33398 1 -20.001c28.667 -11.333 41 -26 37 -44c-3.33301 -17.333 4.33398 -43.333 23.001 -78
c4 -8.66699 7.16699 -18 9.5 -28s6.16602 -20.667 11.499 -32c4.66699 -9.33301 15.334 -32.333 32.001 -69c10.667 -24.667 19.334 -36.667 26.001 -36c3.33301 0 5 4.66699 5 14c0 6 8 26.333 24 61c20 42 32.333 70.5 37 85.5s6.33398 30.5 5.00098 46.5
c-1.33301 13.333 -0.833008 23.166 1.5 29.499s8.83301 14.833 19.5 25.5c6.66699 6.66699 12.334 11.834 17.001 15.501s8.16699 6.16699 10.5 7.5s6.33301 3.16602 12 5.49902s11.167 5.16602 16.5 8.49902c11.333 7.33301 23.666 9.33301 36.999 6
c12.667 -2.66699 30.834 -14.834 54.501 -36.501s37.167 -38.167 40.5 -49.5c3.33301 -10.667 12.666 -23.667 27.999 -39c28.667 -26.667 29.667 -53.334 3 -80.001c-8.66699 -9.33301 -15.667 -14.833 -21 -16.5s-13 -1.83398 -23 -0.500977
c-30.667 5.33301 -55 18.666 -73 39.999c-7.33301 8.66699 -13.666 14.167 -18.999 16.5s-10.166 1.66602 -14.499 -2.00098s-8.83301 -10.834 -13.5 -21.501c-28.667 -62 -55.334 -139 -80.001 -231c-4.66699 -17.333 -13.834 -36.833 -27.501 -58.5
s-23.167 -39.5 -28.5 -53.5c-12 -25.333 -28 -46 -48 -62c-34 -28.667 -67.333 -45.334 -100 -50.001c-11.333 -1.33301 -32.333 -2.33301 -63 -3l-17 -1l-27 26c-20 20 -31.167 41.5 -33.5 64.5s5.16699 38.833 22.5 47.5c23.333 12.667 40.666 5.33398 51.999 -21.999
c4 -9.33301 7.83301 -14.833 11.5 -16.5s11.167 -1.5 22.5 0.5c20 3.33301 33 7 39 11s16.333 17 31 39c18.667 28 27.667 49.667 27 65c-0.666992 14.667 -11.834 55.334 -33.501 122.001s-45.167 131.667 -70.5 195c-4.66699 11.333 -8.66699 18.333 -12 21
s-9.83301 5.16699 -19.5 7.5s-19.834 6.5 -30.501 12.5c-25.333 11.333 -43.166 25.5 -53.499 42.5s-15.5 39.833 -15.5 68.5c0 16 1.33301 28 4 36s9 18 19 30c24.667 33.333 67.334 56 128.001 68c0 0.666992 3.16699 -0.833008 9.5 -4.5l19.5 -11
c6.66699 -3.66699 10.667 -4.83398 12 -3.50098c2.66699 2.66699 7.5 0.666992 14.5 -6s13.667 -15 20 -25s9.5 -17.667 9.5 -23z" />
    <glyph glyph-name="z" unicode="z" horiz-adv-x="674" 
d="M528 144c-1.33301 8 -3.16699 13.334 -5.5 16.001s-5.66602 2.5 -9.99902 -0.5s-10.5 -8.83301 -18.5 -17.5c-14.667 -16.667 -21 -26 -19 -28c1.33301 -2.66699 11 -0.333984 29 6.99902c10 4 16.667 7.5 20 10.5s4.66602 7.16699 3.99902 12.5zM158.999 460.001
c0 9.33301 -4.33301 13.999 -13 13.999s-14.667 -2.66699 -18 -8s-2 -10 4 -14c8 -5.33301 14.5 -7.16602 19.5 -5.49902s7.5 6.16699 7.5 13.5zM151.999 571c36.667 0 62.1699 -8.67383 76.5029 -26.0068s15.833 -41 4.5 -71c-8 -20.667 -9 -34 -3 -40
c15.333 -15.333 39 -16 71 -2c62 25.333 107.333 22.666 136 -8.00098c15.333 -16 21.5 -33.5 18.5 -52.5s-12.833 -34.833 -29.5 -47.5c-16.667 -15.333 -28.667 -28.333 -36 -39c-42.667 -65.333 -78 -113.666 -106 -144.999c-22.667 -25.333 -30 -40.333 -22 -45
c7.33301 -4 33.333 -2.66699 78 4c72 10.667 106 21 102 31c-0.666992 2 -3 3.66699 -7 5c-7.33301 2 -10 15.5 -8 40.5s7 42.833 15 53.5c22.667 30.667 52.667 42 90 34c31.333 -6.66699 56.833 -21.667 76.5 -45s31.167 -51.666 34.5 -84.999
c1.33301 -19.333 0.833008 -32.166 -1.5 -38.499s-11.833 -18.166 -28.5 -35.499c-16 -16.667 -28.833 -27.667 -38.5 -33s-27.834 -11.333 -54.501 -18c-76.667 -19.333 -122 -21.333 -136 -6c-4 4.66699 -10.5 7.66699 -19.5 9s-27.167 1.33301 -54.5 0
c-48 -2.66699 -84.333 -6 -109 -10c-20 -3.33301 -34.167 -4.66602 -42.5 -3.99902s-18.5 3.66699 -30.5 9s-19.833 10.333 -23.5 15s-5.83398 12 -6.50098 22c-2.66699 23.333 1 43.833 11 61.5s32 43.834 66 78.501c16.667 16 31.5 31.167 44.5 45.5l39.5 45.5
c13.333 16 23.333 27.667 30 35c6 3.33301 9 8.66602 9 15.999c0 4.66699 -4 7.33398 -12 8.00098s-26.667 0 -56 -2c-41.333 -3.33301 -72.5 -1.5 -93.5 5.5s-41.833 22.5 -62.5 46.5c-19.333 20.667 -31.833 38.834 -37.5 54.501s-7.83398 36.834 -6.50098 63.501
c2.66699 48 20 74 52 78c9.33301 0 19.333 -1.5 30 -4.5s24 -4.16699 40 -3.5z" />
    <glyph glyph-name="uni0093" horiz-adv-x="320" 
d="M261 217c27.333 0 35.6719 -13.332 25.0049 -39.999c-6 -14.667 -18.667 -24.667 -38 -30c-12 -3.33301 -21 -4.83301 -27 -4.5s-14 3.16602 -24 8.49902c-18 11.333 -30.333 25.5 -37 42.5s-9.33398 40.833 -8.00098 71.5c3.33301 60.667 22.666 108.667 57.999 144
c16.667 16.667 35.667 16.667 57 0c5.33301 -4.66699 6.66602 -15.167 3.99902 -31.5s-8.33398 -30.5 -17.001 -42.5c-9.33301 -13.333 -16.333 -30.5 -21 -51.5s-4.66699 -36.833 0 -47.5c5.33301 -12.667 14.666 -19 27.999 -19zM83.0059 417.001
c8.66699 8.66699 18.167 13.498 28.5 14.498s18.5 -2.16699 24.5 -9.5c5.33301 -6.66699 6.83301 -18.334 4.5 -35.001s-7.16602 -29.334 -14.499 -38.001c-10 -11.333 -15.333 -25.833 -16 -43.5s3.66602 -35.167 12.999 -52.5l17 -30l-17 -14
c-12 -9.33301 -22 -13.166 -30 -11.499s-19.667 10.834 -35 27.501l-28 29c2 40.667 6.5 72.834 13.5 96.501s20.167 45.834 39.5 66.501z" />
    <glyph glyph-name="uni0094" horiz-adv-x="322" 
d="M69 414c12 6.66699 19.832 9.83008 23.499 9.49707s11.167 -4.83301 22.5 -13.5c28.667 -22.667 42.834 -54.667 42.501 -96s-14.833 -76.666 -43.5 -105.999c-30.667 -30.667 -54.667 -38 -72 -22c-8.66699 7.33301 -12.667 13.666 -12 18.999s6 14.666 16 27.999
s19 28 27 44c5.33301 10.667 7.83301 18.834 7.5 24.501s-4.83301 16.834 -13.5 33.501c-11.333 22.667 -17 39.834 -17 51.501s6.33301 20.834 19 27.501zM191.999 423.996c9.33301 4.66699 14.9971 7 16.9971 7s7.33301 -2.33301 16 -7c21.333 -11.333 38.333 -32 51 -62
s17.667 -60.333 15 -91c-3.33301 -29.333 -14.333 -52.833 -33 -70.5s-35 -20.167 -49 -7.5c-8 7.33301 -12.167 14 -12.5 20s2.83398 15.667 9.50098 29c18 36 12 70 -18 102c-15.333 16.667 -22.666 32 -21.999 46s9.33398 25.333 26.001 34z" />
    <glyph glyph-name=".null" horiz-adv-x="0" 
 />
    <glyph glyph-name="nonmarkingreturn" horiz-adv-x="333" 
 />
    </font>
</defs>
</svg>
