<?xml version="1.0" standalone="no"?>
<!DOCTYPE svg PUBLIC "-//W3C//DTD SVG 1.1//EN" "http://www.w3.org/Graphics/SVG/1.1/DTD/svg11.dtd" >
<svg>
<metadata>
Created by FontForge 20090914 at Fri Feb 26 22:51:11 2016
 By www-data
Copyright (c) 2016, root
</metadata>
<defs>
<font id="Key" horiz-adv-x="302" >
  <font-face 
    font-family="Key"
    font-weight="400"
    font-stretch="normal"
    units-per-em="1000"
    panose-1="2 0 5 3 0 0 0 0 0 0"
    ascent="800"
    descent="-200"
    x-height="407.999"
    cap-height="592"
    bbox="28.4738 -200.005 728.003 770.089"
    underline-thickness="50"
    underline-position="-100"
    unicode-range="U+0020-U+0094"
  />
<missing-glyph horiz-adv-x="364" 
d="M33 0v666h265v-666h-265zM66 33h199v600h-199v-600z" />
    <glyph glyph-name=".notdef" horiz-adv-x="364" 
d="M33 0v666h265v-666h-265zM66 33h199v600h-199v-600z" />
    <glyph glyph-name="space" unicode=" " horiz-adv-x="318" 
 />
    <glyph glyph-name="exclam" unicode="!" horiz-adv-x="106" 
d="M34 61c3.33301 6.66699 6.99902 11.168 10.999 13.501s7.66699 2.16602 11 -0.500977s5.33301 -7.66699 6 -15c1.33301 -8.66699 -1.66699 -16.167 -9 -22.5s-13.666 -6.83301 -18.999 -1.5s-5.33301 14 0 26zM41.999 557.001c-6 15.333 -6.83203 28.999 -2.49902 40.999
s10.833 7 19.5 -15c13.333 -29.333 18.666 -86.666 15.999 -171.999c-2 -68.667 -8.33301 -101.334 -19 -98.001c-1.33301 0.666992 -2.33301 1.33398 -3 2.00098c-2 4.66699 -3.33301 45.167 -4 121.5s-3 116.5 -7 120.5z" />
    <glyph glyph-name="quotedbl" unicode="&#x22;" horiz-adv-x="219" 
d="M42 585c13.333 -2.66699 21.5 -18.333 24.5 -47s1.66699 -57.167 -4 -85.5s-13.167 -43.833 -22.5 -46.5c-5.33301 -1.33301 -8.5 -1 -9.5 1s-0.166992 7.33301 2.5 16c6 10 9 64 9 162zM160 606.001c15.333 0 24.667 -31.668 28 -95.001c2 -42 -2 -64.333 -12 -67
c-7.33301 -1.33301 -11.833 -0.333008 -13.5 3s-2.16699 14 -1.5 32c1.33301 24.667 0 52.334 -4 83.001c-2.66699 29.333 -1.66699 44 3 44z" />
    <glyph glyph-name="dollar" unicode="$" horiz-adv-x="386" 
d="M293 206c-12.667 16.667 -21.334 20.3359 -26.001 11.0029c-4 -8.66699 -7.66699 -39.334 -11 -92.001c-2 -32.667 -0.666992 -49.334 4 -50.001c0.666992 0 1.66699 0.333008 3 1c14 9.33301 25.833 28.166 35.5 56.499s7.83398 52.833 -5.49902 73.5zM175 314.002
c-5.33301 2 -9.16699 -35.334 -11.5 -112.001s-2.83301 -139.334 -1.5 -188.001c38 4.66699 57 22.334 57 53.001c0.666992 28 6.33398 93 17.001 195c-2.66699 2 -8.83398 7.66699 -18.501 17s-18.5 17.333 -26.5 24s-13.333 10.334 -16 11.001zM174.999 325.001
c2.66699 -2 5.33203 -2.16797 7.99902 -0.500977s4 3.83398 4 6.50098s-1.33301 5 -4 7c-2 1.33301 -4.33301 1.33301 -7 0s-4.16699 -3.33301 -4.5 -6s0.833984 -5 3.50098 -7zM102.997 501c-6 0 -12.6689 -5.99805 -20.002 -17.998s-11 -23.333 -11 -34
c0 -6 4 -14.667 12 -26s16.667 -20.833 26 -28.5s15.333 -9.83398 18 -6.50098c4 4 6.66699 27.667 8 71c0.666992 43.333 -1.66602 66 -6.99902 68c-3.33301 0.666992 -6.16602 -1.33301 -8.49902 -6s-5 -9.33398 -8 -14.001s-6.16699 -6.66699 -9.5 -6zM172.995 352.002
c6 -5.33301 12.998 -9.16895 20.998 -11.502s16 -6.5 24 -12.5l18 -14c0.666992 4.66699 1.16699 13.334 1.5 26.001s0.833008 23.667 1.5 33s2 15.666 4 18.999c4 6.66699 5.33301 31.334 4 74.001c-2 43.333 0.333008 67.333 7 72
c8.66699 4.66699 4.33398 11.334 -12.999 20.001c-8 4 -13.333 5.66699 -16 5c-27.333 -2 -44.333 -6.33301 -51 -13c-4.66699 -4.66699 -7.66699 -36.667 -9 -96c-1.33301 -60 1.33398 -94 8.00098 -102zM355.993 521.999c0 -8 -2.00098 -12.335 -6.00098 -13.002
c-4 0 -7.66699 4.66699 -11 14c-3.33301 7.33301 -6 10.666 -8 9.99902c-1.33301 -2 -9.5 0.333008 -24.5 7s-22.833 9.66699 -23.5 9c-0.666992 -1.33301 -2 -22.166 -4 -62.499s-3.83301 -80.5 -5.5 -120.5s-3.16699 -60 -4.5 -60c-2 -7.33301 4.66699 -18.666 20 -33.999
c16 -16 27.833 -34.5 35.5 -55.5s9.16699 -39.167 4.5 -54.5c-4 -16 -6 -25.333 -6 -28c1.33301 -4 -2.33398 -13.167 -11.001 -27.5s-14.667 -21.5 -18 -21.5c-4.66699 0 -7 -4.33301 -7 -13c-0.666992 -7.33301 -6.83398 -16.5 -18.501 -27.5s-18.167 -20.833 -19.5 -29.5
c-2.66699 -10.667 -5.66699 -17 -9 -19s-11.666 -2.33301 -24.999 -1c-23.333 0.666992 -38 0.333984 -44 -0.999023s-9 -5.66602 -9 -12.999c1.33301 -6.66699 -3 -12 -13 -16c-10.667 -4 -15.667 -1 -15 9c0 8.66699 -5.66699 14.667 -17 18
c-4.66699 0.666992 -10.167 3.5 -16.5 8.5s-11.833 10.167 -16.5 15.5l-15.5 18.5c-5.66699 7 -9.16699 11.167 -10.5 12.5c-5.33301 6.66699 -11.333 17 -18 31s-10 23.333 -10 28c1.33301 4.66699 10 -2.66602 26 -21.999c38 -42.667 60.333 -62.667 67 -60
c4 0.666992 6.66699 21 8 61c0 32.667 0.666992 84.334 2 155.001c1.33301 44 1.33301 71.833 0 83.5s-5 19.5 -11 23.5c-52 38 -78 66.667 -78 86c0 13.333 7.5 33.833 22.5 61.5s26.167 41.5 33.5 41.5c9.33301 0 20.333 7 33 21c10 10 15.833 18.333 17.5 25
s2.16699 22 1.5 46c-1.33301 46 1 67.333 7 64c2 -0.666992 4.33301 -4.33398 7 -11.001c5.33301 -16.667 7.33301 -50 6 -100c10 -0.666992 24.333 -0.333984 43 0.999023s32.667 2 42 2c0 89.333 0.333008 136.666 1 141.999
c4.66699 9.33301 9.33398 2.66602 14.001 -20.001c6.66699 -36 10 -77 10 -123c2.66699 -1.33301 7.66699 -4.33301 15 -9s13.833 -9 19.5 -13l18.5 -13.5c6.66699 -5 11.834 -9.66699 15.501 -14s5.5 -8.16602 5.5 -11.499z" />
    <glyph glyph-name="percent" unicode="%" horiz-adv-x="565" 
d="M452 265c-13.333 11.333 -19.335 19.9971 -18.002 25.9971c2 6.66699 13.667 1.66699 35 -15c28.667 -21.333 48.334 -48.666 59.001 -81.999s10.334 -66.666 -0.999023 -99.999c-7.33301 -22 -14 -36.333 -20 -43s-18.333 -14.334 -37 -23.001
c-30 -12.667 -59.167 -18.5 -87.5 -17.5s-45.166 8.83301 -50.499 23.5c-2.66699 9.33301 -7.33398 17.333 -14.001 24c-7.33301 8 -9.66602 23.833 -6.99902 47.5s8.66699 43.167 18 58.5c16.667 26.667 30.167 43.834 40.5 51.501s24.833 11.5 43.5 11.5
c21.333 0 37.333 -4.5 48 -13.5s17.334 -23.833 20.001 -44.5c1.33301 -7.33301 1.83301 -13.166 1.5 -17.499s-1.16602 -7.33301 -2.49902 -9s-3.66602 -2.5 -6.99902 -2.5c-7.33301 0 -11 4.33301 -11 13s-4 18.167 -12 28.5s-16.333 17.166 -25 20.499
s-19.334 1.5 -32.001 -5.5s-24.667 -17.5 -36 -31.5c-10 -12.667 -16 -28.834 -18 -48.501s0.333008 -37.834 7 -54.501c5.33301 -12 10 -19.333 14 -22s13.667 -4 29 -4c20.667 0 42.667 5.83301 66 17.5s38.666 24.834 45.999 39.501c7.33301 14 9.66602 31 6.99902 51
c-2.66699 18.667 -9.83398 40.834 -21.501 66.501s-23.167 43.834 -34.5 54.501zM71.998 278.997c7.33301 0 18.501 5.33301 33.501 16s24.167 19.334 27.5 26.001c1.33301 4.66699 5.33301 25 12 61c6.66699 34 6.66699 54 0 60c-4 4 -5.33301 8.5 -4 13.5
s-0.333984 8.83301 -5.00098 11.5c-7.33301 4 -12.333 5.83301 -15 5.5s-9 -4.5 -19 -12.5c-14.667 -12 -27 -32.833 -37 -62.5s-14.5 -56.834 -13.5 -81.501s7.83301 -37 20.5 -37zM128.999 504.997c0 12 4.33301 13 13 3c6.66699 -8.66699 13 -20.667 19 -36
c8.66699 -22.667 13 -52.667 13 -90s-4.33301 -64 -13 -80c-7.33301 -14 -18.5 -27.167 -33.5 -39.5s-27.5 -18.5 -37.5 -18.5c-8.66699 0 -28.667 8.33301 -60 25c3.33301 61.333 8.33301 102.333 15 123s18.667 44 36 70c14 21.333 25.333 32 34 32
c9.33301 0 14 3.66699 14 11zM130.999 9.99707c-10.667 0 -15.998 4.00195 -15.998 12.002c0 9.33301 18.667 50 56 122c92.667 184 146 293.667 160 329c13.333 35.333 22 69.666 26 102.999c0.666992 1.33301 2 2 4 2s4.5 -0.5 7.5 -1.5s5.83301 -2.5 8.5 -4.5
c5.33301 -2.66699 6 -12.334 2 -29.001c-8.66699 -37.333 -17.834 -68.166 -27.501 -92.499s-22 -51.5 -37 -81.5s-27.167 -56.333 -36.5 -79l-26 -55c-10.667 -22.667 -19.334 -40.334 -26.001 -53.001c-4 -6 -9.33301 -16.5 -16 -31.5s-12.667 -26.5 -18 -34.5
c-6 -8.66699 -15.667 -29.667 -29 -63c-6 -17.333 -11.167 -28.833 -15.5 -34.5s-9.83301 -8.5 -16.5 -8.5z" />
    <glyph glyph-name="ampersand" unicode="&#x26;" horiz-adv-x="188" 
d="M78 -186c-0.666992 0 -1.33008 12 -1.99707 36s-0.833984 49 -0.500977 75s0.833008 41.667 1.5 47c1.33301 1.33301 4.66602 1.33301 9.99902 0c9.33301 -3.33301 12.666 -30.5 9.99902 -81.5s-9 -76.5 -19 -76.5zM119.004 265c0 6 -15.332 7.66699 -45.999 5
c-31.333 -3.33301 -45.666 -1.66602 -42.999 5.00098c1.33301 4 10.333 9 27 15c13.333 4.66699 29.666 6.5 48.999 5.5s31 -4.5 35 -10.5c12 -18 -6 -42.333 -54 -73c-8.66699 -5.33301 -8 -8.33301 2 -9h12c24.667 -0.666992 41.667 -10 51 -28s8 -38.667 -4 -62
c-5.33301 -8.66699 -15 -16.834 -29 -24.501s-23.333 -9.83398 -28 -6.50098c-4.66699 2.66699 0.666016 8.33398 15.999 17.001c16 8.66699 24.333 19.667 25 33c1.33301 12.667 -3.16699 23 -13.5 31s-26.166 13.667 -47.499 17c-18.667 2.66699 -29.334 6 -32.001 10
c-1.33301 4.66699 7.33398 13 26.001 25c21.333 14.667 35.666 25.167 42.999 31.5s11 12.5 11 18.5zM98.0049 654c9.33301 0 16 -31.332 20 -93.999s1.66699 -101.334 -7 -116.001c-4 -6.66699 -6.33301 -10 -7 -10c-1.33301 -0.666992 -2 1 -2 5
c-0.666992 2.66699 -1 7.33398 -1 14.001c0 3.33301 -1.66699 19.833 -5 49.5s-6 58.167 -8 85.5s-2 44.666 0 51.999c2.66699 9.33301 6 14 10 14z" />
    <glyph glyph-name="quotesingle" unicode="'" horiz-adv-x="140" 
d="M37 376c-3.33301 0 -5.5 1.32715 -6.5 3.99414s-0.666992 8.33398 1 17.001s4.33398 19.834 8.00098 33.501s9.16699 32.834 16.5 57.501c5.33301 15.333 10.166 30.833 14.499 46.5s7.83301 27.834 10.5 36.501s6.66699 17.334 12 26.001c8.66699 11.333 14 12 16 2
c1.33301 -3.33301 1.33301 -8.66602 0 -15.999c-1.33301 -11.333 -8.5 -39.333 -21.5 -84s-23.5 -78 -31.5 -100c-6.66699 -15.333 -13 -23 -19 -23z" />
    <glyph glyph-name="parenleft" unicode="(" horiz-adv-x="180" 
d="M134 592c4.66699 -0.666992 7.83008 1.33203 9.49707 5.99902s3.16699 7.33398 4.5 8.00098c2 -1.33301 2.5 -8.16602 1.5 -20.499s-3.16699 -30 -6.5 -53s-7.66602 -47.167 -12.999 -72.5c-26.667 -136 -41.334 -219.667 -44.001 -251
c-0.666992 -9.33301 -3 -17.666 -7 -24.999c-6 -9.33301 -11.833 -40 -17.5 -92s-7.5 -92.333 -5.5 -121c4 -58 12 -84.333 24 -79c5.33301 2 11.666 12 18.999 30c6.66699 19.333 11.334 29 14.001 29c2.66699 -2.66699 1.33398 -15.334 -3.99902 -38.001
s-10.666 -38.334 -15.999 -47.001s-9.5 -13.334 -12.5 -14.001s-8.16699 1.66602 -15.5 6.99902c-14 9.33301 -23.5 23.833 -28.5 43.5s-7.16699 53.834 -6.5 102.501c0 64.667 10.333 144.334 31 239.001c6.66699 28 13.5 67.833 20.5 119.5s12.833 89.5 17.5 113.5
c12.667 76.667 24.334 115 35.001 115z" />
    <glyph glyph-name="parenright" unicode=")" horiz-adv-x="239" 
d="M157 550c4.66699 0 13.3359 -15.9971 26.0029 -47.9971s20.667 -58.667 24 -80c3.33301 -19.333 3.33301 -56.833 0 -112.5s-8 -95.834 -14 -120.501c-0.666992 -4.66699 -2 -11.834 -4 -21.501s-4.5 -20.667 -7.5 -33s-5.16699 -21.833 -6.5 -28.5
c-20.667 -94.667 -38.334 -143 -53.001 -145c-5.33301 -1.33301 -8.83301 -0.166016 -10.5 3.50098s-2.5 11.5 -2.5 23.5c0 19.333 3.66699 32 11 38c11.333 8 26.166 69.667 44.499 185s23.166 178.666 14.499 189.999c-2.66699 4 -6 14.667 -10 32
c-8 33.333 -21.5 64.166 -40.5 92.499s-40.833 45.833 -65.5 52.5c-4.66699 0 -12 3.66699 -22 11c-10 6.66699 -12.333 14.667 -7 24c2.66699 4.66699 4.66699 7.66699 6 9s2.83301 1.5 4.5 0.5s4.83398 -3.16699 9.50098 -6.5c7.33301 -7.33301 13.333 -10.333 18 -9
c8.66699 2 21.167 -1.33301 37.5 -10s26.833 -17.667 31.5 -27c7.33301 -13.333 12.666 -20 15.999 -20z" />
    <glyph glyph-name="asterisk" unicode="*" 
d="M214 376c0 -8.66699 6.99902 -8.66699 20.999 0c10 6.66699 10.667 10 2 10c-11.333 0.666992 -18.666 -2 -21.999 -8zM95.999 418c0.666992 -1.33301 -6.16895 -11.333 -20.502 -30s-20.166 -29 -17.499 -31c2.66699 -3.33301 15.334 -5 38.001 -5s35.667 1.66699 39 5
c2.66699 2.66699 -1.33301 14.667 -12 36c-10 22 -18 32.667 -24 32c-2 0 -3 -2.33301 -3 -7zM177.996 503c1.33301 22 -1 33 -7 33c-3.33301 0 -6.33301 -4.66699 -9 -14c-2 -8 -7 -16 -15 -24c-6.66699 -7.33301 -8.5 -14.5 -5.5 -21.5s9.16699 -9.83301 18.5 -8.5
c6.66699 0.666992 11 3.16699 13 7.5s3.66699 13.5 5 27.5zM158.996 295c0 15.333 -4.00098 25.0039 -12.001 29.0039s-26.667 5.33301 -56 4c-37.333 -1.33301 -57.333 0.666992 -60 6c-5.33301 8 6 35.667 34 83l18 31c-10.667 9.33301 -23.667 19.666 -39 30.999l16 15
c7.33301 7.33301 12.833 11.166 16.5 11.499s9.16699 -1.83398 16.5 -6.50098c8.66699 -5.33301 15 -6.5 19 -3.5s13.667 16.5 29 40.5c36 54.667 49.333 82.667 40 84c-2 0 -1.33301 1 2 3l7 3c11.333 4.66699 18.333 0.333984 21 -12.999
c2.66699 -12 4.33398 -40.333 5.00098 -85v-84l27 -12c19.333 -10 29 -19.833 29 -29.5s-10 -21.834 -30 -36.501c-14 -10 -23.5 -18.5 -28.5 -25.5s-8.16699 -16.167 -9.5 -27.5c-2.66699 -18.667 -9 -30 -19 -34c-17.333 -6.66699 -26 -1.33398 -26 15.999z" />
    <glyph glyph-name="plus" unicode="+" 
d="M119 429c4.66699 -5.33301 7.83203 -14.667 9.49902 -28s3.5 -24 5.5 -32c4.66699 -20.667 10.667 -31.667 18 -33s29 4 65 16c32.667 12 50.667 16.333 54 13c2 -2 -0.166992 -5.83301 -6.5 -11.5s-15.833 -12 -28.5 -19s-26.667 -13.5 -42 -19.5
c-1.33301 -0.666992 -3.66602 -1.66699 -6.99902 -3c-18.667 -7.33301 -29.334 -14.666 -32.001 -21.999c-4 -8.66699 -3.66699 -35.667 1 -81c0.666992 -9.33301 1.33398 -16.333 2.00098 -21c3.33301 -36.667 2.66602 -55 -2.00098 -55c-8 0 -13.833 6.16699 -17.5 18.5
s-6.5 34.166 -8.5 65.499c-2.66699 42.667 -5.33398 65.334 -8.00098 68.001c-3.33301 3.33301 -18.666 5 -45.999 5c-20 0 -32.5 0.833008 -37.5 2.5s-7.83301 5.83398 -8.5 12.501c0.666992 3.33301 0.666992 6 0 8s1 3.66699 5 5s8.33301 2.16602 13 2.49902
s12.667 0.833008 24 1.5l44 2c0 2 -0.333008 8.33301 -1 19s-1.16699 20.167 -1.5 28.5s-0.666016 17.5 -0.999023 27.5s0.166992 17.667 1.5 23s3 7.66602 5 6.99902z" />
    <glyph glyph-name="comma" unicode="," horiz-adv-x="139" 
d="M109 23c0 -32 -1.33203 -54.334 -3.99902 -67.001s-9.33398 -30 -20.001 -52c-4 -8 -10.5 -11.167 -19.5 -9.5s-17.167 7.5 -24.5 17.5c-11.333 15.333 -14.333 25.333 -9 30c2.66699 2 7 0 13 -6c13.333 -13.333 23 -13 29 1c3.33301 8 7 23.667 11 47
c4 26 3.33301 50 -2 72c-4.66699 24 -3.66699 38.333 3 43c10.667 6.66699 17.667 0.333984 21 -18.999c1.33301 -12 2 -31 2 -57z" />
    <glyph glyph-name="hyphen" unicode="-" horiz-adv-x="350" 
d="M141 244c-0.666992 -2.66699 -6.99902 -4.66504 -18.999 -5.99805s-18.333 -3.66602 -19 -6.99902c-3.33301 -4.66699 21.667 -7 75 -7c54 0 81 2.33301 81 7c0 7.33301 9 7.66602 27 0.999023c10 -4 18 -9 24 -15c4.66699 -4.66699 7.5 -7.66699 8.5 -9
s1 -2.83301 0 -4.5s-4.16699 -3.83398 -9.5 -6.50098c-8 -4 -53.667 -6.83301 -137 -8.5s-128 -0.5 -134 3.5c-5.33301 3.33301 -8 8.16602 -8 14.499s2.66699 11.166 8 14.499c7.33301 4.66699 24.333 10.334 51 17.001c33.333 6.66699 50.666 8.66699 51.999 6z" />
    <glyph glyph-name="period" unicode="." horiz-adv-x="135" 
d="M47 22c-8.66699 -0.666992 -14 2.49902 -16 9.49902s-2 13.833 0 20.5s4.33301 13 7 19c4.66699 8 8.83398 12.333 12.501 13s12.5 -1.66602 26.5 -6.99902c10.667 -3.33301 18.5 -8.5 23.5 -15.5s5.83301 -13.167 2.5 -18.5c-2 -2 -7.83301 -2.5 -17.5 -1.5
s-14.834 -1.5 -15.501 -7.5c-3.33301 -8 -11 -12 -23 -12z" />
    <glyph glyph-name="slash" unicode="/" horiz-adv-x="309" 
d="M176 298c0 -4 -4.83105 -14.8359 -14.498 -32.5029s-14.167 -29.167 -13.5 -34.5c0 -9.33301 -2 -14.666 -6 -15.999c-7.33301 -2 -27 -49.333 -59 -142c-6.66699 -20 -11.834 -32.333 -15.501 -37s-9.83398 -7 -18.501 -7c-12.667 0 -19 3 -19 9
c0 10.667 4.5 30 13.5 58s17.167 48.667 24.5 62c26 44 57.833 116.333 95.5 217s60.167 173 67.5 217c1.33301 7.33301 2.83301 15 4.5 23l4.5 21l2 10c2.66699 6 9 8.33301 19 7c12 -0.666992 18.167 -11 18.5 -31s-2.83398 -34.667 -9.50098 -44
c-7.33301 -14.667 -9.66602 -24 -6.99902 -28c3.33301 -5.33301 -2.66699 -31.166 -18 -77.499s-31.333 -87.166 -48 -122.499c-14 -28 -21 -45.333 -21 -52z" />
    <glyph glyph-name="zero" unicode="0" horiz-adv-x="387" 
d="M303 510c0 2 -6.66504 10.5 -19.998 25.5s-19 24.833 -17 29.5c1.33301 8 -4 16.667 -16 26c-41.333 32 -81.333 10.333 -120 -65c-32 -62 -54.167 -135.5 -66.5 -220.5s-11.5 -157.5 2.5 -217.5c9.33301 -40.667 31.666 -57.667 66.999 -51
c37.333 7.33301 73.666 36.333 108.999 87c16.667 23.333 30.667 49 42 77c19.333 46 32 85 38 117s7.66699 67 5 105c-2.66699 40.667 -7.66699 64.667 -15 72c-6 4 -9 9 -9 15zM296.002 577c0 5.33301 -6.32715 19.5039 -18.9941 42.5039s-20.334 34.5 -23.001 34.5
s-6 3.66699 -10 11c-2.66699 7.33301 -2.33398 10.666 0.999023 9.99902c7.33301 0 19.666 -9.66699 36.999 -29c18 -20.667 25.667 -34.667 23 -42c-1.33301 -4.66699 -1.33301 -7.5 0 -8.5s3.66602 -0.833008 6.99902 0.5c4 1.33301 7.33301 -0.333984 10 -5.00098
s6 -14.334 10 -29.001c12.667 -42.667 20.167 -74 22.5 -94s2.83301 -52 1.5 -96c-1.33301 -38.667 -3.33301 -66.167 -6 -82.5s-8.33398 -34.833 -17.001 -55.5c-36.667 -92.667 -81.334 -157 -134.001 -193s-99.667 -34.667 -141 4
c-8.66699 7.33301 -14.167 15.833 -16.5 25.5s-4.83301 30.834 -7.5 63.501c-4.66699 59.333 -5.5 106.166 -2.5 140.499s11.167 76.166 24.5 125.499c8.66699 32.667 23.5 71.334 44.5 116.001s38.5 74 52.5 88c8 6.66699 17 12.167 27 16.5s21.167 7.16602 33.5 8.49902
s22.833 -2.66699 31.5 -12c15.333 -10 25.333 -20 30 -30c6.66699 -12.667 12.667 -18 18 -16c2 0.666992 3 2.66699 3 6zM230.008 668.004c-4 -5.33301 -10.999 -5.33301 -20.999 0c-6.66699 4 -5.66699 6.33301 3 7h8c2.66699 0 5 -0.333008 7 -1s3.16699 -1.5 3.5 -2.5
s0.166016 -2.16699 -0.500977 -3.5z" />
    <glyph glyph-name="one" unicode="1" horiz-adv-x="692" 
d="M335 661c12.667 -10.667 20.668 -22.1689 24.001 -34.502s7 -37.5 11 -75.5c4 -48.667 5.83301 -113.667 5.5 -195s-2.5 -127 -6.5 -137c-3.33301 -3.33301 -6.66602 -29 -9.99902 -77s-1.66602 -72.333 5.00098 -73c16.667 -4.66699 85.667 4 207 26
c56 9.33301 85.667 12.666 89 9.99902c1.33301 -1.33301 2 -3.66602 2 -6.99902c0 -5.33301 -3 -6.66602 -9 -3.99902s-12 -0.333008 -18 -9c-5.33301 -8 -27.5 -14.333 -66.5 -19s-62.167 -9 -69.5 -13c-27.333 -7.33301 -57 -12 -89 -14
c-28.667 -2.66699 -48.334 -6.66699 -59.001 -12s-16 -14 -16 -26c0 -13.333 -10.667 -20 -32 -20c-6 0 -9 8.33301 -9 25c0 12 -1 18.833 -3 20.5s-9 1.5 -21 -0.5c-113.333 -12.667 -189.333 -20.334 -228 -23.001c-6.66699 0.666992 -10.667 3.83398 -12 9.50098
s1 10.167 7 13.5c0 1.33301 22 5.16602 66 11.499l132 19c44 6.33301 66 10.5 66 12.5c13.333 16 21.666 107.667 24.999 275c2.66699 123.333 1.66699 185 -3 185c-6.66699 0 -22.667 -44.667 -48 -134c0 -3.33301 -1 -5.66602 -3 -6.99902s-4.66699 -1.83301 -8 -1.5
s-6.5 1 -9.5 2l-9 3c-3 1 -4.83301 1.5 -5.5 1.5c-4 2.66699 -4 16.834 0 42.501s8.33301 39.834 13 42.501c2.66699 2 4.66699 8.66699 6 20s4.66602 17.666 9.99902 18.999c6 2 10 15.667 12 41c2 22.667 11 46 27 70c16 22 25 33 27 33z" />
    <glyph glyph-name="two" unicode="2" horiz-adv-x="432" 
d="M291 165c-4 13.333 -23.832 23.001 -59.499 29.001s-57.5 6.66699 -65.5 2c-6.66699 -4 -16 -4.66699 -28 -2c-7.33301 1.33301 -14 0.166016 -20 -3.50098s-15.667 -12.167 -29 -25.5c-15.333 -16 -24.166 -26.833 -26.499 -32.5s-1.83301 -15.5 1.5 -29.5
c4.66699 -22 14 -35.667 28 -41s36 -4 66 4c32.667 8 57.167 16 73.5 24s31.166 18.667 44.499 32c12 12 18.667 20 20 24s-0.333984 10.333 -5.00098 19zM318.001 119.001c-2.66699 0.666992 -6.16797 -2.50488 -10.501 -9.50488s-7.5 -10.5 -9.5 -10.5
c-4 0 -13 -6.33301 -27 -19c-11.333 -10 -24.833 -17.833 -40.5 -23.5s-43.167 -13.5 -82.5 -23.5c-22.667 -5.33301 -37.834 -8.16602 -45.501 -8.49902s-17.167 1.83398 -28.5 6.50098c-30 12.667 -44.5 36 -43.5 70s16.833 63.667 47.5 89c40 33.333 88 48.333 144 45
c20.667 -1.33301 40.834 -5.83301 60.501 -13.5s31.167 -15.167 34.5 -22.5c4.66699 -12.667 10.334 -11.334 17.001 3.99902l7 16c14 36 19.333 78.5 16 127.5s-14.666 92.833 -33.999 131.5c-17.333 34.667 -31.666 55.334 -42.999 62.001
c-14 9.33301 -38.667 12.833 -74 10.5s-53 -8.16602 -53 -17.499c1.33301 -3.33301 -4.83398 -13.666 -18.501 -30.999s-19.834 -27.333 -18.501 -30c2.66699 -4 1.33398 -9 -3.99902 -15c-2.66699 -1.33301 -5 -7.16602 -7 -17.499s-3.66699 -22.5 -5 -36.5
s-2 -21.667 -2 -23c-1.33301 0 -2.66602 -14.667 -3.99902 -44c-0.666992 -23.333 -3.16699 -39.166 -7.5 -47.499s-11.166 -10.5 -20.499 -6.5c-4.66699 1.33301 -7.33398 7 -8.00098 17s-0.333984 32.667 0.999023 68c3.33301 64 6.33301 102.667 9 116
c0 3.33301 4 5 12 5c6.66699 0 12.667 5 18 15c7.33301 14 20.5 30 39.5 48s32.5 27 40.5 27c10.667 0 17 1.66699 19 5c2.66699 4 16 5.33301 40 4s38.333 -4.33301 43 -9c2 -2.66699 7.66699 -4.66699 17 -6s14.333 -4 15 -8c0 -4.66699 4.33301 -11.334 13 -20.001
c17.333 -17.333 31.666 -49 42.999 -95c2.66699 -11.333 5.16699 -30.666 7.5 -57.999s3.66602 -50.833 3.99902 -70.5s-0.5 -31.167 -2.5 -34.5c-3.33301 0 -5.66602 -13.333 -6.99902 -40c-0.666992 -26 -5 -41.667 -13 -47c-6.66699 -4.66699 -10 -14 -10 -28
s3 -25.333 9 -34c8 -12 15.5 -29.833 22.5 -53.5s10.5 -43.5 10.5 -59.5c0 -18 2.66699 -32.333 8 -43c6 -9.33301 6 -17 0 -23c-10.667 -10.667 -18.667 -3.33398 -24 21.999l-1 8c-1.33301 14.667 -9.5 40.167 -24.5 76.5s-24.833 54.5 -29.5 54.5z" />
    <glyph glyph-name="three" unicode="3" horiz-adv-x="398" 
d="M278 324c0 -4 9.66699 -10.667 29 -20c16 -8 30.167 -21.167 42.5 -39.5s18.5 -35.833 18.5 -52.5c0 -18 -12.833 -38.833 -38.5 -62.5s-55.667 -43.167 -90 -58.5s-63.166 -21 -86.499 -17c-15.333 2.66699 -29.5 8.5 -42.5 17.5s-19.5 17.5 -19.5 25.5
c0 6 -2.33301 8 -7 6c-3.33301 -2 -6.66602 1 -9.99902 9c-3.33301 12 -4.33301 24.333 -3 37c1.33301 8.66699 3.66602 10.667 6.99902 6l15 -22c12.667 -22 28 -35.667 46 -41c23.333 -7.33301 52 -5.5 86 5.5s64.333 28.167 91 51.5c14 12.667 21.667 23.834 23 33.501
s-3 22.834 -13 39.501c-12 19.333 -31.833 33.333 -59.5 42s-50.5 8.33398 -68.5 -0.999023c-39.333 -15.333 -60.333 -15.666 -63 -0.999023c-0.666992 5.33301 1.33301 12 6 20c8 16.667 41.333 31 100 43c17.333 3.33301 31.333 14.166 42 32.499s16 41.5 16 69.5
c0 32 -4.66699 64.833 -14 98.5s-19.666 55.5 -30.999 65.5c-12.667 10 -23 15 -31 15c-7.33301 0 -20.166 -5.66699 -38.499 -17s-29.5 -20.666 -33.5 -27.999c-3.33301 -6.66699 -8 -10 -14 -10c-13.333 0 -24.333 -28 -33 -84c-2 -15.333 -4.83301 -29 -8.5 -41
s-5.83398 -26.667 -6.50098 -44c0 -17.333 -3.16699 -31.666 -9.5 -42.999s-14.166 -17 -23.499 -17c-6 0 -9.83301 3.16699 -11.5 9.5s-2.83398 22.166 -3.50098 47.499c-0.666992 41.333 -3.66699 80.666 -9 117.999c-3.33301 28 -1 46.333 7 55
c8.66699 9.33301 14.834 13.166 18.501 11.499s8.16699 -9.5 13.5 -23.5c6 -16 10.333 -24 13 -24c2 0 12.333 11.667 31 35c25.333 32.667 53.666 55.667 84.999 69c15.333 6.66699 34.666 4.5 57.999 -6.5s39.666 -25.5 48.999 -43.5
c4.66699 -8.66699 9.5 -31.334 14.5 -68.001s7.83301 -68 8.5 -94c0 -19.333 -1.33301 -32.333 -4 -39s-10 -16.667 -22 -30c-17.333 -18.667 -26 -30.334 -26 -35.001z" />
    <glyph glyph-name="four" unicode="4" horiz-adv-x="385" 
d="M217 64c-6 2.66699 -9.00293 11.832 -9.00293 27.499s2.83301 35.334 8.5 59.001s12.5 42.167 20.5 55.5c6.66699 12 14.834 41 24.501 87s12.834 70.667 9.50098 74s-21.333 -2.66699 -54 -18c-40.667 -18.667 -77.5 -31.167 -110.5 -37.5s-56.167 -5.5 -69.5 2.5
c-4.66699 3.33301 -7 6.5 -7 9.5s2.33301 9.5 7 19.5c4 7.33301 12.167 27 24.5 59s20.166 51.333 23.499 58c4.66699 9.33301 10.5 28.833 17.5 58.5s10.5 50.5 10.5 62.5c0 10.667 3 18.334 9 23.001s16.333 7.33398 31 8.00098c9.33301 1.33301 10.666 -12 3.99902 -40
c-2 -8 -14.667 -47 -38 -117c-4 -12 -6 -19.333 -6 -22c-2.66699 -10 -8.66699 -24.5 -18 -43.5s-15 -34.833 -17 -47.5c46 0 76.667 5.33301 92 16c5.33301 4.66699 13 8.16699 23 10.5s17 4.83301 21 7.5c2.66699 2 9.66699 5 21 9s21.5 8.5 30.5 13.5
s13.833 10.167 14.5 15.5c1.33301 -0.666992 3.66602 10.333 6.99902 33s7.5 52.667 12.5 90s8.83301 64.333 11.5 81c2.66699 6 9 8.33301 19 7c10.667 -0.666992 17.334 -9.33398 20.001 -26.001c2.66699 -13.333 2.33398 -36.5 -0.999023 -69.5s-8 -57.167 -14 -72.5
c-4.66699 -12.667 -6.66699 -19.667 -6 -21s5 -1 13 1c8.66699 2.66699 13 2 13 -2s-4.33301 -11.667 -13 -23c-6.66699 -8.66699 -15.167 -32.834 -25.5 -72.501s-17.5 -63.167 -21.5 -70.5c-6 -10.667 -12.333 -31.667 -19 -63c-7.33301 -36 -17.166 -68.667 -29.499 -98
s-22.166 -44 -29.499 -44z" />
    <glyph glyph-name="five" unicode="5" horiz-adv-x="416" 
d="M365 456c-5.33301 0 -9.00098 2.16797 -11.001 6.50098s-3.33301 14.833 -4 31.5c-1.33301 24 -4.33301 39.333 -9 46c-4 4.66699 -47.833 6.5 -131.5 5.5s-128.167 -4.16699 -133.5 -9.5c-3.33301 -3.33301 -3.33301 -9.33301 0 -18c4 -7.33301 8.66699 -30.333 14 -69
s8 -68 8 -88c0 -12.667 1 -20 3 -22s7.66699 -2.33301 17 -1c40.667 7.33301 73.5 9.5 98.5 6.5s47.5 -12.167 67.5 -27.5c15.333 -11.333 24.666 -17 27.999 -17c2.66699 0 10.334 -12 23.001 -36c8 -16.667 12.833 -30.5 14.5 -41.5s2.16699 -30.5 1.5 -58.5
c-1.33301 -41.333 -5.66602 -70.666 -12.999 -87.999c-6 -14.667 -15.333 -28.5 -28 -41.5s-23.334 -19.5 -32.001 -19.5s-13 -1.66699 -13 -5c0 -4.66699 -13 -6.33398 -39 -5.00098c-55.333 1.33301 -100 22 -134 62c-24.667 23.333 -41 49 -49 77
c0 0.666992 1.83301 -0.5 5.5 -3.5s8.83398 -7.66699 15.501 -14l21 -20.5c67.333 -68 128 -90.333 182 -67c20.667 8.66699 34.167 19.167 40.5 31.5s9.83301 35.166 10.5 68.499c1.33301 34.667 -0.666992 63 -6 85c-4 14 -14 30.167 -30 48.5s-31.667 31.5 -47 39.5
c-12 6 -31.833 8.16699 -59.5 6.5s-49.5 -6.83398 -65.5 -15.501c-13.333 -6.66699 -25.666 -10 -36.999 -10c-6.66699 0 -11 1.16699 -13 3.5s-2.66699 6.5 -2 12.5c1.33301 14 -0.333984 43.667 -5.00098 89s-9.66699 78.333 -15 99c-7.33301 28.667 -9 46.334 -5 53.001
c5.33301 8 29.666 13 72.999 15c4.66699 0 18 0.666992 40 2c93.333 4.66699 145 7 155 7c32 1.33301 49.333 3.33301 52 6c7.33301 7.33301 15 0.333008 23 -21l7 -27c4 -22 4.33301 -40.167 1 -54.5s-9.66602 -21.5 -18.999 -21.5z" />
    <glyph glyph-name="six" unicode="6" horiz-adv-x="357" 
d="M327 292c0 -2 -7.16797 -13.6699 -21.501 -35.0029s-21.166 -33.333 -20.499 -36c-2 -4.66699 -15 -24.834 -39 -60.501s-36.667 -59.167 -38 -70.5c-3.33301 -13.333 -6.66602 -22.5 -9.99902 -27.5s-8.66602 -8.16699 -15.999 -9.5
c-6.66699 -0.666992 -21.334 -6 -44.001 -16s-38 -15 -46 -15c-8.66699 0 -18.667 5.16699 -30 15.5s-17.333 19.5 -18 27.5c0 1.33301 -0.5 5.5 -1.5 12.5s-2.16699 16 -3.5 27l-4 31.5c-3.33301 14.667 -4.83301 30.834 -4.5 48.501s1 31.334 2 41.001
s3.33301 24.334 7 44.001s5.83398 30.834 6.50098 33.501c8.66699 52 29.667 117.667 63 197s60.666 129 81.999 149c12.667 11.333 23.667 16.833 33 16.5s14.666 -6.83301 15.999 -19.5c0.666992 -6 0 -10.167 -2 -12.5s-4.66699 -3 -8 -2s-6.5 1 -9.5 0
s-4.5 -3.5 -4.5 -7.5c0 -8 -2.33301 -12 -7 -12c-8 0 -27.167 -33.833 -57.5 -101.5s-50.833 -123.167 -61.5 -166.5c-10 -36.667 -15.333 -89.667 -16 -159c0 -52 2.16699 -87.5 6.5 -106.5s12.5 -28.5 24.5 -28.5c8.66699 0 21.834 10.333 39.501 31s33.5 44 47.5 70
c18.667 35.333 38.167 68 58.5 98s34.166 47 41.499 51c6.66699 4 14.167 5 22.5 3s12.5 -5.66699 12.5 -11z" />
    <glyph glyph-name="seven" unicode="7" horiz-adv-x="524" 
d="M357 578c16 0 25.4951 -1.00195 28.4951 -3.00195s4.5 -8.33301 4.5 -19c-14.667 -86 -42.334 -161 -83.001 -225c-6 -10.667 -11 -21.167 -15 -31.5s-6.33301 -18.333 -7 -24s0.333008 -9.16699 3 -10.5c42.667 -2.66699 88.667 1 138 11
c36 7.33301 56.333 9.66602 61 6.99902c6.66699 -4 8.83398 -9 6.50098 -15s-8.16602 -10 -17.499 -12c-46 -9.33301 -105.333 -19 -178 -29c-14 -1.33301 -23.667 -3.66602 -29 -6.99902s-10.333 -9.66602 -15 -18.999c-2.66699 -6.66699 -8 -15 -16 -25s-13 -18 -15 -24
c0 -4.66699 -9.33301 -26.334 -28 -65.001c-19.333 -38.667 -33 -58 -41 -58c-6 0 -9.16699 1.66699 -9.5 5s1.5 12.666 5.5 27.999c8 28 26.667 66.667 56 116c12 17.333 17 28.666 15 33.999c-1.33301 4.66699 -31 6.33398 -89 5.00098
c-56.667 -0.666992 -87.334 2 -92.001 8c-2.66699 2.66699 -2.66699 7.66699 0 15s30.334 11 83.001 11c53.333 0 86 1.66699 98 5c10 2.66699 19.667 8.33398 29 17.001s14.333 16.667 15 24c0 6 11.333 34 34 84c46.667 105.333 66 162 58 170
c-7.33301 6.66699 -37.833 7.33398 -91.5 2.00098s-94.5 -13.333 -122.5 -24c-18 -7.33301 -35.333 -17.5 -52 -30.5s-27.334 -24.833 -32.001 -35.5c-7.33301 -16 -14.666 -24 -21.999 -24c-6 -0.666992 -8 9.33301 -6 30c0.666992 8.66699 2.33398 21.334 5.00098 38.001
l3 29c0.666992 11.333 5.33398 18.333 14.001 21c6.66699 0 10.334 -4.33301 11.001 -13c0 -9.33301 2.33301 -14 7 -14s18.334 4.66699 41.001 14c15.333 7.33301 47 15.5 95 24.5s82.333 13.167 103 12.5c16 -2 31.667 -3 47 -3z" />
    <glyph glyph-name="eight" unicode="8" horiz-adv-x="394" 
d="M317 182c0 6 -6.00098 15.6689 -18.001 29.002s-21 20 -27 20c-4 0.666992 -19.5 9.33398 -46.5 26.001s-43.5 25.334 -49.5 26.001c-8.66699 2 -14.667 1.33301 -18 -2s-8.33301 -13 -15 -29c-10 -23.333 -17.333 -34.333 -22 -33
c-5.33301 1.33301 -11.666 -16.334 -18.999 -53.001c-6 -26.667 -9 -42.834 -9 -48.501s3 -11.834 9 -18.501c6 -6 12.167 -8.83301 18.5 -8.5s23.5 4.16602 51.5 11.499c96.667 25.333 145 52 145 80zM73.999 435.002c0 -12 9.33203 -30.4971 27.999 -55.4971
s32.334 -37.5 41.001 -37.5c9.33301 0 27.333 15.667 54 47c66.667 74.667 101.667 106.667 105 96c1.33301 -6 2.83301 -9 4.5 -9s5.5 3 11.5 9c8.66699 7.33301 13 14.666 13 21.999c0 10.667 -5.5 25.167 -16.5 43.5s-21.5 30.5 -31.5 36.5
c-30 17.333 -61.333 14 -94 -10c-43.333 -32.667 -73.333 -59.334 -90 -80.001s-25 -41.334 -25 -62.001zM185.998 323.005c0 -5.33301 10.8262 -15.3301 32.4932 -29.9971s43.5 -27 65.5 -37c40.667 -18.667 61 -44.334 61 -77.001c0 -14 -11.667 -29.833 -35 -47.5
s-49.666 -30.834 -78.999 -39.501l-27.5 -8.5c-11.667 -3.66699 -21.667 -6.66699 -30 -9l-19.5 -5.5c-19.333 -6 -37.666 -8.66699 -54.999 -8s-28 4 -32 10c-9.33301 15.333 -9.66602 41.5 -0.999023 78.5s23.667 76.167 45 117.5l22 40l-47 46
c-25.333 26 -41.666 47.167 -48.999 63.5s-8.66602 34.5 -3.99902 54.5c6 22 29.167 50.667 69.5 86s73.833 56.333 100.5 63c32.667 7.33301 51 7.33301 55 0c2 -3.33301 9.66699 -7 23 -11c20.667 -4.66699 40.834 -21.5 60.501 -50.5s26.5 -51.833 20.5 -68.5
c-5.33301 -12.667 -14.5 -23.834 -27.5 -33.501s-27.167 -15.167 -42.5 -16.5c-5.33301 0 -10.166 -0.666992 -14.499 -2s-7.5 -2.5 -9.5 -3.5s-2.66699 -2.16699 -2 -3.5c2.66699 -4.66699 0.666992 -8 -6 -10c-5.33301 -2 -19 -17.667 -41 -47s-33 -46.333 -33 -51z" />
    <glyph glyph-name="nine" unicode="9" horiz-adv-x="388" 
d="M193 371c0 4 1.66504 5.33301 4.99805 4c5.33301 -1.33301 15 0.833984 29 6.50098s23 10.834 27 15.501c24 28 36.333 74 37 138c1.33301 46.667 -0.666992 72.667 -6 78c-6.66699 6.66699 -19.5 10 -38.5 10s-36.167 -3.33301 -51.5 -10
c-24 -10.667 -49 -30.667 -75 -60s-43.667 -57.333 -53 -84c-7.33301 -22 -9.16602 -39 -5.49902 -51s13.834 -22.333 30.501 -31c9.33301 -4.66699 22.333 -8.83398 39 -12.501s30.667 -5.83398 42 -6.50098s18 0.333008 20 3zM309.998 384
c-7.33301 -15.333 -11.833 -27.1738 -13.5 -35.5068s-3.16699 -20.5 -4.5 -36.5s-4 -34 -8 -54c-9.33301 -48 -15.333 -85.333 -18 -112c-2 -18.667 -4.16699 -30 -6.5 -34s-7.16602 -6 -14.499 -6c-12 -1.33301 -18.5 7 -19.5 25s0.833008 32.667 5.5 44
c5.33301 15.333 12.333 50.333 21 105s11.667 83.334 9 86.001s-14 -0.666016 -34 -9.99902c-36.667 -16 -74.667 -18 -114 -6c-6 2 -14.833 4 -26.5 6s-19.834 5.33301 -24.501 10c-2.66699 3.33301 -7.16699 7.33301 -13.5 12s-11 10 -14 16s-4.5 15.667 -4.5 29
c0 18.667 3.33301 36.667 10 54s12.167 29.5 16.5 36.5s15 20 32 39s26.167 29.167 27.5 30.5c30 34.667 63.333 56.334 100 65.001c6 3.33301 22.333 3.5 49 0.5s43 -4.5 49 -4.5c13.333 -0.666992 21.5 -2.16699 24.5 -4.5s5.83301 -9.16602 8.5 -20.499
c0.666992 -6 2.16699 -13.5 4.5 -22.5s4 -16.167 5 -21.5s0.833008 -11.666 -0.5 -18.999s-4.33301 -14 -9 -20c-8 -9.33301 -15 -34.666 -21 -75.999s-11.333 -66.666 -16 -75.999z" />
    <glyph glyph-name="colon" unicode=":" horiz-adv-x="137" 
d="M48 200c-2 24.667 -0.998047 38 3.00195 40c4 1.33301 11.667 -1.33398 23 -8.00098c17.333 -10 25.666 -22.667 24.999 -38s-10.334 -23.666 -29.001 -24.999c-7.33301 -0.666992 -12.333 0.833008 -15 4.5s-5 12.5 -7 26.5zM100.002 501
c-4.66699 0 -6.99902 -5.33594 -6.99902 -16.0029c0 -12 -5 -21.333 -15 -28s-20.333 -7.66699 -31 -3s-16.334 14.334 -17.001 29.001s4 27.334 14 38.001c8.66699 8.66699 14.167 13.334 16.5 14.001s10.5 -1.66602 24.5 -6.99902c12 -4.66699 19.333 -11 22 -19
c0 -4.66699 -2.33301 -7.33398 -7 -8.00098z" />
    <glyph glyph-name="semicolon" unicode=";" horiz-adv-x="155" 
d="M75 224c8.66699 0 13.668 -5.49805 15.001 -16.498s-0.666992 -30.5 -6 -58.5c-11.333 -68.667 -25 -108.334 -41 -119.001c-8 -5.33301 -12.333 -7.33301 -13 -6c-0.666992 2.66699 4.33301 31 15 85c7.33301 31.333 12.666 58.666 15.999 81.999c3.33301 22 8 33 14 33
zM86.001 412.002c-6 6 -9.00098 4 -9.00098 -6c0 -2 -0.166992 -3.66699 -0.5 -5s-0.666016 -2.83301 -0.999023 -4.5s-0.833008 -3.16699 -1.5 -4.5c-2.66699 -6 -3.5 -9 -2.5 -9s4.5 3 10.5 9c8 8 9.33301 14.667 4 20zM98 460.002c11.333 0 19.3359 -2.33301 24.0029 -7
s4 -10 -2 -16c-4.66699 -4.66699 -7 -12.667 -7 -24c0 -16.667 -5.66699 -31.5 -17 -44.5s-24 -19.5 -38 -19.5c-4.66699 0 -8 3.5 -10 10.5s-1.83301 16.333 0.5 28s6.16602 23.167 11.499 34.5c7.33301 16.667 13.166 27.167 17.499 31.5s11.166 6.5 20.499 6.5z" />
    <glyph glyph-name="equal" unicode="=" horiz-adv-x="384" 
d="M354 338c0 -7.33301 -6.16895 -16.835 -18.502 -28.502s-24.166 -19.167 -35.499 -22.5c-80 -19.333 -152.667 -14.666 -218 14.001l-36 16l20 16c20.667 16.667 34.334 20.667 41.001 12c2 -2.66699 2.66699 -6.66699 2 -12c-2 -23.333 37 -33.333 117 -30
c38.667 0.666992 69.667 7.33398 93 20.001c23.333 12 35 17 35 15zM318.998 494.998c0 -5.33301 -5 -8.66797 -15 -10.001c-76 -14 -138.667 -20.667 -188 -20c-57.333 0.666992 -86 5.33398 -86 14.001c0 6 10.333 15 31 27c28 16.667 51.333 15.667 70 -3
c6.66699 -6.66699 39.667 -8.66699 99 -6s89 2 89 -2z" />
    <glyph glyph-name="greater" unicode="&#x3e;" horiz-adv-x="441" 
d="M134 140c-7.33301 0 -8.00098 6.66699 -2.00098 20l9 14c7.33301 8 16.666 15.333 27.999 22c14.667 8 42.167 27.333 82.5 58s69.166 54.667 86.499 72c24.667 23.333 36 39.333 34 48c0 1.33301 -1 2 -3 2c-148.667 35.333 -237 53 -265 53
c-52 0 -76.667 5.33301 -74 16c2 5.33301 13.333 11 34 17c19.333 6 46.333 8.83301 81 8.5s54 -3.16602 58 -8.49902c4.66699 -7.33301 15.334 -13.5 32.001 -18.5s36 -9.5 58 -13.5s37.667 -8 47 -12c24.667 -9.33301 42.667 -15 54 -17c8 -2 12.833 -4.33301 14.5 -7
s1.83398 -7 0.500977 -13c-3.33301 -10 -24.166 -33.833 -62.499 -71.5s-71.833 -66.834 -100.5 -87.501c-12.667 -8 -31 -22.167 -55 -42.5s-43 -33.5 -57 -39.5z" />
    <glyph glyph-name="question" unicode="?" horiz-adv-x="512" 
d="M262 128c2.66699 24 8.33203 25.333 16.999 4c6.66699 -17.333 10.334 -33.333 11.001 -48c0 -7.33301 -3.66699 -14 -11 -20s-14 -7.66699 -20 -5c-7.33301 2.66699 -8.33301 11.667 -3 27c4 16 6 30 6 42zM74.998 531c0 -27.333 7.66797 -28.002 23.001 -2.00195
c16 27.333 38 50.833 66 70.5s58.333 33.167 91 40.5c42.667 8.66699 84.5 7.16699 125.5 -4.5s69.167 -30.167 84.5 -55.5c15.333 -26.667 20.5 -54.167 15.5 -82.5s-19.833 -55.166 -44.5 -80.499c-19.333 -19.333 -36.5 -32.833 -51.5 -40.5s-37.833 -14.5 -68.5 -20.5
c-32.667 -6 -50.334 -11.667 -53.001 -17s2 -24.666 14 -57.999c8 -24.667 11.5 -39 10.5 -43s-7.16699 -8.66699 -18.5 -14c-3.33301 0.666992 -12.5 17.834 -27.5 51.501s-23.5 56.5 -25.5 68.5c-2 13.333 -1 21.333 3 24c4.66699 3.33301 30.667 8.66602 78 15.999
c26.667 4 53.5 11.333 80.5 22s45.167 21.334 54.5 32.001c7.33301 8.66699 13.5 23.834 18.5 45.501s6.16699 38.167 3.5 49.5c-3.33301 11.333 -14.666 26.666 -33.999 45.999c-20 18 -46 30.333 -78 37c-24 5.33301 -40 8 -48 8s-20.667 -2.33301 -38 -7
c-21.333 -6 -40.166 -15 -56.499 -27s-35.833 -30.333 -58.5 -55c-15.333 -16.667 -31.333 -51.334 -48 -104.001c-5.33301 -15.333 -15.333 -48 -30 -98c-1.33301 -7.33301 -3.33301 -12.333 -6 -15s-7 -3.66699 -13 -3c-6.66699 1.33301 -10.834 4.5 -12.501 9.5
s-2.16699 17.5 -1.5 37.5c1.33301 37.333 3.66602 81.333 6.99902 132c4 58 9.66699 87.667 17 89c14 2 21 -15.333 21 -52z" />
    <glyph glyph-name="at" unicode="@" horiz-adv-x="731" 
d="M222 127c0 -11.333 15.668 -22.834 47.001 -34.501s61.333 -18.5 90 -20.5s47 1.66699 55 11c4 8 3 12.667 -3 14c-5.33301 1.33301 -8 6.33301 -8 15s2.33301 14.667 7 18c5.33301 3.33301 6.33301 18 3 44c-8.66699 91.333 -15.334 143 -20.001 155
c-4 8.66699 -14.333 18.334 -31 29.001c-34.667 22 -65 25.667 -91 11c-40 -22 -62.667 -47.667 -68 -77c-2.66699 -18 -5.66699 -28.333 -9 -31c-6.66699 -4 -7 -24 -1 -60s13 -55.667 21 -59c5.33301 -1.33301 8 -6.33301 8 -15zM382.001 589.999
c0 3.33301 2.99805 5.00293 8.99805 5.00293s12.5 -1.16699 19.5 -3.5s11.833 -5.5 14.5 -9.5c3.33301 -6.66699 5 -6.33398 5 0.999023c2.66699 4 5.5 5.66699 8.5 5s7.33301 -2 13 -4s9.83398 -3 12.501 -3c8 -0.666992 15.833 -2 23.5 -4s13.667 -4.33301 18 -7
s5.83301 -5 4.5 -7c-0.666992 -2 0.333008 -3.5 3 -4.5s5.83398 -1.66699 9.50098 -2s6.83398 -1.33301 9.50098 -3s3.66699 -3.83398 3 -6.50098c0 -3.33301 0.5 -5.83301 1.5 -7.5s2.16699 -2.16699 3.5 -1.5c3.33301 0.666992 12.166 -3.66602 26.499 -12.999
s26.166 -18.666 35.499 -27.999c16 -16 29.833 -43.333 41.5 -82s17.834 -76 18.501 -112c0 -26.667 -4.33301 -57.334 -13 -92.001c-6 -22.667 -12 -39.334 -18 -50.001s-18.667 -26 -38 -46c-20 -20.667 -35 -34.167 -45 -40.5s-28.667 -13.5 -56 -21.5
c-34.667 -10.667 -71.334 -17.167 -110.001 -19.5s-70 -0.166016 -94 6.50098c-12 4 -28 7.33301 -48 10c-6.66699 0 -17 6.5 -31 19.5s-21.333 22.833 -22 29.5c-1.33301 9.33301 -6.33301 20.666 -15 33.999c-13.333 20.667 -18.166 51 -14.499 91s13.834 73 30.501 99
c9.33301 13.333 25.833 29 49.5 47s39.834 27 48.501 27c6 0 10.167 2.16699 12.5 6.5s6.83301 5.83301 13.5 4.5c9.33301 -1.33301 14 -0.666016 14 2.00098c1.33301 4.66699 10 4.66699 26 0c6 -2.66699 9 -5 9 -7c0 -1.33301 1 -2.16602 3 -2.49902
s4.5 -0.166016 7.5 0.500977s6 1.16699 9 1.5s5.33301 0.166016 7 -0.500977s2.16699 -2.33398 1.5 -5.00098c0 -3.33301 0.666992 -5.33301 2 -6l2 1c5.33301 5.33301 14.666 -3.33398 27.999 -26.001c10.667 -19.333 18.334 -21 23.001 -5
c2.66699 10 3.33398 25 2.00098 45c-0.666992 7.33301 2.33301 13.833 9 19.5s13 7.16699 19 4.5c12.667 -4.66699 12.334 -59.667 -0.999023 -165c-13.333 -110.667 -17 -170.667 -11 -180c2.66699 -4 8 -4.33301 16 -1c8.66699 4 22.667 9 42 15
c68.667 20.667 104 75 106 163c2 83.333 -21.333 154 -70 212s-111.667 89.667 -189 95c-28.667 2 -47.834 1.83301 -57.501 -0.5s-28.834 -10.5 -57.501 -24.5c-27.333 -14 -56.5 -33.333 -87.5 -58s-46.5 -41 -46.5 -49c0 -4.66699 -3.66699 -11.334 -11 -20.001
c-10 -11.333 -20 -33.5 -30 -66.5s-15 -61.167 -15 -84.5c0 -28 3.83301 -56.667 11.5 -86s16.834 -50.666 27.501 -63.999c28 -37.333 57.167 -64.5 87.5 -81.5s75.166 -31.833 134.499 -44.5c34.667 -7.33301 78.5 -11 131.5 -11s85.167 3.66699 96.5 11
c8.66699 4.66699 24.667 11.667 48 21s42.333 19 57 29c28 17.333 42.667 24.666 44 21.999c0.666992 -1.33301 1 -3.66602 1 -6.99902c0 -6 -9.33301 -16.5 -28 -31.5s-36.334 -26.167 -53.001 -33.5c-17.333 -6.66699 -39 -16.334 -65 -29.001
c-17.333 -7.33301 -32 -12 -44 -14s-34.667 -2.66699 -68 -2c-51.333 1.33301 -101.166 6.83301 -149.499 16.5s-83.833 21.834 -106.5 36.501c-16.667 11.333 -30 17 -40 17c-6.66699 -2 -15.334 3.16699 -26.001 15.5s-21.834 27.833 -33.501 46.5s-19.5 30 -23.5 34
c-11.333 12.667 -20.333 36 -27 70s-8.66699 66 -6 96c2 26.667 10.333 59.167 25 97.5s27.334 60.5 38.001 66.5c6.66699 4 10 8 10 12c0 3.33301 8.5 13.333 25.5 30s27.167 25 30.5 25c39.333 29.333 86.666 56.666 141.999 81.999c14 5.33301 28.167 8 42.5 8
s23.833 -2.66699 28.5 -8c6 -6 9 -6 9 0z" />
    <glyph glyph-name="A" unicode="A" horiz-adv-x="531" 
d="M216 462c-6.66699 -12.667 -11.3359 -24.999 -14.0029 -36.999s-7 -24.333 -13 -37c-10.667 -22 -21 -50.333 -31 -85s-13.333 -53 -10 -55c4.66699 -2.66699 13 -2.33398 25 0.999023c3.33301 1.33301 32.333 4.5 87 9.5s84 8.5 88 10.5
c2.66699 2.66699 0.333984 9 -6.99902 19c-7.33301 11.333 -28.666 71 -63.999 179c-3.33301 10 -7.16602 18.667 -11.499 26s-7.5 13 -9.5 17c-2.66699 8.66699 -6.5 12.5 -11.5 11.5s-8.83301 -6.5 -11.5 -16.5c-2 -10 -7.66699 -24.333 -17 -43zM208.998 550.001
c-0.666992 6 3.66113 15.3389 12.9941 28.0059s16.333 19.667 21 21c3.33301 0 12.5 -8.5 27.5 -25.5s22.5 -27.5 22.5 -31.5s2 -6 6 -6c4 -2.66699 7.33301 -6.83398 10 -12.501s5.33398 -12.667 8.00098 -21s5 -14.5 7 -18.5c8 -18 20.5 -56.833 37.5 -116.5
s25.833 -90.167 26.5 -91.5c64.667 2.66699 100.334 5.33398 107.001 8.00098c4 1.33301 6 0.333008 6 -3c0 -4.66699 -3.66699 -8.5 -11 -11.5s-14 -3.16699 -20 -0.5c-7.33301 3.33301 -11 2.66602 -11 -2.00098c0 -4 -9 -9 -27 -15
c-18 -4.66699 -27.167 -12.834 -27.5 -24.501s7.83398 -46.834 24.501 -105.501c6.66699 -23.333 8.33398 -38.666 5.00098 -45.999c-2.66699 -7.33301 -7.16699 -12.166 -13.5 -14.499s-11.5 -0.833008 -15.5 4.5c-4 4 -11.5 26.167 -22.5 66.5
s-18.833 74.166 -23.5 101.499c-32 1.33301 -68.833 -0.333984 -110.5 -5.00098s-66.5 -10.334 -74.5 -17.001c-8 -8 -20.333 -13.667 -37 -17c-11.333 -2.66699 -19.666 -7.33398 -24.999 -14.001s-13.666 -21.667 -24.999 -45c-18.667 -38.667 -35 -61.334 -49 -68.001
c-4 -2.66699 -6.66699 -2 -8 2s2.66699 15 12 33c14.667 25.333 28 52.333 40 81s25.667 63.834 41 105.501l31 83.5c8 17.333 19.167 49.166 33.5 95.499s21.5 73.5 21.5 81.5z" />
    <glyph glyph-name="B" unicode="B" horiz-adv-x="413" 
d="M91 581c6.66699 18 11.9971 22 15.9971 12c2.66699 -9.33301 2.33398 -24.666 -0.999023 -45.999c-7.33301 -44.667 -12.166 -90.167 -14.499 -136.5s-4.16602 -133.5 -5.49902 -261.5c0.666992 -18 0.166992 -31.167 -1.5 -39.5s-3.16699 -13.833 -4.5 -16.5
s-6.33301 -5.16699 -15 -7.5s-15.334 -4.5 -20.001 -6.5c3.33301 78.667 2.66602 132 -2.00098 160c-3.33301 21.333 -3.66602 31.333 -0.999023 30c8 34.667 5 115 -9 241c-2.66699 28 -3.5 45.333 -2.5 52s4.83301 11.667 11.5 15s11.167 4 13.5 2s5.5 -9.66699 9.5 -23
c4 -14.667 6.66699 -22.334 8 -23.001c0.666992 -0.666992 1.66699 0.666016 3 3.99902c0.666992 1.33301 1.33398 3.33301 2.00098 6c2.66699 8.66699 7 21.334 13 38.001zM257.997 362c0 -5.33301 2.66895 -8.83789 8.00195 -10.5049s9.66602 -0.166992 12.999 4.5
c2 6 5.33301 6.33301 10 1s8 -7.33301 10 -6c1.33301 2.66699 4.83301 2 10.5 -2l17 -12c5.66699 -4 8.5 -4.66699 8.5 -2c-0.666992 5.33301 5.66602 2.66602 18.999 -8.00098c6 -3.33301 9 -4.33301 9 -3c0 3.33301 3.33301 2.33301 10 -3
c10.667 -8.66699 11.667 -28.334 3 -59.001c-4.66699 -18 -19.5 -38.833 -44.5 -62.5s-46.5 -37.834 -64.5 -42.501c-6.66699 -1.33301 -15.334 -5.66602 -26.001 -12.999s-21.667 -11 -33 -11c-13.333 0 -26 -1.33301 -38 -4c-4 -1.33301 -7 -1.83301 -9 -1.5
s-3.16699 1.33301 -3.5 3s0.166992 4.16699 1.5 7.5c1.33301 4.66699 1.66602 7.33398 0.999023 8.00098s-3.33398 0.333984 -8.00098 -0.999023c-8 -3.33301 -12 -0.333008 -12 9c0 8.66699 -3 16 -9 22c-10 10 -15.333 20.333 -16 31c0 2 0.666992 3 2 3
c2.66699 0 10.667 -6.66699 24 -20c17.333 -17.333 36.833 -26.166 58.5 -26.499s42.167 7.83398 61.5 24.501c6 4 12.167 7.33301 18.5 10s15.833 8.33398 28.5 17.001c34 22.667 46.667 45.334 38 68.001c-8.66699 23.333 -57.667 36.666 -147 39.999l-41 2
c-14 0.666992 -24.667 1 -32 1l-12 1c-0.666992 0.666992 0.333008 6 3 16s4.66699 16 6 18c1.33301 1.33301 6.33301 2.66602 15 3.99902c31.333 6.66699 53.833 11.667 67.5 15s25.334 7.83301 35.001 13.5s15.5 11 17.5 16s4.66699 14.167 8 27.5
c2.66699 17.333 4 28.333 4 33s-1.66699 11.334 -5 20.001s-5.66602 15.667 -6.99902 21c0 7.33301 -1.66699 11.666 -5 12.999c-5.33301 2 -16.166 14.5 -32.499 37.5s-24.5 36.833 -24.5 41.5c0 6 -4.66699 9 -14 9s-15.333 3.66699 -18 11
c-2.66699 6.66699 -6.16699 10 -10.5 10s-6.5 -3.66699 -6.5 -11c0 -6 -9 -21.333 -27 -46c0 28 -0.666992 44 -2 48c-0.666992 2 3 5.5 11 10.5s16.667 9.5 26 13.5s15 5.66699 17 5c8.66699 -0.666992 19 -5.66699 31 -15s18.333 -17.333 19 -24
c0.666992 -4 2.16699 -7.16699 4.5 -9.5s4.5 -2.83301 6.5 -1.5c6 -1.33301 14.5 -10.166 25.5 -26.499s18.5 -25.5 22.5 -27.5c9.33301 -7.33301 15.333 -26.666 18 -57.999c5.33301 -52 3.33301 -77.333 -6 -76c-4 -0.666992 -8.5 -6.5 -13.5 -17.5
s-8.83301 -17.5 -11.5 -19.5c-6.66699 -5.33301 -10 -10.666 -10 -15.999z" />
    <glyph glyph-name="C" unicode="C" horiz-adv-x="549" 
d="M375 612c0 2 -4.83398 5.49609 -14.501 10.4961s-13.834 10.167 -12.501 15.5c-1.33301 7.33301 2.66699 11.666 12 12.999c10 2 15 -0.666992 15 -8c-0.666992 -4 0.5 -6.33301 3.5 -7s6.5 -0.333984 10.5 0.999023s7.5 1.5 10.5 0.5s4.16699 -3.5 3.5 -7.5
c0 -5.33301 2.33301 -7.66602 7 -6.99902s7 -1.33301 7 -6c0 -7.33301 -1.66699 -12 -5 -14c-2.66699 -0.666992 -1.66699 -0.666992 3 0c6 1.33301 9.66699 0.333008 11 -3c0.666992 -1.33301 1.16699 -1.66602 1.5 -0.999023s0.166016 2.33398 -0.500977 5.00098
c-0.666992 4.66699 0.333008 7.33398 3 8.00098c4 0.666992 6.66699 -2 8 -8v-5c0 -9.33301 1.66699 -15 5 -17c3.33301 -1.33301 4.66602 -12 3.99902 -32s-2.66699 -31.333 -6 -34c-4 -4.66699 -8 -1 -12 11c-3.33301 8 -4.33301 15.333 -3 22c1.33301 10 0 15 -4 15
c-1.33301 0 -2.16602 0.333008 -2.49902 1s-0.166016 1.83398 0.500977 3.50098s1.66699 3.16699 3 4.5c2.66699 4 2.83398 7.33301 0.500977 10s-9.16602 6.66699 -20.499 12c-18.667 8.66699 -28 14.334 -28 17.001zM316.999 643.996
c1.33301 6 5.50195 9.33203 12.502 9.99902s10.833 -2.66602 11.5 -9.99902c1.33301 -4.66699 -1.33398 -8 -8.00098 -10c-9.33301 -2 -15 -0.666992 -17 4c-0.666992 2 -0.333984 4 0.999023 6zM306.001 639.995c0 -9.33301 -2.65918 -13.999 -7.99219 -13.999
c-9.33301 0 -37 -21.167 -83 -63.5s-69 -67.833 -69 -76.5c0 -3.33301 -1.66699 -5 -5 -5s-23 -37.333 -59 -112c-9.33301 -20.667 -14.5 -47.667 -15.5 -81s3.16699 -59 12.5 -77c14 -26.667 36.833 -51.334 68.5 -74.001s64.167 -37.667 97.5 -45
c17.333 -4 41.166 -4.16699 71.499 -0.5s49.833 9.16699 58.5 16.5c5.33301 4 16.666 10.333 33.999 19s27.666 13 30.999 13c4.66699 2.66699 14.167 10 28.5 22s25.166 19.667 32.499 23c12 6.66699 18 9.66699 18 9c0.666992 -2 -9 -14.667 -29 -38
c-10.667 -12.667 -32 -29.334 -64 -50.001s-57.333 -34 -76 -40c-22.667 -8 -53 -10.667 -91 -8s-62.333 9.33398 -73 20.001c-2.66699 2.66699 -5.5 4.83398 -8.5 6.50098s-5.16699 2.5 -6.5 2.5s-2.33301 -0.333008 -3 -1c-1.33301 -4 -10.666 -2 -27.999 6
c-16.667 8 -35.667 28 -57 60c-28 44 -44.167 72 -48.5 84s-5.16602 30.333 -2.49902 55c2.66699 33.333 4 54 4 62c-0.666992 6 0.833008 10.167 4.5 12.5s7.5 3.5 11.5 3.5s7.16699 1.66699 9.5 5s2.16602 8.66602 -0.500977 15.999c-2 9.33301 0 18.5 6 27.5
s9.33301 15.5 10 19.5c0 6.66699 6 17.834 18 33.501s19.667 22.5 23 20.5c2 -0.666992 4.16699 1.16602 6.5 5.49902s4.16602 9.16602 5.49902 14.499s3.16602 10.166 5.49902 14.499s4.83301 6.5 7.5 6.5c4 1.33301 6.16699 3.5 6.5 6.5s0.5 5 0.5 6
s3.66699 0.833008 11 -0.5c4 -1.33301 6.66699 -1.83301 8 -1.5s2.16602 1.16602 2.49902 2.49902s0.166016 2.83301 -0.500977 4.5s-0.833984 3.33398 -0.500977 5.00098s1.5 2.5 3.5 2.5c4.66699 0 6 1.66699 4 5c-2.66699 2.66699 1.33301 7.83398 12 15.501
s15.334 12.5 14.001 14.5c-1.33301 4.66699 2.66699 9.33398 12 14.001c8.66699 5.33301 13 5.33301 13 0c0 -6 3.66699 -5.33301 11 2c4 3.33301 6.83301 8 8.5 14s4.16699 10 7.5 12c26.667 2.66699 40.667 7 42 13c3.33301 10 5.66602 10.667 6.99902 2
c0.666992 -2 1 -5 1 -9z" />
    <glyph glyph-name="D" unicode="D" horiz-adv-x="460" 
d="M106 349c3.33301 0 5.66504 -4.00195 6.99805 -12.002c0 -4 1 -3 3 3c2 4.66699 4 11.334 6 20.001c2.66699 12.667 5.5 22.667 8.5 30s7.5 15.5 13.5 24.5s10.333 15.833 13 20.5c6 10 11.333 14.333 16 13c2 -0.666992 3.33301 -0.333984 4 0.999023
s0.666992 3.33301 0 6c-3.33301 8.66699 21.667 35 75 79c9.33301 8 24.833 16.167 46.5 24.5s37.834 12.5 48.501 12.5c8 0 15 -3 21 -9c5.33301 -5.33301 8 -6 8 -2c0 6.66699 7.33301 -0.333008 22 -21c9.33301 -14 15 -24.333 17 -31c2 -10.667 5.33301 -19 10 -25
c2.66699 -4 4 -26.167 4 -66.5s-1.66699 -60.5 -5 -60.5c-2 0 -6.33301 -12.333 -13 -37c-2 -12 -10.167 -34.333 -24.5 -67s-22.5 -52.667 -24.5 -60c1.33301 -3.33301 -5 -11.666 -19 -24.999s-20.333 -20.666 -19 -21.999s-6.16699 -11.333 -22.5 -30
s-23.833 -29.334 -22.5 -32.001c0 -7.33301 -2.33301 -7.33301 -7 0c-2.66699 4 -4.5 6 -5.5 6s-2.16699 -2 -3.5 -6c-2.66699 -6.66699 -12.334 -11.5 -29.001 -14.5s-29.667 -2.16699 -39 2.5s-14 10.667 -14 18c0 4.66699 2.33301 6.66699 7 6s7 1.33301 7 6
c0 8 -2.66699 12.667 -8 14c-6 2.66699 -6.33301 4 -1 4c6 1.33301 11.333 -3 16 -13c10.667 -20 31.667 -15.333 63 14c18.667 18 37.667 42.667 57 74c36.667 58 59.667 116.5 69 175.5s3.33301 106.5 -18 142.5c-8.66699 14.667 -15.167 23.5 -19.5 26.5
s-13.166 4.16699 -26.499 3.5c-18.667 -1.33301 -28 -3.66602 -28 -6.99902s-1.33301 -5 -4 -5c-14.667 2 -24 0.666992 -28 -4c-0.666992 -0.666992 -0.666992 -1.33398 0 -2.00098c1.33301 -2 -1.66699 -6.5 -9 -13.5s-15 -13.833 -23 -20.5s-12 -10.667 -12 -12
c0 -4 -4 -10 -12 -18c-8 -5.33301 -17.167 -17.5 -27.5 -36.5s-17.833 -31.167 -22.5 -36.5c-3.33301 -1.33301 -5.66602 -8 -6.99902 -20s-3.33301 -18.667 -6 -20c-3.33301 -1.33301 -9.5 -18.833 -18.5 -52.5s-13.833 -58.5 -14.5 -74.5
c-0.666992 -19.333 -5 -40.666 -13 -63.999c-4 -11.333 -8.66699 -16.666 -14 -15.999c-2 1.33301 -3.33301 4.33301 -4 9c0 6.66699 -2.33301 6 -7 -2c-8.66699 -12.667 -14 -6 -16 20v30c2 82 5.33301 129.333 10 142c2.66699 7.33301 1.66699 27 -3 59
s-10.667 59.667 -18 83c-2.66699 6 -4.83398 20.333 -6.50098 43s-4.5 36.334 -8.5 41.001c-6 1.33301 -7.33301 7.33301 -4 18c6 18.667 14.333 21 25 7c4 -6 8 -14 12 -24c3.33301 -10 6.5 -18.167 9.5 -24.5s5.33301 -11.833 7 -16.5s2.83398 -12.667 3.50098 -24
c0 -18.667 1.16699 -40.334 3.5 -65.001s5 -45.334 8 -62.001s5.16699 -25 6.5 -25z" />
    <glyph glyph-name="E" unicode="E" horiz-adv-x="481" 
d="M38 441c0 -19.333 -0.666992 -28.999 -2 -28.999c-0.666992 0 -1.66699 3.66699 -3 11c-2.66699 11.333 -3.33398 24.666 -2.00098 39.999c2.66699 10.667 4.33398 16 5.00098 16c1.33301 -2 2 -14.667 2 -38zM180 543.001c6 -1.33301 14 1.3252 24 7.99219l16 10
c8.66699 1.33301 28.334 5.83301 59.001 13.5s51.667 11.834 63 12.501c8.66699 0.666992 17.334 2.83398 26.001 6.50098s18 6.16699 28 7.5c17.333 2.66699 26 1.33398 26 -3.99902s-7.16699 -11.666 -21.5 -18.999s-24.833 -10.333 -31.5 -9
c-5.33301 1.33301 -12 -2.66699 -20 -12c-16 -16.667 -24.333 -18 -25 -4c0 4.66699 -1 7.83398 -3 9.50098s-4.16699 1.83398 -6.5 0.500977s-3.5 -4 -3.5 -8c0 -13.333 -20.667 -23 -62 -29c-14.667 -1.33301 -26.667 -4.33301 -36 -9s-20.666 -7.66699 -33.999 -9
c-17.333 0 -28.333 -2.33301 -33 -7c-4 -4 -5.83301 -24 -5.5 -60s2.5 -63.667 6.5 -83c2 -9.33301 7.16699 -13.333 15.5 -12s27.166 8.33301 56.499 21c14.667 6.66699 34.334 11.334 59.001 14.001c38.667 4.66699 58 5 58 1c0.666992 -2 -1 -5 -5 -9
c-6 -6.66699 -10.667 -7.66699 -14 -3c-3.33301 5.33301 -8.66602 6.83301 -15.999 4.5s-11 -6.5 -11 -12.5c0 -5.33301 3.33301 -5.33301 10 0c6 5.33301 9.66699 6 11 2c0 -6 -5.16699 -10.167 -15.5 -12.5s-17.166 -0.833008 -20.499 4.5
c-2 6.66699 -5.33301 5.5 -10 -3.5s-8.33398 -9.83301 -11.001 -2.5c-2.66699 3.33301 -4.66699 3.66602 -6 0.999023c-3.33301 -9.33301 -33.333 -24.333 -90 -45v-107c0 -44.667 0.666992 -73.667 2 -87s4.33301 -20 9 -20c144 19.333 229.333 33 256 41
c16.667 6 25.334 7.16699 26.001 3.5s-7.33301 -10.167 -24 -19.5c-4 -4.66699 -14 -9 -30 -13s-35.5 -8.33301 -58.5 -13s-40.5 -9 -52.5 -13c-10 -2.66699 -24.167 -5.66699 -42.5 -9s-30.833 -5.66602 -37.5 -6.99902c-16 -6.66699 -42.333 -11.334 -79 -14.001
c-14 -0.666992 -23.333 3 -28 11s-2.33398 16.667 6.99902 26c5.33301 4.66699 8.66602 11.334 9.99902 20.001s1.5 20.167 0.5 34.5s-1.5 23.833 -1.5 28.5c0 4 -1.33301 18 -4 42s-4.33398 43.5 -5.00098 58.5s0 30.167 2 45.5c4 16 4 34.333 0 55
c-18 116.667 -27 175.334 -27 176.001c0 3.33301 -3 5 -9 5c-1.33301 0.666992 -2.83301 0.166992 -4.5 -1.5s-3.33398 -4 -5.00098 -7s-3.33398 -6.5 -5.00098 -10.5l-5 -12.5l-4.5 -11.5c-1.33301 -3.33301 -2.5 -6 -3.5 -8s-1.83301 -2.66699 -2.5 -2
c-2.66699 2.66699 -2.16699 12.167 1.5 28.5s7.16699 24.5 10.5 24.5c2.66699 0 5 8.5 7 25.5s5 25.5 9 25.5c23.333 10 40 -5 50 -45c6 -22 16.667 -28.333 32 -19c8 4 17.333 6 28 6z" />
    <glyph glyph-name="F" unicode="F" horiz-adv-x="451" 
d="M393 624c0 -4.66699 4.99805 -9.5 14.998 -14.5s14.333 -11.5 13 -19.5c0 -6 -0.666992 -9.33301 -2 -10l-3 3c-15.333 24 -55.333 36.333 -120 37c-19.333 0 -33.666 -0.333008 -42.999 -1s-15.833 -1.5 -19.5 -2.5s-9.66699 -3.5 -18 -7.5s-16.833 -7.66699 -25.5 -11
c-17.333 -5.33301 -31 -13.166 -41 -23.499s-13.333 -19.833 -10 -28.5c6.66699 -16 -3.66602 -9.66699 -30.999 19c34.667 34.667 58.667 53 72 55c12.667 0 28.334 4.33301 47.001 13c36 15.333 64 17.666 84 6.99902c8.66699 -4.66699 13 -4.66699 13 0
c0 2.66699 3.5 4.66699 10.5 6s14.167 1.5 21.5 0.5s10.666 -3.16699 9.99902 -6.5c0 -2.66699 2.33301 -4.5 7 -5.5l14 -3c4.66699 -1 6.66699 -3.5 6 -7.5zM90.998 329c-0.666992 -6.66699 -5.66699 -35.499 -15 -86.499s-14.333 -80.167 -15 -87.5
c-0.666992 -6.66699 -3.16699 -13.334 -7.5 -20.001s-8.83301 -11.667 -13.5 -15s-8 -3.66602 -10 -0.999023c-2 4 1.66699 29.667 11 77c16 88.667 19.667 139 11 151c-5.33301 5.33301 -5.33301 11.333 0 18c4.66699 5.33301 7 37 7 95
c1.33301 97.333 5.33301 156.666 12 177.999c2 5.33301 6.33301 7 13 5c5.33301 -2 8.5 -20.167 9.5 -54.5s-1.16699 -56.5 -6.5 -66.5c-4 -8.66699 -3 -14 3 -16c5.33301 -2 5.66602 -7.33301 0.999023 -16c-4 -7.33301 -5.83301 -24.666 -5.5 -51.999
s2.16602 -47.333 5.49902 -60c3.33301 -7.33301 8.83301 -10.833 16.5 -10.5s30.167 4.83301 67.5 13.5c13.333 4 37.5 7.16699 72.5 9.5s57.167 4.83301 66.5 7.5c4 2.66699 21.333 6 52 10c23.333 2 35 2 35 0c0.666992 -2.66699 -12.666 -9.33398 -39.999 -20.001l-6 -2
c-14.667 -5.33301 -52.667 -11.333 -114 -18s-100.666 -13 -117.999 -19c-21.333 -5.33301 -32 -12 -32 -20z" />
    <glyph glyph-name="G" unicode="G" horiz-adv-x="665" 
d="M610 324c-94 0 -143.665 -2.00098 -148.998 -6.00098c0 -4 -8.66699 -4.66699 -26 -2c-20 2.66699 -42.667 0.666992 -68 -6c-32 -7.33301 -49 -9.66602 -51 -6.99902c-0.666992 0.666992 -1 3.66699 -1 9c0 7.33301 7.83301 14 23.5 20s33.5 9.33301 53.5 10
c12 0 24.333 2.33301 37 7c10 4 36.167 6 78.5 6s64.833 -2 67.5 -6c4 -5.33301 13.333 -6.33301 28 -3c10.667 1.33301 17.167 1.16602 19.5 -0.500977s5.16602 -8.16699 8.49902 -19.5c3.33301 -15.333 4.5 -40.333 3.5 -75s-3.5 -54 -7.5 -58
c-6.66699 -6.66699 -10 -4.66699 -10 6c0 8 1.33301 21.667 4 41c1.33301 8 2.33301 15.333 3 22s1.16699 11.834 1.5 15.501s-0.333984 8.16699 -2.00098 13.5s-2.66699 8.66602 -3 9.99902s-2 5.33301 -5 12s-4.83301 10.334 -5.5 11.001zM419.002 551.999
c0 -6 2.66602 -8.99707 7.99902 -8.99707c6 0 11.833 -9.16699 17.5 -27.5s8.83398 -39.166 9.50098 -62.499c0.666992 -16 1 -27.833 1 -35.5s-0.333008 -13.834 -1 -18.501s-1.66699 -7.33398 -3 -8.00098s-3.66602 -1 -6.99902 -1
c-7.33301 0 -12.166 2.83301 -14.499 8.5s-4.83301 19.834 -7.5 42.501c-0.666992 11.333 -2.33398 22.166 -5.00098 32.499s-6.16699 20.666 -10.5 30.999s-7.16602 18.166 -8.49902 23.499c0 7.33301 -4.16699 17.5 -12.5 30.5s-14.833 19.5 -19.5 19.5
c-5.33301 0 -9.33301 3.66699 -12 11c-3.33301 8 -18.5 10.5 -45.5 7.5s-52.833 -10.167 -77.5 -21.5c-42.667 -20 -75.5 -47.333 -98.5 -82s-38.833 -80.334 -47.5 -137.001c0 -3.33301 -3.66699 -27.833 -11 -73.5s-10 -77.167 -8 -94.5l20 -41
c6 -13.333 12.167 -23 18.5 -29s15.833 -12 28.5 -18c41.333 -19.333 111 -29 209 -29c106.667 0 174.667 13 204 39c9.33301 8.66699 17.166 20.834 23.499 36.501s9.5 30.834 9.5 45.501c0 16 2.33301 25.667 7 29c4.66699 2.66699 6.66699 -2.66602 6 -15.999
c-1.33301 -30.667 -8.66602 -59 -21.999 -85c-0.666992 -0.666992 -1.33398 -1.66699 -2.00098 -3c-25.333 -42 -61 -66 -107 -72c-12.667 -2 -38 -3.5 -76 -4.5s-73.167 -1.33301 -105.5 -1s-48.5 1.16602 -48.5 2.49902c-4 3.33301 -23 7.5 -57 12.5s-53.333 9.5 -58 13.5
c-12 5.33301 -25 17.166 -39 35.499s-19.333 30.166 -16 35.499c2 3.33301 -2.66699 13.666 -14 30.999c-9.33301 13.333 -14.833 28.833 -16.5 46.5s1.16602 27.834 8.49902 30.501c5.33301 2.66699 4.66602 6.33398 -2.00098 11.001
c-4.66699 3.33301 -6.83398 5.83301 -6.50098 7.5s2.83301 4.5 7.5 8.5c6.66699 5.33301 13 28 19 68c6.66699 44.667 20 90 40 136c5.33301 12.667 20.333 32.5 45 59.5s40 40.5 46 40.5c6.66699 0 16 4.66699 28 14c8.66699 7.33301 28.334 14.5 59.001 21.5
s54.334 9.83301 71.001 8.5c10.667 -2 25.5 -12 44.5 -30s28.5 -31.333 28.5 -40z" />
    <glyph glyph-name="H" unicode="H" horiz-adv-x="525" 
d="M383 373c0 5.33301 3.83301 8.66699 11.5 10s16.5 0 26.5 -4c8 -2.66699 8.66699 -6 2 -10c-7.33301 -4.66699 -15.833 -6.5 -25.5 -5.5s-14.5 4.16699 -14.5 9.5zM425 565.001c0 -5.33301 4 -8.99805 12 -10.998c7.33301 -2.66699 15.166 -13.167 23.499 -31.5
s13.5 -37.5 15.5 -57.5c9.33301 -87.333 15.333 -167.666 18 -240.999s1.33398 -112.666 -3.99902 -117.999c-12.667 -7.33301 -20.167 -9.5 -22.5 -6.5s-3.83301 18.5 -4.5 46.5v4.5c0 1 -0.166992 2.66699 -0.5 5s-0.5 4.16602 -0.5 5.49902v5v6
c-1.33301 51.333 -4.33301 91.333 -9 120c-5.33301 26.667 -6.66602 45.667 -3.99902 57c3.33301 8 2.66602 15.667 -2.00098 23c-5.33301 7.33301 -8.83301 16.333 -10.5 27s-0.5 18.667 3.5 24c5.33301 4 5.5 9.66699 0.5 17s-6.5 13 -4.5 17
c2.66699 7.33301 1.66699 13.666 -3 18.999s-10.5 21.166 -17.5 47.499s-9.16699 40.833 -6.5 43.5c3.33301 3.33301 6.83301 4.66602 10.5 3.99902s5.5 -2.66699 5.5 -6zM48 64.0029c-6.66699 0 -10.3301 11.332 -10.9971 33.999s-0.333984 95.334 0.999023 218.001
c1.33301 170 0 262.333 -4 277c-4 20.667 -5 33 -3 37c3.33301 8.66699 8.83301 12 16.5 10s13.5 -8 17.5 -18c7.33301 -26 12 -112.667 14 -260c96.667 -2 158.667 -0.666992 186 4c17.333 4 37.666 6.5 60.999 7.5s37.333 -0.166992 42 -3.5
c14 -8.66699 7.33301 -15.334 -20 -20.001c-8.66699 -1.33301 -20.334 -2.66602 -35.001 -3.99902c-107.333 -10 -187 -13.667 -239 -11c0 -162 -2 -249.667 -6 -263c-4 -5.33301 -10.667 -8 -20 -8z" />
    <glyph glyph-name="I" unicode="I" horiz-adv-x="158" 
d="M62 592c2.66699 0 5.99609 -2.83496 9.99609 -8.50195s6.33301 -11.167 7 -16.5c1.33301 -6.66699 7 -22.667 17 -48c6 -15.333 15.333 -93 28 -233c4 -41.333 5 -88.666 3 -141.999s-6 -85.333 -12 -96c-3.33301 -8 -8.66602 -11.333 -15.999 -10
c-6 0.666992 -10.333 47.334 -13 140.001c0 22.667 -0.666992 45.5 -2 68.5s-2.66602 41.667 -3.99902 56s-3.66602 33.333 -6.99902 57s-5.66602 39.167 -6.99902 46.5l-9 51.5l-8 46.5c-4.66699 21.333 -9.33398 36.333 -14.001 45c-4 8 -5.66699 13.833 -5 17.5
s4.33398 8.16699 11.001 13.5c10.667 8 17.667 12 21 12z" />
    <glyph glyph-name="J" unicode="J" horiz-adv-x="442" 
d="M340 57c-2.66699 -0.666992 -9.5 -4.49609 -20.5 -11.4961s-23.833 -8.83301 -38.5 -5.5c-22 4 -37.667 7.66699 -47 11c-10 4 -17 4 -21 0c-3.33301 -3.33301 -13.166 -1 -29.499 7s-23.833 14 -22.5 18c0.666992 1.33301 -0.333008 2.66602 -3 3.99902
s-6 2.33301 -10 3s-7.5 1.66699 -10.5 3s-4.16699 3 -3.5 5c0 6 -6.66699 14.333 -20 25s-22.666 15.334 -27.999 14.001c-5.33301 -5.33301 -16 1 -32 19s-24 29.333 -24 34c0 7.33301 11 5.33301 33 -6c6 -2.66699 11.667 -6 17 -10c10 -6.66699 20 -12.334 30 -17.001
s23 -12 39 -22c80.667 -44 144 -57 190 -39c9.33301 114.667 15 190.667 17 228c16.667 241.333 30 370.666 40 387.999c2.66699 4 6 3 10 -3c4.66699 -6.66699 6.66699 -27.834 6 -63.501s-4 -74.834 -10 -117.501c-16.667 -130.667 -26 -226.667 -28 -288
c-2.66699 -67.333 -6.33398 -113.5 -11.001 -138.5s-12.334 -37.5 -23.001 -37.5z" />
    <glyph glyph-name="K" unicode="K" horiz-adv-x="510" 
d="M59 661c11.333 0 19.1689 -14.6689 23.502 -44.002s6.5 -84.333 6.5 -165v-150c35.333 24 93.333 73 174 147c68.667 64.667 112.667 107 132 127s33 36 41 48c11.333 16.667 26 26 44 28c-18 -24.667 -27 -39.667 -27 -45
c2.66699 -3.33301 -28.833 -38.833 -94.5 -106.5s-98.5 -101.834 -98.5 -102.501s1.5 -1.66699 4.5 -3s7.16699 -2.66602 12.5 -3.99902s11 -2.33301 17 -3c33.333 -4 62.333 -21.667 87 -53c5.33301 -7.33301 8.83301 -17.333 10.5 -30s2.5 -38 2.5 -76
c-0.666992 -46 -2.83398 -77.5 -6.50098 -94.5s-11.167 -27.833 -22.5 -32.5c-6 -2.66699 -10 -3.16699 -12 -1.5s-4.33301 7.5 -7 17.5c-2 6 -2.33301 10 -1 12s4.66602 3 9.99902 3c18 0 24.333 29.333 19 88c-2.66699 50.667 -16 84.834 -40 102.501
s-61.667 24.167 -113 19.5c-13.333 -0.666992 -35 -16 -65 -46c-29.333 -30.667 -47.333 -46 -54 -46c-5.33301 0.666992 -12.833 -7.5 -22.5 -24.5s-16.167 -25.833 -19.5 -26.5c-1.33301 -0.666992 -2.5 -0.166992 -3.5 1.5s-1.83301 4.83398 -2.5 9.50098
s-1.16699 10.834 -1.5 18.501s-0.5 18 -0.5 31v44c0 16.333 0.333008 36.5 1 60.5c3.33301 168 -2.33398 254.667 -17.001 260c-4.66699 1.33301 -6.66699 5.16602 -6 11.499s3.33398 11.833 8.00098 16.5c5.33301 5.33301 12.333 8 21 8z" />
    <glyph glyph-name="L" unicode="L" horiz-adv-x="449" 
d="M293 171c4 1.33301 22.502 2.3291 55.502 2.99609s51.5 2 55.5 4c10 4 15 3.66699 15 -1c0 -4 -7 -10 -21 -18s-23 -11 -27 -9c-2.66699 2 -10.334 0.5 -23.001 -4.5s-19 -9.16699 -19 -12.5c-4 -1.33301 -24 -2.33301 -60 -3s-56.667 -2.33398 -62 -5.00098
c-8.66699 -2 -34.334 -4.66699 -77.001 -8s-68.334 -6.33301 -77.001 -9c-13.333 -2.66699 -20.5 -0.666992 -21.5 6s2.16699 24.334 9.5 53.001c10.667 44.667 18.167 103.834 22.5 177.501s1.5 139.834 -8.5 198.501c-8.66699 52 -12.667 84 -12 96c0 6 1.5 10.333 4.5 13
s6.66699 2.83398 11 0.500977s8.5 -6.5 12.5 -12.5c11.333 -18 18.833 -38.667 22.5 -62s5.83398 -60.333 6.50098 -111c0.666992 -84 -9.33301 -188.333 -30 -313c9.33301 3.33301 46.333 6.33301 111 9s102 5.33398 112 8.00098z" />
    <glyph glyph-name="M" unicode="M" horiz-adv-x="601" 
d="M272 406c0 -8 0.49707 -22.168 1.49707 -42.501s2.16699 -41.333 3.5 -63s2 -35.167 2 -40.5c0 -10.667 2.33301 -16 7 -16c8.66699 2 17.667 15 27 39c10.667 28.667 33 122.334 67 281.001c0.666992 3.33301 1.83398 10 3.50098 20s3.16699 17.333 4.5 22
s3.66602 10.334 6.99902 17.001s7.66602 11.167 12.999 13.5s12 3.16602 20 2.49902c10 -0.666992 16.667 -2 20 -4s5 -5.66699 5 -11c0 -9.33301 4.66699 -18.666 14 -27.999c5.33301 -4 9.83301 -16.167 13.5 -36.5s7.83398 -32.166 12.501 -35.499c6 -2.66699 9 -7 9 -13
c1.33301 -6 6.33301 -19.333 15 -40s13.667 -36.334 15 -47.001c1.33301 -14 6.66602 -35.333 15.999 -64s14.333 -49.667 15 -63c0 -14.667 1.66699 -51.334 5 -110.001c2 -44.667 2.66699 -72.334 2 -83.001s-4 -18 -10 -22
c-8.66699 -7.33301 -14.334 -9.66602 -17.001 -6.99902c-6 3.33301 -12 57.666 -18 162.999c-0.666992 20 -2 37.167 -4 51.5s-4 25 -6 32s-5.16699 17.5 -9.5 31.5s-7.83301 26.333 -10.5 37c-2.66699 14 -6.5 28.667 -11.5 44s-9.5 28 -13.5 38l-16.5 41l-15.5 39
c-2.66699 8.66699 -6 16.334 -10 23.001s-8 11.334 -12 14.001s-7 3 -9 1c-0.666992 -3.33301 -1.66699 -14.333 -3 -33s-3.16602 -36.5 -5.49902 -53.5s-4.83301 -26.5 -7.5 -28.5c-3.33301 -4.66699 -4.5 -11.334 -3.5 -20.001s0.5 -14.667 -1.5 -18
c-2.66699 -0.666992 -4.16699 -8.5 -4.5 -23.5s-2.16602 -22.833 -5.49902 -23.5c-4 0 -6 -7.66699 -6 -23c0 -16 -2.5 -30 -7.5 -42s-10.5 -18 -16.5 -18s-8 -4.33301 -6 -13s-3.16699 -23.667 -15.5 -45s-26 -39.833 -41 -55.5s-24.833 -21.167 -29.5 -16.5
c-3.33301 2.66699 -7.66602 21.834 -12.999 57.501s-7.33301 56.834 -6 63.501c2 8 -1.66699 42.5 -11 103.5s-16.666 100.167 -21.999 117.5c-5.33301 16.667 -11 24.667 -17 24c-4 -0.666992 -6.66699 -7 -8 -19c-2.66699 -11.333 -9.66699 -32.5 -21 -63.5
s-18.666 -54.5 -21.999 -70.5c-1.33301 -8 -4.83301 -26.5 -10.5 -55.5l-14.5 -73l-14.5 -68.5c-5.66699 -26 -11.334 -48.5 -17.001 -67.5s-10.834 -34.167 -15.501 -45.5c-4 -6.66699 -10.667 -12.334 -20 -17.001c-8 -4.66699 -12 -5.33398 -12 -2.00098
c0 1.33301 0.666992 3.66602 2 6.99902c2.66699 6.66699 5.5 21.5 8.5 44.5s6.16699 38.167 9.5 45.5c3.33301 6 11.333 38.667 24 98s20.334 92 23.001 98c4 10 8.5 28.5 13.5 55.5s9.83301 47.167 14.5 60.5c7.33301 20 14.666 47.667 21.999 83
c8.66699 36.667 19.334 57.667 32.001 63s28.334 -4.33398 47.001 -29.001c19.333 -26 31 -61.667 35 -107c0 -13.333 2 -25.666 6 -36.999s5.66699 -23.666 5 -36.999z" />
    <glyph glyph-name="N" unicode="N" horiz-adv-x="480" 
d="M294 160c-2 6.66699 -6.49805 16.165 -13.498 28.498s-11.5 24.166 -13.5 35.499c-4.66699 18.667 -9.66699 34 -15 46s-23.333 49.667 -54 113c-32 66 -50 106.667 -54 122c-2 8 -5.5 18.167 -10.5 30.5s-9.16699 27.5 -12.5 45.5c-6 23.333 -10.667 34.666 -14 33.999
c-8.66699 -14 -22.834 -86.167 -42.501 -216.5s-24.5 -206.833 -14.5 -229.5c6 -18.667 6.33301 -32.334 1 -41.001c-4.66699 -7.33301 -9 -5.66602 -13 5.00098c-10 26.667 -10.833 87.834 -2.5 183.501s23.5 198.834 45.5 309.501c6.66699 33.333 11.834 55 15.501 65
s8.16699 15.667 13.5 17c6 0.666992 11.5 -4.33301 16.5 -15s13.167 -34.334 24.5 -71.001c7.33301 -29.333 28 -83.333 62 -162s51.667 -119.667 53 -123c0 -6 15.667 -43.333 47 -112c11.333 -24 19 -36 23 -36c4.66699 -0.666992 10.667 12.333 18 39
s14.666 59.5 21.999 98.5l20 109.5c6 34 10.667 63.333 14 88c1.33301 7.33301 2.5 22.333 3.5 45s2.66699 43.334 5 62.001s5.5 31.334 9.5 38.001c6 4 5.66699 8 -1 12c-5.33301 3.33301 -6.66602 19.333 -3.99902 48c3.33301 28.667 5.66602 42.334 6.99902 41.001
c13.333 -26.667 20.166 -67.5 20.499 -122.5s-4.16699 -106.167 -13.5 -153.5c-34 -184.667 -61.333 -293 -82 -325c-12.667 -20.667 -27 -31 -43 -31c-12 0.666992 -18 8 -18 22z" />
    <glyph glyph-name="O" unicode="O" horiz-adv-x="557" 
d="M342 425c-8 1.33301 -6.66797 7.99707 3.99902 19.9971c9.33301 10.667 13.666 34.667 12.999 72c-0.666992 17.333 -11 36.333 -31 57c-16 16.667 -29.5 26.5 -40.5 29.5s-24.167 0.5 -39.5 -7.5c-16 -8.66699 -36.5 -26.667 -61.5 -54s-45.833 -54.666 -62.5 -81.999
c-13.333 -22.667 -27.5 -54.167 -42.5 -94.5s-22.5 -67.166 -22.5 -80.499c0 -9.33301 6.16699 -23.666 18.5 -42.999s25.5 -35.333 39.5 -48c22 -20 49 -36.333 81 -49c23.333 -9.33301 40.833 -15.666 52.5 -18.999s31.167 -7 58.5 -11
c26.667 -3.33301 58.834 7.66699 96.501 33s64.167 53.666 79.5 84.999c12 25.333 17.5 58 16.5 98s-8.5 73.667 -22.5 101c-1.33301 2 -8.66602 18.5 -21.999 49.5s-22.666 49.5 -27.999 55.5c-3.33301 3.33301 -6 8.33301 -8 15s-5 11.334 -9 14.001
c-6 1.33301 -7.66699 4 -5 8c2.66699 2 10.167 -2.83301 22.5 -14.5s19.833 -17.167 22.5 -16.5c4 0 10.333 -7.33301 19 -22c1.33301 -2.66699 11 -20 29 -52c10.667 -18.667 18.5 -45.334 23.5 -80.001s5.16699 -63.667 0.5 -87
c-2 -6.66699 -4.16699 -17.334 -6.5 -32.001s-5 -26.334 -8 -35.001s-7.16699 -16.334 -12.5 -23.001l-19 -29.5c-11.333 -17.667 -21.333 -29.167 -30 -34.5c-13.333 -8 -27.333 -17.667 -42 -29c-14 -10.667 -34.833 -21.334 -62.5 -32.001s-47.834 -16 -60.501 -16
c-12 0 -41.667 8.66699 -89 26c-30 11.333 -51.5 20.833 -64.5 28.5s-28.167 20.167 -45.5 37.5c-26.667 27.333 -38.667 42.333 -36 45s0.666992 7.66699 -6 15c-7.33301 8.66699 -11.333 28 -12 58s2.66602 50.333 9.99902 61c8 12 12 22 12 30
c0 7.33301 6.66699 24.833 20 52.5s28.333 54.834 45 81.501c13.333 20.667 35 44.834 65 72.501s51.333 42.834 64 45.501l25 6c20.667 7.33301 46.834 -2.66699 78.501 -30s44.834 -55.666 39.501 -84.999c-1.33301 -16 -7.83301 -35 -19.5 -57s-20.834 -33 -27.501 -33z
" />
    <glyph glyph-name="P" unicode="P" horiz-adv-x="519" 
d="M416 624c0 -5.33301 6.33887 -16.002 19.0059 -32.002c26 -34.667 42.667 -75.667 50 -123c3.33301 -19.333 4.66602 -34.333 3.99902 -45s-4.33398 -25.667 -11.001 -45c-10 -29.333 -17 -44 -21 -44c-3.33301 0 -11.333 -5.66699 -24 -17
c-17.333 -16.667 -44 -26.834 -80 -30.501s-65.667 0.5 -89 12.5c-12.667 6 -25.334 15.333 -38.001 28s-19 22 -19 28c0 8.66699 8 9 24 1l16 -10c26 -22 60.333 -31.667 103 -29c54 4 88 30 102 78s3.33301 102 -32 162c-13.333 23.333 -26 39.833 -38 49.5
s-27 15.167 -45 16.5c-22 2.66699 -43 -2.66602 -63 -15.999c-51.333 -32 -87.333 -90.667 -108 -176c-6 -25.333 -10.667 -79.666 -14 -162.999c-2.66699 -55.333 -5 -91.666 -7 -108.999s-5.66699 -28 -11 -32c-8.66699 -6 -14.334 -9 -17.001 -9
c-6.66699 30 -15.834 86 -27.501 168s-17.834 124.667 -18.501 128c-4.66699 32 -16 73.333 -34 124c-4.66699 8.66699 -6.83398 14.667 -6.50098 18s3.16602 7 8.49902 11c9.33301 6.66699 14.666 10 15.999 10c7.33301 0.666992 17.333 -17 30 -53s22 -72.333 28 -109
c2.66699 -14 6.33398 -21.167 11.001 -21.5s7 6.5 7 20.5c0 24.667 14.333 63.667 43 117s51.334 83.333 68.001 90c2 0.666992 8.83301 4.16699 20.5 10.5s22.5 11.5 32.5 15.5s18.333 6 25 6c12.667 0 31.834 -4 57.501 -12s38.5 -14 38.5 -18z" />
    <glyph glyph-name="Q" unicode="Q" horiz-adv-x="498" 
d="M372 588c4.66699 -2.66699 7.00098 -0.666992 7.00098 6c-0.666992 8 -3 12 -7 12c-4.66699 -1.33301 -6.83398 -4.33301 -6.50098 -9s2.5 -7.66699 6.5 -9zM391.001 564c-3.33301 0.666992 -5.99805 -1.33887 -7.99805 -6.00586s-2.66699 -9.5 -2 -14.5
s2.66699 -7.5 6 -7.5c6.66699 -2 8.33398 -13.333 5.00098 -34c-1.33301 -9.33301 -3.33301 -14.333 -6 -15s-5 4 -7 14c0 9.33301 -2.33301 14 -7 14c-4 0 -5 7 -3 21c2 7.33301 0.166992 20.5 -5.5 39.5s-8.16699 30.833 -7.5 35.5c2 3.33301 -0.666992 6 -8 8
s-11 4.33301 -11 7c-2 3.33301 -9.16699 5 -21.5 5s-27.333 -1.5 -45 -4.5s-30.834 -6.5 -39.501 -10.5c-16.667 -8 -36.5 -24.833 -59.5 -50.5s-42.167 -52.167 -57.5 -79.5c-31.333 -57.333 -51.166 -112 -59.499 -164s-4.16602 -95 12.501 -129
c8.66699 -18.667 18 -32.834 28 -42.501s24.667 -20.167 44 -31.5c22.667 -12.667 51 -17.167 85 -13.5s61.667 14.167 83 31.5l20 16l-15 21c-6.66699 9.33301 -11.334 19 -14.001 29s-2.83398 18.333 -0.500977 25s6.5 10 12.5 10c8.66699 0 15.334 -6 20.001 -18
c5.33301 -12.667 11.166 -18.167 17.499 -16.5s11.166 9.83398 14.499 24.501c10.667 54.667 -3.66602 125 -42.999 211c-10 20.667 -18 42.667 -24 66c14.667 -15.333 28 -35.666 40 -60.999c3.33301 -6.66699 6.83301 -12.167 10.5 -16.5s6.16699 -5.83301 7.5 -4.5
c4 1.33301 6.66699 -0.666992 8 -6c14 -47.333 22.5 -80.666 25.5 -99.999s3.83301 -41.333 2.5 -66c-2.66699 -35.333 -6.33398 -54.666 -11.001 -57.999c-6.66699 -7.33301 -7.16699 -17.5 -1.5 -30.5s25.834 -49.167 60.501 -108.5c8 -14 15.667 -24 23 -30
c8 -5.33301 8.66699 -11.666 2 -18.999s-13 -11 -19 -11c-6.66699 0 -14.334 4 -23.001 12s-13 15 -13 21c0 4 -2.33301 7 -7 9s-7 5.33301 -7 10c2 10 -15.667 39.333 -53 88l-22 -18l-31.5 -25c-9.66699 -7.33301 -15.834 -11.666 -18.501 -12.999
c-4 0 -19 -2.33301 -45 -7c-24.667 -4 -46.5 -4.83301 -65.5 -2.5s-28.5 6.83301 -28.5 13.5s-4 10 -12 10c-12 0.666992 -25.167 8.83398 -39.5 24.501s-25.166 34.167 -32.499 55.5c-9.33301 26 -14.333 61.5 -15 106.5s3.33301 75.833 12 92.5
c4.66699 10 8.66699 22.833 12 38.5s8.66602 30.167 15.999 43.5c12 20 20.333 36.667 25 50c5.33301 12.667 10 19 14 19s6 3.33301 6 10c0 5.33301 11.333 20.166 34 44.499s43.334 43.833 62.001 58.5c14.667 12.667 25.667 17.667 33 15
c5.33301 -2 9.66602 -0.666992 12.999 4c4.66699 8.66699 23.5 8.83398 56.5 0.500977s53.167 -18.5 60.5 -30.5c16 -24 23 -42.667 21 -56c-0.666992 -2.66699 -2 -4 -4 -4z" />
    <glyph glyph-name="R" unicode="R" horiz-adv-x="496" 
d="M379 624c-19.333 20 -35.335 29.668 -48.002 29.001c-31.333 -0.666992 -65.666 -20.334 -102.999 -59.001c-47.333 -47.333 -78 -92.666 -92 -135.999c-6.66699 -21.333 -7.16699 -35 -1.5 -41s28.5 -15.667 68.5 -29c51.333 -16.667 97.5 -24.334 138.5 -23.001
s68.833 11.333 83.5 30c16.667 21.333 19.834 57.833 9.50098 109.5s-28.833 91.5 -55.5 119.5zM323.998 335.001c-34.667 0 -51.9951 -1.66504 -51.9951 -4.99805c0.666992 -2.66699 15.667 -20.334 45 -53.001s43.666 -52 42.999 -58c2 -8 9.66699 -18.5 23 -31.5
s23 -19.5 29 -19.5c9.33301 0 9.66602 -3.33301 0.999023 -10l-16 -10c-14 -6 -25 -7.16699 -33 -3.5s-18.333 15.5 -31 35.5c-13.333 20 -28.333 37.667 -45 53c-14 12.667 -20 22.334 -18 29.001s1 10 -3 10c-5.33301 0 -14.666 6 -27.999 18
c-17.333 15.333 -42.333 32 -75 50s-50.667 25.333 -54 22s-9.33301 -33 -18 -89s-13.334 -94.667 -14.001 -116c0 -26 -5.66699 -42 -17 -48c-4 -2.66699 -8 -2 -12 2c-4.66699 2 -8 36.5 -10 103.5s-3.33301 136.667 -4 209s-1.33398 111.833 -2.00098 118.5
c-2.66699 19.333 -4 33.666 -4 42.999s1 15.166 3 17.499s5.33301 3.5 10 3.5c9.33301 0 15.5 -6.16699 18.5 -18.5s6.5 -46.5 10.5 -102.5c6 -72 10 -108 12 -108c0.666992 0 1 5 1 15c1.33301 12.667 3.66602 20 6.99902 22c4.66699 3.33301 13 22.333 25 57
c15.333 40.667 38.166 79.5 68.499 116.5s60.833 62.833 91.5 77.5c28.667 13.333 52.167 18.5 70.5 15.5s39.166 -15.833 62.499 -38.5c20.667 -19.333 34.667 -39.333 42 -60s12 -52.667 14 -96c1.33301 -35.333 1.33301 -57.833 0 -67.5s-5.66602 -20.167 -12.999 -31.5
c-24 -34.667 -66.667 -52 -128 -52z" />
    <glyph glyph-name="S" unicode="S" horiz-adv-x="460" 
d="M263 633c31.333 0 51.4971 -1.49805 60.4971 -4.49805s25.833 -14.5 50.5 -34.5c26 -20 37.333 -70 34 -150c-1.33301 -39.333 -3.33301 -60.333 -6 -63c-3.33301 -3.33301 -9.66602 -3.33301 -18.999 0c-7.33301 1.33301 -11.833 5.5 -13.5 12.5
s-2.16699 25.5 -1.5 55.5c0 75.333 -3 114.666 -9 117.999c-2 2 -12 8.66699 -30 20c-42.667 28.667 -97 27 -163 -5c-20.667 -9.33301 -40.167 -22 -58.5 -38s-30.166 -30.667 -35.499 -44c-5.33301 -12.667 -8 -21.5 -8 -26.5s2.66699 -12.5 8 -22.5
c9.33301 -19.333 20 -33.5 32 -42.5s35.667 -20.5 71 -34.5c44.667 -17.333 68.667 -28.666 72 -33.999c2 -3.33301 6.66699 -5 14 -5c6 0 20 -5 42 -15s33.667 -17 35 -21s5.66602 -6 12.999 -6c8 0 18.5 -5 31.5 -15s19.5 -18.333 19.5 -25c0 -4 3.5 -12 10.5 -24
s9.5 -21 7.5 -27c-2 -8 -1 -13.667 3 -17c6 -3.33301 8.16699 -11.5 6.5 -24.5s-6.5 -25.167 -14.5 -36.5c-14 -20.667 -28.833 -36.667 -44.5 -48s-34.834 -20.333 -57.501 -27c-20.667 -6 -35.667 -9.16699 -45 -9.5s-24.666 2.16699 -45.999 7.5
c-67.333 15.333 -103 34.333 -107 57c-3.33301 18 4.33398 42.667 23.001 74c-0.666992 -28 2.33301 -46.333 9 -55s26 -19.334 58 -32.001c26.667 -9.33301 56 -12.666 88 -9.99902c38 3.33301 64.5 11.666 79.5 24.999s19.167 34 12.5 62c-4 19.333 -9 35.333 -15 48
s-12.167 23.5 -18.5 32.5s-17 17.5 -32 25.5s-29 14.667 -42 20s-33.833 13 -62.5 23c-13.333 3.33301 -32 10.666 -56 21.999s-40.667 18.333 -50 21c-8.66699 1.33301 -21.667 7.66602 -39 18.999c-11.333 8 -19.166 15.5 -23.499 22.5s-8.5 19.167 -12.5 36.5
c-4.66699 22 -5.5 39.5 -2.5 52.5s10.5 25.5 22.5 37.5c4 3.33301 9.83301 10.833 17.5 22.5s14.5 18.5 20.5 20.5c6.66699 0 15 5.66699 25 17c4 6.66699 17.5 13.834 40.5 21.501s36.167 13.167 39.5 16.5c3.33301 4.66699 25.333 7 66 7z" />
    <glyph glyph-name="T" unicode="T" horiz-adv-x="758" 
d="M432 598c-21.333 0 -67.9971 -3.50488 -139.997 -10.5049s-115.333 -10.833 -130 -11.5c-14 0 -23.333 -1.66699 -28 -5c-6 -4.66699 -24.167 -6.66699 -54.5 -6s-46.5 3.66699 -48.5 9c-2.66699 7.33301 2.66602 14.5 15.999 21.5s27 9.83301 41 8.5
c13.333 -0.666992 30.833 1.5 52.5 6.5s41.834 6.5 60.501 4.5c14.667 -1.33301 44 1.83398 88 9.50098s70.667 7.5 80 -0.5c7.33301 -4 14.333 -4 21 0c5.33301 2.66699 15.333 4.33398 30 5.00098s32.5 0.5 53.5 -0.5s40.5 -2.16699 58.5 -3.5l61 -4.5
c22.667 -1.66699 37.667 -2.83398 45 -3.50098c60 -3.33301 90 -9.66602 90 -18.999c0 -3.33301 -2.66699 -10.333 -8 -21c-2.66699 -6.66699 -5.33398 -10.167 -8.00098 -10.5s-7.66699 1.83398 -15 6.50098c-3.33301 4 -17.333 7 -42 9s-55.167 3.33301 -91.5 4
s-58.5 1.33398 -66.5 2.00098c0 -14 -4.16699 -51.833 -12.5 -113.5s-12.5 -101.167 -12.5 -118.5c0 -27.333 -2 -66.5 -6 -117.5s-7.33301 -78.167 -10 -81.5c-6.66699 -8 -12.834 -11 -18.501 -9s-8.5 8.33301 -8.5 19c1.33301 140.667 6.66602 250.667 15.999 330
c3.33301 34.667 6.5 57.5 9.5 68.5s7.16699 17.5 12.5 19.5c14 4.66699 12.667 8.33398 -4 11.001c-8 1.33301 -18.333 2 -31 2z" />
    <glyph glyph-name="U" unicode="U" horiz-adv-x="468" 
d="M89 638c0 -13.333 14.001 -29.3281 42.001 -47.9951c10.667 -8 13.667 -12 9 -12c-10 0.666992 -24.333 6.66699 -43 18c-2 1.33301 -3.33301 2.33301 -4 3l-9 -51c-16.667 -94 -25.667 -181.167 -27 -261.5s5 -135.166 19 -164.499
c7.33301 -15.333 16.166 -26.166 26.499 -32.499s27.166 -11.5 50.499 -15.5c26.667 -4.66699 61.167 7.66602 103.5 36.999s72.166 61.333 89.499 96c10 18 16 28.333 18 31c6.66699 8.66699 14.5 26.834 23.5 54.501s15.167 52.167 18.5 73.5
c10.667 84.667 0.666992 162 -30 232c-11.333 24.667 -15.666 38.334 -12.999 41.001c2 2 4 2.33301 6 1c29.333 -37.333 46.333 -68.333 51 -93c4 -20.667 7.66699 -33.334 11 -38.001c5.33301 -6 7.5 -28.833 6.5 -68.5s-4.5 -70.834 -10.5 -93.501
c-18 -67.333 -37.333 -117 -58 -149c-6.66699 -10.667 -12.167 -19.834 -16.5 -27.501s-7.16602 -12.834 -8.49902 -15.501s-4.33301 -6.83398 -9 -12.501s-12.667 -14.834 -24 -27.501c-42 -42.667 -91 -67.667 -147 -75c-16.667 -2 -29 -2.33301 -37 -1s-18 6 -30 14
c-21.333 13.333 -36.5 30.666 -45.5 51.999s-15.167 54.666 -18.5 99.999c-5.33301 66 0.666992 155.667 18 269c2 14.667 5.5 43.667 10.5 87s8.83301 72.666 11.5 87.999c2.66699 5.33301 6.66699 5 12 -1c2.66699 -3.33301 4 -6.66602 4 -9.99902z" />
    <glyph glyph-name="V" unicode="V" horiz-adv-x="479" 
d="M222 92c-18.667 0 -50.9971 75.9951 -96.9971 227.995c-18 63.333 -32 104.666 -42 123.999c-4.66699 8 -8.33398 18.167 -11.001 30.5s-7.66699 21.833 -15 28.5c-4.66699 3.33301 -8.5 7.66602 -11.5 12.999s-5 9.83301 -6 13.5s-2.33301 10 -4 19
s-2.83398 15.5 -3.50098 19.5c-2.66699 15.333 -1 24 5 26c12 4.66699 25.333 -8.66602 40 -39.999s38 -96.333 70 -195c30.667 -95.333 50.667 -156.166 60 -182.499s16.333 -40.166 21 -41.499c4 -1.33301 9 3.66699 15 15s12.167 27.833 18.5 49.5
s11.833 45.834 16.5 72.501c23.333 124.667 40.166 206.334 50.499 245.001s26.5 81 48.5 127c18 36.667 33.333 59.334 46 68.001c17.333 10.667 26 13.667 26 9c0 -2.66699 -3 -7 -9 -13c-18.667 -20.667 -38 -55.167 -58 -103.5s-33.667 -94.166 -41 -137.499
c-3.33301 -22 -10.5 -60.833 -21.5 -116.5l-21.5 -109.5c-7.33301 -45.333 -18 -81.5 -32 -108.5s-28.667 -40.5 -44 -40.5z" />
    <glyph glyph-name="W" unicode="W" horiz-adv-x="592" 
d="M363 372c0 -2 9.33496 -23.1689 28.002 -63.502s27.667 -61.833 27 -64.5c0 -6 7.5 -18.667 22.5 -38s24.167 -28.333 27.5 -27c16.667 10.667 31 53.5 43 128.5s19.667 170.833 23 287.5c2 71.333 4.33301 114.333 7 129c3.33301 11.333 7.33301 9.66602 12 -5.00098
c2.66699 -10.667 4 -23 4 -37c-0.666992 -6.66699 0.166016 -31.834 2.49902 -75.501s2.5 -69.834 0.5 -78.501c-3.33301 -4.66699 -5.66602 -29.667 -6.99902 -75c-4 -107.333 -20.333 -192.666 -49 -255.999c-10.667 -26.667 -16 -40.667 -16 -42
c0 -5.33301 -7.5 -9 -22.5 -11s-25.167 -0.666992 -30.5 4c-12.667 10 -41.334 66.333 -86.001 169c-32.667 75.333 -53 113.333 -61 114c-5.33301 0.666992 -8.33301 -13.333 -9 -42v-6c-0.666992 -45.333 -12.667 -97.333 -36 -156
c-13.333 -33.333 -24.5 -57.166 -33.5 -71.499s-21.833 -27.833 -38.5 -40.5c-12 -8.66699 -20 -13.334 -24 -14.001s-12 1.66602 -24 6.99902c-15.333 7.33301 -26.666 18.333 -33.999 33c-10 19.333 -20.167 51.5 -30.5 96.5s-15.5 79.5 -15.5 103.5
c0 38 -2.66699 85.333 -8 142c-3.33301 41.333 -5 68 -5 80s2 19.333 6 22c7.33301 4.66699 13.333 6.33398 18 5.00098s10.667 -59 18 -173c6 -87.333 12.5 -149.166 19.5 -185.499s17.5 -62.166 31.5 -77.499c8 -8.66699 16.5 -14 25.5 -16s16.167 0 21.5 6
c10 12 15.667 18.667 17 20c9.33301 10.667 27.333 58 54 142c2.66699 8.66699 5.66699 30.334 9 65.001s7.16602 67.334 11.499 98.001s9.5 48.667 15.5 54c4 4.66699 7.33301 7.5 10 8.5s5.66699 -0.5 9 -4.5s6.66602 -9.5 9.99902 -16.5s8 -18.167 14 -33.5
c4 -11.333 11.5 -29 22.5 -53s17.833 -41.333 20.5 -52z" />
    <glyph glyph-name="X" unicode="X" horiz-adv-x="475" 
d="M286 453c4 0 22.335 23.3359 55.002 70.0029s53.334 79 62.001 97c12 25.333 22.333 38.666 31 39.999c16.667 2.66699 16 -15 -2 -53c-3.33301 -6.66699 -7.33301 -14 -12 -22c-16.667 -32 -26 -51 -28 -57c-2.66699 -8.66699 -5.66699 -13 -9 -13
c-4.66699 0 -20.667 -18.333 -48 -55c-18 -24 -29 -40.167 -33 -48.5s-4.66699 -15.5 -2 -21.5c2.66699 -1.33301 9.16699 -41.5 19.5 -120.5s16.5 -119.5 18.5 -121.5c6 -4 8.66699 -8.66699 8 -14s-4.33398 -8 -11.001 -8c-18.667 0 -36 50.667 -52 152
c-8 45.333 -13 69 -15 71c-1.33301 2.66699 -5 2.16699 -11 -1.5s-12.833 -9.33398 -20.5 -17.001s-14.167 -15.834 -19.5 -24.501c-14 -22 -44.667 -59.833 -92 -113.5s-74 -80.5 -80 -80.5c-14.667 0 -19 13 -13 39c1.33301 9.33301 3 15.166 5 17.499
s5 2.16602 9 -0.500977c6 -4.66699 14 -0.666992 24 12l36.5 41.5l34 38.5c8.33301 9.33301 19.166 22.5 32.499 39.5s27.333 35.833 42 56.5c22 30.667 34.333 46.334 37 47.001c5.33301 2 6.5 9.83301 3.5 23.5s-11.167 40.834 -24.5 81.501
c-16.667 48.667 -30.334 82.834 -41.001 102.501s-21.334 29.5 -32.001 29.5s-17 1.83301 -19 5.5s0 10.167 6 19.5s13.167 14.666 21.5 15.999s15.833 -2 22.5 -10c7.33301 -10 20.833 -36.5 40.5 -79.5s32.834 -75.167 39.501 -96.5c8 -28 13.667 -42 17 -42z" />
    <glyph glyph-name="Y" unicode="Y" horiz-adv-x="413" 
d="M357 604c0 -7.33301 -10.667 -26.6699 -32 -58.0029s-39.666 -54.666 -54.999 -69.999l-34 -37l2 -156c1.33301 -92 0.5 -153.833 -2.5 -185.5s-8.83301 -47.5 -17.5 -47.5c-6 0 -9.66699 7.83301 -11 23.5s-2 59.5 -2 131.5c-1.33301 104.667 -3 163.334 -5 176.001
c-2 10.667 -4.66699 17 -8 19s-12 2.66699 -26 2c-21.333 -1.33301 -40 6.16699 -56 22.5s-31 42.833 -45 79.5c-11.333 29.333 -21 52 -29 68c-5.33301 10.667 -7.33301 25.667 -6 45s5 30.333 11 33c8 2.66699 12.667 1 14 -5c0 -1.33301 1 -5.5 3 -12.5l8.5 -28.5
c3.66699 -12 6.83398 -23 9.50098 -33c23.333 -82 50.333 -128 81 -138c14 -5.33301 22 -7.66602 24 -6.99902s5 6 9 16c3.33301 9.33301 7.16602 15.333 11.499 18s14.5 5.66699 30.5 9c15.333 2.66699 35.666 27.334 60.999 74.001c5.33301 10.667 11.333 20 18 28
c14 16.667 26.5 41.167 37.5 73.5s15.167 58.166 12.5 77.499c-2 20.667 0 31 6 31s10.667 -10.667 14 -32c6 -32.667 1 -63.667 -15 -93c-6 -10 -9 -18 -9 -24z" />
    <glyph glyph-name="Z" unicode="Z" horiz-adv-x="601" 
d="M461 523c-13.333 -15.333 -23.002 -28.502 -29.002 -39.502s-16.667 -24.833 -32 -41.5c-13.333 -14.667 -23.5 -26.167 -30.5 -34.5s-12.667 -15.5 -17 -21.5s-6.16602 -10 -5.49902 -12s2 -4 4 -6c5.33301 -4 21 -6 47 -6c20.667 -0.666992 31.334 -1.66699 32.001 -3
c0 -1.33301 -2.33301 -3.66602 -7 -6.99902c-8.66699 -6.66699 -20 -10 -34 -10c-17.333 0 -36.333 -3.33301 -57 -10s-34.667 -13.667 -42 -21c-32 -33.333 -76.667 -93.333 -134 -180c-16 -22.667 -23 -35 -21 -37c128.667 9.33301 255 11 379 5
c34 -0.666992 52.333 -4.33398 55 -11.001c2 -6 2.16699 -10.5 0.5 -13.5s-5.83398 -5.5 -12.501 -7.5s-16.834 -3 -30.501 -3h-53.5c-134.667 2 -215.167 2.33301 -241.5 1s-68.833 -8 -127.5 -20c-12.667 -2.66699 -19 -2.66699 -19 0c-2 10.667 16.667 46 56 106
s74.333 108.667 105 146c-31.333 2 -47.333 8 -48 18c-0.666992 4 2 7.83301 8 11.5s17 7.83398 33 12.501c29.333 8.66699 52.333 21.334 69 38.001c26 26 59.833 67.833 101.5 125.5s60.5 88.5 56.5 92.5c-3.33301 0.666992 -15.5 -0.666016 -36.5 -3.99902
s-33.5 -4.33301 -37.5 -3c-10 1.33301 -15 0.333008 -15 -3c0 -4 -27.667 -8.33301 -83 -13c-23.333 -1.33301 -67.666 -8 -132.999 -20s-106.666 -18.333 -123.999 -19c-5.33301 3.33301 -7.5 9.16602 -6.5 17.499s4.83301 13.833 11.5 16.5
c4.66699 2 23.334 4.5 56.001 7.5s51.334 6.16699 56.001 9.5c14.667 4.66699 37.5 8.16699 68.5 10.5s57.167 5.83301 78.5 10.5c56.667 10 99.667 14.667 129 14c19.333 0 30.666 2.33301 33.999 7c3.33301 5.33301 10.5 7.5 21.5 6.5s18.5 -4.83301 22.5 -11.5
c9.33301 -17.333 -6.33398 -50 -47.001 -98z" />
    <glyph glyph-name="underscore" unicode="_" horiz-adv-x="669" 
d="M611 -83c0 10.667 1.66406 15.6699 4.99707 15.0029c4.66699 -2 9.33398 -9.33301 14.001 -22c8.66699 -24.667 9.83398 -38.834 3.50098 -42.501s-33.166 -4.16699 -80.499 -1.5c-54.667 3.33301 -152 5.66602 -292 6.99902c-143.333 1.33301 -219 3.66602 -227 6.99902
c-2.66699 2 -4 6 -4 12c0 6.66699 10.167 10.5 30.5 11.5s89.5 0.833008 207.5 -0.5h53l290 -2v16z" />
    <glyph glyph-name="grave" unicode="`" horiz-adv-x="180" 
d="M138 429c-19.333 5.33301 -42.001 27 -68.001 65s-39.333 62.667 -40 74c6.66699 20.667 29 1 67 -59c20 -32 34 -51.333 42 -58c4.66699 -4 7.83398 -7.66699 9.50098 -11s1.5 -6 -0.5 -8s-5.33301 -3 -10 -3z" />
    <glyph glyph-name="a" unicode="a" horiz-adv-x="543" 
d="M142 327c0 -6.66699 -2.33301 -10.002 -7 -10.002c-4 0 -14.333 -15 -31 -45s-28.667 -55.667 -36 -77c-8 -24 -11.667 -50.667 -11 -80s5.66699 -51.666 15 -66.999c8.66699 -13.333 22.334 -24.166 41.001 -32.499s38.667 -12.5 60 -12.5
c13.333 0 23.833 1.83301 31.5 5.5s18.834 12.167 33.501 25.5c23.333 21.333 42.666 46 57.999 74c6.66699 6 13 20.833 19 44.5s9 46.167 9 67.5c0 22 -0.833008 35.833 -2.5 41.5s-6.16699 10.167 -13.5 13.5s-11 5.5 -11 6.5s2 2.5 6 4.5
c7.33301 2.66699 12.666 13.667 15.999 33s2.33301 35 -3 47c-6 12.667 -14.333 23 -25 31c-8 6.66699 -20 11.5 -36 14.5s-28 2.83301 -36 -0.5c-8 -2.66699 -22.833 -16 -44.5 -40s-32.5 -38.667 -32.5 -44zM86 316.998c9.33301 0 19.6709 9.00488 31.0039 27.0049
c10.667 16.667 28.334 36.667 53.001 60c18 17.333 30.167 27.166 36.5 29.499s18.833 2.5 37.5 0.5c43.333 -8 72.166 -21.333 86.499 -40s22.833 -56.334 25.5 -113.001c2.66699 -68.667 16.667 -130.334 42 -185.001c15.333 -33.333 28.666 -51.833 39.999 -55.5
s27.333 5.5 48 27.5l27 29l-23 -47c-12 -24.667 -22.667 -39.667 -32 -45s-22.333 -3.33301 -39 6c-10.667 5.33301 -19.334 12.666 -26.001 21.999s-16 26.666 -28 51.999c-16.667 33.333 -28.667 45.333 -36 36c-2.66699 -3.33301 -5.33398 -9.33301 -8.00098 -18
c-3.33301 -10.667 -13 -26 -29 -46s-25 -31.667 -27 -35c-19.333 -31.333 -51.333 -48.5 -96 -51.5s-79.667 9.5 -105 37.5c-48.667 56 -47.334 138.667 3.99902 248c11.333 24.667 15 39 11 43c-12 12 -9.66699 18 7 18z" />
    <glyph glyph-name="b" unicode="b" horiz-adv-x="462" 
d="M398 245c0 67.333 -16.332 119.002 -48.999 155.002c-15.333 16 -28 26 -38 30s-22.667 3.66699 -38 -1c-14.667 -4 -33.834 -16.833 -57.501 -38.5s-41.167 -42.167 -52.5 -61.5c-18.667 -32 -35.5 -74.833 -50.5 -128.5s-19.833 -90.167 -14.5 -109.5
c2 -11.333 12 -22 30 -32c10.667 -6.66699 20.667 -10.834 30 -12.501s24.333 -1.83398 45 -0.500977c54.667 3.33301 101.5 23.333 140.5 60s57.167 83 54.5 139zM35.001 669.002c11.333 7.33301 19.3301 4.66699 23.9971 -8c7.33301 -20.667 16 -124 26 -310
c0 -8 0.333008 -16.333 1 -25c2.66699 -50 5.33398 -75 8.00098 -75c1.33301 0 3.66602 4 6.99902 12c24 52.667 46.333 92.5 67 119.5s44.667 47.167 72 60.5c33.333 16.667 66.333 17 99 1c16.667 -8.66699 29.334 -18 38.001 -28s18 -26.667 28 -50
c16 -37.333 24.833 -71 26.5 -101s-4.16602 -63.667 -17.499 -101c-15.333 -48 -43.833 -84.833 -85.5 -110.5s-92.167 -39.167 -151.5 -40.5c-15.333 4.66699 -29.166 10.5 -41.499 17.5s-19.5 13.167 -21.5 18.5c0 4.66699 -3.5 7.33398 -10.5 8.00098s-16.833 0 -29.5 -2
s-19.334 -3 -20.001 -3c0.666992 60 -0.666016 118.167 -3.99902 174.5s-5.33301 113.5 -6 171.5c-3.33301 105.333 -7 176.333 -11 213c-4.66699 35.333 -4 54.666 2 57.999z" />
    <glyph glyph-name="c" unicode="c" horiz-adv-x="408" 
d="M329 227c0 19.333 -5.33496 46.6709 -16.002 82.0039s-20.334 58.333 -29.001 69c-17.333 22 -45.333 23.667 -84 5c-27.333 -12.667 -53.833 -32.5 -79.5 -59.5s-41.167 -51.167 -46.5 -72.5s-10.166 -49.833 -14.499 -85.5s-6.16602 -59.5 -5.49902 -71.5
c4 -46 18.667 -78 44 -96s63.333 -23.333 114 -16c40.667 6 88.667 26.333 144 61c10 6.66699 17 8.66699 21 6c2.66699 -2.66699 1.66699 -4 -3 -4s-9.33398 -5.33301 -14.001 -16c-4 -8 -15.167 -17.833 -33.5 -29.5s-27.833 -17.834 -28.5 -18.501
c-8.66699 -7.33301 -27.5 -14.833 -56.5 -22.5s-52.5 -11.5 -70.5 -11.5c-16.667 0 -35 3.33301 -55 10c-17.333 6 -35.166 17.667 -53.499 35s-26.166 29.666 -23.499 36.999c2 6.66699 0.666992 13.667 -4 21c-4.66699 6 -6 37.833 -4 95.5s5.66699 96.5 11 116.5
c14 45.333 51 87.666 111 126.999c34.667 22.667 60 35.5 76 38.5s33.333 -1.5 52 -13.5c16 -10 28.667 -15 38 -15c18 -1.33301 30 -42.333 36 -123c4 -51.333 1.66699 -78.333 -7 -81l-8 1c-7.33301 3.33301 -11 13.666 -11 30.999z" />
    <glyph glyph-name="d" unicode="d" horiz-adv-x="496" 
d="M380 115c14 0 21.3359 33.333 22.0029 100c0.666992 34.667 -1.33301 62.667 -6 84s-10.667 32 -18 32c-4 0 -10.333 8 -19 24c-12 22.667 -39 35.5 -81 38.5s-75.667 -2.16699 -101 -15.5c-22.667 -11.333 -46 -29.5 -70 -54.5s-38.333 -46.5 -43 -64.5
c-3.33301 -12.667 -4.5 -22.5 -3.5 -29.5s5.83301 -18.833 14.5 -35.5c13.333 -26 37.166 -52.667 71.499 -80s63.166 -42.333 86.499 -45c39.333 -5.33301 76 3 110 25c21.333 14 33.666 21 36.999 21zM415.003 17c0 13.333 -3.16992 30.001 -9.50293 50.001
s-11.833 30.667 -16.5 32c-7.33301 2.66699 -15.666 -1.33301 -24.999 -12c-7.33301 -7.33301 -22 -18.333 -44 -33c-18.667 -12 -41.5 -18.333 -68.5 -19s-51.833 4.66602 -74.5 15.999c-22.667 10.667 -46.5 26.167 -71.5 46.5s-38.167 34.833 -39.5 43.5
c-1.33301 10.667 -4 16 -8 16c-5.33301 0 -11.333 8.33301 -18 25s-10 32 -10 46c0 24.667 17.833 57.667 53.5 99s67.5 65.666 95.5 72.999c38.667 10.667 75.334 15.667 110.001 15c22 -0.666992 48 -12.5 78 -35.5s47.333 -45.167 52 -66.5c1.33301 -4.66699 3 -8 5 -10
s4 -2.66699 6 -2c4 2.66699 4.33301 53 1 151c-3.33301 97.333 -1.66602 148.333 5.00098 153c13.333 8 21.333 7.33301 24 -2c1.33301 -8 3.33301 -83.333 6 -226c2.66699 -233.333 -5 -355.666 -23 -366.999c-18.667 -12 -28 -9.66699 -28 7z" />
    <glyph glyph-name="e" unicode="e" horiz-adv-x="491" 
d="M256 459l29.998 0.000976562c8.66699 0 17 -1.5 25 -4.5s15.333 -7.5 22 -13.5c9.33301 -10 20 -17.333 32 -22c7.33301 -2.66699 12.5 -8.33398 15.5 -17.001s7.83301 -15 14.5 -19c8 -6.66699 14.833 -16 20.5 -28s15.834 -38.333 30.501 -79
c10.667 -29.333 15.834 -48.5 15.501 -57.5s-5.5 -17.167 -15.5 -24.5c-8.66699 -6 -45 -9.5 -109 -10.5s-101.333 -3.16699 -112 -6.5c-10 -2 -21 -3.83301 -33 -5.5s-21.5 -3.16699 -28.5 -4.5s-14.167 -3.33301 -21.5 -6c-4.66699 -3.33301 -11 -1.33301 -19 6
c-6.66699 4.66699 -10 8 -10 10s3.33301 5.66699 10 11c20 15.333 82.333 24.333 187 27c69.333 1.33301 105.666 3.66602 108.999 6.99902c10.667 6.66699 5.33398 34.5 -15.999 83.5s-43 83.833 -65 104.5c-25.333 24.667 -72.666 23.334 -141.999 -3.99902
c-21.333 -10 -46.833 -26.833 -76.5 -50.5s-44.5 -39.167 -44.5 -46.5c-1.33301 -5.33301 -3.66602 -14.166 -6.99902 -26.499s-5.33301 -21 -6 -26s-1.5 -15.333 -2.5 -31s0.166992 -29.834 3.5 -42.501c6 -44 12.5 -75.667 19.5 -95s18.833 -38.333 35.5 -57
c50.667 -56 113.667 -62.667 189 -20c6 3.33301 18.833 12 38.5 26s36.5 25.167 50.5 33.5s22.333 10.833 25 7.5c0 -8.66699 -14.833 -25.167 -44.5 -49.5s-57.167 -42.833 -82.5 -55.5c-56 -28 -105.667 -31.333 -149 -10c-18.667 9.33301 -37 23.333 -55 42
s-28.333 34.334 -31 47.001c-1.33301 8 -4.33301 15.667 -9 23s-7 17 -7 29c0 15.333 -2.66699 25 -8 29c-6 3.33301 -7.33301 31.166 -4 83.499s8.66602 85.833 15.999 100.5s19.5 30 36.5 46s29.833 24 38.5 24c8 0 12 3.33301 12 10c0 4 8.83301 10.333 26.5 19
s30.834 13 39.501 13c5.33301 0.666992 14.666 5.66699 27.999 15s22.666 14.333 27.999 15z" />
    <glyph glyph-name="f" unicode="f" horiz-adv-x="561" 
d="M451 541c7.33301 0 21.6709 -10.3359 43.0039 -31.0029s33.333 -36 36 -46c3.33301 -10 1 -14.667 -7 -14c-10 0.666992 -25 8.33398 -45 23.001c-20.667 14.667 -46.167 29.667 -76.5 45s-49.833 23 -58.5 23c-32 0 -59.833 -9 -83.5 -27s-38.834 -41.667 -45.501 -71
c-6 -24.667 -11.333 -38.667 -16 -42c-4 -6 -6.5 -12.667 -7.5 -20s-1.66699 -19.333 -2 -36s-0.833008 -31 -1.5 -43l-5 -68c34.667 -3.33301 103.334 5 206.001 25c7.33301 2 15.333 1 24 -3c5.33301 -2.66699 7.66602 -5.16699 6.99902 -7.5s-4.66699 -5.83301 -12 -10.5
c-23.333 -15.333 -58.666 -23.666 -105.999 -24.999c-17.333 0 -26 -2.33301 -26 -7c-4 -5.33301 -33.667 -10.666 -89 -15.999c-2 -52 0.666992 -83.667 8 -95c3.33301 -10 6.33301 -26.5 9 -49.5s5.33398 -40.5 8.00098 -52.5c3.33301 -16.667 5 -28 5 -34
s-2 -10.333 -6 -13c-9.33301 -6 -15.333 -6.66699 -18 -2s-8.66699 29 -18 73c-2.66699 14 -5.33398 30.333 -8.00098 49s-5.33398 38.667 -8.00098 60s-4.66699 36.333 -6 45c-0.666992 6.66699 -21.334 10 -62.001 10c-24.667 0 -40.834 0.666992 -48.501 2
s-11.5 4.33301 -11.5 9c0 10 3.83301 16.833 11.5 20.5s23.5 6.83398 47.5 9.50098c32.667 4 51 7.66699 55 11c5.33301 5.33301 1 42 -13 110c-2 10 -2.5 16 -1.5 18s4.5 2.33301 10.5 1s10.5 -0.333008 13.5 3s6.16699 11.333 9.5 24c14.667 55.333 33 96.666 55 123.999
c13.333 16.667 24 28.167 32 34.5s19.667 12.833 35 19.5c15.333 6 29.166 8.5 41.499 7.5s32.833 -6.16699 61.5 -15.5c33.333 -12 54.333 -18 63 -18z" />
    <glyph glyph-name="g" unicode="g" horiz-adv-x="409" 
d="M337 -73c3.33301 22 0.000976562 33.999 -9.99902 35.999s-40.333 -3.66699 -91 -17c-44 -12 -83.167 -29.167 -117.5 -51.5s-50.5 -41.166 -48.5 -56.499c1.33301 -9.33301 11.166 -17 29.499 -23s35.833 -7.66699 52.5 -5c57.333 10 100.333 21.667 129 35
c21.333 10.667 35 20.5 41 29.5s11 26.5 15 52.5zM299.001 250.999c0 51.333 -3 80.999 -9 88.999c-6 7.33301 -16 13 -30 17s-27.333 5.33301 -40 4c-16.667 -2 -33.334 -12.833 -50.001 -32.5s-30.667 -45.5 -42 -77.5c-2.66699 -6.66699 -5.5 -13.334 -8.5 -20.001
l-6.5 -14.5c-1.33301 -3 -2.5 -6.33301 -3.5 -10s-1.5 -8.16699 -1.5 -13.5s0.333008 -11.666 1 -18.999s1.66699 -17.666 3 -30.999c3.33301 -27.333 6.83301 -45 10.5 -53s12.167 -18.667 25.5 -32c16 -14 27.333 -21.667 34 -23s20.334 0.666992 41.001 6
c26.667 4 46 22.5 58 55.5s18 84.5 18 154.5zM365.001 257.998c-4.66699 0 -6.33203 -4.67285 -4.99902 -14.0059l8 -70c6.66699 -50 10 -94.333 10 -133s-2.66699 -59.667 -8 -63c-5.33301 -5.33301 -11.166 -23 -17.499 -53s-12.5 -48.333 -18.5 -55
c-5.33301 -7.33301 -8.5 -12.666 -9.5 -15.999s-1.5 -7.16602 -1.5 -11.499s-1 -9.16602 -3 -14.499c-9.33301 -18.667 -68.333 -28 -177 -28c-51.333 0 -82.5 0.666992 -93.5 2s-17.167 5 -18.5 11c-2.66699 10.667 -0.333984 24.334 6.99902 41.001s17.666 31 30.999 43
c22 20.667 54.333 39.667 97 57s83 28 121 32c22.667 2.66699 38.667 8.33398 48 17.001s12.666 20.334 9.99902 35.001c-2 9.33301 -4.33301 29 -7 59c-3.33301 44.667 -10.666 67 -21.999 67c-6.66699 0 -7.66699 -5 -3 -15c4.66699 -8.66699 5.66699 -19.834 3 -33.501
s-8 -25.167 -16 -34.5c-12 -16 -20 -28 -24 -36c-11.333 -20.667 -30.333 -33.667 -57 -39s-53.334 -1.66602 -80.001 11.001c-12 6 -21.5 12.833 -28.5 20.5s-14.5 20.167 -22.5 37.5c-9.33301 20 -14.833 35 -16.5 45s-1.5 27 0.5 51c2.66699 41.333 15.5 83.333 38.5 126
s46.833 69.667 71.5 81c22.667 10 53 10.5 91 1.5s64.667 -22.833 80 -41.5c12.667 -15.333 20.334 -26.5 23.001 -33.5s2.66699 -15.5 0 -25.5c-3.33301 -14 -7 -21 -11 -21z" />
    <glyph glyph-name="h" unicode="h" horiz-adv-x="486" 
d="M60 625c8.66699 0 19.3379 -35.9951 32.0049 -107.995c5.33301 -32.667 8.66602 -87 9.99902 -163s-0.333984 -130 -5.00098 -162c-2.66699 -18.667 -1.33398 -27.334 3.99902 -26.001c4.66699 2.66699 10.334 12 17.001 28c6 14.667 20.667 37 44 67
c22 28.667 44.333 49.167 67 61.5s51.334 19.166 86.001 20.499c22 1.33301 36.667 1.16602 44 -0.500977s14.666 -6.16699 21.999 -13.5c20.667 -21.333 34.667 -39.5 42 -54.5s15.666 -40.167 24.999 -75.5c8.66699 -26.667 9.66699 -64.667 3 -114
c0 -3.33301 -3.33301 -5 -10 -5s-8.66699 7.66699 -6 23s0 40.5 -8 75.5s-17.333 62.833 -28 83.5c-16 31.333 -35.333 50.166 -58 56.499s-52 1.16602 -88 -15.501c-16.667 -7.33301 -34.334 -19.5 -53.001 -36.5s-28.334 -29.5 -29.001 -37.5
c-1.33301 -4 -10.333 -19.5 -27 -46.5s-25.334 -44.833 -26.001 -53.5c-3.33301 -18.667 -8.5 -35 -15.5 -49s-13.167 -21 -18.5 -21c-4 0 -6.5 12.667 -7.5 38s-1.16699 83.333 -0.5 174c0.666992 194 -5 291 -17 291c-11.333 0 -17 -27.333 -17 -82
c0 -29.333 -2.33301 -43 -7 -41c-4.66699 0.666992 -6.16699 14.667 -4.5 42s5.83398 57.333 12.501 90c7.33301 36 13 54 17 54z" />
    <glyph glyph-name="i" unicode="i" horiz-adv-x="168" 
d="M34 303c-2.66699 0 -4.00293 5.16602 -4.00293 15.499s0.833008 21.333 2.5 33s3.83398 19.834 6.50098 24.501c8 14 18 4.33301 30 -29c6.66699 -20.667 12.667 -46.334 18 -77.001c5.33301 -31.333 8.83301 -77.666 10.5 -138.999s0.166992 -92.333 -4.5 -93
c-10 0.666992 -16.667 7.66699 -20 21s-5.66602 44.666 -6.99902 93.999c-1.33301 68.667 -5.66602 114.334 -12.999 137.001c-6 15.333 -9.66699 23 -11 23c-1.33301 -6.66699 -4 -10 -8 -10zM109.997 586.999c8.66699 18.667 16.333 22.334 23 11.001
c5.33301 -10.667 6.33301 -27.334 3 -50.001c-2.66699 -16.667 -6.66699 -25 -12 -25s-10.333 8 -15 24c-4 16 -3.66699 29.333 1 40z" />
    <glyph glyph-name="j" unicode="j" horiz-adv-x="303" 
d="M31 -53c4 0 15.9971 -11.6631 35.9971 -34.9961c13.333 -15.333 23.333 -25 30 -29s16 -6 28 -6c40 0 72 26.667 96 80c36 77.333 46.333 169.666 31 276.999c-8 54.667 -16 95.667 -24 123c-12.667 40 -14.667 60.333 -6 61c8.66699 1.33301 18.334 -14 29.001 -46
c2.66699 -7.33301 5 -15.333 7 -24c6.66699 -23.333 10.834 -45.5 12.501 -66.5s2.5 -62.5 2.5 -124.5c-0.666992 -92 -5.66699 -151.667 -15 -179c-8 -24.667 -18.333 -47.834 -31 -69.501s-23.334 -33.834 -32.001 -36.501c-10.667 -5.33301 -19.334 -11.333 -26.001 -18
c-7.33301 -7.33301 -18.666 -10.5 -33.999 -9.5s-29.666 6.16699 -42.999 15.5c-5.33301 3.33301 -13.666 12.166 -24.999 26.499s-20.833 28 -28.5 41s-10.167 19.5 -7.5 19.5zM227.997 533.004c0 27.333 1.66602 42.666 4.99902 45.999c6 6 10.667 1.66699 14 -13l3 -32
c0.666992 -15.333 0.5 -25.5 -0.5 -30.5s-4.16699 -8.16699 -9.5 -9.5s-8.66602 0.333984 -9.99902 5.00098s-2 16 -2 34z" />
    <glyph glyph-name="k" unicode="k" horiz-adv-x="421" 
d="M69 590c11.333 0 18.333 -6.33887 21 -19.0059c4 -14 5.66699 -80.833 5 -200.5s-3 -189.167 -7 -208.5c-1.33301 -6.66699 -2.33301 -12.5 -3 -17.5s-0.833984 -8.83301 -0.500977 -11.5s1.16602 -4 2.49902 -4c4 0 16.333 10.167 37 30.5s31 32.166 31 35.499
c1.33301 2.66699 16.5 35.334 45.5 98.001s44.5 97.334 46.5 104.001c3.33301 10 6.83301 16.667 10.5 20s8.5 5 14.5 5c5.33301 0 9.16602 -0.666992 11.499 -2s3.5 -4 3.5 -8s-1.33301 -9.16699 -4 -15.5s-6.66699 -15.166 -12 -26.499
c-3.33301 -6 -10.166 -20.667 -20.499 -44s-18.833 -39 -25.5 -47c-2.66699 -3.33301 -3.66699 -8 -3 -14s-1 -11.667 -5 -17c-8 -13.333 -6.33301 -19.666 5 -18.999c6 0.666992 15.667 3.33398 29 8.00098c47.333 16.667 84 7.66699 110 -27
c8.66699 -11.333 16.5 -31.666 23.5 -60.999s8.83301 -51 5.5 -65c-1.33301 -4 -2.66602 -13 -3.99902 -27s-3.33301 -25.833 -6 -35.5s-7 -15.5 -13 -17.5c-6.66699 -4 -11.5 -5.5 -14.5 -4.5s-6.83301 6.5 -11.5 16.5c-12 22.667 -13.667 34 -5 34
c2 0 4.66699 -0.666992 8 -2c6.66699 -2 10.667 -1.33301 12 2s2 13.666 2 30.999c0 18.667 -2.5 39.334 -7.5 62.001s-10.833 39.667 -17.5 51s-21 17.333 -43 18s-44.333 -4 -67 -14c-39.333 -17.333 -66.666 -51 -81.999 -101c-7.33301 -22 -13 -35.5 -17 -40.5
s-11.667 -7.83301 -23 -8.5c-10.667 0 -21.5 -3 -32.5 -9s-18.5 -9.66699 -22.5 -11c-10 -2.66699 -15.333 -0.666992 -16 6s2.33301 30 9 70c12 67.333 19.167 152.333 21.5 255s-1.16699 170.334 -10.5 203.001c-2.66699 12 -3 19.5 -1 22.5s8.66699 4.83301 20 5.5z" />
    <glyph glyph-name="l" unicode="l" horiz-adv-x="111" 
d="M37 694c15.333 18.667 27.001 7.33398 35.001 -33.999c10 -54 12 -149.667 6 -287c-0.666992 -23.333 -1.66699 -55 -3 -95s-2.66602 -75.167 -3.99902 -105.5s-2 -53.5 -2 -69.5c-0.666992 -46 -1.66699 -74.333 -3 -85s-5.33301 -16.667 -12 -18
c-8.66699 -2 -15.334 -1.66699 -20.001 1c-4.66699 2 -5.33398 37.667 -2.00098 107c4 79.333 6.5 177.166 7.5 293.499s-0.166992 190.833 -3.5 223.5c-3.33301 40 -3 63 1 69z" />
    <glyph glyph-name="m" unicode="m" horiz-adv-x="579" 
d="M309 253c0 8 12.834 26.6689 38.501 56.002s46.834 49.333 63.501 60c46.667 26 79.334 23.333 98.001 -8c20 -34 32.167 -71.833 36.5 -113.5s1.5 -98.5 -8.5 -170.5c-5.33301 -36 -10.833 -60.667 -16.5 -74s-13.5 -20.333 -23.5 -21c-3.33301 0 -5 1.33301 -5 4
c0 4.66699 3.33301 31.334 10 80.001c8.66699 62.667 11.334 113.167 8.00098 151.5s-13 74.5 -29 108.5c-10 20.667 -20.5 30.667 -31.5 30s-29.833 -12 -56.5 -34c-14.667 -12.667 -32.334 -38.667 -53.001 -78s-34.667 -74 -42 -104
c-4.66699 -20 -9.5 -33.833 -14.5 -41.5s-11.5 -11.5 -19.5 -11.5c-4.66699 0 -7 37.667 -7 113c0 51.333 -0.666992 84.666 -2 99.999s-5.33301 29 -12 41c-10 18.667 -17.667 29 -23 31c-10.667 3.33301 -28.667 -12.167 -54 -46.5s-38 -60.166 -38 -77.499
c0 -8 -2.33301 -17.333 -7 -28c-4.66699 -8.66699 -9.33398 -30.667 -14.001 -66s-7.33398 -68.333 -8.00098 -99c0 -24.667 -1.83301 -39.5 -5.5 -44.5s-13.5 -8.5 -29.5 -10.5c-4 2 -9.66699 62.333 -17 181c-1.33301 31.333 -4.66602 56 -9.99902 74
c-10 34 -10.667 59.333 -2 76c4.66699 8 10.334 8.66699 17.001 2c1.33301 0.666992 3.66602 -6 6.99902 -20c1.33301 -6 4 -17 8 -33c8 -39.333 13.333 -59.333 16 -60c2 -0.666992 3 4.66602 3 15.999c0.666992 9.33301 3.16699 17.166 7.5 23.499
s7.16602 13.166 8.49902 20.499c6 24 24 51 54 81s59 45.333 87 46c10 -0.666992 16.667 -4 20 -10s8.66602 -23.333 15.999 -52c10.667 -44 16 -71 16 -81c0.666992 -14 3.66699 -22 9 -24c2 0 3.33301 1.33301 4 4c0.666992 2 1 5 1 9z" />
    <glyph glyph-name="n" unicode="n" horiz-adv-x="515" 
d="M279 414c0 -2 -8.33496 -15 -25.002 -39s-24.667 -37.667 -24 -41c0 -6.66699 -2 -10 -6 -10c-8 0 -22.333 -38.333 -43 -115c-10 -38 -18.333 -61.667 -25 -71c-6.66699 -8.66699 -10 -19.334 -10 -32.001c0 -31.333 -8.33301 -47 -25 -47c-11.333 0 -17 3 -17 9
c0 20 -8.33301 110.667 -25 272c-0.666992 7.33301 -1.66699 13.833 -3 19.5s-2.66602 10 -3.99902 13s-2.33301 4.16699 -3 3.5c-1.33301 -1.33301 -2.83301 -1.33301 -4.5 0s-2.5 3.33301 -2.5 6c0 8.66699 -3.33301 18.667 -10 30s-12.334 17 -17.001 17
c-7.33301 0 -6.33301 4.66699 3 14c8.66699 10 17.5 14.5 26.5 13.5s16.167 -7.16699 21.5 -18.5c14.667 -29.333 27.667 -91.333 39 -186c5.33301 -38 11 -57 17 -57c4.66699 0 10.667 13 18 39c6.66699 24 22.667 59.333 48 106c22 41.333 45.333 75.5 70 102.5
s47.334 43.167 68.001 48.5s40.334 4 59.001 -4c6.66699 -1.33301 16.5 -12.166 29.5 -32.499s19.5 -34.5 19.5 -42.5c0 -6 2.33301 -10.667 7 -14c3.33301 -4.66699 6 -15.834 8 -33.501s5.33301 -29.5 10 -35.5c4 -8 6 -13.667 6 -17s-1 -7.5 -3 -12.5
s-3 -9.16699 -3 -12.5c4.66699 -5.33301 5.66699 -26.333 3 -63s-7.33398 -63 -14.001 -79c-10 -22 -13.667 -36 -11 -42c1.33301 -5.33301 -0.166992 -10.5 -4.5 -15.5s-6.16602 -9.83301 -5.49902 -14.5c0 -8.66699 -5.16699 -19 -15.5 -31s-19.166 -18 -26.499 -18
c-6.66699 -1.33301 -10 1.66699 -10 9c1.33301 10 4.33301 16.333 9 19c4 0 10.5 14.833 19.5 44.5s15.833 59.834 20.5 90.501c5.33301 44 5.33301 86.5 0 127.5s-15.833 76.167 -31.5 105.5s-32.834 44 -51.501 44c-12.667 0 -29.5 -6.5 -50.5 -19.5
s-31.5 -23.167 -31.5 -30.5z" />
    <glyph glyph-name="o" unicode="o" horiz-adv-x="398" 
d="M363 394c-1.33301 0.666992 -1.15723 -2.66797 0.509766 -10.001s3.16699 -14.333 4.5 -21s0.666016 -10.334 -2.00098 -11.001c-4 0 -7.66699 7 -11 21c-4 18.667 -24.333 37.334 -61 56.001c-9.33301 4.66699 -17 6.5 -23 5.5s-17.667 -5.83301 -35 -14.5
c-20.667 -10.667 -44.834 -28.834 -72.501 -54.501s-43.167 -44.167 -46.5 -55.5c-4 -8.66699 -7 -13 -9 -13c-6 0 -15.833 -19.167 -29.5 -57.5s-20.5 -66.166 -20.5 -83.499c0 -13.333 4.33301 -25.5 13 -36.5s20 -17.833 34 -20.5
c12 -3.33301 36.5 -2.66602 73.5 2.00098s60.833 10 71.5 16c5.33301 2.66699 10.666 5.16699 15.999 7.5s9 3.83301 11 4.5s4.5 2.16699 7.5 4.5s6 5.33301 9 9s6.83301 9.16699 11.5 16.5c8.66699 13.333 14 24.166 16 32.499s2.33301 21.166 1 38.499
c-1.33301 25.333 -5 44.333 -11 57c-6.66699 10.667 -9.33398 18 -8.00098 22s6.66602 5.33301 15.999 4c17.333 -3.33301 29.5 -26 36.5 -68s4.16699 -73.333 -8.5 -94c-16 -24 -28 -36 -36 -36c-2 -0.666992 -7.5 -4.16699 -16.5 -10.5s-18.167 -8.16602 -27.5 -5.49902
c-8.66699 1.33301 -14.334 1.5 -17.001 0.5s-3.33398 -4.16699 -2.00098 -9.5s-1.83398 -9.33301 -9.50098 -12s-25.834 -5.66699 -54.501 -9c-42.667 -6 -72 -7.66699 -88 -5c-11.333 2.66699 -22.833 9.33398 -34.5 20.001s-20.167 22.667 -25.5 36
c-4 10.667 -6 25.167 -6 43.5s2.33301 28.833 7 31.5c4 4 7 11.167 9 21.5s4.66699 18.5 8 24.5l28 52c20 38 39.333 66 58 84s49.667 38.667 93 62c18.667 10 33.667 15.667 45 17s25 -1.66699 41 -9c12.667 -6 26 -18.667 40 -38
c5.33301 -9.33301 6.66602 -14.333 3.99902 -15z" />
    <glyph glyph-name="p" unicode="p" horiz-adv-x="381" 
d="M171 66c2 -10 0.666992 -14.667 -4 -14c-5.33301 1.33301 -10 6.33301 -14 15c-2 4 -2 6.66699 0 8c8.66699 8.66699 14.667 5.66699 18 -9zM330 192c0 -22.667 -15.6631 -49.6621 -46.9961 -80.9951c-50.667 -50.667 -80.334 -64.334 -89.001 -41.001
c-5.33301 13.333 1.33398 22.333 20.001 27c24 6 46.833 28.167 68.5 66.5s32.834 75.833 33.501 112.5c0 25.333 -5 54 -15 86s-21.333 55 -34 69c-8.66699 10 -15.334 15.833 -20.001 17.5s-13 1.5 -25 -0.5c-18 -4 -28 -9.33301 -30 -16
c-2.66699 -6.66699 -6 -10 -10 -10c-5.33301 0.666992 -11.833 -3.66602 -19.5 -12.999s-15.834 -21.333 -24.501 -36s-14 -23.334 -16 -26.001c-4 -4 -7 -11.333 -9 -22s-5.33301 -18 -10 -22c-4.66699 -3.33301 -6.66699 -9.33301 -6 -18s-1 -15.334 -5 -20.001
c-6 -7.33301 -7.33301 -19.333 -4 -36c10 -58 14.333 -136.667 13 -236c0 -44 -0.666992 -71.833 -2 -83.5s-5 -19.5 -11 -23.5c-8 -6.66699 -15.667 -6.33398 -23 0.999023c-14.667 13.333 -23 97.333 -25 252c-1.33301 81.333 -4 133 -8 155
c-4.66699 18.667 -3.33398 30.167 3.99902 34.5s17 3.16602 29 -3.50098c6.66699 -4 12.834 -5.33301 18.501 -4s8.5 4.66602 8.5 9.99902c0 6.66699 8.16699 22.667 24.5 48s27.166 39 32.499 41c5.33301 0.666992 9.16602 4.66699 11.499 12s5.83301 11 10.5 11
c3.33301 0 10.666 4.16699 21.999 12.5s20 11.833 26 10.5c6.66699 0 12 2 16 6s7.5 6.16699 10.5 6.5s12.5 -2.16699 28.5 -7.5c14 -4 24.333 -11.5 31 -22.5s15 -32.5 25 -64.5c2 -6.66699 6.66699 -21.334 14 -44.001c5.33301 -13.333 7.5 -35.5 6.5 -66.5
s-4.5 -48.833 -10.5 -53.5c-6.66699 -5.33301 -10 -14.666 -10 -27.999z" />
    <glyph glyph-name="q" unicode="q" horiz-adv-x="427" 
d="M262 371c2.66699 2 4.33105 0.333984 4.99805 -4.99902c0.666992 -11.333 -0.666016 -18.333 -3.99902 -21c-2.66699 0 -7.16699 4.16699 -13.5 12.5s-9.83301 14.5 -10.5 18.5c0.666992 1.33301 2.83398 1.16602 6.50098 -0.500977s7 -3.5 10 -5.5
s5.16699 -1.66699 6.5 1zM147.997 426.001c0.666992 -4.66699 -2.66406 -9.50098 -9.99707 -14.501s-11 -9.16699 -11 -12.5c0 -6.66699 -4.66699 -18.667 -14 -36c-9.33301 -18 -18.5 -43.5 -27.5 -76.5s-13.5 -57.5 -13.5 -73.5c0 -32 6 -55.167 18 -69.5
s31.667 -21.5 59 -21.5c52 0 104.667 30.333 158 91c15.333 18 25.166 33.167 29.499 45.5s7.83301 35.5 10.5 69.5c2.66699 42.667 5.66699 71.334 9 86.001s8.33301 23.334 15 26.001c11.333 4 19.333 -3.66699 24 -23c6 -27.333 3.66699 -65.333 -7 -114
c-4 -4.66699 -6.83301 -66.5 -8.5 -185.5s-3.16699 -180.833 -4.5 -185.5c-2 -6 -3 -21.667 -3 -47c-0.666992 -33.333 -5.33398 -51.333 -14.001 -54c-3.33301 -1.33301 -6.66602 1.66699 -9.99902 9c-2 12 -3.33301 42.333 -4 91s-0.833984 105.167 -0.500977 169.5
s0.5 105.166 0.5 122.499c-25.333 -28 -39.333 -46 -42 -54c0 -2 -3.66699 -3.66699 -11 -5s-11 -3.33301 -11 -6c-2.66699 -6 -15.667 -16.167 -39 -30.5s-41.666 -23.166 -54.999 -26.499c-39.333 -10.667 -69.333 -12.334 -90 -5.00098s-37.667 25.333 -51 54
c-9.33301 20 -14.333 35.167 -15 45.5s2 23 8 38s10 29.167 12 42.5c2.66699 13.333 9 31.833 19 55.5s15.667 41.167 17 52.5c0 8.66699 2.66699 14.5 8 17.5s8.66602 6.83301 9.99902 11.5c3.33301 7.33301 15.666 22.166 36.999 44.499s36.666 35.833 45.999 40.5
c10 5.33301 24.5 5.5 43.5 0.5s31.833 -12.5 38.5 -22.5c3.33301 -4.66699 5 -20.667 5 -48s-3.66699 -41 -11 -41c-6.66699 0 -8.66699 7 -6 21c0.666992 18.667 -2.66602 34.334 -9.99902 47.001s-21 18 -41 16c-16 0 -26 -5.66699 -30 -17c-3.33301 -12 -9 -18 -17 -18
c-7.33301 0 -11 -3.33301 -11 -10z" />
    <glyph glyph-name="r" unicode="r" horiz-adv-x="663" 
d="M527 499c0 -6.66699 8.66699 -8.33203 26 -4.99902c10.667 1.33301 19 0.833008 25 -1.5s15 -8.83301 27 -19.5c23.333 -21.333 32.333 -34 27 -38c-2.66699 -2 -10 0.666992 -22 8c-32.667 19.333 -59.5 30.5 -80.5 33.5s-42.833 -1.16699 -65.5 -12.5
c-17.333 -9.33301 -29.333 -14 -36 -14c-5.33301 0 -17.666 -10.667 -36.999 -32s-36.333 -43.333 -51 -66l-37 -56c-27.333 -40 -41 -96.333 -41 -169c0 -40 -1.66699 -66 -5 -78s-10 -18 -20 -18c-7.33301 0 -11.833 3 -13.5 9s-2.83398 24.667 -3.50098 56
c-0.666992 49.333 -5 104.5 -13 165.5s-15.667 98.5 -23 112.5c-2.66699 6 -3.83398 12.5 -3.50098 19.5s2 13.333 5 19s6.16699 8.16699 9.5 7.5c4 -1.33301 11 -17.5 21 -48.5s17 -59.167 21 -84.5c2.66699 -13.333 7.33398 -17.333 14.001 -12s10.334 11 11.001 17
c0 4.66699 8 19.167 24 43.5s27.333 39.166 34 44.499c8 8 12 15.333 12 22c0 8.66699 1.66699 13 5 13c6 0 26.667 16.333 62 49c7.33301 8 23.666 16 48.999 24s50.333 14 75 18c2.66699 0 4 -2.33301 4 -7zM33 599.002c-5.33301 1.33301 -4.66699 2.33301 2 3
c16 2 24.667 1.66699 26 -1l-3 -2c-8.66699 -1.33301 -17 -1.33301 -25 0z" />
    <glyph glyph-name="s" unicode="s" horiz-adv-x="425" 
d="M318 457c7.33301 0 15.168 -6.32715 23.501 -18.9941s13.833 -26.667 16.5 -42c2 -14.667 2 -48 0 -100s-4.33301 -79.333 -7 -82c-3.33301 -3.33301 -9.33301 -2.5 -18 2.5s-12.334 9.83301 -11.001 14.5c3.33301 8 2 25.667 -4 53s-12.667 46 -20 56
c-10 12 -17.333 26 -22 42c-12.667 38 -34 56.333 -64 55s-63.333 -22 -100 -62c-38.667 -42.667 -55 -83 -49 -121c4 -28.667 16.167 -46.834 36.5 -54.501s63.833 -10.834 130.5 -9.50098c63.333 2 104.666 0.333008 123.999 -5
c27.333 -7.33301 41.166 -21.333 41.499 -42s-12.834 -45.334 -39.501 -74.001c-14.667 -16 -29.167 -29 -43.5 -39s-40.166 -25.667 -77.499 -47c-18 -10 -41.333 -17.167 -70 -21.5s-48 -3.83301 -58 1.5c-9.33301 5.33301 -18.166 12.666 -26.499 21.999
s-12.5 16.333 -12.5 21c0 4 3.33301 2 10 -6c6.66699 -9.33301 22.667 -15 48 -17c21.333 -1.33301 40.833 1.66699 58.5 9s47.5 24.666 89.5 51.999c23.333 14.667 39.333 26 48 34s18.667 20 30 36c5.33301 8 7.83301 13.333 7.5 16s-4.5 7.33398 -12.5 14.001
s-18.5 10.5 -31.5 11.5s-45.167 0.833008 -96.5 -0.5c-60 -1.33301 -97.667 -0.5 -113 2.5s-33.333 13.5 -54 31.5c-11.333 10 -18 17.833 -20 23.5s-2.66699 18.5 -2 38.5c0.666992 21.333 8.16699 49.166 22.5 83.499s25.5 51.833 33.5 52.5
c3.33301 0 15.166 12.167 35.499 36.5s32.5 36.166 36.5 35.499c62.667 14 107 -2.66699 133 -50c16.667 -27.333 27.334 -37.666 32.001 -30.999c2 3.33301 2.33301 9.33301 1 18c-0.666992 5.33301 -2.16699 13.166 -4.5 23.499s-3.5 16.5 -3.5 18.5
c-3.33301 12.667 -2.66602 19 2.00098 19z" />
    <glyph glyph-name="t" unicode="t" horiz-adv-x="421" 
d="M30 384c0 9.33301 4.66699 12.998 14 10.998c4 -0.666992 17.5 -2 40.5 -4s39.167 -3.66699 48.5 -5l-4 83c-4.66699 111.333 -16.334 162.333 -35.001 153c-2.66699 -1.33301 -5.33398 -4 -8.00098 -8c-7.33301 -9.33301 -10.666 -11.833 -9.99902 -7.5
s5 14.833 13 31.5c7.33301 15.333 13.333 24.5 18 27.5s9.66699 0.833008 15 -6.5c14.667 -19.333 27 -76 37 -170l12 -112c50 -7.33301 102 -11 156 -11c42 -0.666992 63.333 -2 64 -4c0 -1.33301 -1.66699 -3 -5 -5c-16 -16 -87 -22.333 -213 -19v-89
c-0.666992 -114 -3.66699 -175 -9 -183c-7.33301 -11.333 -12.333 -6.66602 -15 14.001c-2 15.333 -2.66699 40.333 -2 75c0.666992 72.667 -2.66602 135.334 -9.99902 188.001l-34 5c-48.667 6.66699 -73 18.667 -73 36z" />
    <glyph glyph-name="u" unicode="u" horiz-adv-x="439" 
d="M366 625c7.33301 -7.33301 12.499 -19.998 15.499 -37.998s4.83301 -28.333 5.5 -31c4.66699 -8.66699 9.66699 -36.334 15 -83.001s7.66602 -84.667 6.99902 -114c-2 -76.667 -20.333 -141 -55 -193c-36 -53.333 -84 -84.666 -144 -93.999
c-19.333 -2.66699 -33.166 -3.5 -41.499 -2.5s-21.166 5.83301 -38.499 14.5c-22 11.333 -39.333 25.666 -52 42.999s-22.334 40.666 -29.001 69.999c-12 54.667 -18.167 83.834 -18.5 87.501s1.16699 27.5 4.5 71.5c1.33301 36.667 3.66602 72 6.99902 106
c2.66699 26 5 42.333 7 49s6 10.667 12 12c9.33301 2.66699 15.333 2.66699 18 0c2.66699 -1.33301 1 -27.333 -5 -78c-19.333 -178.667 3.33398 -290 68.001 -334c34 -22.667 73 -22.334 117 0.999023c29.333 15.333 53 36.166 71 62.499s32.667 61.833 44 106.5
c7.33301 28.667 10.833 59.334 10.5 92.001s-5.5 80.667 -15.5 144c-3.33301 20.667 -6.66602 44 -9.99902 70s-6 44.667 -8 56z" />
    <glyph glyph-name="v" unicode="v" horiz-adv-x="343" 
d="M84 253c-0.666992 7.33301 -4.66992 17.4971 -12.0029 30.4971s-11.666 23.833 -12.999 32.5c0 6 -3.5 17.167 -10.5 33.5s-12.333 29.333 -16 39s-3.5 17.167 0.5 22.5c2.66699 1.33301 5.16699 1.33301 7.5 0s5.5 -5.66602 9.5 -12.999s8.66699 -17.333 14 -30l22 -53
c36 -92.667 65.667 -148.667 89 -168c37.333 -30.667 69 -18.667 95 36c8 16.667 13 49.834 15 99.501s0.333008 98.167 -5 145.5c-6 50 -7 84.333 -3 103c2.66699 12 4.33398 18 5.00098 18s2.66699 -13 6 -39c3.33301 -27.333 8.33301 -56.333 15 -87
c8.66699 -33.333 11.834 -81.166 9.50098 -143.499s-8.83301 -99.833 -19.5 -112.5c-2 -2.66699 -5.5 -10.834 -10.5 -24.501s-9.5 -22.167 -13.5 -25.5c-7.33301 -7.33301 -11.333 -12.666 -12 -15.999c-1.33301 -4.66699 -13 -8.33398 -35 -11.001
c-14.667 -2 -25 -2.16699 -31 -0.5s-13.333 6.83398 -22 15.501c-8.66699 8 -20.5 24 -35.5 48s-27.5 46.333 -37.5 67s-14 31.667 -12 33z" />
    <glyph glyph-name="w" unicode="w" horiz-adv-x="510" 
d="M286 250c-0.666992 -3.33301 9.66602 -20.6729 30.999 -52.0059s32 -48 32 -50c0 -5.33301 7.66699 -14.5 23 -27.5s26.333 -19.5 33 -19.5c16 0 29.333 15.667 40 47c8 22.667 7.66699 107.667 -1 255c-0.666992 18 -0.166992 28.167 1.5 30.5
s6.83398 0.833008 15.501 -4.5c6.66699 -3.33301 10.334 -21 11.001 -53c0.666992 -9.33301 1.66699 -29.833 3 -61.5s2.33301 -54.167 3 -67.5c1.33301 -34 1.83301 -56.5 1.5 -67.5s-2.83301 -18.5 -7.5 -22.5c-7.33301 -6 -11 -16 -11 -30
c0 -12 -7.83301 -26.333 -23.5 -43s-29.167 -25 -40.5 -25c-12 0 -32 16.667 -60 50s-51.667 69.333 -71 108c-9.33301 18 -16.666 29 -21.999 33c-1.33301 1.33301 -3 -1 -5 -7c-2 -8 -4 -19.667 -6 -35c-5.33301 -60 -19.666 -111 -42.999 -153
c-7.33301 -13.333 -13.333 -21.833 -18 -25.5s-12 -5.5 -22 -5.5c-17.333 0 -30.333 7 -39 21s-22.334 51.333 -41.001 112c-3.33301 11.333 -6 27.833 -8 49.5s-4.33301 37.834 -7 48.501c-4 14 -8 37.333 -12 70s-7 53.667 -9 63
c-4.66699 23.333 -5.66699 37.666 -3 42.999c6 10.667 13.667 3 23 -23c10 -28.667 18.333 -68 25 -118c3.33301 -29.333 9.66602 -65.166 18.999 -107.499s17.666 -73.166 24.999 -92.499c6 -15.333 11.833 -25.666 17.5 -30.999s11.667 -5.66602 18 -0.999023
s13.166 14.334 20.499 29.001c18.667 40 29.667 99 33 177c2.66699 50.667 19.334 58.334 50.001 23.001c16 -18.667 24 -31 24 -37z" />
    <glyph glyph-name="x" unicode="x" horiz-adv-x="341" 
d="M280 328c0 -6.66699 -2.99902 -11.6641 -8.99902 -14.9971c-3.33301 -1.33301 -8.66602 -8.83301 -15.999 -22.5s-13 -20.834 -17 -21.501c-4.66699 0 -7 -3 -7 -9s-4 -13 -12 -21c-10 -11.333 -13.833 -27.166 -11.5 -47.499s10.833 -41.166 25.5 -62.499
c17.333 -26 26 -41.667 26 -47c0 -6.66699 5.33301 -14.5 16 -23.5s19.667 -13.5 27 -13.5c4 0 6.5 -0.333008 7.5 -1s1.33301 -2 1 -4s-1.83301 -5 -4.5 -9c-6 -9.33301 -12.333 -14 -19 -14s-19.334 9.83301 -38.001 29.5s-31.667 36.5 -39 50.5
c-6 12 -13.667 23.833 -23 35.5s-16 17.5 -20 17.5c-2.66699 0 -8.33398 -8.66699 -17.001 -26c-12.667 -28.667 -21 -46.834 -25 -54.501s-9.66699 -14.834 -17 -21.501c-10.667 -10.667 -17.667 -21.334 -21 -32.001c-7.33301 -22.667 -17.666 -32.334 -30.999 -29.001
c-8.66699 2 -13.834 6 -15.501 12s-1.5 17.333 0.5 34c2 13.333 3.66699 20.333 5 21c0.666992 0 2.66699 -2 6 -6c2.66699 -4 4.83398 -6.33301 6.50098 -7s3.5 0 5.5 2s5 6.33301 9 13l36 56c20.667 32 32 53.167 34 63.5s-2.66699 25.5 -14 45.5
c-14.667 26.667 -30.167 50.5 -46.5 71.5s-27.833 31.5 -34.5 31.5c-6 0 -11 4.83301 -15 14.5s-4.33301 17.167 -1 22.5c2 3.33301 9 5 21 5c11.333 0 17.333 -5 18 -15c0 -6.66699 0.666992 -9.66699 2 -9l2 2c3.33301 8 14.666 0 33.999 -24
c11.333 -14 20.333 -28 27 -42c9.33301 -21.333 24 -38.333 44 -51c34.667 64.667 58.334 110 71.001 136c9.33301 21.333 17.666 34.666 24.999 39.999c5.33301 4 9.5 5.66699 12.5 5s7.16699 -4 12.5 -10c4.66699 -4.66699 5 -11.167 1 -19.5s-9 -18.166 -15 -29.499
s-8.33301 -18.333 -7 -21z" />
    <glyph glyph-name="y" unicode="y" horiz-adv-x="479" 
d="M295 -48c0 3.33301 3.00098 12.5 9.00098 27.5s8.66699 25.167 8 30.5c1.33301 4.66699 -0.166992 8.33398 -4.5 11.001s-9.16602 3.5 -14.499 2.5s-8.33301 -3.16699 -9 -6.5c0 -4.66699 -7.66699 -7 -23 -7c-47.333 0 -96.333 -23.333 -147 -70
c-10.667 -9.33301 -21.5 -23.333 -32.5 -42s-14.833 -29.667 -11.5 -33c3.33301 -1.33301 17.666 1.66699 42.999 9s39.666 10.666 42.999 9.99902c15.333 0 42 9.33301 80 28s57.667 32 59 40zM427.001 422c12 0 19.0039 -5.00391 21.0039 -15.0039
c2 -15.333 -4 -66 -18 -152c-18 -102.667 -39.333 -170.334 -64 -203.001l44 -42c-4.66699 0 -10.834 0.5 -18.501 1.5s-12.667 1.33301 -15 1l-10.5 -1.5c-4.66699 -0.666992 -8 -2.66699 -10 -6s-4.66699 -7.5 -8 -12.5s-7 -11.833 -11 -20.5
c-18.667 -35.333 -43.167 -62.666 -73.5 -81.999s-73.833 -34.333 -130.5 -45c-39.333 -7.33301 -73.666 -10.666 -102.999 -9.99902l5 30c2.66699 16 9.66699 34.833 21 56.5s20 32.5 26 32.5c3.33301 2 9 8.83301 17 20.5s15.667 18.167 23 19.5
c39.333 18 60.333 31 63 39c1.33301 3.33301 6.66602 5 15.999 5c10 0 23.667 4.66699 41 14c8.66699 4.66699 18.667 8.33398 30 11.001s20.833 3.5 28.5 2.5s11.5 -3.16699 11.5 -6.5s4 -4 12 -2c11.333 3.33301 27.666 28 48.999 74c2 3.33301 1.66699 5 -1 5
c-6 -0.666992 -14 -5.33398 -24 -14.001c-8.66699 -8 -17.167 -12.5 -25.5 -13.5s-21.833 1.16699 -40.5 6.5c-12 2 -19 5.16699 -21 9.5s-3 9.33301 -3 15s-3 10.834 -9 15.501c-9.33301 6.66699 -14 16.667 -14 30c0 15.333 -3.83301 39.5 -11.5 72.5
s-13.834 52.833 -18.501 59.5c-17.333 21.333 -26 37.666 -26 48.999c0 2.66699 2.33301 4.66699 7 6s9.33398 1.5 14.001 0.5s7 -3.16699 7 -6.5c0.666992 -3.33301 5 -6 13 -8s12.333 -5.33301 13 -10c2 -4.66699 5.33301 -10.167 10 -16.5s7.66699 -13.5 9 -21.5
c1.33301 -9.33301 7 -33.833 17 -73.5s16 -63.834 18 -72.501c28.667 -1.33301 47.834 1.33398 57.501 8.00098s17.5 24.334 23.5 53.001c3.33301 18.667 9.16602 43.334 17.499 74.001s14.166 56.334 17.499 77.001c4 21.333 7.16699 34.333 9.5 39s7.16602 7 14.499 7z
" />
    <glyph glyph-name="z" unicode="z" horiz-adv-x="616" 
d="M348 340c0.666992 -2 -8.5 -12.332 -27.5 -30.999s-28.5 -28.667 -28.5 -30c0 -3.33301 12.167 -6.33301 36.5 -9s49.5 -4 75.5 -4s47 1.33301 63 4c4.66699 1.33301 21 4.66602 49 9.99902s47.333 9.66602 58 12.999c8 3.33301 12 3.33301 12 0
c-0.666992 -4.66699 -8.66699 -12 -24 -22c-17.333 -10.667 -30.333 -14.667 -39 -12c-9.33301 2 -14 1.33301 -14 -2c0 -10.667 -54.333 -17.667 -163 -21c-62.667 -1.33301 -100 -4.66602 -112 -9.99902c-8 -4.66699 -20.5 -14.667 -37.5 -30l-56 -52.5l-35.5 -34.5
c-15.333 -15.333 -21.666 -24.666 -18.999 -27.999c4 -4 34.667 -5.83301 92 -5.5s108 2.83301 152 7.5c19.333 2.66699 43 5 71 7s51.333 4.5 70 7.5s36.334 7.16699 53.001 12.5c17.333 3.33301 26.333 4 27 2c0 -6.66699 -8.16699 -14.5 -24.5 -23.5
s-32.166 -14.167 -47.499 -15.5c-12.667 -0.666992 -28.167 -4.16699 -46.5 -10.5s-36.166 -9.83301 -53.499 -10.5c-20 -0.666992 -36.333 -2.5 -49 -5.5s-28.667 -4.83301 -48 -5.5c-10.667 0 -23.5 -1 -38.5 -3s-25.667 -3 -32 -3s-17.5 1 -33.5 3
c-15.333 3.33301 -25 3.33301 -29 0c-4.66699 -4 -24.334 -5.16699 -59.001 -3.5s-54.334 4.83398 -59.001 9.50098c-3.33301 3.33301 -1.33301 12.5 6 27.5s13.333 22.5 18 22.5c3.33301 0 5.66602 3 6.99902 9c0 5.33301 14 19.666 42 42.999
c60 49.333 90 77.666 90 84.999c0 6 -14 11.333 -42 16c-28 6 -44.333 13.333 -49 22c-6.66699 12.667 -3 19 11 19c6 -0.666992 14.333 -2.33398 25 -5.00098c20 -6 44 -7.33301 72 -4c21.333 2.66699 36.166 6.5 44.499 11.5s24.833 20.167 49.5 45.5
s46.167 49.5 64.5 72.5s27.5 37.5 27.5 43.5c1.33301 4.66699 -15 5.66699 -49 3c-15.333 -1.33301 -22.333 -3 -21 -5c0 -2.66699 -13.333 -5.66699 -40 -9c-34.667 -3.33301 -83.667 -13 -147 -29c-18 -4.66699 -34.5 -6.5 -49.5 -5.5s-22.5 4.16699 -22.5 9.5
c0 4.66699 9.66699 11.334 29 20.001s32 12 38 10c6.66699 -3.33301 15.334 -2.33301 26.001 3c26.667 7.33301 73.5 15.333 140.5 24s108.833 15 125.5 19c11.333 1.33301 8.66602 -16.667 -8.00098 -54c-16.667 -35.333 -33 -60 -49 -74c-14.667 -12 -22 -20 -22 -24z" />
    <glyph glyph-name="uni0093" horiz-adv-x="191" 
d="M33 438c6.66699 11.333 12.002 6.33301 16.002 -15c1.33301 -6 2.33301 -13.667 3 -23c7.33301 -69.333 13 -105.333 17 -108c1.33301 -0.666992 3.33301 -0.666992 6 0c3.33301 1.33301 5.66602 1.33301 6.99902 0s1.66602 -4 0.999023 -8
c-1.33301 -6.66699 -7.5 -11.167 -18.5 -13.5s-19.167 -0.833008 -24.5 4.5c-4 4 -7 30.833 -9 80.5s-1.33301 77.167 2 82.5zM161.002 329c0 -64.667 -2.33398 -97 -7.00098 -97c-0.666992 0 -1.66699 0.333008 -3 1c-6.66699 5.33301 -12.167 45.333 -16.5 120
s-3.5 117 2.5 127c7.33301 11.333 13.333 7.33301 18 -12c0.666992 -2.66699 1.33398 -5.66699 2.00098 -9c2.66699 -20 4 -63.333 4 -130z" />
    <glyph glyph-name="uni0094" horiz-adv-x="296" 
d="M52 449c4.66699 8 9.99902 10.498 15.999 7.49805s10 -10.5 12 -22.5c2.66699 -12.667 1.66699 -30.5 -3 -53.5s-11 -42.167 -19 -57.5c-6.66699 -13.333 -14 -20 -22 -20c-6 0.666992 -7.33301 6.33398 -4 17.001c0.666992 2.66699 3.33398 23.834 8.00098 63.501
s8.66699 61.5 12 65.5zM265.999 440.998c0 -21.333 -3.33203 -46.001 -9.99902 -74.001s-14.334 -49.333 -23.001 -64c-5.33301 -8.66699 -15.166 -17.167 -29.499 -25.5s-23.166 -10.5 -26.499 -6.5c-2 2 3 9 15 21c11.333 12.667 19.666 36 24.999 70
c10 58.667 20 94.667 30 108c11.333 14.667 17.666 8.33398 18.999 -18.999v-10z" />
    <glyph glyph-name=".null" horiz-adv-x="0" 
 />
    <glyph glyph-name="nonmarkingreturn" horiz-adv-x="333" 
 />
    </font>
</defs>
</svg>
