<?xml version="1.0" standalone="no"?>
<!DOCTYPE svg PUBLIC "-//W3C//DTD SVG 1.1//EN" "http://www.w3.org/Graphics/SVG/1.1/DTD/svg11.dtd" >
<svg>
<metadata>
Created by FontForge 20090914 at Fri Feb 26 23:26:20 2016
 By www-data
Copyright (c) 2016, root
</metadata>
<defs>
<font id="Marilyn" horiz-adv-x="425" >
  <font-face 
    font-family="Marilyn"
    font-weight="400"
    font-stretch="normal"
    units-per-em="1000"
    panose-1="2 0 5 3 0 0 0 0 0 0"
    ascent="800"
    descent="-200"
    x-height="351"
    cap-height="633"
    bbox="28.6656 -200 846.26 682.022"
    underline-thickness="50"
    underline-position="-100"
    unicode-range="U+0020-U+0094"
  />
<missing-glyph horiz-adv-x="364" 
d="M33 0v666h265v-666h-265zM66 33h199v600h-199v-600z" />
    <glyph glyph-name=".notdef" horiz-adv-x="364" 
d="M33 0v666h265v-666h-265zM66 33h199v600h-199v-600z" />
    <glyph glyph-name="space" unicode=" " horiz-adv-x="328" 
 />
    <glyph glyph-name="exclam" unicode="!" horiz-adv-x="254" 
d="M148 2c5.33301 10 11.1689 14.167 17.502 12.5s10.833 -8.5 13.5 -20.5s1.66699 -22 -3 -30s-11.334 -11.333 -20.001 -10c-6.66699 1.33301 -10.834 7.5 -12.501 18.5s-0.166992 20.833 4.5 29.5zM138.003 81c-6 0 -9.83203 1.99902 -11.499 5.99902
s-2.83398 13.667 -3.50098 29c0 16.667 -2.33301 45.5 -7 86.5s-7 63.167 -7 66.5c-6 96 -10.333 145.333 -13 148c-3.33301 4 -4.33301 13.333 -3 28s4.33301 22.667 9 24c16.667 6.66699 25 4.33398 25 -6.99902c15.333 -124.667 23 -215.667 23 -273
c0.666992 -52 0.5 -83 -0.5 -93s-4.83301 -15 -11.5 -15zM96.0039 502.999c-6.66699 0 -11.5 1 -14.5 3s-3 4 0 6s7.83301 3 14.5 3c11.333 0 17 -2 17 -6s-5.66699 -6 -17 -6zM193.004 556.999c-2 3.33301 0.332031 5.66797 6.99902 7.00098c12 2 20 0.666992 24 -4v-3
c-0.666992 -4.66699 -5.66699 -6.83398 -15 -6.50098s-14.666 2.5 -15.999 6.5zM30.0029 557.001c-0.666992 2 0.999023 3.66504 4.99902 4.99805c10 4 16.333 3.66699 19 -1c0.666992 -1.33301 0.666992 -2.66602 0 -3.99902c-1.33301 -4 -5.66602 -6.16699 -12.999 -6.5
s-11 1.83398 -11 6.50098z" />
    <glyph glyph-name="quotedbl" unicode="&#x22;" horiz-adv-x="273" 
d="M198 358c10 1.33301 15 2.66797 15 4.00098c0 -24.667 -0.333008 -52.667 -1 -84c-0.666992 -56.667 -4.66699 -87.667 -12 -93c-14 -8.66699 -22.667 -0.333984 -26 24.999c-1.33301 11.333 -2 27 -2 47c0.666992 38.667 2.66699 64.667 6 78s10 21 20 23zM63 383.002
c3.33301 0 4.99902 -31.667 4.99902 -95c0 -23.333 -0.166992 -41 -0.5 -53s-1 -21.5 -2 -28.5s-2.33301 -11.167 -4 -12.5s-4.16699 -2 -7.5 -2c-18 0 -25.667 37 -23 111c2.66699 33.333 5.33398 53.5 8.00098 60.5s10.667 13.5 24 19.5zM237.999 557.002
c-9.33301 -7.33301 -16 -8.66602 -20 -3.99902c-2.66699 4 -1.33398 7.33301 3.99902 10c2.66699 1.33301 6.33398 1.66602 11.001 0.999023c6 0 9.33301 -0.333008 10 -1s-1 -2.66699 -5 -6z" />
    <glyph glyph-name="dollar" unicode="$" horiz-adv-x="352" 
d="M270 -12c-2 2 -0.667969 3.33301 3.99902 4c14.667 4 29.334 4 44.001 0c3.33301 -1.33301 4.66602 -2.66602 3.99902 -3.99902c-0.666992 -4.66699 -9.16699 -6.83398 -25.5 -6.50098s-25.166 2.5 -26.499 6.5zM196.999 67c6 0 14.6689 8.33203 26.002 24.999
s15.666 35 12.999 55c-2 15.333 -10.5 34.833 -25.5 58.5s-27.833 37.5 -38.5 41.5s-17.334 4.83301 -20.001 2.5s-2.66699 -9.16602 0 -20.499c14 -72 23.5 -117 28.5 -135s10.5 -27 16.5 -27zM92.001 300.999c3.33301 1.33301 1.33203 15 -6.00098 41
c-6 19.333 -10.333 29 -13 29c-1.33301 0 -2.33301 -1.33301 -3 -4c-3.33301 -11.333 -4.66602 -22.333 -3.99902 -33s3.5 -19.5 8.5 -26.5s10.833 -9.16699 17.5 -6.5zM172 278.999c10.667 0 25.0029 -6.99512 43.0029 -20.9951s30.333 -27.667 37 -41
s13.334 -34.666 20.001 -63.999c4 -18.667 5.66699 -31 5 -37s-4.66699 -14.333 -12 -25c-22.667 -34 -42.334 -52.667 -59.001 -56c-7.33301 -0.666992 -11.833 -7.83398 -13.5 -21.501s-4.16699 -21.834 -7.5 -24.501c-6.66699 -6.66699 -23.667 -9.33398 -51 -8.00098
c-12 1.33301 -17.667 3.66602 -17 6.99902c2 4 9 6 21 6c10 0 14.667 2.66699 14 8c-1.33301 8 -9 13.667 -23 17c-13.333 3.33301 -23.666 14 -30.999 32c-5.33301 12.667 -8 23.834 -8 33.501s3 14.5 9 14.5c2 1.33301 9.83301 -5.33398 23.5 -20.001
s21.167 -21.667 22.5 -21c2 2 -3 31.667 -15 89s-20 89.666 -24 96.999c-4.66699 9.33301 -10.334 14 -17.001 14c-6 0 -17.667 7.33301 -35 22c-10.667 9.33301 -17.334 17.166 -20.001 23.499s-4 17.833 -4 34.5c0 19.333 2.66699 36.333 8 51s11.333 22 18 22
c4.66699 0 9 5.66699 13 17s4.33301 18.666 1 21.999c-2.66699 2.66699 -1.66699 10.667 3 24c4 12 10.667 19 20 21c4 1.33301 6.33301 -0.333984 7 -5.00098c1.33301 -22 4.33301 -36.333 9 -43c3.33301 -1.33301 9.33301 0.666992 18 6
c13.333 7.33301 30.666 9.33301 51.999 6s39.333 -10.666 54 -21.999c13.333 -10.667 21.5 -21 24.5 -31s0.166992 -16.667 -8.5 -20c-6.66699 -3.33301 -18.334 2.33398 -35.001 17.001c-13.333 12 -28.833 19.333 -46.5 22s-32.167 -0.333008 -43.5 -9
c-6 -4.66699 -9 -10 -9 -16s2.66699 -22.333 8 -49c6 -28 12.5 -47 19.5 -57s16.833 -15 29.5 -15z" />
    <glyph glyph-name="percent" unicode="%" horiz-adv-x="876" 
d="M731 -61c-10.667 0.666992 -13.333 3.66699 -8 9c6 6 12.333 7.33301 19 4c2 -1.33301 3.33301 -3.33301 4 -6c0 -4.66699 -5 -7 -15 -7zM499.001 -12c-3.33301 -5.33301 -10 -5.33203 -20 0.000976562c-6.66699 3.33301 -6 5.33301 2 6h8c7.33301 0 11 -1.33301 11 -4
c0 -0.666992 -0.333008 -1.33398 -1 -2.00098zM522.001 -12.999c-11.333 5.33301 -9.33496 8.33398 5.99805 9.00098c22 0.666992 35 -1.33301 39 -6c0 -0.666992 -0.333008 -1.33398 -1 -2.00098c-2.66699 -2 -6.66699 -3 -12 -3s-11.666 0.333008 -18.999 1
s-11.666 1 -12.999 1zM806.999 154.002c-12 0 -19.499 0.831055 -22.499 2.49805s-4.5 6.83398 -4.5 15.501c1.33301 10 2.66602 17.667 3.99902 23s4.83301 10.333 10.5 15s13.167 5.66699 22.5 3c15.333 -3.33301 24.5 -7.16602 27.5 -11.499s2.16699 -12.833 -2.5 -25.5
c-3.33301 -10 -7 -16.167 -11 -18.5s-12 -3.5 -24 -3.5zM312 286c2.66699 -2.66699 1 -4.66602 -5 -5.99902c-10.667 -2.66699 -16.667 -2.33398 -18 0.999023c-0.666992 1.33301 1 3 5 5c6.66699 4 10.667 6 12 6s3.33301 -2 6 -6zM377 344.001c0 13.333 2 23.167 6 29.5
s11.333 11.833 22 16.5c11.333 5.33301 21 2.33301 29 -9s12 -24.333 12 -39s-2.33301 -26 -7 -34c-11.333 -11.333 -24.5 -12.5 -39.5 -3.5s-22.5 22.167 -22.5 39.5zM607 57.002c-13.333 0 -20.668 5.99805 -22.001 17.998s1.66699 39.667 9 83
c5.33301 30.667 10.333 62.334 15 95.001c1.33301 8 3 12 5 12c4 7.33301 11.167 31 21.5 71s18.166 64.333 23.499 73c11.333 25.333 21 37.666 29 36.999c10 -1.33301 11.667 -17.666 5 -48.999c-2 -9.33301 -5 -19 -9 -29c-29.333 -83.333 -49.333 -173.666 -60 -270.999
c-1.33301 -16 -3.16602 -26.667 -5.49902 -32s-6.16602 -8 -11.499 -8zM698.998 559c-11.333 1.33301 -10.667 2.33398 2 3.00098c39.333 1.33301 58.333 0.666016 57 -2.00098l-7 -1c-18 -1.33301 -35.333 -1.33301 -52 0zM552.997 559.001c-8 1.33301 -7.66699 2 1 2
c26 1.33301 38.667 1 38 -1l-4 -1c-11.333 -1.33301 -23 -1.33301 -35 0zM483.997 558.001c-2 2.66699 1.99902 4.66699 11.999 6c18 1.33301 27 0.333008 27 -3s-6.16699 -5.33301 -18.5 -6s-19.166 0.333008 -20.499 3zM316.996 559.001c-22 0.666992 -21.667 1.33301 1 2
l117 -1c-1.33301 -0.666992 -6 -1 -14 -1c-33.333 -1.33301 -68 -1.33301 -104 0zM149.996 559c-5.33301 1.33301 -4.66797 2.33398 1.99902 3.00098c18.667 1.33301 27.334 0.666016 26.001 -2.00098l-3 -1c-8.66699 -1.33301 -17 -1.33301 -25 0zM35.9941 559.001
c-9.33301 1.33301 -8.99902 2.33398 1.00098 3.00098c32 1.33301 47 0.666016 45 -2.00098l-5 -1c-12.667 -1.33301 -26.334 -1.33301 -41.001 0z" />
    <glyph glyph-name="ampersand" unicode="&#x26;" horiz-adv-x="685" 
d="M645 1c-4.66699 0 -7.83398 1.16699 -9.50098 3.5s-1.66699 4.66602 0 6.99902s4.83398 3.5 9.50098 3.5c4 0 6.83301 -1.16699 8.5 -3.5s1.66699 -4.66602 0 -6.99902s-4.5 -3.5 -8.5 -3.5zM247 145c-5.33301 4 -22.501 18.999 -51.501 44.999s-48.5 42 -58.5 48
c-4 -0.666992 -12.667 -10.167 -26 -28.5s-24.666 -35.833 -33.999 -52.5c-4.66699 -10 -8.83398 -22 -12.501 -36s-5.16699 -29.167 -4.5 -45.5s4.66699 -28.166 12 -35.499c8.66699 -8.66699 15.334 -13.667 20.001 -15s16.334 -1.33301 35.001 0
c31.333 3.33301 63.666 14.333 96.999 33s51 35.667 53 51c1.33301 7.33301 -8.66699 19.333 -30 36zM64.999 412.999c0 -20 1.66797 -29.9961 5.00098 -29.9961c4.66699 -2.66699 13.167 -13.667 25.5 -33s21.5 -31 27.5 -35c8.66699 -8 14.5 -12.167 17.5 -12.5
s8.83301 2.5 17.5 8.5c12.667 10 20 20.667 22 32c1.33301 5.33301 3.16602 9.66602 5.49902 12.999s4.5 4.66602 6.5 3.99902c3.33301 -0.666992 8.16602 5.16602 14.499 17.499s12 26.5 17 42.5s7.5 28 7.5 36c1.33301 21.333 -9.5 39.166 -32.5 53.499
s-46.5 14.5 -70.5 0.5c-17.333 -10 -32.166 -24.167 -44.499 -42.5s-18.5 -36.5 -18.5 -54.5zM382 238.003c12.667 0 13.665 -15.9961 2.99805 -47.9961c-8 -22.667 -19 -44.334 -33 -65.001l-18 -26l22 -27c22.667 -29.333 28.334 -43 17.001 -41c-6 0.666992 -17 7 -33 19
c-28 21.333 -44.667 25 -50 11c-2 -5.33301 -17 -17 -45 -35c-28 -17.333 -60 -28.333 -96 -33c-24.667 -3.33301 -41.167 -4.83301 -49.5 -4.5s-16.5 3.16602 -24.5 8.49902c-30 20 -45 51 -45 93s15.333 82 46 120c22.667 28 35 43.333 37 46c3.33301 5.33301 2 12 -4 20
c-39.333 51.333 -61.333 81.5 -66 90.5s-6 24.167 -4 45.5c0 6.66699 0.666992 13.334 2 20.001s3.5 13.5 6.5 20.5s5.5 12.333 7.5 16s5.16699 9.16699 9.5 16.5s6.83301 11.333 7.5 12c0 6 6.83301 14.5 20.5 25.5s27.5 18.833 41.5 23.5
c22 7.33301 38.833 10.666 50.5 9.99902s24.167 -6.33398 37.5 -17.001c29.333 -22.667 43 -50.5 41 -83.5s-20 -74.167 -54 -123.5c-18.667 -28 -31.667 -45 -39 -51c-1.33301 -2.66699 -2.5 -4.83398 -3.5 -6.50098s1.33301 -6 7 -13s12.667 -14.667 21 -23l38.5 -37.5
c50.667 -48 77.334 -69.667 80.001 -65c5.33301 7.33301 13 21.333 23 42c18.667 40 34 60 46 60z" />
    <glyph glyph-name="quotesingle" unicode="'" horiz-adv-x="114" 
d="M40 492c12 24.667 20.334 27.999 25.001 9.99902c2.66699 -10 5 -30 7 -60c2.66699 -44.667 6 -72 10 -82c3.33301 -8.66699 2.16602 -16.167 -3.50098 -22.5s-12.167 -7.5 -19.5 -3.5c-10 9.33301 -18 32.333 -24 69s-4.33301 66.334 5 89.001z" />
    <glyph glyph-name="parenleft" unicode="(" horiz-adv-x="168" 
d="M51 -193c-2.66699 4.66699 -0.666992 7 6 7c7.33301 -0.666992 11 -3 11 -7c-0.666992 -4.66699 -3.16699 -6.66699 -7.5 -6s-7.5 2.66699 -9.5 6zM92 494c6 0 9.49902 -3.99805 10.499 -11.998s-1.16699 -14.667 -6.5 -20c-6.66699 -6.66699 -13 -30.834 -19 -72.501
s-9 -81.834 -9 -120.501c0 -107.333 17.333 -201 52 -281c18 -40.667 22.333 -63.334 13 -68.001c-4 -2 -9.66699 -2.33301 -17 -1c-6.66699 0.666992 -12.5 4.83398 -17.5 12.501s-12.167 22.834 -21.5 45.501c-16 41.333 -26 73.666 -30 96.999
c-14 78.667 -19.167 156.667 -15.5 234s14.834 130.333 33.501 159c12 18 21 27 27 27z" />
    <glyph glyph-name="parenright" unicode=")" horiz-adv-x="260" 
d="M230 201c0.666992 -7.33301 0 -10.333 -2 -9c-4 1.33301 -6.66699 6.66602 -8 15.999c-0.666992 2 -0.666992 3 0 3c6 6.66699 9.33301 3.33398 10 -9.99902zM63 529c0 12.667 5.33496 16.999 16.002 12.999c8.66699 -4 16.667 -11.667 24 -23
c37.333 -61.333 60.166 -127.5 68.499 -198.5s1.5 -138.833 -20.5 -203.5c-6.66699 -16.667 -11.334 -32.334 -14.001 -47.001s-5.83398 -26.5 -9.50098 -35.5s-11.5 -21.167 -23.5 -36.5c-7.33301 -10 -12.666 -20.333 -15.999 -31c-8.66699 -28 -23 -42 -43 -42
c-10 0 -15 3 -15 9c0.666992 6.66699 8.66699 23.334 24 50.001c19.333 32 34 62.833 44 92.5s20.333 69.834 31 120.501c8 38.667 7.16699 83.5 -2.5 134.5s-22.5 94.5 -38.5 130.5c-16.667 34.667 -25 57 -25 67z" />
    <glyph glyph-name="asterisk" unicode="*" horiz-adv-x="410" 
d="M77 -191c-9.33301 1.33301 -9 2 1 2c32.667 2 48 1.66699 46 -1l-5 -1c-12.667 -1.33301 -26.667 -1.33301 -42 0zM36 -200c-6 1.33301 -7.66699 4.66699 -5 10c2.66699 2.66699 6 4 10 4c8.66699 -0.666992 9.66699 -4 3 -10zM227 478.001
c-4 27.333 -2.66602 43.4971 4.00098 48.4971s20 -2.83301 40 -23.5c11.333 -12 19.333 -18.833 24 -20.5s12.334 -0.5 23.001 3.5c29.333 10 47.166 10.5 53.499 1.5s2.5 -24.167 -11.5 -45.5l-18 -32c26 -49.333 38.667 -79.333 38 -90
c-2.66699 -5.33301 -7.83398 -7.16602 -15.501 -5.49902s-15.167 6.16699 -22.5 13.5c-16 16 -28.667 14 -38 -6c-4 -9.33301 -10.167 -15.5 -18.5 -18.5s-16.833 -1.83301 -25.5 3.5c-10 6 -16.333 22.333 -19 49l-5 41h-28c-13.333 -0.666992 -22.5 0.333008 -27.5 3
s-5.5 6.83398 -1.5 12.501s12.333 11.834 25 18.501c14 8 22 14 24 18s1.66699 13.667 -1 29z" />
    <glyph glyph-name="plus" unicode="+" horiz-adv-x="516" 
d="M196 453c23.333 2 36 -1.00098 38 -9.00098c2 -5.33301 3.66699 -32.333 5 -81c0.666992 -32 2 -52.167 4 -60.5s6 -12.833 12 -13.5c12 -2 71.667 -9 179 -21c34 -3.33301 51.333 -8.66602 52 -15.999c-0.666992 -4 -3 -8 -7 -12c-4.66699 -4.66699 -11.5 -7 -20.5 -7
s-28.5 2.33301 -58.5 7c-16.667 2.66699 -69 8.33398 -157 17.001c2.66699 -60 6.66699 -112 12 -156c2.66699 -19.333 -0.333008 -31.333 -9 -36c-18 -10.667 -30.333 1.66602 -37 36.999c-3.33301 21.333 -5.33301 53 -6 95v59l-81 4c-61.333 2 -92 8.33301 -92 19
c0 2 0.666992 4.33301 2 7c4 6 31 7.66699 81 5s76.333 -2 79 2c2.66699 10.667 4 64 4 160z" />
    <glyph glyph-name="comma" unicode="," horiz-adv-x="122" 
d="M70 -110c-6.66699 -4 -17 -2.33203 -31 5.00098c-11.333 6.66699 -12.333 13 -3 19c6.66699 4.66699 10.5 22 11.5 52s-1.5 57 -7.5 81c-8 31.333 -9 48.666 -3 51.999c8 4.66699 15 4.16699 21 -1.5s12.667 -18.5 20 -38.5c11.333 -28.667 16 -62 14 -100
s-9.33301 -61 -22 -69z" />
    <glyph glyph-name="hyphen" unicode="-" horiz-adv-x="466" 
d="M288 197c-86 0 -145.667 -1.66504 -179 -4.99805c-25.333 -2.66699 -45 -0.333984 -59 6.99902c-24 12 -25.667 20.333 -5 25c12.667 3.33301 36.334 5.66602 71.001 6.99902c64.667 3.33301 132.167 4.5 202.5 3.5s107.833 -3.83301 112.5 -8.5
c5.33301 -5.33301 6.33301 -11.333 3 -18c-1.33301 -4.66699 -10.333 -7.66699 -27 -9s-56.334 -2 -119.001 -2z" />
    <glyph glyph-name="period" unicode="." horiz-adv-x="134" 
d="M33 35c-4.66699 14.667 -3.83301 25.667 2.5 33s16.5 9.33301 30.5 6c13.333 -3.33301 22 -7.66602 26 -12.999s4.66699 -14 2 -26c-2 -11.333 -0.666992 -19 4 -23c10 -6 10 -9.66699 0 -11c-7.33301 -1.33301 -17 -0.333008 -29 3
c-11.333 2.66699 -19.333 6.16699 -24 10.5s-8.66699 11.166 -12 20.499z" />
    <glyph glyph-name="slash" unicode="/" horiz-adv-x="253" 
d="M39 -26c7.33301 0 11 -4.00098 11 -12.001c0 -7.33301 -3.66699 -9.66602 -11 -6.99902c-4 2.66699 -7 6 -9 10c-1.33301 6 1.66699 9 9 9zM207 584.999c6.66699 0 10.9971 -1.33203 12.9971 -3.99902s3 -8.33398 3 -17.001c0 -33.333 -8 -88 -24 -164
s-34.667 -147.667 -56 -215c-27.333 -87.333 -43.666 -142 -48.999 -164c-4.66699 -27.333 -17.667 -33 -39 -17c-6 4.66699 -8.5 10.667 -7.5 18s6.5 27.333 16.5 60c5.33301 16.667 12.5 40.667 21.5 72l23.5 80.5c6.66699 22.333 12.334 37.833 17.001 46.5
c3.33301 9.33301 6.33301 22.5 9 39.5s6.33398 32.5 11.001 46.5c20 62 33 121.333 39 178c2 18 4.33301 29.167 7 33.5s7.66699 6.5 15 6.5z" />
    <glyph glyph-name="zero" unicode="0" horiz-adv-x="377" 
d="M306 153c0 64.667 -16.668 138.999 -50.001 222.999c-24.667 62.667 -40 100.667 -46 114c-7.33301 15.333 -17.666 28.5 -30.999 39.5s-22.666 13.833 -27.999 8.5c-2 -2.66699 0.333008 -9.66699 7 -21c2.66699 -4 4.5 -8 5.5 -12s1.16699 -7.16699 0.5 -9.5
s-2 -4 -4 -5s-4.83301 -1 -8.5 0s-7.16699 3.16699 -10.5 6.5c-6 5.33301 -10 8 -12 8s-5.66699 -2.66699 -11 -8c-40.667 -46 -58.334 -119.667 -53.001 -221c2.66699 -62.667 12.5 -111.667 29.5 -147s42.833 -61 77.5 -77c36.667 -18.667 68 -16.167 94 7.5
s39.333 54.834 40 93.501zM126.999 547.999c5.33301 13.333 19.168 18.168 41.501 14.501s41.166 -14.167 56.499 -31.5c6 -7.33301 15.333 -24.166 28 -50.499s20 -44.5 22 -54.5c0.666992 -7.33301 4 -16 10 -26c14.667 -32.667 32.334 -89 53.001 -169
c12 -42.667 12.833 -83 2.5 -121s-29.833 -67 -58.5 -87c-16 -10 -38.333 -14.667 -67 -14c-20 0.666992 -34.333 2.66699 -43 6s-21.667 11.666 -39 24.999c-25.333 19.333 -42 34.833 -50 46.5s-17.667 33.167 -29 64.5c-12.667 36.667 -20.334 82.334 -23.001 137.001
c0.666992 37.333 0.333984 57.5 -0.999023 60.5s0.5 13.167 5.5 30.5s8.16699 29.333 9.5 36c3.33301 18 11.166 38.167 23.499 60.5s23.833 37.166 34.5 44.499c12 7.33301 20 16.666 24 27.999z" />
    <glyph glyph-name="one" unicode="1" horiz-adv-x="263" 
d="M135 439c4 -2 16.668 10.167 38.001 36.5s32.666 39.5 33.999 39.5c8.66699 -3.33301 14.334 -6 17.001 -8s5.66699 -6.83301 9 -14.5s2.33301 -17.5 -3 -29.5c-7.33301 -40.667 -11 -154.667 -11 -342c0 -38 -0.833008 -60.833 -2.5 -68.5s-6.5 -12.5 -14.5 -14.5
c-11.333 -2 -18.666 0 -21.999 6c-2.66699 16.667 -4.33398 48.167 -5.00098 94.5s-1 102 -1 167v119.5l-36 -25c-62.667 -45.333 -98.334 -60 -107.001 -44c-3.33301 5.33301 -0.666016 12.333 8.00098 21s17 13 25 13c5.33301 -0.666992 14.166 5 26.499 17
s20.833 18 25.5 18c4 0 7 2.5 9 7.5s5.33301 7.16699 10 6.5z" />
    <glyph glyph-name="two" unicode="2" horiz-adv-x="452" 
d="M245 251c0 -8.66699 -2.00098 -13.001 -6.00098 -13.001c-4.66699 0 -12 -14.667 -22 -44c-29.333 -73.333 -54 -120 -74 -140c-6 -7.33301 -9 -11.666 -9 -12.999c0 -0.666992 4.66699 -0.333984 14 0.999023s22.5 3.5 39.5 6.5l52.5 9.5
c37.333 7.33301 69.833 12.5 97.5 15.5s48.667 3.66699 63 2s21.5 -5.5 21.5 -11.5c0 -7.33301 -7 -11.666 -21 -12.999c-22 -2 -70.167 -9.66699 -144.5 -23s-119.5 -22.333 -135.5 -27c-16 -4 -28 -3.66699 -36 1c-5.33301 2.66699 -8.83301 4.83398 -10.5 6.50098
s-2.16699 3.66699 -1.5 6s2.66699 5.5 6 9.5c48.667 54.667 98.667 157 150 307c18.667 56.667 26.834 105 24.501 145s-14.5 60 -36.5 60c-9.33301 0 -27.833 -9.5 -55.5 -28.5s-47.834 -36.167 -60.501 -51.5c-38.667 -44.667 -60.334 -65.334 -65.001 -62.001
c-6 3.33301 -7.66699 11 -5 23s8.66699 23.333 18 34c53.333 64 105 101.667 155 113c21.333 5.33301 40 0.5 56 -14.5s27.333 -37.833 34 -68.5c5.33301 -24.667 5.33301 -38.667 0 -42c-6 -4 -7.66699 -8 -5 -12s-0.166016 -23.5 -8.49902 -58.5
s-16.166 -61.167 -23.499 -78.5c-8 -17.333 -12 -30.333 -12 -39zM262.999 605.999c6.66699 0 10.833 -1 12.5 -3s1 -4.33301 -2 -7s-6.5 -4 -10.5 -4c-6 0 -10.667 2.33301 -14 7c-2 2.66699 -0.333008 4.66699 5 6c2.66699 0.666992 5.66699 1 9 1z" />
    <glyph glyph-name="three" unicode="3" horiz-adv-x="509" 
d="M308 188c0.666992 -1.33301 -0.333008 -2.33301 -3 -3c-8 -4 -15 -4.66699 -21 -2c-3.33301 1.33301 -2.33301 4.33301 3 9c4 5.33301 8.5 7.5 13.5 6.5s7.5 -4.5 7.5 -10.5zM30 35c0 11.333 3.66113 18.001 10.9941 20.001c4 0 7 -1.33301 9 -4
c4 -6.66699 23 -12.167 57 -16.5s68 -5.5 102 -3.5c48 2.66699 83.5 10 106.5 22s47.167 36.333 72.5 73c36 51.333 55.667 95.5 59 132.5s-9.66699 61.5 -39 73.5c-27.333 12 -57.333 14.167 -90 6.5s-54.667 -20.5 -66 -38.5c0 -4 -15.167 -12 -45.5 -24
s-48.833 -17.333 -55.5 -16c-8.66699 1.33301 -13.667 5.33301 -15 12c-1.33301 7.33301 6.83398 19.833 24.501 37.5s32.167 27.834 43.5 30.501c8 0.666992 16.333 4.5 25 11.5s16.334 10.5 23.001 10.5c11.333 0 22.833 6.83301 34.5 20.5s20.834 29.5 27.501 47.5
s11 36 13 54s-1.33301 31.333 -10 40c-4.66699 6 -10 9.5 -16 10.5s-16.333 0.5 -31 -1.5c-29.333 -4 -58.333 -15.667 -87 -35s-47 -39.333 -55 -60c-4.66699 -12.667 -11.667 -19.334 -21 -20.001c-4.66699 1.33301 -7.33398 5 -8.00098 11
c0 7.33301 4.83301 21.166 14.5 41.499s16.167 30.5 19.5 30.5c1.33301 0.666992 12.833 8 34.5 22s39.834 22.667 54.501 26c24 8 49 11.667 75 11s43.667 -5.33398 53 -14.001c10 -9.33301 14.5 -28.166 13.5 -56.499s-6.83301 -53.5 -17.5 -75.5
c-13.333 -25.333 -18 -39 -14 -41c1.33301 -1.33301 6.66602 -1 15.999 1c22.667 4.66699 48.334 -0.5 77.001 -15.5s46.334 -32.5 53.001 -52.5c2.66699 -9.33301 1.33398 -31.833 -3.99902 -67.5s-11.333 -60.167 -18 -73.5c-13.333 -26 -33.833 -54.167 -61.5 -84.5
s-50.167 -49.833 -67.5 -58.5c-24.667 -12.667 -61.167 -20.667 -109.5 -24s-91.666 -1.5 -129.999 5.5s-57.5 17.5 -57.5 31.5z" />
    <glyph glyph-name="four" unicode="4" horiz-adv-x="429" 
d="M163 279c4 0 6 -3.33203 6 -9.99902s-2 -11.334 -6 -14.001c-3.33301 -2 -5.33301 -0.333008 -6 5c0 10.667 2 17 6 19zM362 585.001c6.66699 0 12.498 -5.33398 17.498 -16.001s8.16699 -24.667 9.5 -42c0.666992 -18 -1 -53 -5 -105s-8 -90.667 -12 -116
c-1.33301 -12 -1.5 -19.5 -0.5 -22.5s4.83301 -4.5 11.5 -4.5s11.334 -2.83301 14.001 -8.5s2.33398 -11.667 -0.999023 -18s-8.33301 -10.5 -15 -12.5c-7.33301 -1.33301 -12.166 -5.5 -14.499 -12.5s-4.83301 -25.167 -7.5 -54.5
c-6.66699 -84 -5.33398 -130.667 3.99902 -140c4.66699 -4.66699 4.33398 -11.167 -0.999023 -19.5s-12 -12.5 -20 -12.5c-12.667 0 -20.5 8.33301 -23.5 25s-3.16699 52.667 -0.5 108c3.33301 63.333 2.66602 96.333 -2.00098 99h-6c-78 -14 -128 -25.333 -150 -34
c-56 -20.667 -93 -28 -111 -22c-12.667 4 -19 7.66699 -19 11c4.66699 24.667 16.5 71 35.5 139s30.167 109.333 33.5 124c11.333 42.667 19 68.334 23 77.001c4.66699 10.667 11 17.167 19 19.5s13.333 -0.166992 16 -7.5
c2.66699 -6.66699 -7.66602 -56.167 -30.999 -148.5s-39 -145.833 -47 -160.5c-4.66699 -8.66699 -3.66699 -13 3 -13c8.66699 0.666992 32.667 7.33398 72 20.001c23.333 7.33301 42.666 12.666 57.999 15.999s33.333 6.5 54 9.5s41 6.5 61 10.5
c5.33301 30.667 11 87 17 169s9.33301 126.333 10 133c1.33301 6 4 9 8 9z" />
    <glyph glyph-name="five" unicode="5" horiz-adv-x="609" 
d="M201 108c7.33301 8 12.668 8.33203 16.001 0.999023c2.66699 -6 1.33398 -12.333 -3.99902 -19c-2.66699 -4 -4.83398 -6.5 -6.50098 -7.5s-2.83398 -0.833008 -3.50098 0.5s-1.66699 4 -3 8c-2 8.66699 -1.66699 14.334 1 17.001zM364.002 313.999
c5.33301 0 11.999 -4.50781 19.999 -13.5078s10.667 -14.833 8 -17.5c-0.666992 -2 0.333008 -3.33301 3 -4c4 0 10 -7.16699 18 -21.5s12.667 -26.166 14 -35.499c1.33301 -6 3.66602 -12 6.99902 -18c6 -9.33301 3.83301 -34 -6.5 -74s-21.833 -67 -34.5 -81
c-3.33301 -2.66699 -5.33301 -5.16699 -6 -7.5s-0.5 -4.33301 0.5 -6s0.833008 -3.16699 -0.5 -4.5s-4 -2 -8 -2c-8.66699 0 -16.334 -3.33301 -23.001 -10c-20.667 -17.333 -49.167 -26.666 -85.5 -27.999s-69.833 5.66699 -100.5 21c-22 10.667 -35 14.667 -39 12
c-4 -2 -5 -1 -3 3c3.33301 4.66699 -0.666992 9.66699 -12 15c-8.66699 4 -14.167 9.33301 -16.5 16s-0.5 12 5.5 16c6 2.66699 17.333 -0.333008 34 -9c49.333 -26 78.666 -37 87.999 -33c4.66699 1.33301 7.33398 1.33301 8.00098 0
c0 -0.666992 -0.333008 -1.33398 -1 -2.00098c-2 -3.33301 1.33301 -6 10 -8c20.667 -4.66699 40 -4.33398 58 0.999023c32 8.66699 57.5 33.334 76.5 74.001s23.167 80 12.5 118c-8.66699 32.667 -31.5 61.5 -68.5 86.5s-71.833 34.833 -104.5 29.5
c-68 -10.667 -106.667 -38.667 -116 -84c-2.66699 -10.667 -7.16699 -18.667 -13.5 -24s-12.5 -6 -18.5 -2c-10.667 6.66699 -19.5 27.834 -26.5 63.501s-10.167 76.834 -9.5 123.501c0.666992 66 11.334 90.333 32.001 73c6.66699 -6 11.334 -6.33301 14.001 -1
c-1.33301 2 13 3.33301 43 4c16 0.666992 43.667 1.33398 83 2.00098c56 0.666992 84 1.66699 84 3c2.66699 2.66699 21.167 3.5 55.5 2.5s53.166 -3.16699 56.499 -6.5c2.66699 -2.66699 2 -8 -2 -16c-4.66699 -6 -59 -10.333 -163 -13c-103.333 -2.66699 -156 -5 -158 -7
c-3.33301 -3.33301 -4 -21.666 -2 -54.999s4.66699 -51 8 -53c6 -3.33301 6 -6.33301 0 -9c-5.33301 -4 -6.66602 -8 -3.99902 -12c3.33301 -3.33301 14.333 1.33398 33 14.001c20 14 39 23.333 57 28c16.667 4.66699 36.334 7.16699 59.001 7.5s35.334 -1.5 38.001 -5.5
c2 -1.33301 15.667 -6.66602 41 -15.999s38.666 -16.666 39.999 -21.999c3.33301 -8 8.33301 -12 15 -12zM552.001 600.991c-6 1.33301 -5.33203 2.33398 2.00098 3.00098c17.333 1.33301 25.666 0.666016 24.999 -2.00098l-3 -1c-8.66699 -1.33301 -16.667 -1.33301 -24 0z
M184.002 600.992c-8 0.666992 -7.66699 1.33301 1 2l36 -2h-3c-10.667 -1.33301 -22 -1.33301 -34 0zM62.002 600.991c-8 -2.66699 -18 -2.33398 -30 0.999023l14 1c12 0.666992 18 0.333984 18 -0.999023z" />
    <glyph glyph-name="six" unicode="6" horiz-adv-x="631" 
d="M113 31c-6 2 -5.00098 3.33301 2.99902 4c12.667 0.666992 19.334 0 20.001 -2l-2 -2c-6.66699 -1.33301 -13.667 -1.33301 -21 0zM29.999 31c-2.66699 1.33301 -1.33301 2.66797 4 4.00098c20.667 2 39 1.33301 55 -2c-2.66699 -2.66699 -12.5 -4.33398 -29.5 -5.00098
s-26.833 0.333008 -29.5 3zM123 67.002c3.33301 13.333 6.00098 15.001 8.00098 5.00098c2 -11.333 1 -18 -3 -20c-0.666992 -0.666992 -1.66699 -0.333984 -3 0.999023c-4.66699 3.33301 -5.33398 8 -2.00098 14zM464.001 61.0029c52.667 28 85.5 68.833 98.5 122.5
s-2.5 92.167 -46.5 115.5c-38.667 -6 -66 -25.667 -82 -59c-12 -24.667 -19.167 -58.667 -21.5 -102s1.16699 -72.333 10.5 -87c3.33301 -6 17 -2.66699 41 10zM473.001 -5.99707c4 0 5.99609 -2.00098 5.99609 -6.00098c0 -3.33301 -3.16699 -5.5 -9.5 -6.5
s-13.666 -0.666992 -21.999 1s-15.166 4.16699 -20.499 7.5c-7.33301 4 -30.333 8.66699 -69 14s-61.667 11.333 -69 18c-15.333 8.66699 -26.666 12.334 -33.999 11.001c-2 0.666992 -3 1.33398 -3 2.00098c0.666992 0.666992 0.833984 2 0.500977 4
s-1.66602 4.83301 -3.99902 8.5l-7.5 11.5c-8 11.333 -13.667 21.833 -17 31.5s-8.33301 29.5 -15 59.5c-4.66699 21.333 -5 61.5 -1 120.5s9.66699 98.167 17 117.5c4 10.667 8.66699 28.167 14 52.5s10.666 42.833 15.999 55.5c4 10.667 7.66699 17.667 11 21
s8 4.66602 14 3.99902c10.667 -1.33301 16.5 -11 17.5 -29s-3.16699 -36 -12.5 -54c-15.333 -29.333 -26.333 -81.333 -33 -156s-5 -128.667 5 -162c6 -20 16.5 -37.667 31.5 -53s31.5 -25.666 49.5 -30.999c22 -6.66699 35.5 -8 40.5 -4s4.83301 15.333 -0.5 34
c-6 20 -8 48.667 -6 86s6.66699 65.666 14 84.999c7.33301 18 21.5 36.5 42.5 55.5s39.5 29.833 55.5 32.5c14 2.66699 29.333 1.66699 46 -3s29.667 -11.667 39 -21c20.667 -16 31.5 -44.667 32.5 -86s-6.83301 -73.333 -23.5 -96c-28 -41.333 -66.667 -73 -116 -95
c-10 -4.66699 -15.333 -8 -16 -10s2 -5.33301 8 -10c8.66699 -6.66699 15 -10 19 -10zM234.997 601.002c-9.33301 0.666992 -8.66602 1.33301 2.00098 2l43 -2h-4c-12.667 -1.33301 -26.334 -1.33301 -41.001 0zM147.997 601.001c-8.66699 0.666992 -8.33301 1.33301 1 2
l41 -2h-4c-13.333 -1.33301 -26 -1.33301 -38 0zM45.998 599c-6 -0.666992 -9.66699 1.66602 -11 6.99902c-0.666992 3.33301 1.33301 5.33301 6 6c5.33301 0.666992 9 -1.66602 11 -6.99902c2 -3.33301 0 -5.33301 -6 -6z" />
    <glyph glyph-name="seven" unicode="7" horiz-adv-x="424" 
d="M352 512c0.666992 0.666992 2.00098 0.832031 4.00098 0.499023s4.66699 -1.16602 8 -2.49902s6.66602 -3 9.99902 -5c8.66699 -4 14 -8.66699 16 -14s3.33301 -17 4 -35c0 -33.333 -5 -97.666 -15 -192.999s-15 -150 -15 -164c0 -20.667 -1 -33.5 -3 -38.5
s-6.66699 -8.16699 -14 -9.5c-12 -1.33301 -19.333 1 -22 7c-12 17.333 -6 117.666 18 300.999c7.33301 55.333 10.333 89 9 101c0.666992 5.33301 -1.33301 9.16602 -6 11.499s-11.167 3.5 -19.5 3.5s-16.833 -0.5 -25.5 -1.5l-25 -3c-8 -1 -13.667 -1.16699 -17 -0.5
c-7.33301 -1.33301 -48 -4 -122 -8c-45.333 -2 -73.666 -2.66699 -84.999 -2s-18 3.66699 -20 9c-1.33301 4 -1.83301 7.16699 -1.5 9.5s2.5 4.33301 6.5 6s9.66699 3 17 4s17.333 1.83301 30 2.5c27.333 2.66699 73.666 6.33398 138.999 11.001s108.333 8 129 10z
M152.001 596.998c-8.66699 -2 -13.0029 -1.33398 -13.0029 1.99902c-0.666992 2 1 4 5 6l8 1c6.66699 0 10.834 -0.5 12.501 -1.5s1.33398 -2.16699 -0.999023 -3.5s-6.16602 -2.66602 -11.499 -3.99902zM62.998 600.997c-5.33301 1.33301 -5 2.33398 1 3.00098
c14 1.33301 21.333 0.666016 22 -2.00098c0.666992 0 0 -0.333008 -2 -1c-6.66699 -1.33301 -13.667 -1.33301 -21 0z" />
    <glyph glyph-name="eight" unicode="8" horiz-adv-x="512" 
d="M205 27c-8 -2 -12.6699 -1.33398 -14.0029 1.99902c-0.666992 2.66699 1 4.66699 5 6c2.66699 0.666992 5.66699 1 9 1c6.66699 0 10.834 -0.5 12.501 -1.5s1.33398 -2.16699 -0.999023 -3.5s-6.16602 -2.66602 -11.499 -3.99902zM235.997 206.999
c-6 -1.33301 -9.33301 -0.333984 -10 2.99902c-2 6 -0.333008 10.333 5 13c4 2 7.66699 0 11 -6c2.66699 -3.33301 0.666992 -6.66602 -6 -9.99902zM311.997 -30.002c38 0 65.1689 3.50098 81.502 10.501s27.5 19.833 33.5 38.5c5.33301 16.667 6.33301 32.167 3 46.5
s-12.666 33.833 -27.999 58.5c-40 62.667 -91.333 99 -154 109c-8 1.33301 -16.333 4.66602 -25 9.99902c-14.667 12.667 -34.334 14 -59.001 4c-26.667 -11.333 -46.834 -29.833 -60.501 -55.5s-17.167 -51.5 -10.5 -77.5c5.33301 -20 20.166 -42.667 44.499 -68
s48.833 -44 73.5 -56c16.667 -8.66699 31 -14.167 43 -16.5s31.333 -3.5 58 -3.5zM148.999 507.999c0 4.66699 -0.334961 7.99805 -1.00195 9.99805s-2.16699 3.16699 -4.5 3.5s-5.16602 -0.5 -8.49902 -2.5s-8 -5.33301 -14 -10c-20 -15.333 -34.167 -38.166 -42.5 -68.499
s-7.5 -54.833 2.5 -73.5c4 -7.33301 11.5 -16.833 22.5 -28.5s18.167 -17.5 21.5 -17.5c2 0 9 -3.66699 21 -11c10.667 -7.33301 32.834 -11.833 66.501 -13.5s57.834 0.5 72.501 6.5c15.333 6 28.166 15.5 38.499 28.5s15.5 25.5 15.5 37.5c0 21.333 -13 45.5 -39 72.5
s-53.667 44.833 -83 53.5c-18 5.33301 -30.333 5 -37 -1c-4.66699 -6 -8 -6.5 -10 -1.5s-5.33301 6.5 -10 4.5c-3.33301 -1.33301 -6 -1.16602 -8 0.500977s-3 5.16699 -3 10.5zM279.997 500.997c4 0 18.6621 -13.3301 43.9951 -39.9971
c42.667 -44 58.334 -82.333 47.001 -115c-4.66699 -14.667 -14.167 -29.334 -28.5 -44.001s-28.166 -23.334 -41.499 -26.001c-25.333 -6 -28 -13.333 -8 -22c5.33301 -2 12.333 -4.33301 21 -7c33.333 -10.667 65.333 -34.334 96 -71.001s49 -73.667 55 -111
c3.33301 -19.333 7 -29 11 -29c4.66699 0 6.33398 -2.66699 5.00098 -8c-1.33301 -2.66699 -3.33301 -4 -6 -4c-2.66699 0.666992 -5.5 -1.16602 -8.5 -5.49902s-5.16699 -9.5 -6.5 -15.5c-2.66699 -10.667 -10.167 -20.5 -22.5 -29.5s-24.166 -13.5 -35.499 -13.5
c-6 0 -9.66699 -2.33301 -11 -7c-1.33301 -5.33301 -17.166 -8.83301 -47.499 -10.5s-56.833 -0.5 -79.5 3.5c-8.66699 1.33301 -17.667 3.5 -27 6.5s-19.666 7.33301 -30.999 13l-25.5 13c-5.66699 3 -14.834 8.16699 -27.501 15.5l-19 12c-24 18 -42.667 35.833 -56 53.5
s-21 40.834 -23 69.501c-4.66699 41.333 10.333 80.666 45 117.999c20 22 26 34.667 18 38c-2.66699 0.666992 -6.33398 1 -11.001 1c-6 0 -16.5 8.33301 -31.5 25s-26.5 32.667 -34.5 48c-18.667 36.667 -14.667 78.667 12 126s63.334 75.666 110.001 84.999
c2.66699 -0.666992 11.167 -6.83398 25.5 -18.501s24.5 -17.834 30.5 -18.501c6 -1.33301 16.667 -6.66602 32 -15.999s25 -14.666 29 -15.999zM231.992 592c-5.33301 0 -9.16602 1.16699 -11.499 3.5s-2.33301 4.66602 0 6.99902s6.16602 3.5 11.499 3.5
s9.33301 -1.16699 12 -3.5s2.66699 -4.66602 0 -6.99902s-6.66699 -3.5 -12 -3.5z" />
    <glyph glyph-name="nine" unicode="9" horiz-adv-x="409" 
d="M282 418c-2.66699 0 -4.33594 2.83496 -5.00293 8.50195s-0.5 11.667 0.5 18s2.83301 10.166 5.5 11.499c6 4 8.16699 11.667 6.5 23s-6.5 19.666 -14.5 24.999c-10.667 8 -27 11.5 -49 10.5s-42.333 -6.16699 -61 -15.5c-22 -11.333 -43.667 -28 -65 -50
s-33.333 -40.333 -36 -55c-4.66699 -22.667 -3.16699 -42.834 4.5 -60.501s19.834 -31.5 36.501 -41.5s34.334 -17.833 53.001 -23.5s38.334 -9.16699 59.001 -10.5c19.333 0 34.666 3.83301 45.999 11.5s24 22.5 38 44.5c6.66699 10.667 10.5 19.834 11.5 27.501
s-0.166992 22.167 -3.5 43.5c-4 28 -8 42 -12 42l-2 -1c-5.33301 -5.33301 -9.66602 -8 -12.999 -8zM148.998 515.002c9.33301 0.666992 17.5039 3.66602 24.5039 8.99902s14.167 9 21.5 11c8.66699 2.66699 44.334 2.66699 107.001 0c6 0 10.667 -2.66699 14 -8
s7.66602 -16 12.999 -32c6 -18.667 10.167 -37.5 12.5 -56.5s4.16602 -41.667 5.49902 -68s3.33301 -48.833 6 -67.5c2.66699 -24 6.83398 -64.5 12.501 -121.5l11.5 -114.5c2.66699 -20 1 -31 -5 -33c-6.66699 -2.66699 -12.334 -2 -17.001 2s-8.66699 13.167 -12 27.5
s-6.16602 33.333 -8.49902 57s-4.5 55.167 -6.5 94.5l-5 85c-33.333 -40.667 -59.333 -63.667 -78 -69c-28 -9.33301 -62.833 -8.16602 -104.5 3.50098s-69.834 28.5 -84.501 50.5c-28.667 44.667 -32.334 86.334 -11.001 125.001
c13.333 23.333 31.166 46.666 53.499 69.999s39.166 35 50.499 35z" />
    <glyph glyph-name="colon" unicode=":" horiz-adv-x="144" 
d="M54 88c4 9.33301 10.999 12.002 20.999 8.00195s19 -13.333 27 -28c17.333 -30.667 15.333 -49.667 -6 -57c-14 -4.66699 -26.167 2.66602 -36.5 21.999s-12.166 37.666 -5.49902 54.999zM67.999 431.002c4.66699 -4 9.83594 -7.50098 15.5029 -10.501s9.66699 -6 12 -9
s5.16602 -9.83301 8.49902 -20.5c4.66699 -15.333 7 -25.666 7 -30.999s-2 -11.333 -6 -18c-2.66699 -4.66699 -4.83398 -6.83398 -6.50098 -6.50098s-4.83398 3.5 -9.50098 9.5c-5.33301 6.66699 -8.83301 9.83398 -10.5 9.50098s-4.16699 -5.16602 -7.5 -14.499
c-4 -10.667 -9.16699 -16.834 -15.5 -18.501s-12.833 1.5 -19.5 9.5c-5.33301 6.66699 -7 23.667 -5 51s6.33301 44.666 13 51.999c4 4.66699 7.5 6.83398 10.5 6.50098s7.5 -3.5 13.5 -9.5z" />
    <glyph glyph-name="semicolon" unicode=";" horiz-adv-x="127" 
d="M76 140c10 0 16.667 -19.999 20 -59.999s1.33301 -76.333 -6 -109s-13.833 -54.334 -19.5 -65.001s-13.167 -16 -22.5 -16s-14.5 3 -15.5 9s2.16699 12 9.5 18c9.33301 7.33301 16.833 28.5 22.5 63.5s7.16699 68.833 4.5 101.5c-2 25.333 -2.66699 41.333 -2 48
s3.66699 10 9 10zM38 396.001c7.33301 20.667 15.667 30.666 25 29.999c6 -0.666992 10.333 -6 13 -16c3.33301 -15.333 4.33301 -28.833 3 -40.5s-5 -20.334 -11 -26.001s-13 -6.5 -21 -2.5c-10 4.66699 -15.5 10.834 -16.5 18.501s1.5 19.834 7.5 36.501z" />
    <glyph glyph-name="less" unicode="&#x3c;" horiz-adv-x="60" 
 />
    <glyph glyph-name="equal" unicode="=" horiz-adv-x="510" 
d="M439 171c0 -5.33301 -2.99805 -8.33496 -8.99805 -9.00195s-20.667 0.333008 -44 3c-162.667 14.667 -266.334 20.667 -311.001 18c-18 -0.666992 -31.667 4 -41 14c-4 4 -4.66699 7.66699 -2 11c0 2 34.667 3.5 104 4.5s104.333 2.83301 105 5.5
c2.66699 2 5.5 2.83301 8.5 2.5s5 -1.66602 6 -3.99902s0.833008 -4.83301 -0.5 -7.5c-0.666992 -2 1 -3.66699 5 -5s10 -1.66602 18 -0.999023c13.333 0.666992 40.166 -1.33301 80.499 -6s64.5 -8.66699 72.5 -12c5.33301 -1.33301 8 -6 8 -14zM108.002 375.998
c73.333 7.33301 179.001 -0.333008 317.001 -23c36 -5.33301 54.333 -12 55 -20c5.33301 -9.33301 -5.33398 -13.666 -32.001 -12.999c-6.66699 0 -13 0.333008 -19 1c-70.667 15.333 -150.667 23.666 -240 24.999c-83.333 2.66699 -125 7.66699 -125 15c0 2 1 4 3 6
c3.33301 3.33301 17 6.33301 41 9z" />
    <glyph glyph-name="greater" unicode="&#x3e;" horiz-adv-x="469" 
d="M340 328c6 0 8.99902 -2.00098 8.99902 -6.00098c0 -3.33301 10.667 -9 32 -17s36.666 -12 45.999 -12c8.66699 0 12.334 -5 11.001 -15c-1.33301 -10.667 -12.333 -19.667 -33 -27c-27.333 -11.333 -70.166 -30.333 -128.499 -57s-113.5 -50.334 -165.5 -71.001
c-30 -11.333 -46.667 -19.666 -50 -24.999c-2.66699 -4 -8.5 -3.66699 -17.5 1s-13.5 10 -13.5 16c-4.66699 9.33301 29 27 101 53c7.33301 3.33301 27 11.5 59 24.5s59 24.833 81 35.5c24 11.333 39.167 19.5 45.5 24.5s8.83301 10.5 7.5 16.5c-2 6 -2.33301 9 -1 9
s2.66602 -1.33301 3.99902 -4c4 -6 11.667 -6.66699 23 -2c6 2 9.33301 3.66699 10 5l-2 1c-4.66699 0.666992 -20.5 9.16699 -47.5 25.5s-41.833 26.833 -44.5 31.5c-8 9.33301 -59.333 35.666 -154 78.999c-13.333 6 -23.666 11 -30.999 15s-13 7.5 -17 10.5
s-5.83301 5.83301 -5.5 8.5s1.83301 5.33398 4.5 8.00098c4.66699 4 21 1 49 -9s56.333 -23.333 85 -40c6 -4 24.333 -13.667 55 -29s50 -26.666 58 -33.999c13.333 -10.667 23.333 -16 30 -16z" />
    <glyph glyph-name="question" unicode="?" horiz-adv-x="371" 
d="M200 -26c-8.66699 0 -14.3311 3.5 -16.998 10.5s-1.33398 13.833 3.99902 20.5c4.66699 6 8.16699 9 10.5 9s6.83301 -3 13.5 -9c6.66699 -6.66699 8.66699 -13.5 6 -20.5s-8.33398 -10.5 -17.001 -10.5zM284.003 564c8 0 19.3291 -6.66504 33.9961 -19.998
c10.667 -9.33301 17 -17.5 19 -24.5s3.33301 -24.833 4 -53.5c1.33301 -74 -4 -114.667 -16 -122c-4 -2.66699 -6 -8.33398 -6 -17.001c0 -17.333 -8.33301 -35 -25 -53c-6.66699 -6.66699 -10 -11.334 -10 -14.001s-14.833 -12.667 -44.5 -30
s-44.167 -27.666 -43.5 -30.999c-2.66699 -7.33301 -1 -24 5 -50c10.667 -52 14.334 -79.667 11.001 -83c-1.33301 -1.33301 -4.33301 -2 -9 -2c-12 0 -20.5 6 -25.5 18s-10.167 40.333 -15.5 85c-3.33301 24 -2.33301 40.833 3 50.5s20 20.834 44 33.501
c30 16 48 27.167 54 33.5s14.333 22.5 25 48.5c10 24.667 16.833 56 20.5 94s2.5 64.667 -3.5 80c-4 9.33301 -14.167 17.666 -30.5 24.999s-33.5 11 -51.5 11c-30 0 -61.833 -9.33301 -95.5 -28s-56.5 -39.667 -68.5 -63c-12.667 -24.667 -22 -27 -28 -7
c-3.33301 10.667 1.5 24.667 14.5 42s30.5 32.666 52.5 45.999l15.5 9l13 7.5c1.66699 1 4.83398 2.66699 9.50098 5s8 3.83301 10 4.5s4.83301 1.83398 8.5 3.50098s7.33398 2.83398 11.001 3.50098s7.83398 1.5 12.501 2.5l16 3.5
c12.667 1.33301 27.667 1.66602 45 0.999023s27.333 -2.33398 30 -5.00098c4 -2.66699 9 -4 15 -4z" />
    <glyph glyph-name="at" unicode="@" horiz-adv-x="710" 
d="M386 358c-38.667 18.667 -75.8281 15.1689 -111.495 -10.498s-58.167 -59.834 -67.5 -102.501c-8.66699 -47.333 -1.33398 -92.833 21.999 -136.5s51.666 -65.5 84.999 -65.5c8.66699 0 25.167 5.83301 49.5 17.5s36.5 19.5 36.5 23.5c4.66699 8 10.167 15.667 16.5 23
s10.333 12.166 12 14.499s2.5 8.83301 2.5 19.5s-1.66699 23.5 -5 38.5l-16 71.5c-6.66699 32 -9.33398 56.667 -8.00098 74c1.33301 9.33301 1.16602 16 -0.500977 20s-6.83398 8.33301 -15.501 13zM410.006 529.002c6.66699 0.666992 14.6709 -2.66113 24.0039 -9.99414
s15.666 -11 18.999 -11c5.33301 0.666992 8.66602 -1.5 9.99902 -6.5s4.33301 -7.5 9 -7.5c10.667 0 36 -23.833 76 -71.5s67.667 -87.167 83 -118.5c2.66699 -6.66699 6.66699 -15 12 -25s9.16602 -17.833 11.499 -23.5s4.66602 -13.667 6.99902 -24
s3.5 -22.166 3.5 -35.499c0.666992 -24 -4.33301 -48.833 -15 -74.5s-24.334 -45.5 -41.001 -59.5c-11.333 -10 -25.333 -18.5 -42 -25.5s-29.334 -9.83301 -38.001 -8.5c-12 2.66699 -26 11.667 -42 27s-27 30.333 -33 45l-28 -27
c-24.667 -22.667 -44.667 -38.334 -60 -47.001s-32 -13.667 -50 -15c-14 -0.666992 -24.333 -0.166992 -31 1.5s-13.5 5.66699 -20.5 12s-13.167 11.166 -18.5 14.499c-8.66699 5.33301 -14.334 10.166 -17.001 14.499s-5 9.83301 -7 16.5s-6 14 -12 22
c-15.333 22 -24.5 43.5 -27.5 64.5s-1.16699 47.167 5.5 78.5c6 27.333 16.667 55.333 32 84s27.333 43 36 43c5.33301 0 13 5 23 15c12 10.667 28.333 17.667 49 21c21.333 4 42.333 1.83301 63 -6.5s30.334 -18.5 29.001 -30.5c-0.666992 -8 0.666016 -17 3.99902 -27
s7 -16.667 11 -20c7.33301 -5.33301 15.333 -23.833 24 -55.5s13.334 -59.834 14.001 -84.501c0.666992 -34.667 6.66699 -60.334 18 -77.001c10 -14.667 17.833 -23.834 23.5 -27.501s14.167 -5.5 25.5 -5.5c15.333 0 28.5 3.83301 39.5 11.5s23.5 21.834 37.5 42.501
c11.333 16.667 18.333 29 21 37s3.33398 18 2.00098 30c-2.66699 21.333 -5.33398 36.166 -8.00098 44.499s-6.66699 16.666 -12 24.999s-10.333 18.833 -15 31.5c-16 36.667 -41.333 75.667 -76 117c-32 36 -62 62.167 -90 78.5s-65.333 28.833 -112 37.5
c-40.667 7.33301 -72.334 9.5 -95.001 6.5s-46.334 -12.833 -71.001 -29.5c-40.667 -27.333 -68 -57.833 -82 -91.5s-19.667 -80.834 -17 -141.501c1.33301 -45.333 6.5 -84.5 15.5 -117.5s25.167 -72.833 48.5 -119.5c23.333 -48 48.333 -83.833 75 -107.5
s63 -42.5 109 -56.5c45.333 -13.333 86.166 -15.333 122.499 -6s77.5 32.666 123.5 69.999c46.667 40 74.667 69.167 84 87.5s10 47.833 2 88.5l15 -14c13.333 -12 20.833 -23.667 22.5 -35s-1.5 -27 -9.5 -47c-5.33301 -14.667 -12.666 -27.667 -21.999 -39
s-25.666 -27.333 -48.999 -48l-30 -24.5c-10 -8.33301 -15.5 -13.166 -16.5 -14.499s-5.16699 -4.33301 -12.5 -9s-12.166 -7.5 -14.499 -8.5s-11.166 -5.16699 -26.499 -12.5c-34.667 -20.667 -76.667 -30.667 -126 -30c-20 0 -47.167 4.5 -81.5 13.5
s-51.5 16.167 -51.5 21.5c0 4 -7.33301 9.66699 -22 17c-14 6.66699 -28.833 16.834 -44.5 30.501s-23.5 23.167 -23.5 28.5c-0.666992 4.66699 -5.16699 9.66699 -13.5 15s-13.166 10.666 -14.499 15.999c-42.667 88.667 -67 144 -73 166
c-12.667 47.333 -19 97.333 -19 150s6.33301 91.334 19 116.001c7.33301 14.667 11 24 11 28c0 4.66699 10.833 19 32.5 43s34.5 36 38.5 36s11 5 21 15c16 16 40.667 27.333 74 34c16.667 3.33301 41.667 3.83301 75 1.5s57 -6.5 71 -12.5c13.333 -6.66699 26 -10 38 -10z
" />
    <glyph glyph-name="A" unicode="A" horiz-adv-x="422" 
d="M159 418c-3.33301 -8 -10.832 -32.332 -22.499 -72.999s-18.167 -66.667 -19.5 -78c2.66699 -2.66699 23.667 -0.833984 63 5.49902s59 10.833 59 13.5c0 8 -16 36.667 -48 86c-18.667 30.667 -29.334 46 -32.001 46zM187.001 486.001
c0 -24 6.99902 -46.6689 20.999 -68.002c48 -68.667 72 -108 72 -118c2 -4 10 -6.66699 24 -8s22 -3.66602 24 -6.99902c6 -6 8.66699 -14.167 8 -24.5s-4.33398 -17.5 -11.001 -21.5c-4.66699 -3.33301 -7 -6.5 -7 -9.5s2.33301 -9.16699 7 -18.5c8 -16 12 -24.667 12 -26
c0.666992 -9.33301 6.83398 -28 18.501 -56s19.834 -43.333 24.501 -46c11.333 -6.66699 14.333 -16.167 9 -28.5s-15.333 -18.5 -30 -18.5c-7.33301 0 -12.833 3.33301 -16.5 10s-11.5 27.667 -23.5 63c-4.66699 14.667 -23.334 60.334 -56.001 137.001
c-41.333 -4 -95 -11.667 -161 -23c-1.33301 -4.66699 -3.5 -13.5 -6.5 -26.5l-9 -39.5c-3 -13.333 -6.33301 -26.333 -10 -39s-7.33398 -22.5 -11.001 -29.5s-7.16699 -9.5 -10.5 -7.5c-6 0 -9.66699 1.83301 -11 5.5s-1.66602 12.167 -0.999023 25.5
c1.33301 23.333 5.33301 46.666 12 69.999c5.33301 20 6.66602 33.5 3.99902 40.5s-10.667 12.833 -24 17.5c-6.66699 2 -7.33398 7 -2.00098 15c4.66699 7.33301 10.334 10 17.001 8c10.667 -1.33301 17.334 -0.666016 20.001 2.00098c4 2.66699 15 42.667 33 120
c12 52 20.5 85 25.5 99s11.5 23 19.5 27c16.667 9.33301 27.334 12.5 32.001 9.5s7 -14.5 7 -34.5z" />
    <glyph glyph-name="B" unicode="B" horiz-adv-x="645" 
d="M42 -144c8 0.666992 11.667 -0.666992 11 -4c-0.666992 -4.66699 -4 -7.66699 -10 -9c-4 -1.33301 -7 0 -9 4c-6 6 -3.33301 9 8 9zM243 298.999c0 -84.667 -0.999023 -134 -2.99902 -148c-2.66699 -11.333 -0.333984 -19.833 6.99902 -25.5s21.666 -10.167 42.999 -13.5
c26.667 -3.33301 56.334 -7.66602 89.001 -12.999c35.333 -5.33301 68.833 -4.33301 100.5 3s57.167 20 76.5 38c18.667 18.667 28 33 28 43c-0.666992 14 -6 30.167 -16 48.5s-20.333 30.833 -31 37.5c-21.333 15.333 -41 27.666 -59 36.999
c-23.333 11.333 -54.5 17.5 -93.5 18.5s-72.5 -3.16699 -100.5 -12.5zM386.001 546.999c-18 11.333 -45.0029 17.168 -81.0029 17.501s-64 -5.5 -84 -17.5c-5.33301 -2.66699 -8.16602 -8 -8.49902 -16s1.83398 -27 6.50098 -57c6 -34.667 10.667 -68 14 -100
c2 -16 4.16699 -25.5 6.5 -28.5s7.83301 -3.16699 16.5 -0.5c14.667 3.33301 32.834 11.833 54.501 25.5s41.5 29.167 59.5 46.5c26.667 25.333 41.5 49.666 44.5 72.999s-6.5 42.333 -28.5 57zM554.998 99.001c-2.66699 0 -8.66504 -3.83398 -17.998 -11.501
s-17 -10.834 -23 -9.50098c-9.33301 0 -15 -2.33301 -17 -7c-0.666992 -3.33301 -14.667 -5.66602 -42 -6.99902s-41.333 -3.66602 -42 -6.99902c-3.33301 -4.66699 -8.66602 -7 -15.999 -7c-10 0 -11 2 -3 6c2.66699 2 -7.66602 5.33301 -30.999 10
s-49.333 8.83398 -78 12.501s-48 5.16699 -58 4.5l-20 -2c-1.33301 196 -9 331 -23 405c-1.33301 10 -9.33301 15 -24 15c-14 0 -21 4.66699 -21 14c0 26.667 39.333 51.334 118 74.001c16.667 4.66699 37.167 6.33398 61.5 5.00098s40.166 -5 47.499 -11
c4.66699 -3.33301 7.66699 -4 9 -2c-0.666992 5.33301 8.66602 1.66602 27.999 -11.001c18 -12.667 27.333 -23.334 28 -32.001c0 -2.66699 0.666992 -4.66699 2 -6s2.66602 -1.33301 3.99902 0c2 1.33301 4.16699 0.166016 6.5 -3.50098s4.33301 -9.16699 6 -16.5
s2.5 -14.666 2.5 -21.999c0 -11.333 -6.66699 -28.666 -20 -51.999s-27 -41 -41 -53l-25 -21c113.333 -17.333 187.333 -51.333 222 -102c19.333 -24.667 28.166 -50.334 26.499 -77.001s-13.5 -50.334 -35.5 -71.001c-11.333 -10 -19.333 -15 -24 -15z" />
    <glyph glyph-name="C" unicode="C" horiz-adv-x="547" 
d="M33 52c-6 2 -5.00098 3.33301 2.99902 4c12.667 0.666992 19.334 0 20.001 -2l-2 -2c-6.66699 -1.33301 -13.667 -1.33301 -21 0zM364.999 546c0 -6.66699 2.99902 -10 8.99902 -10c12 0 19.667 -15 23 -45c3.33301 -22.667 -2.66699 -36 -18 -40
c-6 -1.33301 -9.83301 -0.666016 -11.5 2.00098s-2.5 10 -2.5 22c0 32 -18.333 51 -55 57c-29.333 5.33301 -64.333 -5 -105 -31c-60 -39.333 -90 -93 -90 -161c0.666992 -40 10 -73.167 28 -99.5s47.667 -48.833 89 -67.5c20.667 -10 37.167 -16 49.5 -18
s36.5 -3.33301 72.5 -4c35.333 0 59.166 1 71.499 3s27.5 7.66699 45.5 17c27.333 12 42 17 44 15c4.66699 -4.66699 3.16699 -12.5 -4.5 -23.5s-16.167 -17.5 -25.5 -19.5c-8.66699 -2 -17.667 -5.33301 -27 -10s-19.666 -8 -30.999 -10
c-53.333 -12 -109.833 -9.16699 -169.5 8.5s-102.167 44.5 -127.5 80.5c-15.333 21.333 -21 32 -17 32c2.66699 0 2 2 -2 6c-20 13.333 -29 44 -27 92c1.33301 32.667 4 56 8 70c2.66699 10.667 14.5 29.167 35.5 55.5s34.167 39.833 39.5 40.5c6 0 10 3.33301 12 10
c4.66699 11.333 30.667 25 78 41c9.33301 3.33301 16.833 5.5 22.5 6.5s10 1.33301 13 1s8.33301 -1.33301 16 -3s15.834 -2.83398 24.501 -3.50098c21.333 -3.33301 32 -8 32 -14z" />
    <glyph glyph-name="D" unicode="D" horiz-adv-x="546" 
d="M361 -149c-5.33301 1.33301 -4.66797 2.33398 1.99902 3.00098c18.667 1.33301 27.334 0.666016 26.001 -2.00098l-3 -1c-8.66699 -1.33301 -17 -1.33301 -25 0zM39.998 581.001c0 3.33301 0.333984 5.66602 1.00098 6.99902s2.33398 2.33301 5.00098 3s6 0.666992 10 0
s10.333 -1.66699 19 -3c14.667 -3.33301 23.667 -10.333 27 -21c3.33301 -7.33301 21 -22.833 53 -46.5s56.667 -39.167 74 -46.5c10 -4.66699 30.833 -17.5 62.5 -38.5s49.5 -33.833 53.5 -38.5c3.33301 -2.66699 14 -9.66699 32 -21
c17.333 -10.667 39.5 -28.834 66.5 -54.501s40.5 -41.5 40.5 -47.5s2.33301 -9 7 -9c6.66699 0 12.5 -10 17.5 -30s7.5 -42.667 7.5 -68c0 -24 -1.16699 -40.5 -3.5 -49.5s-8.16602 -20.167 -17.499 -33.5c-12 -16.667 -31.833 -33 -59.5 -49s-55.5 -27 -83.5 -33
c-22 -4.66699 -47.5 -7.16699 -76.5 -7.5s-50.5 1.83398 -64.5 6.50098c-4 2 -12.833 4.5 -26.5 7.5s-25.834 6.5 -36.501 10.5s-16.667 8.66699 -18 14c0 7.33301 10 9.66602 30 6.99902c29.333 -4 97 -8 203 -12l19 10l22 11.5
c4.66699 2.33301 11.167 6.16602 19.5 11.499s14.833 10 19.5 14s9.33398 8.66699 14.001 14s8.33398 10.666 11.001 15.999c20.667 46.667 20.334 90 -0.999023 130c-10.667 20.667 -24.334 39.334 -41.001 56.001s-28.334 23.667 -35.001 21
c-2.66699 -1.33301 -4.83398 -1.66602 -6.50098 -0.999023s-1.83398 2.33398 -0.500977 5.00098c1.33301 5.33301 -3.66699 12.833 -15 22.5s-38 28.5 -80 56.5c-36 23.333 -55 34 -57 32c-1.33301 -1.33301 -2.5 -1.66602 -3.5 -0.999023s-1.5 2 -1.5 4
c0 4.66699 -20 19 -60 43s-61.333 34.667 -64 32c-2.66699 -23.333 -4 -182.333 -4 -477c-3.33301 0.666992 -8.83301 1.5 -16.5 2.5s-12 2.33301 -13 4s-2.33301 5.5 -4 11.5s-2.5 15.333 -2.5 28c0 40.667 -4.33301 94.5 -13 161.5s-13.334 125.5 -14.001 175.5
c-2 71.333 -4 117.333 -6 138c-1.33301 14.667 0 22 4 22s6 3.33301 6 10z" />
    <glyph glyph-name="E" unicode="E" horiz-adv-x="485" 
d="M382 535c0 -4 -3.66504 -7.33301 -10.998 -10s-20.166 -5.33398 -38.499 -8.00098s-42.333 -5.16699 -72 -7.5s-67.834 -4.83301 -114.501 -7.5l-77 -4c1.33301 -9.33301 4 -30 8 -62s7.83301 -60.833 11.5 -86.5s6.16699 -41.167 7.5 -46.5
c1.33301 -1.33301 22.666 0 63.999 4c68 7.33301 125 8.83301 171 4.5s69 -13.166 69 -26.499c0 -6 -46 -9.33301 -138 -10c-89.333 0 -139.333 -2.66699 -150 -8c-6.66699 -3.33301 -10.5 -9.5 -11.5 -18.5s-0.833008 -32.5 0.5 -70.5l4 -83c9.33301 0 48.666 2 117.999 6
c34.667 3.33301 79.667 5 135 5s85.333 -1.33301 90 -4c4.66699 -3.33301 7 -9 7 -17c0 -2.66699 -1 -4.66699 -3 -6s-6.66699 -2.5 -14 -3.5s-17.333 -1.83301 -30 -2.5s-31 -1 -55 -1c-129.333 -2.66699 -196 -6 -200 -10c-4.66699 -3.33301 -30.667 -5 -78 -5
c-3.33301 22 -7 67.833 -11 137.5s-6.66699 111.167 -8 124.5c-9.33301 88.667 -17 146.667 -23 174c-4 20.667 -4.33301 31.667 -1 33c4 2.66699 45 4.66699 123 6c122 3.33301 187 8.33301 195 15c3.33301 3.33301 9.5 3.33301 18.5 0s13.5 -7.33301 13.5 -12z" />
    <glyph glyph-name="F" unicode="F" horiz-adv-x="490" 
d="M32 522c16 2 41.499 3.00195 76.499 3.00195s67.5 -0.5 97.5 -1.5s69.833 -2.5 119.5 -4.5l100.5 -4c10 -0.666992 18.833 -4.33398 26.5 -11.001s10.167 -13 7.5 -19s-9.83398 -10.833 -21.501 -14.5s-19.167 -3.16699 -22.5 1.5c-2 2.66699 -23.167 5.5 -63.5 8.5
s-81.5 5.5 -123.5 7.5s-64.333 3.33301 -67 4c-18.667 2 -35.334 1.16699 -50.001 -2.5s-23.667 -9.5 -27 -17.5c-4 -10.667 -4.5 -43.167 -1.5 -97.5s7.16699 -101.5 12.5 -141.5l30 2c58.667 5.33301 99.667 8 123 8s38 -3.33301 44 -10c6 -6 8.83301 -9.66699 8.5 -11
s-4.5 -3.66602 -12.5 -6.99902c-15.333 -5.33301 -31 -8.33301 -47 -9c-90 -6.66699 -136.333 -11.334 -139 -14.001c-4.66699 -26 -4.33398 -121 0.999023 -285c-11.333 0.666992 -25.666 -0.333008 -42.999 -3c0.666992 18 0.666992 59.333 0 124s-1 100.667 -1 108
c0.666992 3.33301 0.833984 7.33301 0.500977 12s-1 9.66699 -2 15s-2.16699 10.333 -3.5 15s-2.66602 8.33398 -3.99902 11.001s-2.66602 3.66699 -3.99902 3c-4.66699 -2.66699 -9.33398 0.666016 -14.001 9.99902s-2.33398 17.333 6.99902 24
c6.66699 5.33301 10.334 12.666 11.001 21.999s-0.666016 38.333 -3.99902 87c-1.33301 22 -6.33301 84.333 -15 187z" />
    <glyph glyph-name="G" unicode="G" horiz-adv-x="560" 
d="M190 599c26 6 45.665 7.83691 58.998 5.50391s25 -9.5 35 -21.5c12 -14 16.667 -27 14 -39c-2.66699 -10.667 -5.33398 -17.334 -8.00098 -20.001s-5.83398 -2 -9.50098 2s-8.16699 12.333 -13.5 25c-8 17.333 -13.833 27.333 -17.5 30s-11.5 3 -23.5 1
c-17.333 -2.66699 -35.666 -14.167 -54.999 -34.5s-36.666 -45.5 -51.999 -75.5c-22 -46.667 -35.667 -81 -41 -103s-8 -57.667 -8 -107c-0.666992 -44 0 -72.333 2 -85s8 -29.667 18 -51c48.667 -104 132 -112.333 250 -25c44 32 62.667 63 56 93
c-3.33301 13.333 -20.166 34 -50.499 62s-54.166 45 -71.499 51c-19.333 6.66699 -28.333 13 -27 19c5.33301 8.66699 28.166 24 68.499 46s61.833 34 64.5 36c18 12 43.167 23.667 75.5 35s52.833 15.666 61.5 12.999c6 -2 9.83301 -7.5 11.5 -16.5
s2.16699 -31.5 1.5 -67.5c0 -42.667 -4.16699 -115.834 -12.5 -219.501s-14.166 -158.5 -17.499 -164.5c-2.66699 -3.33301 -8 -4.16602 -16 -2.49902s-13.333 4.83398 -16 9.50098c-2.66699 8 -2 41 2 99s9.33301 124 16 198s10.334 119 11.001 135
c-33.333 -8 -93.333 -36.333 -180 -85l-16 -13c23.333 -16 52 -39.333 86 -70c33.333 -32.667 49.5 -60.5 48.5 -83.5s-19.833 -51.5 -56.5 -85.5c-38 -34.667 -76.833 -58.667 -116.5 -72s-76.834 -14.333 -111.501 -3c-29.333 9.33301 -56.5 33.5 -81.5 72.5
s-37.833 76.5 -38.5 112.5c-2 18 -2.5 36.667 -1.5 56s1.5 34.666 1.5 45.999s1.66699 24 5 38l7.5 32c1.66699 7.33301 5 17 10 29l12 28l13.5 29.5l15 33.5c10.667 25.333 25.5 48.666 44.5 69.999s36.167 33.666 51.5 36.999z" />
    <glyph glyph-name="H" unicode="H" horiz-adv-x="434" 
d="M348 345c-15.333 0.666992 -86.6689 -2.66992 -214.002 -10.0029c-7.33301 0 -11.666 -4.16699 -12.999 -12.5s-1.66602 -32.5 -0.999023 -72.5c0.666992 -48.667 -1 -101.834 -5 -159.501s-8 -89.5 -12 -95.5c-3.33301 -6 -10 -6.33301 -20 -1
c-7.33301 4 -11.5 11.833 -12.5 23.5s-0.5 48.5 1.5 110.5c2.66699 99.333 4.33398 153.333 5.00098 162c0 8 0.166992 13.833 0.5 17.5s0.166016 7.16699 -0.500977 10.5s-1.5 5.33301 -2.5 6s-2.5 1 -4.5 1c-6.66699 -1.33301 -16 3.66699 -28 15
c-10.667 9.33301 -14.334 16.833 -11.001 22.5s13.333 8.83398 30 9.50098h22l3 77c3.33301 109.333 13 170 29 182c14.667 11.333 22 5.33301 22 -18l-2 -24c-13.333 -126.667 -18 -196 -14 -208c2 -8.66699 13 -11.667 33 -9c60 8.66699 124 12.667 192 12l2 118
c0.666992 102.667 3 159 7 169c6.66699 14 15 14.667 25 2c2.66699 0 5.33398 -49.167 8.00098 -147.5s5.16699 -197.5 7.5 -297.5s4.5 -151.333 6.5 -154c3.33301 -28 2.66602 -44.667 -2.00098 -50c-6 -7.33301 -13.167 -10.166 -21.5 -8.49902
s-14.166 6.83398 -17.499 15.501c-6 26.667 -10.333 131.334 -13 314.001z" />
    <glyph glyph-name="I" unicode="I" horiz-adv-x="570" 
d="M54 -138c7.33301 4.66699 12.001 7 14.001 7s6.66699 -2.33301 14 -7c-0.666992 -3.33301 -5.33398 -5.33301 -14.001 -6c-11.333 0 -17.333 0.666992 -18 2c0 0.666992 1.33301 2 4 4zM144.001 156c-4.66699 6 -5.33008 13 -1.99707 21c3.33301 6 6 6.33301 8 1
c1.33301 -2.66699 1.66602 -7.66699 0.999023 -15c-0.666992 -9.33301 -1.33398 -14 -2.00098 -14s-2.33398 2.33301 -5.00098 7zM347.005 599l-10.998 0.000976562c-16.667 0.666992 -27.5 -1.33301 -32.5 -6s-8.16699 -16.5 -9.5 -35.5s-1.66602 -54.167 -0.999023 -105.5
c0.666992 -15.333 1 -27.333 1 -36c1.33301 -128.667 0.666016 -208.667 -2.00098 -240c-3.33301 -42.667 -4 -64.667 -2 -66c34.667 0 71.667 0.666992 111 2c60.667 2 99 2.5 115 1.5s24 -4.83301 24 -11.5c0 -7.33301 -8.33301 -12.333 -25 -15s-55.334 -5 -116.001 -7
l-117 -4l3 -31c2.66699 -20 -0.666016 -32.333 -9.99902 -37c-13.333 -8 -22.666 -4.66699 -27.999 10s-7 33 -5 55l-40 -5c-44 -5.33301 -73.5 -8.33301 -88.5 -9s-23.167 0.666016 -24.5 3.99902c0 2.66699 5 6.5 15 11.5s13 10.833 9 17.5
c-2 6.66699 1.33301 11.834 10 15.501s15 2.5 19 -3.5c2.66699 -4 18.667 -5.33301 48 -4s46 4 50 8c8.66699 8.66699 13.667 106 15 292c1.33301 121.333 3 183.666 5 186.999s-0.666992 4.66602 -8 3.99902c-4 0 -9 -0.666992 -15 -2
c-12.667 -2.66699 -41.334 -6.5 -86.001 -11.5s-72.667 -8.5 -84 -10.5c-24 -3.33301 -36.333 -1.66602 -37 5.00098c0 4.66699 7 10 21 16c20 8.66699 49.667 15.667 89 21s83.666 9.83301 132.999 13.5s84.666 7.16699 105.999 10.5h4c1.33301 0 2.33301 -0.333008 3 -1
s1 -1.5 1 -2.5s-0.166992 -2.33301 -0.5 -4s-1 -3.5 -2 -5.5s-2.16699 -4.66699 -3.5 -8c-6 -8.66699 -17.333 -13 -34 -13z" />
    <glyph glyph-name="J" unicode="J" horiz-adv-x="580" 
d="M134 -8c0 -20.667 4.33496 -36.3301 13.002 -46.9971c6 -8 11.667 -12.167 17 -12.5s17.666 1.5 36.999 5.5c26 5.33301 47.333 15.666 64 30.999c12 12 19.333 22.5 22 31.5s5.33398 31.833 8.00098 68.5c8 114 8.5 215 1.5 303s-23.167 166.667 -48.5 236
c-93.333 -2 -148 -5.33301 -164 -10c-14 -4 -26.5 -6 -37.5 -6s-16.5 2 -16.5 6c0 7.33301 17.667 15 53 23s69.666 12 102.999 12c28.667 0 46.334 3.66699 53.001 11c5.33301 7.33301 13 9 23 5c1.33301 -2 49.166 -3.66699 143.499 -5s142.166 -3.33301 143.499 -6
c3.33301 -2.66699 1.33301 -7.66699 -6 -15c-6.66699 -6.66699 -49.667 -10.334 -129 -11.001c-79.333 0 -120.333 -3.33301 -123 -10c-1.33301 -4.66699 -0.333008 -9.33398 3 -14.001s4 -9.66699 2 -15c-3.33301 -6.66699 -1 -13.334 7 -20.001
c7.33301 -5.33301 15.333 -29.666 24 -72.999c8.66699 -46 13 -136.167 13 -270.5s-4.33301 -209.5 -13 -225.5c-19.333 -34.667 -45.333 -56.334 -78 -65.001c-15.333 -4 -37.666 -6.5 -66.999 -7.5s-48.666 0.166992 -57.999 3.5
c-8.66699 3.33301 -14.834 14.5 -18.501 33.5s-2.83398 35.5 2.49902 49.5c4 11.333 8 18.833 12 22.5s7.33301 2.83398 10 -2.49902s4 -14 4 -26z" />
    <glyph glyph-name="K" unicode="K" horiz-adv-x="450" 
d="M136 71c6.66699 0 10 -1.66797 10 -5.00098c0 -4.66699 -4.66699 -7.66699 -14 -9h-4c-6.66699 0.666992 -10 2.33398 -10 5.00098c0 4.66699 4.66699 7.66699 14 9h4zM149 577.999c-8 14.667 -7.99902 24.001 0.000976562 28.001c4.66699 0 7 -6.33301 7 -19
c0 -8 -0.666992 -12.333 -2 -13c-0.666992 -0.666992 -2.33398 0.666016 -5.00098 3.99902zM168.001 338c-0.666992 15.333 -2.5 24.333 -5.5 27s-8.16699 -0.333008 -15.5 -9c-12 -14 -9 -25.667 9 -35c5.33301 -3.33301 8.83301 -4 10.5 -2s2.16699 8.33301 1.5 19z
M58.001 640c1.33301 1.33301 2.33008 -8.65625 2.99707 -29.9893s1.16699 -47.5 1.5 -78.5s0.833008 -62 1.5 -93s1.33398 -57.167 2.00098 -78.5s1.33398 -31.333 2.00098 -30c4 -4 20.5 8.33301 49.5 37s44.5 47.667 46.5 57c2 5.33301 1.83301 23.333 -0.5 54
s-3.16602 47.667 -2.49902 51c3.33301 4 6.66602 0.666992 9.99902 -10c4 -10.667 5.66699 -22.334 5 -35.001c-1.33301 -18 0.666992 -31.667 6 -41c1.33301 -3.33301 2.66602 -5.5 3.99902 -6.5s3.5 -0.5 6.5 1.5s6.33301 5.16699 10 9.5l16.5 19.5
c46 58 69 93.667 69 107c0 8 3.66699 10.667 11 8c4.66699 -1.33301 7.33398 -1.33301 8.00098 0l-1 3c-1.33301 2 -1.16602 3.66699 0.500977 5s4.5 2 8.5 2c10 0 16.167 -5 18.5 -15s-0.5 -19.667 -8.5 -29l-20.5 -25c-9.66699 -12 -17.5 -21 -23.5 -27
c-5.33301 -6 -9.5 -17.5 -12.5 -34.5s-8.83301 -28.833 -17.5 -35.5c-12 -12 -18 -15 -18 -9c-0.666992 3.33301 2.83301 8.83301 10.5 16.5s10.5 13.167 8.5 16.5c-3.33301 3.33301 -14.666 -6 -33.999 -28c-31.333 -36 -39 -69.333 -23 -100
c6.66699 -12.667 11.334 -13.667 14.001 -3c2 7.33301 4.83301 12.166 8.5 14.499s7.16699 1.16602 10.5 -3.50098c2 -3.33301 3.66699 -14.333 5 -33c2 -19.333 9.66699 -34 23 -44s22.333 -15 27 -15c7.33301 0 23.666 -13.5 48.999 -40.5s44.666 -51.833 57.999 -74.5
c30.667 -49.333 37 -75.666 19 -78.999c-2 -0.666992 -4 -1 -6 -1c-8 0 -15.667 4.66699 -23 14s-14.166 20.166 -20.499 32.499s-11.166 20.166 -14.499 23.499l-22.5 34c-5 7.33301 -12.667 16.166 -23 26.499s-21.833 20.166 -34.5 29.499
c-19.333 13.333 -31.166 20.5 -35.499 21.5s-7.83301 -2.16699 -10.5 -9.5c-4 -9.33301 -6.33301 -11 -7 -5l-3 20c-0.666992 8 -4.33398 12.333 -11.001 13c-4.66699 0 -7 -2.66699 -7 -8c0 -6 2.66699 -14.5 8 -25.5s10.333 -18.167 15 -21.5c4 -4 4.33301 -23 1 -57
c-2.66699 -24.667 -4.83398 -39.667 -6.50098 -45s-5.5 -7.66602 -11.5 -6.99902c-6 1.33301 -10.167 4.66602 -12.5 9.99902s-3.83301 16.666 -4.5 33.999c-1.33301 16 -3.5 36.667 -6.5 62s-4.83301 43.666 -5.5 54.999c-0.666992 14 -11 28.667 -31 44
c-22 15.333 -35.333 23 -40 23c-11.333 0 -19.333 -10.5 -24 -31.5s-7.33398 -57.167 -8.00098 -108.5c0 -26.667 -0.5 -47.834 -1.5 -63.501s-2.5 -28.334 -4.5 -38.001s-4.5 -16 -7.5 -19s-6.83301 -3.83301 -11.5 -2.5c-4.66699 0.666992 -7.5 14.167 -8.5 40.5
s-1.5 98.166 -1.5 215.499c0 158.667 0.5 251.667 1.5 279s4.16699 43.333 9.5 48l2 2c7.33301 7.33301 12.333 11 15 11z" />
    <glyph glyph-name="L" unicode="L" 
d="M96 43c-13.333 1.33301 -24.165 3.33203 -32.498 5.99902s-15.833 7.83398 -22.5 15.501s-10 17.834 -10 30.501c-1.33301 11.333 -1.33301 89.166 0 233.499s2.66602 220.166 3.99902 227.499c1.33301 2.66699 6.5 3 15.5 1s14.833 -4.66699 17.5 -8
c2 -3.33301 3.66699 -80.666 5 -231.999c0 -148 3 -226 9 -234c10.667 -12.667 53 -6.66699 127 18c67.333 22.667 117 33 149 31c14 -0.666992 23.333 -2.16699 28 -4.5s7.66699 -6.5 9 -12.5c0.666992 -6.66699 -0.833008 -10.667 -4.5 -12s-14.834 -2 -33.501 -2
c-47.333 -1.33301 -86.333 -9 -117 -23c-11.333 -5.33301 -35.5 -12.5 -72.5 -21.5s-60.833 -13.5 -71.5 -13.5z" />
    <glyph glyph-name="M" unicode="M" horiz-adv-x="737" 
d="M40 188c-0.666992 -7.33301 -1.33301 -6.66699 -2 2l1 33l1 -4c1.33301 -10.667 1.33301 -21 0 -31zM661.001 92.999c0.666992 10 -5.16895 59.166 -17.502 147.499s-17.833 136.833 -16.5 145.5c-0.666992 10 -4.66699 10 -12 0c-6.66699 -8 -10 -16 -10 -24
c-0.666992 -10.667 -11.5 -24.834 -32.5 -42.501s-37.5 -26.5 -49.5 -26.5c-9.33301 0 -15 -1.66699 -17 -5c-4 -4 -24 -4.83301 -60 -2.5s-64 6.16602 -84 11.499c-46 13.333 -93.333 37.666 -142 72.999c-20 14.667 -37.833 30.334 -53.5 47.001
s-35.167 40.334 -58.5 71.001c-20.667 27.333 -30 36.333 -28 27c6 -24 11.833 -104 17.5 -240s6.16699 -208.333 1.5 -217c-1.33301 -2 -3.16602 -3.5 -5.49902 -4.5s-5.33301 -1.33301 -9 -1s-7 0.833008 -10 1.5s-6.5 1.5 -10.5 2.5s-6.66699 1.5 -8 1.5
c0 100.667 -2.33301 163 -7 187c-8 44.667 -13.667 112.334 -17 203.001s-2 139.667 4 147c4.66699 6 9.5 9.16699 14.5 9.5s10.833 -2.33398 17.5 -8.00098s12.667 -11.5 18 -17.5l15.5 -18c5 -6 8.5 -9.66699 10.5 -11c1.33301 -1.33301 18.333 -22.333 51 -63
s54 -64.667 64 -72c14.667 -11.333 27.334 -22 38.001 -32c11.333 -11.333 33.166 -23.333 65.499 -36s61.833 -21 88.5 -25c54.667 -8.66699 94.834 -3.16699 120.501 16.5s44.167 59.167 55.5 118.5c5.33301 30 10.833 50.833 16.5 62.5s12.167 16.834 19.5 15.501
c16 -3.33301 26.667 -41 32 -113c2 -34 7 -75.667 15 -125c23.333 -155.333 32.666 -239 27.999 -251c-3.33301 -6.66699 -9.66602 -9.66699 -18.999 -9s-16 4.66699 -20 12c-4 10.667 -6 25.334 -6 44.001z" />
    <glyph glyph-name="N" unicode="N" horiz-adv-x="558" 
d="M61 557c8 0 13.332 -1.00195 15.999 -3.00195s4 -6 4 -12c0 -22.667 9.33301 -59.667 28 -111s35.334 -85.666 50.001 -102.999c8 -8 17.667 -22.333 29 -43c11.333 -19.333 32.333 -44.833 63 -76.5s53 -50.5 67 -56.5c5.33301 -2 9.5 -4 12.5 -6
s5.16699 -3.83301 6.5 -5.5s3 -3 5 -4s5.16699 -1.83301 9.5 -2.5s10.5 -1 18.5 -1c15.333 0 26.5 1.83301 33.5 5.5s17.833 13.5 32.5 29.5c34 32.667 52 75 54 127s-9.66699 105.667 -35 161c-18 40.667 -27 68.667 -27 84c-0.666992 8 6.66602 11 21.999 9
c9.33301 -1.33301 13.666 -3.66602 12.999 -6.99902c0 -2 -3 -4 -9 -6c-5.33301 0 -5.33301 -1.66699 0 -5c6 -4 16.333 -24.167 31 -60.5s24 -64.5 28 -84.5c1.33301 -4.66699 3.83301 -12 7.5 -22s6 -17.5 7 -22.5s1.5 -13.167 1.5 -24.5s-1.33301 -24.333 -4 -39
c-2.66699 -25.333 -6.16699 -43.333 -10.5 -54s-14.166 -26 -29.499 -46c-40 -52.667 -78 -79 -114 -79c-40 0 -84.5 22 -133.5 66s-91.833 100.667 -128.5 170l-35 66c-3.33301 -74 3 -229.333 19 -466l-2 -1c-1.33301 -0.666992 -2.66602 -1.16699 -3.99902 -1.5
s-3 -0.833008 -5 -1.5l-6 -2c-10 -3.33301 -17 2 -21 16c-6.66699 22 -13.667 117.333 -21 286c-3.33301 49.333 -4.5 109.5 -3.5 180.5s3.16699 117.833 6.5 140.5c1.33301 3.33301 9.33301 5 24 5z" />
    <glyph glyph-name="O" unicode="O" 
d="M64 353c0 -43.333 9.66699 -104.332 29 -182.999c10.667 -44 29.334 -78.833 56.001 -104.5s55.834 -37.834 87.501 -36.501s59.5 16.666 83.5 45.999c22 26.667 32.667 57 32 91s-12.667 67.667 -36 101c-70 102.667 -115.167 167.167 -135.5 193.5
s-37.5 42.833 -51.5 49.5c-7.33301 3.33301 -12.333 6.83301 -15 10.5s-2.66699 6.83398 0 9.50098s8 4.33398 16 5.00098c5.33301 2.66699 13 0.333984 23 -6.99902s19.833 -15.833 29.5 -25.5s15.834 -14.834 18.501 -15.501c5.33301 -2 16.166 -14 32.499 -36
s26.833 -39.333 31.5 -52c5.33301 -12 11.666 -20.833 18.999 -26.5s14.333 -14.167 21 -25.5c4.66699 -8 14.167 -21.167 28.5 -39.5s24.166 -34.5 29.499 -48.5c8.66699 -22 16 -37.667 22 -47c6 -10.667 9.16699 -19.334 9.5 -26.001s-2.16699 -22 -7.5 -46
c-6 -30 -13.333 -52 -22 -66s-24.667 -29 -48 -45c-15.333 -11.333 -27.333 -18.166 -36 -20.499s-25.334 -3.5 -50.001 -3.5c-24 0 -40.5 1.16699 -49.5 3.5s-21.167 8.83301 -36.5 19.5c-17.333 12 -34 27.667 -50 47s-24 33.333 -24 42c0 6.66699 -2.33301 14 -7 22
c-8 14.667 -15.5 42.5 -22.5 83.5s-10.833 79.5 -11.5 115.5c-0.666992 40.667 2.83301 84.5 10.5 131.5s16.834 82.167 27.501 105.5c6 13.333 10.333 20.666 13 21.999s8.66699 -0.333984 18 -5.00098c6 -3.33301 9 -6.66602 9 -9.99902s-3 -12.333 -9 -27
c-8 -18.667 -15.833 -50 -23.5 -94s-11.5 -80 -11.5 -108z" />
    <glyph glyph-name="P" unicode="P" horiz-adv-x="456" 
d="M261 533c-8.66699 5.33301 -24.1729 11.501 -46.5059 18.501s-49.666 14.667 -81.999 23s-49.166 12.833 -50.499 13.5c-6.66699 2 -10.667 -0.333008 -12 -7c-2 -9.33301 -2.66699 -50.333 -2 -123c2 -160 8 -248 18 -264c5.33301 -8 25.333 -10.833 60 -8.5
s65.334 8.16602 92.001 17.499c26 10 42.5 17 49.5 21s20.167 14.333 39.5 31c26.667 23.333 44.334 51.333 53.001 84s6.33398 63.334 -6.99902 92.001c-8.66699 17.333 -24.167 36.166 -46.5 56.499s-44.166 35.5 -65.499 45.5zM71.9941 624.001
c0 -2.66699 1.83594 -5.49805 5.50293 -8.49805s8.16699 -4.83301 13.5 -5.5c52 -9.33301 104.667 -24.5 158 -45.5s80 -37.5 80 -49.5c0.666992 -3.33301 6 -5.83301 16 -7.5s15.333 -4.83398 16 -9.50098c4 -8.66699 11.667 -19 23 -31
c16.667 -17.333 29.167 -42.166 37.5 -74.499s7.16602 -51.833 -3.50098 -58.5c-4.66699 -3.33301 -6.33398 -6.66602 -5.00098 -9.99902c0.666992 -5.33301 -1 -13 -5 -23s-7.33301 -15 -10 -15c-4.66699 0 -7 -2.66699 -7 -8c0 -4 -10.667 -16.667 -32 -38
c-32 -28.667 -71 -50.667 -117 -66c-21.333 -6.66699 -34.333 -12.667 -39 -18c-5.33301 -4.66699 -20.166 -6.66699 -44.499 -6s-44.5 3.33398 -60.5 8.00098c-4 1.33301 -6.83301 1.16602 -8.5 -0.500977s-2.83398 -7 -3.50098 -16s-0.5 -20.667 0.5 -35l4.5 -65.5
c3.33301 -46 0.666016 -69.333 -8.00098 -70c-2.66699 -0.666992 -6.33398 0.333008 -11.001 3c-6 0 -11.167 14.5 -15.5 43.5s-7.83301 61 -10.5 96s-4.33398 54.5 -5.00098 58.5c-2.66699 22.667 -5.66699 91 -9 205c-2 83.333 -2.5 133.166 -1.5 149.499
s5.16699 28.166 12.5 35.499c10 10 11.667 16 5 18c-3.33301 1.33301 -5.66602 8.66602 -6.99902 21.999s-0.666016 23.333 2.00098 30c1.33301 3.33301 6.5 3.83301 15.5 1.5s13.5 -5.5 13.5 -9.5z" />
    <glyph glyph-name="Q" unicode="Q" horiz-adv-x="446" 
d="M147 536c-15.333 0 -34.667 -47.334 -58 -142.001c-10.667 -42.667 -16.334 -96.5 -17.001 -161.5s3.66602 -111.833 12.999 -140.5c23.333 -70 69.333 -105.667 138 -107c24.667 -1.33301 40.334 0.666992 47.001 6c3.33301 4 2.83301 16.333 -1.5 37
s-9.5 35.334 -15.5 44.001c-7.33301 9.33301 -14 23.833 -20 43.5s-7.66699 30.834 -5 33.501c12 12 29.667 -5.33301 53 -52c8.66699 -16.667 17 -36.334 25 -59.001l8 -23l17 16c31.333 28.667 46 65 44 109c-1.33301 28 -5.16602 52.5 -11.499 73.5
s-18.5 49.833 -36.5 86.5c-54.667 112 -99.667 182 -135 210c-22 17.333 -37 26 -45 26zM277.999 457.999c0 -8 1.66797 -12.002 5.00098 -12.002c4 -1.33301 11.167 -12.833 21.5 -34.5s16.5 -33.5 18.5 -35.5c8 -10 22.667 -36 44 -78s34.666 -70.667 39.999 -86
c7.33301 -22 10 -49.833 8 -83.5s-7.66699 -55.834 -17 -66.501c-4 -4 -10.167 -13.167 -18.5 -27.5s-14.166 -23.166 -17.499 -26.499c-3.33301 -0.666992 -15.666 -9 -36.999 -25c25.333 -80 40 -123.667 44 -131c6 -6.66699 7.66699 -12.334 5 -17.001
s-8.66699 -6.66699 -18 -6c-8 -2 -16.833 4 -26.5 18s-15.167 25 -16.5 33c-4 18 -12 44 -24 78c-10 -0.666992 -22.333 -1.66699 -37 -3s-24.5 -2 -29.5 -2s-12.5 0.666992 -22.5 2s-20 4.33301 -30 9s-22.667 11.334 -38 20.001c-40.667 20.667 -70.334 66 -89.001 136
c-17.333 64 -17 144.333 1 241s43.333 169.667 76 219c8 12 18.667 17.667 32 17c8 -1.33301 12.833 -3.16602 14.5 -5.49902s2.16699 -8.16602 1.5 -17.499s0.166016 -15.833 2.49902 -19.5s7.83301 -7.16699 16.5 -10.5c14 -6 32.667 -20 56 -42s35 -36.667 35 -44z" />
    <glyph glyph-name="R" unicode="R" horiz-adv-x="479" 
d="M74 288l-0.00195312 -94.999c30.667 29.333 71.334 61 122.001 95c82.667 53.333 134.667 100.666 156 141.999c6.66699 14 11 30.667 13 50s1 34.666 -3 45.999c-2.66699 7.33301 -14.334 18 -35.001 32s-39.667 24 -57 30
c-25.333 8.66699 -57.666 13.334 -96.999 14.001s-62.333 -3.33301 -69 -12c-5.33301 -6.66699 -11.666 -46 -18.999 -118s-11 -133.333 -11 -184zM61.998 625.001c107.333 0 172.333 -3.33008 195 -9.99707l29 -8l25 -7c4.66699 -1.33301 10.834 -3.83301 18.501 -7.5
s14.667 -8 21 -13s13.5 -11.5 21.5 -19.5c17.333 -16.667 27.666 -28.167 30.999 -34.5s5 -19.5 5 -39.5c0 -26.667 -2 -40 -6 -40c-5.33301 0 -9.33301 -7.33301 -12 -22c-3.33301 -11.333 -12.666 -27 -27.999 -47s-27.666 -32.333 -36.999 -37
c-6.66699 -4.66699 -23.334 -18 -50.001 -40s-46 -36.333 -58 -43c-2 -2 -17 -13 -45 -33c-34 -24.667 -54.5 -41.334 -61.5 -50.001s-11.5 -23 -13.5 -43c-1.33301 -18.667 -1.33301 -30.334 0 -35.001s7.33301 -9.33398 18 -14.001c16 -8 64.333 -18.667 145 -32
c69.333 -11.333 118.166 -22 146.499 -32s42.5 -21.667 42.5 -35c0 -20 -15 -30 -45 -30c-16 0 -17.667 6 -5 18c7.33301 6.66699 10.333 10.334 9 11.001c0 11.333 -68 26 -204 44c-36 5.33301 -61.667 10.166 -77 14.499s-30.333 11.833 -45 22.5
c-2.66699 -83.333 -6.66699 -126.333 -12 -129c-9.33301 -1.33301 -22.666 6.66699 -39.999 24c0 256 2 395.333 6 418c4.66699 7.33301 9 55 13 143c3.33301 54.667 7.66602 90 12.999 106z" />
    <glyph glyph-name="S" unicode="S" horiz-adv-x="483" 
d="M369 390c-6.66699 0 -13.9951 13.333 -21.9951 40c-8.66699 26.667 -17 45.167 -25 55.5s-22 21.166 -42 32.499c-20.667 11.333 -45.834 18.833 -75.501 22.5s-54.167 2.16699 -73.5 -4.5c-16 -4.66699 -32 -13.834 -48 -27.501s-26.667 -27.5 -32 -41.5
c-5.33301 -13.333 -4 -29 4 -47c5.33301 -10.667 13.166 -19.667 23.499 -27s31.5 -19.666 63.5 -36.999c105.333 -55.333 183.166 -107 233.499 -155s76.166 -95.333 77.499 -142c0.666992 -24 -5 -45 -17 -63s-25.167 -30.167 -39.5 -36.5s-39.166 -10.5 -74.499 -12.5
c-28 -1.33301 -46.667 -1.16602 -56 0.500977s-22.666 7.83398 -39.999 18.501c-24.667 14.667 -38.667 22 -42 22c-5.33301 0 -15 13.5 -29 40.5s-19.333 42.167 -16 45.5c8.66699 8.66699 15 4.33398 19 -12.999c3.33301 -12 15.5 -27.333 36.5 -46s39.167 -30 54.5 -34
c21.333 -6 44.166 -8.16699 68.499 -6.5s44.166 6.16699 59.499 13.5c23.333 11.333 38.5 30 45.5 56s3.83301 51.333 -9.5 76c-7.33301 14 -23.666 34.167 -48.999 60.5s-44.666 43.166 -57.999 50.499c-2.66699 1.33301 -16.834 9.83301 -42.501 25.5
s-49.5 29.5 -71.5 41.5s-37.667 19.333 -47 22c-20 6.66699 -41 18.5 -63 35.5s-36 32.167 -42 45.5c-6.66699 14.667 -10 32.667 -10 54c0 13.333 1.66699 23.666 5 30.999s11.333 18 24 32c15.333 17.333 29.166 29.5 41.499 36.5s29.5 12.5 51.5 16.5
c51.333 8.66699 97.166 0.166992 137.499 -25.5s65.833 -62.5 76.5 -110.5c0.666992 -3.33301 2 -9 4 -17s3.33301 -13 4 -15c2 -8.66699 0.333008 -13 -5 -13z" />
    <glyph glyph-name="T" unicode="T" horiz-adv-x="588" 
d="M252 458c0 4.66699 2.66699 7.33301 8 8s11 -1 17 -5c6.66699 -4 17.5 -48.5 32.5 -133.5s24.833 -158.167 29.5 -219.5c2 -29.333 2.66699 -47.833 2 -55.5s-3.66699 -12.5 -9 -14.5s-9.83301 -2 -13.5 0s-6.83398 7 -9.50098 15s-4.66699 18.667 -6 32
s-2.66602 31 -3.99902 53c-4.66699 102.667 -16.667 192.667 -36 270c-7.33301 28 -11 44.667 -11 50zM351 511.999c126.667 0 194.667 -3.66699 204 -11c4.66699 -4 2.66699 -10 -6 -18c-4.66699 -4.66699 -36.167 -7.66699 -94.5 -9s-189.833 -1.33301 -394.5 0
c-20 0 -30 3.33301 -30 10c0 4 0.666992 6.83301 2 8.5s4.83301 3.5 10.5 5.5s12.667 3.5 21 4.5s21.5 2.16699 39.5 3.5c41.333 4 124 6 248 6z" />
    <glyph glyph-name="U" unicode="U" horiz-adv-x="818" 
d="M761 66c-6 1.33301 -5.33203 2.33398 2.00098 3.00098c17.333 1.33301 25.666 0.666016 24.999 -2.00098l-3 -1c-8.66699 -1.33301 -16.667 -1.33301 -24 0zM220.001 99.001c5.33301 0 8.83105 1.83496 10.498 5.50195s0.166992 7.16699 -4.5 10.5l-2 1
c0.666992 0 2 -0.333008 4 -1c4.66699 -0.666992 12.834 5 24.501 17s19.834 23 24.501 33c4 10.667 6 65.334 6 164.001c0 64.667 0.666992 106.667 2 126s4.66602 31.666 9.99902 36.999c8 8 14 10.333 18 7c4.66699 -2.66699 8.66699 -51 12 -145
c9.33301 -250 19 -376.333 29 -379c6 -1.33301 9 -6.33301 9 -15s-5 -14.5 -15 -17.5s-18 -1.5 -24 4.5c-7.33301 8 -13.666 33.167 -18.999 75.5s-7 78.166 -5 107.499c-40 -56.667 -85.333 -88.334 -136 -95.001c-18.667 -3.33301 -30.834 -4.5 -36.501 -3.5
s-14.5 6.16699 -26.5 15.5c-16 12 -29 29 -39 51c-18.667 42 -29.167 115.333 -31.5 220s4.83398 178 21.501 220c8 19.333 15.333 23.666 22 12.999c3.33301 -3.33301 1 -20.333 -7 -51c-8 -28 -10.667 -83 -8 -165c2 -77.333 6 -131.666 12 -162.999
c4 -22 11.333 -42.833 22 -62.5s21.334 -32.167 32.001 -37.5c9.33301 -5.33301 22.166 -6.5 38.499 -3.5s27.833 8.5 34.5 16.5c6.66699 9.33301 14 14 22 14z" />
    <glyph glyph-name="V" unicode="V" horiz-adv-x="418" 
d="M369 460l19.001 0.00488281c-48.667 -86.667 -90.334 -218.667 -125.001 -396c-5.33301 -30.667 -9.5 -49.334 -12.5 -56.001s-8.5 -10.667 -16.5 -12c-7.33301 -1.33301 -13.333 0.666992 -18 6s-11.667 18.666 -21 39.999c-8.66699 17.333 -15.167 33.166 -19.5 47.499
s-8.83301 26.166 -13.5 35.499c-18.667 33.333 -46.5 111.5 -83.5 234.5s-52.833 189.167 -47.5 198.5s13.666 1.33301 24.999 -24c9.33301 -22.667 25 -67.334 47 -134.001c72.667 -214 112.667 -316.667 120 -308l17.5 70.5c8.33301 33.667 15.833 62 22.5 85
s14.334 46.167 23.001 69.5c19.333 57.333 34.5 95.5 45.5 114.5s23.5 28.5 37.5 28.5z" />
    <glyph glyph-name="W" unicode="W" horiz-adv-x="529" 
d="M309 262c0 -4.66699 3.33008 -10.332 9.99707 -16.999c7.33301 -10.667 26.333 -44.167 57 -100.5s51 -90.833 61 -103.5c10.667 35.333 18 90.666 22 165.999c2.66699 53.333 2 96.833 -2 130.5s-13 70.167 -27 109.5c-12 34.667 -19 60.334 -21 77.001
c-2 14 -2.33301 23.167 -1 27.5s5 7.16602 11 8.49902c10 3.33301 19.667 2.16602 29 -3.50098s14.333 -13.167 15 -22.5c2.66699 -58.667 9.33398 -103 20.001 -133c7.33301 -22 11.833 -42.667 13.5 -62s2.5 -57.666 2.5 -114.999c0.666992 -55.333 0 -93.333 -2 -114
s-6.33301 -42.334 -13 -65.001c-10.667 -34 -18 -52.333 -22 -55c-7.33301 -4.66699 -16.666 -4 -27.999 2s-20.666 15.333 -27.999 28c-10.667 18 -18 27.667 -22 29c-3.33301 1.33301 -5 4 -5 8c0 1.33301 -6.66699 13.333 -20 36c-10.667 16 -32 56.167 -64 120.5
s-54.667 111.833 -68 142.5c-8 20 -14 30 -18 30l-4 -3c-22 -103.333 -37.333 -206.333 -46 -309c-2.66699 -31.333 -5.16699 -50.166 -7.5 -56.499s-8.5 -9.5 -18.5 -9.5c-7.33301 0 -12.5 2.66699 -15.5 8s-7.16699 18.666 -12.5 39.999c-8 38 -25.333 141.333 -52 310
c-19.333 122.667 -26.666 201 -21.999 235c1.33301 3.33301 5.66602 4.33301 12.999 3c6 -0.666992 10.333 -7.16699 13 -19.5s6.66699 -41.166 12 -86.499c3.33301 -26 10.5 -69 21.5 -129s18.167 -101 21.5 -123c6.66699 -42 12 -63.333 16 -64c2.66699 0 6 11.333 10 34
l5 36c16.667 108 33 168.667 49 182c10.667 9.33301 19.167 12.833 25.5 10.5s13.5 -11.5 21.5 -27.5c46.667 -97.333 70 -149 70 -155z" />
    <glyph glyph-name="X" unicode="X" horiz-adv-x="790" 
d="M750 390c-4.66699 0 -7.83398 1.16699 -9.50098 3.5s-1.66699 4.66602 0 6.99902s4.83398 3.5 9.50098 3.5c4 0 6.83301 -1.16699 8.5 -3.5s1.66699 -4.66602 0 -6.99902s-4.5 -3.5 -8.5 -3.5zM232 134c-1.33301 1.33301 2.16699 7.50293 10.5 18.5029l24.5 33
c8 11 11.333 16.833 10 17.5c-0.666992 0.666992 -0.833984 1.5 -0.500977 2.5s2.33301 4 6 9s8 10.5 13 16.5l20.5 25c2.66699 4 5.33398 9.16699 8.00098 15.5s7 12.5 13 18.5l14 15l-20 35c-28.667 49.333 -49.5 102.666 -62.5 159.999s-12.167 93.333 2.5 108
c15.333 14.667 24.666 9.66699 27.999 -15c0.666992 -8 1 -18.333 1 -31c0 -25.333 2.33301 -46.833 7 -64.5s14.334 -42.834 29.001 -75.501c8.66699 -21.333 17.334 -40.333 26.001 -57c8 -15.333 13.333 -23 16 -23c4 0 10.833 6.16699 20.5 18.5
s15.834 22.833 18.501 31.5c6 13.333 19.833 34 41.5 62s33.167 43 34.5 45c14 18.667 24.333 30.667 31 36s14 8 22 8c8.66699 0 13.667 -3.5 15 -10.5s-1.33398 -14.5 -8.00098 -22.5c-30.667 -34 -81.667 -105 -153 -213l21 -37l17.5 -31
c3.66699 -6.66699 8.66699 -17 15 -31s13.5 -31 21.5 -51c18 -44 30 -66 36 -66c5.33301 0 9 -4.16699 11 -12.5s1.66699 -18.166 -1 -29.499c0.666992 -7.33301 -2.83301 -12.5 -10.5 -15.5s-15.834 -3.16699 -24.501 -0.5s-13.667 6.66699 -15 12
c-11.333 34 -29.333 78.5 -54 133.5s-39.334 82.5 -44.001 82.5c-5.33301 0 -37.333 -41.667 -96 -125c-17.333 -24.667 -26.666 -43 -27.999 -55c-0.666992 -12.667 -1.5 -20.334 -2.5 -23.001s-4.5 -5.33398 -10.5 -8.00098c-7.33301 -2.66699 -15.5 -1 -24.5 5
s-13.5 12.667 -13.5 20c0 8.66699 2.83301 19.5 8.5 32.5s11.167 21.167 16.5 24.5c6 3.33301 9 7.33301 9 12zM33 642.003c-5.33301 1.33301 -4.66602 2.33398 2.00098 3.00098c17.333 2 25.666 1.66699 24.999 -1c0 -0.666992 -1 -1.33398 -3 -2.00098
c-8.66699 -1.33301 -16.667 -1.33301 -24 0z" />
    <glyph glyph-name="Y" unicode="Y" horiz-adv-x="605" 
d="M490 344c0 10 2.66797 19.3311 8.00098 27.998c7.33301 14 17.333 60.667 30 140c7.33301 46 12.5 74.167 15.5 84.5s7.16699 15.5 12.5 15.5c19.333 0 24 -30.333 14 -91l-105 -612c-2 -13.333 -6.33301 -22.833 -13 -28.5s-13 -5.5 -19 0.5c-4 4 -1.33301 37.333 8 100
c14 94 19.667 141 17 141c-2.66699 -5.33301 -8.16699 -8.33301 -16.5 -9s-14.166 1.33301 -17.499 6c-4 6.66699 -22.667 75 -56 205c-38.667 152.667 -67 239 -85 259c-16 17.333 -19.667 30.333 -11 39c4.66699 4.66699 12.5 2.33398 23.5 -6.99902
s19.833 -21.333 26.5 -36s16.5 -40.667 29.5 -78s20.833 -62.666 23.5 -75.999c8.66699 -36 18.167 -73 28.5 -111s19.166 -68.833 26.499 -92.5s11.333 -34.834 12 -33.501c3.33301 4 12.166 29.333 26.499 76s21.5 73.334 21.5 80.001zM33.001 641.998
c-6 2 -5.00098 3.33301 2.99902 4c12.667 0.666992 19.334 0 20.001 -2l-2 -2c-6.66699 -1.33301 -13.667 -1.33301 -21 0z" />
    <glyph glyph-name="Z" unicode="Z" horiz-adv-x="494" 
d="M242 236c0 -3.33301 8.99707 -5.00098 26.9971 -5.00098c25.333 0 43.333 -1.83301 54 -5.5s15.667 -9.83398 15 -18.501c-0.666992 -10 -6 -14.333 -16 -13c-36 3.33301 -61.167 4.83301 -75.5 4.5s-23.833 -1.16602 -28.5 -2.49902s-9.33398 -7.33301 -14.001 -18
s-10 -20 -16 -28c-24 -26.667 -36 -47 -36 -61c0 -8.66699 -5.66699 -22 -17 -40c-0.666992 -1.33301 -2 -3.66602 -4 -6.99902c-10 -18.667 -13 -29.667 -9 -33c6 -5.33301 38 -7.33301 96 -6c10 0.666992 17.667 1 23 1c84 2 142 0.833008 174 -3.5
s48.333 -13.166 49 -26.499c-10.667 -2 -61.834 -3.66699 -153.501 -5s-142.167 -2.66602 -151.5 -3.99902c-55.333 -4 -83 3.66699 -83 23c0 10 8 34.667 24 74s28.333 64.666 37 75.999c6 8 12.333 19.333 19 34s15 27.334 25 38.001c-10 4.66699 -29.667 12 -59 22
s-49.333 17.667 -60 23c-6.66699 5.33301 -13.667 9.33301 -21 12c-9.33301 3.33301 -8 5 4 5c28.667 0 60.667 -4.33301 96 -13c38 -8.66699 59.333 -10.667 64 -6c7.33301 7.33301 31.333 47.666 72 120.999s60.334 111.333 59.001 114c-2 3.33301 -11.667 3 -29 -1
c-165.333 -38.667 -255.666 -53 -270.999 -43c-6.66699 4 -8 11.167 -4 21.5s10.667 16.166 20 17.499c12 1.33301 18.333 1 19 -1c4.66699 -4 18.667 -5 42 -3s37.333 5.66699 42 11c2.66699 4 10.334 7.16699 23.001 9.5s20.334 4.83301 23.001 7.5
c8 2.66699 30.333 5.5 67 8.5s59.334 6.16699 68.001 9.5c34.667 12 56.334 12.667 65.001 2c5.33301 -5.33301 1.66602 -17.333 -11.001 -36c-18.667 -29.333 -48 -78.5 -88 -147.5s-60 -104.833 -60 -107.5z" />
    <glyph glyph-name="underscore" unicode="_" horiz-adv-x="494" 
d="M249 -48c33.333 3.33301 72.501 5.49902 117.501 6.49902s72.5 0.166992 82.5 -2.5c10.667 -3.33301 15.334 -8.66602 14.001 -15.999c-1.33301 -5.33301 -8.83301 -8.66602 -22.5 -9.99902s-45.5 -2.33301 -95.5 -3c-124.667 -0.666992 -213.334 -12 -266.001 -34
c-32.667 -12.667 -49.334 -15.334 -50.001 -8.00098c0 5.33301 11.333 13 34 23c49.333 22 111.333 36.667 186 44z" />
    <glyph glyph-name="grave" unicode="`" horiz-adv-x="135" 
d="M54 453c5.33301 0 13.002 -5.66699 23.002 -17s17 -22.666 21 -33.999c5.33301 -14 7.83301 -29.667 7.5 -47s-3.5 -27 -9.5 -29c-6.66699 -2.66699 -11.334 -2.33398 -14.001 0.999023s-4 10 -4 20c0 12 -4 26.5 -12 43.5s-16.333 28.833 -25 35.5
c-18.667 10.667 -14.334 19.667 12.999 27z" />
    <glyph glyph-name="a" unicode="a" horiz-adv-x="378" 
d="M57 107c0 -10.667 6.33691 -18.332 19.0039 -22.999s38.5 -5.83398 77.5 -3.50098s76.833 7.16602 113.5 14.499c50 10.667 73.333 12.667 70 6c-0.666992 -2.66699 -6.33398 -6.33398 -17.001 -11.001c-21.333 -9.33301 -56 -18.333 -104 -27
s-82.667 -12.334 -104 -11.001c-81.333 6.66699 -102 37.667 -62 93c23.333 31.333 58.166 53.333 104.499 66s84.5 10.667 114.5 -6c21.333 -12 34.5 -16.833 39.5 -14.5s6.16699 14.5 3.5 36.5c-6.66699 54.667 -27.334 89.334 -62.001 104.001
c-24.667 9.33301 -55.834 12.333 -93.501 9s-63.5 -11.666 -77.5 -24.999c-19.333 -18 -33.666 -26 -42.999 -24c-8.66699 2 -4.66699 11.333 12 28c20.667 20.667 52.667 33.667 96 39c29.333 4 57.833 4.33301 85.5 1s44.167 -8.66602 49.5 -15.999
c2 -2.66699 7.33301 -6 16 -10c6.66699 -2 17.334 -17.667 32.001 -47c10 -20 16 -35.333 18 -46s2.66699 -29.667 2 -57c-0.666992 -26 -1.83398 -42.5 -3.50098 -49.5s-5.16699 -11.167 -10.5 -12.5c-8.66699 -1.33301 -21 7 -37 25c-14 18 -32 32 -54 42
c-42 19.333 -88.667 10.666 -140 -26.001c-20.667 -15.333 -33.334 -25.666 -38.001 -30.999s-7 -13.333 -7 -24z" />
    <glyph glyph-name="b" unicode="b" horiz-adv-x="432" 
d="M68 378c6 -22 15.335 -48.6719 28.002 -80.0049s20.667 -55 24 -71l7 -18l17 20c24.667 29.333 59.167 44 103.5 44s79.833 -14.667 106.5 -44c8.66699 -10 18 -25.167 28 -45.5s16.333 -38.166 19 -53.499c2.66699 -13.333 -2 -29.5 -14 -48.5
s-25.667 -32.167 -41 -39.5c-2 -0.666992 -8.33301 -3.5 -19 -8.5s-18 -8.83301 -22 -11.5c-11.333 -5.33301 -33.833 -8.33301 -67.5 -9s-64.167 1.33301 -91.5 6c-20.667 3.33301 -33.334 4.33301 -38.001 3c-2 0 -4.16699 1.66699 -6.5 5s-4.33301 7.83301 -6 13.5
s-2.5 10.834 -2.5 15.501c-0.666992 4 1.33301 5 6 3c2.66699 -1.33301 6.33398 -3.66602 11.001 -6.99902c13.333 -8 46.333 -12 99 -12c34 0 57.667 1 71 3s26.333 6.33301 39 13c20.667 9.33301 35.667 21.333 45 36s12.666 30 9.99902 46s-8.66699 31.667 -18 47
s-21.333 29 -36 41c-23.333 18.667 -48.833 27.834 -76.5 27.501s-51.167 -10.166 -70.5 -29.499c-8 -8 -13.5 -16.333 -16.5 -25s-5.16699 -22 -6.5 -40c-2 -28 -1 -47 3 -57c5.33301 -9.33301 6.33301 -18.166 3 -26.499s-9.33301 -11.833 -18 -10.5
c-10 0.666992 -16.667 10.667 -20 30c-14.667 75.333 -35 145.333 -61 210c-10.667 26.667 -18.5 52.667 -23.5 78s-5.5 42.666 -1.5 51.999c5.33301 14.667 13.666 6.66699 24.999 -24c3.33301 -8.66699 7 -19.667 11 -33z" />
    <glyph glyph-name="c" unicode="c" horiz-adv-x="413" 
d="M94 373c16.667 7.33301 36.6719 9.83594 60.0049 7.50293s40.666 -8.5 51.999 -18.5c16 -15.333 18.333 -23 7 -23c-6.66699 -0.666992 -16.667 2.33301 -30 9c-38.667 20 -70.667 19.5 -96 -1.5s-34.333 -54.5 -27 -100.5c8.66699 -57.333 30.667 -105.166 66 -143.499
s78 -59.833 128 -64.5c21.333 -2 39.666 -0.333008 54.999 5s31.666 15.666 48.999 30.999c3.33301 3.33301 6.83301 6.16602 10.5 8.49902s6.5 4 8.5 5s3.33301 1.16699 4 0.5c2.66699 -2.66699 1.16699 -7.66699 -4.5 -15s-13.834 -15.333 -24.501 -24
s-21.667 -16 -33 -22c-44.667 -24 -98 -21.333 -160 8c-56.667 27.333 -95.667 77.333 -117 150c-13.333 45.333 -15.333 84.666 -6 117.999s28.666 56.666 57.999 69.999z" />
    <glyph glyph-name="d" unicode="d" horiz-adv-x="442" 
d="M61 203c-2.66699 -0.666992 -3.49805 -8.83594 -2.49805 -24.5029s3.16699 -32.5 6.5 -50.5c4 -22 22.667 -40.167 56 -54.5s64 -17.833 92 -10.5c22 6 45.167 17.833 69.5 35.5s38.833 33.5 43.5 47.5c8 24 -2 67.333 -30 130c-4.66699 8 -7.83398 15.167 -9.50098 21.5
s-3.33398 11.333 -5.00098 15s-5.16699 7.83398 -10.5 12.501c-6.66699 4.66699 -19 7.33398 -37 8.00098s-34 -1 -48 -5c-16 -4.66699 -38.333 -20.667 -67 -48s-44.667 -47.666 -48 -60.999c-2.66699 -10.667 -6 -16 -10 -16zM262.002 364.998
c0 3.33301 -5.99902 29.666 -17.999 78.999s-17.333 78.333 -16 87c-2 12 -1 19.833 3 23.5s8.5 3.66699 13.5 0s8.16699 -8.5 9.5 -14.5c-1.33301 0 0.5 -10.333 5.5 -31s11 -43 18 -67s12.5 -40 16.5 -48c8 -16.667 16.333 -39.167 25 -67.5s13 -46.5 13 -54.5
c0 -9.33301 2 -14 6 -14c5.33301 -2.66699 11.666 -13.5 18.999 -32.5s16 -43.667 26 -74s16 -48.833 18 -55.5c6 -14.667 9.66699 -26.334 11 -35.001s0.666016 -15 -2.00098 -19s-7.66699 -6 -15 -6c-5.33301 -1.33301 -10.833 3.33398 -16.5 14.001
s-11.667 25.334 -18 44.001l-10.5 31c-25.333 -22.667 -54.833 -43.167 -88.5 -61.5s-62.167 -27.5 -85.5 -27.5c-82 0 -129.333 34 -142 102c-9.33301 46.667 0.333984 86 29.001 118c28 32.667 53.5 55.834 76.5 69.501s50.833 22.5 83.5 26.5
c26 3.33301 39 7.66602 39 12.999z" />
    <glyph glyph-name="e" unicode="e" horiz-adv-x="475" 
d="M101 363c-15.333 -8.66699 -25.668 -21.167 -31.001 -37.5s-7.33301 -38.5 -6 -66.5c94.667 46 149.334 70.667 164.001 74c11.333 2 19 4.16699 23 6.5s5 5 3 8s-7.33301 6.83301 -16 11.5c-16 8 -39.333 13.167 -70 15.5s-53 -1.5 -67 -11.5zM108.998 389
c5.33301 8.66699 29.998 10.168 73.998 4.50098s75.333 -14.5 94 -26.5c20.667 -14 32.334 -21.667 35.001 -23c11.333 -7.33301 11.666 -14 0.999023 -20c-7.33301 -4 -16.666 -5.66699 -27.999 -5c-12.667 1.33301 -39.334 -6 -80.001 -22s-73 -32 -97 -48
c-20 -13.333 -31.167 -25.833 -33.5 -37.5s2.5 -32.167 14.5 -61.5c22.667 -52 61.667 -91.667 117 -119c16 -8 29.167 -12.667 39.5 -14s29.833 -1.33301 58.5 0c44 2 77.667 8 101 18c26.667 10 40 14 40 12l-3 -7c-7.33301 -19.333 -40.5 -33.833 -99.5 -43.5
s-105.5 -8.16699 -139.5 4.5c-18.667 7.33301 -40.5 20.166 -65.5 38.499s-40.167 32.833 -45.5 43.5c-21.333 32 -39.666 69.333 -54.999 112c-4.66699 14.667 -7 35.167 -7 61.5s2.33301 47.5 7 63.5c4 13.333 12.333 27 25 41s23.334 21.333 32.001 22
c7.33301 0 12.333 2 15 6z" />
    <glyph glyph-name="f" unicode="f" horiz-adv-x="385" 
d="M242 481c-10.667 3.33301 -32.666 -7.6709 -65.999 -33.0039s-52.333 -42.666 -57 -51.999c-4.66699 -8.66699 -6.16699 -32.5 -4.5 -71.5s4.83398 -60.833 9.50098 -65.5s26.667 -4.33398 66 0.999023c30.667 4 52 5.33301 64 4s18 -6.33301 18 -15
c0 -4.66699 -6.16699 -8.5 -18.5 -11.5s-37.5 -6.83301 -75.5 -11.5c-8 -0.666992 -16.333 -1.16699 -25 -1.5s-14.334 -0.5 -17.001 -0.5s-5 -1.16699 -7 -3.5s-2.33301 -5.33301 -1 -9s4 -10.167 8 -19.5c5.33301 -14 11.666 -37.5 18.999 -70.5
s13.666 -56.833 18.999 -71.5c5.33301 -15.333 8.5 -26.166 9.5 -32.499s0.166992 -10.666 -2.5 -12.999s-8 -3.5 -16 -3.5c-6.66699 0 -11.5 1.83301 -14.5 5.5s-6.16699 10.834 -9.5 21.501s-6.16602 23 -8.49902 37s-6.83301 29.667 -13.5 47
c-4 10.667 -13.333 43.667 -28 99l-32 -5c-4.66699 -0.666992 -8.66699 -1.16699 -12 -1.5s-6.16602 -0.5 -8.49902 -0.5s-4 0.166992 -5 0.5s-1.83301 1 -2.5 2s-1 2 -1 3s0.333008 2.5 1 4.5c0 2 0.666992 4 2 6s3.33301 3.83301 6 5.5s5.16699 3 7.5 4s5.5 2 9.5 3
s7.16699 1.83301 9.5 2.5s5.66602 1.5 9.99902 2.5s7.16602 1.5 8.49902 1.5c-5.33301 72.667 -9.66602 111.667 -12.999 117c-3.33301 2 -5 11.667 -5 29c0 10.667 0.833008 17.334 2.5 20.001s5.16699 3.33398 10.5 2.00098c9.33301 -2.66699 27.333 7.66602 54 30.999
c42 36.667 76 58.334 102 65.001c24 6 53.667 -0.666992 89 -20c26.667 -14 36.667 -25.667 30 -35c-1.33301 -2.66699 -4 -4.66699 -8 -6c-7.33301 -2.66699 -15 -0.333984 -23 6.99902c-8.66699 8.66699 -21 16.167 -37 22.5s-30.667 9.5 -44 9.5z" />
    <glyph glyph-name="g" unicode="g" horiz-adv-x="445" 
d="M339 371c0 -8.66699 11.6641 -36.3281 34.9971 -82.9951c36.667 -75.333 49 -113 37 -113c-4.66699 0 -10 5.33301 -16 16l-6 11l2 -13c2.66699 -12.667 10 -56.334 22 -131.001c2 -14 -0.5 -36.167 -7.5 -66.5s-13.167 -45.5 -18.5 -45.5c-2.66699 0 -7 -7 -13 -21
c-5.33301 -14 -22.333 -28 -51 -42c-48 -24.667 -88.333 -27 -121 -7c-14 9.33301 -25.333 14 -34 14c-6.66699 0 -19.167 9.66699 -37.5 29s-27.5 32.666 -27.5 39.999c0 6.66699 2.66699 7.33398 8 2.00098c6.66699 -6.66699 12.5 -9.33398 17.5 -8.00098
s7.16699 6 6.5 14c0 7.33301 1.16699 12.5 3.5 15.5s5 3.5 8 1.5s5.5 -6.33301 7.5 -13s6.66699 -13.5 14 -20.5s17 -14.333 29 -22l21 -13.5c28.667 -20.667 63.334 -18.334 104.001 6.99902c29.333 17.333 47.333 39.833 54 67.5s4.66699 70.167 -6 127.5
c-13.333 71.333 -26.333 107 -39 107c-4.66699 0 -17.334 -6 -38.001 -18c-21.333 -11.333 -45 -19.166 -71 -23.499s-47.333 -3.5 -64 2.5c-53.333 19.333 -83.333 37.666 -90 54.999c-1.33301 2.66699 -3.66602 7 -6.99902 13s-5.33301 10 -6 12
c-35.333 60 -34.666 115.333 2.00098 166c24.667 33.333 48 50 70 50c9.33301 0 12.333 -3.33301 9 -10c-3.33301 -4.66699 -8 -8.66699 -14 -12c-35.333 -18.667 -55.666 -51.334 -60.999 -98.001s6.66699 -86.334 36 -119.001c19.333 -22 51.666 -33.833 96.999 -35.5
s81.333 7.83301 108 28.5c10.667 8.66699 17.167 15.167 19.5 19.5s2.5 11.166 0.5 20.499c-1.33301 6 -2.83301 14.5 -4.5 25.5s-3 19.167 -4 24.5s-2.83301 12.333 -5.5 21s-6 17.334 -10 26.001c-10 24 -15 40.667 -15 50c0 6.66699 -1 11.167 -3 13.5
s-5.33301 3.16602 -10 2.49902c-8 -1.33301 -16.667 3.33398 -26 14.001c-5.33301 6.66699 -11.666 11.334 -18.999 14.001s-19.666 4.66699 -36.999 6c-28 2.66699 -41 6.33398 -39 11.001c3.33301 5.33301 22.5 6.16602 57.5 2.49902s54.167 -8.5 57.5 -14.5
c3.33301 -6.66699 12 -8.66699 26 -6c10 1.33301 16.167 1 18.5 -1s3.83301 -9.33301 4.5 -22c1.33301 -18.667 1.33301 -34.334 0 -47.001c-0.666992 -8.66699 -0.333984 -13.667 0.999023 -15s5 -1.33301 11 0c9.33301 2.66699 14 -0.333008 14 -9z" />
    <glyph glyph-name="h" unicode="h" 
d="M30 520c0.666992 2 3.66602 3.00098 8.99902 3.00098s11.333 -1 18 -3s10.334 -4 11.001 -6c4 -14 11.833 -57 23.5 -129s19.5 -125.667 23.5 -161c1.33301 -5.33301 7.66602 0.666992 18.999 18c10.667 16.667 22.334 28.167 35.001 34.5s30.334 9.5 53.001 9.5
c25.333 0 44.666 -6 57.999 -18c14 -12 28.167 -28.667 42.5 -50s23.5 -39 27.5 -53c0.666992 -3.33301 2.16699 -9.16602 4.5 -17.499l8.5 -31c3.33301 -12.333 6.33301 -22.833 9 -31.5c12.667 -45.333 20 -75.5 22 -90.5s0 -25.167 -6 -30.5
c-9.33301 -9.33301 -17 -12.833 -23 -10.5s-9 10.833 -9 25.5c-0.666992 17.333 -5.5 46.333 -14.5 87s-18.167 73.667 -27.5 99c-10.667 28 -25.5 51.667 -44.5 71s-36.833 29 -53.5 29c-31.333 0 -55.5 -21.167 -72.5 -63.5s-24.167 -99.5 -21.5 -171.5
c0.666992 -27.333 0.5 -45.5 -0.5 -54.5s-4.16699 -15.167 -9.5 -18.5c-12.667 -7.33301 -20.667 -2.33301 -24 15c-3.33301 12.667 -5.66602 38 -6.99902 76c-3.33301 90 -8.83301 177.667 -16.5 263s-15.834 142.666 -24.501 171.999
c-6.66699 21.333 -10 33.666 -10 36.999z" />
    <glyph glyph-name="i" unicode="i" horiz-adv-x="142" 
d="M43 349c6 0 10.001 -4.16699 12.001 -12.5s4 -29.166 6 -62.499c5.33301 -85.333 17 -157.333 35 -216c5.33301 -16.667 9.33301 -29.834 12 -39.501s4 -17.5 4 -23.5s-0.833008 -9.83301 -2.5 -11.5s-4.83398 -2.5 -9.50098 -2.5c-7.33301 0 -13.333 4.83301 -18 14.5
s-12.667 33.5 -24 71.5c-17.333 58.667 -26.333 130 -27 214c-0.666992 32 -0.5 51.333 0.5 58s4.83301 10 11.5 10zM39.001 608c6 2 10.667 1.66797 14 -0.999023s7.33301 -10 12 -22c6 -14 7.33301 -22.333 4 -25s-10.666 1 -21.999 11
c-20.667 19.333 -23.334 31.666 -8.00098 36.999z" />
    <glyph glyph-name="j" unicode="j" horiz-adv-x="253" 
d="M95 335c9.33301 0 16.334 -4 21.001 -12s12 -27.333 22 -58c6.66699 -21.333 16.5 -47.166 29.5 -77.499s24.167 -62.833 33.5 -97.5c14 -50 21.333 -101.667 22 -155c0.666992 -34.667 0.166992 -57.334 -1.5 -68.001s-5.83398 -20.667 -12.501 -30
c-17.333 -24.667 -45.666 -33.167 -84.999 -25.5s-67.666 27.5 -84.999 59.5c-10.667 19.333 -12.667 28.333 -6 27c5.33301 -0.666992 13.333 -8.33398 24 -23.001c18 -24 42.167 -39 72.5 -45s48.5 0.666992 54.5 20c5.33301 16 6.66602 49.5 3.99902 100.5
s-7.66699 89.167 -15 114.5c-24.667 89.333 -44 141 -58 155c-6 4.66699 -10 13.334 -12 26.001s-4 21 -6 25c-4 7.33301 -7.66699 20 -11 38c-2 11.333 -2.33301 18.5 -1 21.5s4.66602 4.5 9.99902 4.5zM124.001 491c0 -12 -8.00195 -13.333 -24.002 -4l-16 11l-3 3
c-9.33301 8 -12.666 12.333 -9.99902 13c0.666992 0 3.33398 0.333008 8.00098 1h2c10.667 0 20.5 -2.5 29.5 -7.5s13.5 -10.5 13.5 -16.5z" />
    <glyph glyph-name="k" unicode="k" horiz-adv-x="579" 
d="M534 85c-11.333 -4.66699 -36.999 -0.667969 -76.999 11.999h25c45.333 0.666992 68 -0.666016 68 -3.99902c-0.666992 -2 -5.33398 -4.33301 -14.001 -7zM47.001 556.999c6.66699 0 10.3359 -15.6689 11.0029 -47.002c0 -28.667 1.5 -64.5 4.5 -107.5
s6.33301 -79.833 10 -110.5s6.5 -44.667 8.5 -42c2 4 11.333 11.667 28 23c14.667 8.66699 35.667 26.667 63 54c30 30 53.333 46.333 70 49c4.66699 1.33301 7 -0.333984 7 -5.00098c0 -1.33301 -0.333008 -2.66602 -1 -3.99902
c-2.66699 -5.33301 -18.834 -21.666 -48.501 -48.999s-51.5 -45.333 -65.5 -54c-4.66699 -2.66699 -8 -4.83398 -10 -6.50098s-3 -3 -3 -4s0.666992 -1.83301 2 -2.5s3.66602 -1.66699 6.99902 -3c28.667 -9.33301 49.667 -18.166 63 -26.499s24.666 -19.5 33.999 -33.5
c12 -17.333 22.167 -39.666 30.5 -66.999s12.333 -50 12 -68s-4.5 -28.333 -12.5 -31c-17.333 0 -26 15.667 -26 47c0 16 -4.33301 36.667 -13 62s-17.667 43.333 -27 54c-18.667 20 -46.667 31.333 -84 34c-24 2 -36 0.666992 -36 -4
c-3.33301 -94.667 -7 -147.667 -11 -159c-2.66699 -8.66699 -8.66699 -13 -18 -13c-6.66699 0 -10.5 1.83301 -11.5 5.5s-0.5 14.167 1.5 31.5c10.667 100.667 12 204.667 4 312c-4.66699 81.333 -5.66699 128.333 -3 141c2 16 6.66699 24 14 24z" />
    <glyph glyph-name="l" unicode="l" horiz-adv-x="89" 
d="M45 529c2.66699 -16.667 4.66504 -82.999 5.99805 -198.999s3 -182 5 -198c2 -34.667 2.83301 -57 2.5 -67s-2.5 -15 -6.5 -15c-7.33301 0 -12.666 15.667 -15.999 47c-3.33301 32.667 -5.16602 110.167 -5.49902 232.5s1.16699 186.166 4.5 191.499
c4 5.33301 7.33301 8 10 8z" />
    <glyph glyph-name="m" unicode="m" horiz-adv-x="578" 
d="M57 149c0 8.66699 -3.49707 22.8369 -10.4971 42.5039s-10.167 34.167 -9.5 43.5c0.666992 7.33301 -1 39 -5 95c-1.33301 18 -2 31.333 -2 40s0.166992 15.834 0.5 21.501s1.16602 8.5 2.49902 8.5h6c7.33301 -2.66699 11 -20.334 11 -53.001
c0 -18 0.833008 -30 2.5 -36s4.5 -7.33301 8.5 -4s9.66699 12.333 17 27c6 12.667 17.333 25.334 34 38.001s31 20 43 22c9.33301 2 21.166 0.166992 35.499 -5.5s23.833 -12.834 28.5 -21.501c6.66699 -9.33301 13.334 -25 20.001 -47
c7.33301 -26.667 13.666 -40 18.999 -40c2.66699 0 5.66699 2.66699 9 8c2.66699 5.33301 12.667 17.666 30 36.999c12.667 13.333 27.5 21.5 44.5 24.5s40.5 2.16699 70.5 -2.5c8.66699 -1.33301 20 -7.5 34 -18.5s21 -19.167 21 -24.5
c1.33301 -5.33301 6.66602 -13.833 15.999 -25.5s14.666 -21.5 15.999 -29.5c2.66699 -15.333 6.33398 -25.333 11.001 -30c9.33301 -11.333 18.333 -62.333 27 -153c3.33301 -39.333 6.66602 -66.333 9.99902 -81c2.66699 -10.667 0.666992 -17.5 -6 -20.5
s-14 -0.833008 -22 6.5c-6.66699 6.66699 -10 30.667 -10 72c0 89.333 -14.333 162.666 -43 219.999c-9.33301 19.333 -17 32.166 -23 38.499s-15.667 11.833 -29 16.5c-13.333 5.33301 -24 8.16602 -32 8.49902s-20 -1.5 -36 -5.5c-17.333 -4 -28.666 -8.33301 -33.999 -13
s-12.333 -15.667 -21 -33c-10.667 -21.333 -16.334 -39.833 -17.001 -55.5s2.66602 -44.5 9.99902 -86.5c6 -36.667 8.66699 -62.5 8 -77.5s-5 -23.167 -13 -24.5c-6.66699 -1.33301 -11.667 3 -15 13s-5 26.667 -5 50c0 21.333 -5 37 -15 47
c-6.66699 6.66699 -10.5 13.334 -11.5 20.001s-0.833008 20.334 0.5 41.001c3.33301 38 -0.666992 75.167 -12 111.5s-25.666 56.5 -42.999 60.5c-10.667 2.66699 -23.334 -2 -38.001 -14s-28.667 -28.667 -42 -50c-11.333 -17.333 -19.166 -34.333 -23.499 -51
s-6.33301 -29.167 -6 -37.5s2.83301 -24.833 7.5 -49.5s7.66699 -42.334 9 -53.001c0.666992 -7.33301 5.66699 -33.333 15 -78c5.33301 -17.333 7 -27 5 -29c-3.33301 -3.33301 -8.5 -3 -15.5 1s-11.833 9 -14.5 15c-3.33301 7.33301 -7.16602 26.166 -11.499 56.499
s-6.5 51.833 -6.5 64.5z" />
    <glyph glyph-name="n" unicode="n" horiz-adv-x="420" 
d="M79 85c0 21.333 -4.49805 58.001 -13.498 110.001s-17.5 98.667 -25.5 140s-11.333 62.666 -10 63.999c0 8 2 12 6 12c11.333 0 20.666 -24.333 27.999 -73c5.33301 -30.667 11.666 -59.834 18.999 -87.501s12.666 -41.167 15.999 -40.5
c0.666992 0 2.33398 2.33301 5.00098 7l10 18l13 25l14 27.5l13.5 25c4.33301 7.66699 8 13.5 11 17.5s5.16699 5.66699 6.5 5c6 0 14.333 7 25 21c20 24.667 47 26.667 81 6c28.667 -17.333 49.334 -59.666 62.001 -126.999c7.33301 -38.667 12.666 -59.667 15.999 -63
c4.66699 -5.33301 12 -35.166 22 -89.499s13.667 -84.5 11 -90.5c-4.66699 -11.333 -14.334 -14 -29.001 -8c-12.667 5.33301 -16.667 12.666 -12 21.999c0 0.666992 0.333008 1.33398 1 2.00098c3.33301 6 -3.5 53.5 -20.5 142.5s-29.167 142.167 -36.5 159.5
c-10.667 24 -23.5 38.667 -38.5 44s-29.833 0.666016 -44.5 -14.001c-10.667 -10.667 -17.667 -15.334 -21 -14.001s-11.666 -12.5 -24.999 -41.5s-24.333 -56.167 -33 -81.5c-8.66699 -24 -13 -62.333 -13 -115c0 -34.667 -0.666992 -56.167 -2 -64.5s-5 -12.833 -11 -13.5
c-10 -2 -16.667 1.83301 -20 11.5s-5 30.834 -5 63.501z" />
    <glyph glyph-name="o" unicode="o" horiz-adv-x="363" 
d="M208 333c0 4.66699 -9.5 16.668 -28.5 36.001s-31.167 29.333 -36.5 30c-29.333 2 -48.333 4.66699 -57 8c-6.66699 2 -11.334 2.16699 -14.001 0.5s-5 -6.83398 -7 -15.501c-4.66699 -17.333 -6.5 -54.666 -5.5 -111.999s4.16699 -95.666 9.5 -114.999
c13.333 -45.333 32.333 -80.833 57 -106.5s51 -36.834 79 -33.501s46.667 7.66602 56 12.999s18.333 17.333 27 36c12.667 26.667 18.5 51.5 17.5 74.5s-9.16699 49.5 -24.5 79.5c-15.333 30.667 -31.666 54.667 -48.999 72c-16 18.667 -24 29.667 -24 33zM163 411.001
c10.667 -6.66699 17.668 -11.834 21.001 -15.501s6.83301 -8.66699 10.5 -15s10.167 -13.833 19.5 -22.5c105.333 -110 140.666 -201.333 105.999 -274c-26 -55.333 -65 -83 -117 -83c-46 0 -84.167 18.833 -114.5 56.5s-48.833 89.5 -55.5 155.5
c-5.33301 50 -5 98.667 1 146s15 72.333 27 75c8 2.66699 13.5 3.83398 16.5 3.50098s7.16699 -3.5 12.5 -9.5c5.33301 -7.33301 15.333 -9.33301 30 -6c12 2.66699 26.333 -1 43 -11z" />
    <glyph glyph-name="p" unicode="p" horiz-adv-x="372" 
d="M90 101c0 -40.667 33.667 -46.001 101 -16.001c15.333 6.66699 37 24 65 52s42 46 42 54c0 6.66699 3.66699 13 11 19c7.33301 6.66699 10.333 28 9 64c-1.33301 26.667 -3.5 43.834 -6.5 51.501s-12.167 19.167 -27.5 34.5c-19.333 20 -44.333 34.667 -75 44
c-21.333 6.66699 -49 11 -83 13s-53.667 0.666992 -59 -4c-9.33301 -9.33301 -6.33301 -71.333 9 -186c9.33301 -66.667 14 -108.667 14 -126zM76 430.999c24 5.33301 53.166 6.33691 87.499 3.00391s60.166 -9.33301 77.499 -18c22 -11.333 42.167 -25.833 60.5 -43.5
s29.833 -33.834 34.5 -48.501c5.33301 -14 7.33301 -36.833 6 -68.5s-5 -52.834 -11 -63.501c-10 -18.667 -26.167 -40.334 -48.5 -65.001s-42.166 -42.667 -59.499 -54c-12 -8.66699 -24.833 -15 -38.5 -19s-25.167 -6.5 -34.5 -7.5s-26 -1.83301 -50 -2.5
c-2 -9.33301 0.166992 -35.333 6.5 -78s7.16602 -69.667 2.49902 -81c-5.33301 -6 -9.66602 -7.33301 -12.999 -4c-6 6 -12.167 28 -18.5 66s-10.166 73.333 -11.499 106c-1.33301 45.333 -6 105.166 -14 179.499s-15 125.5 -21 153.5c-4.66699 22 10.333 37 45 45z" />
    <glyph glyph-name="q" unicode="q" horiz-adv-x="574" 
d="M266 390c-4 0 -6.66602 5.33496 -7.99902 16.002c-0.666992 6 -2.83398 10.167 -6.50098 12.5s-10.5 3.16602 -20.5 2.49902c-16.667 -0.666992 -39.334 -9.66699 -68.001 -27s-50.334 -35.333 -65.001 -54s-26.5 -45 -35.5 -79s-11.833 -63 -8.5 -87
c5.33301 -33.333 20.333 -61.333 45 -84s53 -34 85 -34c14.667 -0.666992 35.667 6.16602 63 20.499s47 28.5 59 42.5c9.33301 10.667 14.5 31.167 15.5 61.5s-2.16699 79.5 -9.5 147.5c-6 56 -8 86.667 -6 92c0.666992 3.33301 4.5 5 11.5 5s10.833 -1.66699 11.5 -5
c2 -32.667 5.83301 -72.5 11.5 -119.5s8.83398 -93.5 9.50098 -139.5c0.666992 -36 4 -104.333 10 -205c12.667 21.333 31.334 49 56.001 83s48.667 64.333 72 91s38 39.334 44 38.001c12 0 15.333 -5 10 -15c-2.66699 -6 -8 -11.667 -16 -17
c-12 -9.33301 -32.833 -34.333 -62.5 -75s-44.5 -65 -44.5 -73c0 -4.66699 -2 -7.66699 -6 -9s-13.333 -13 -28 -35c-24 -35.333 -40.667 -46 -50 -32c-4 8 -6 40.667 -6 98c0 56.667 -3.33301 86 -10 88c-5.33301 0.666992 -13.666 -5 -24.999 -17
c-12 -12.667 -28 -23.334 -48 -32.001s-39 -13 -57 -13c-33.333 0 -63.333 7.83301 -90 23.5s-46.334 37.5 -59.001 65.5c-8.66699 18.667 -11.667 46.667 -9 84s10 67.333 22 90c17.333 34 38.666 63.167 63.999 87.5s50.666 39.833 75.999 46.5
c10.667 3.33301 26.667 4.5 48 3.5s33.333 -3.16699 36 -6.5c2.66699 -2.66699 2.33398 -10 -0.999023 -22s-6.66602 -18 -9.99902 -18z" />
    <glyph glyph-name="r" unicode="r" horiz-adv-x="360" 
d="M52 394c0 -15.333 7.66895 -51.4971 23.002 -108.497s25.333 -86.167 30 -87.5c1.33301 -0.666992 3.16602 0.333008 5.49902 3s5.33301 6.5 9 11.5s6.83398 10.167 9.50098 15.5c9.33301 18 21.833 36 37.5 54s31.167 32 46.5 42c9.33301 6 27.666 11.5 54.999 16.5
s44.666 6.16699 51.999 3.5c6.66699 -2 10 -6.66699 10 -14s-9.33301 -9.66602 -28 -6.99902c-13.333 0.666992 -21.333 0.666992 -24 0s-6.66699 -2.33398 -12 -5.00098s-11.666 -4.66699 -18.999 -6c-12 -2.66699 -26.667 -12.5 -44 -29.5s-30.666 -34.833 -39.999 -53.5
c-14.667 -28.667 -24.167 -53.334 -28.5 -74.001s-5.5 -48 -3.5 -82c2 -32.667 2.5 -51.667 1.5 -57s-5.5 -8 -13.5 -8c-10.667 0 -17.5 4.16699 -20.5 12.5s-4.5 25.5 -4.5 51.5c0.666992 20 -2.83301 42.833 -10.5 68.5s-12.167 42.167 -13.5 49.5
c-2.66699 17.333 -8.83398 43.666 -18.501 78.999s-15.834 63.333 -18.501 84c-4 20.667 -4 33 0 37c7.33301 7.33301 13.333 9.66602 18 6.99902c0.666992 -0.666992 1 -1.66699 1 -3z" />
    <glyph glyph-name="s" unicode="s" horiz-adv-x="420" 
d="M207 411c8 0 18.5029 -7.66406 31.5029 -22.9971s19.5 -27.666 19.5 -36.999c0 -10.667 -4.66699 -16 -14 -16s-14 4.66699 -14 14c0 14 -13.333 29.167 -40 45.5s-48.334 22.5 -65.001 18.5c-54 -13.333 -73.333 -53 -58 -119c2.66699 -14 23.834 -32.167 63.501 -54.5
s84.5 -41.833 134.5 -58.5c58.667 -19.333 96 -36.833 112 -52.5s16.333 -34.834 1 -57.501c-8 -12 -11.667 -18.333 -11 -19c8 -8.66699 -1.33301 -19.334 -28 -32.001c-18 -8.66699 -37.333 -14.334 -58 -17.001c-18 -2 -45.333 6.33301 -82 25
c-51.333 26.667 -75 44.667 -71 54c2.66699 2.66699 10.334 0.666992 23.001 -6c76 -40 128 -54 156 -42c25.333 10.667 41.833 25.167 49.5 43.5s5.16699 34.5 -7.5 48.5s-32.334 21 -59.001 21c-24.667 0 -68.334 16.667 -131.001 50
c-17.333 8.66699 -29.666 13 -36.999 13c-6.66699 0 -23.334 12.667 -50.001 38c-16 16 -26 27.167 -30 33.5s-5.33301 13.5 -4 21.5c2.66699 12 1.33398 22.333 -3.99902 31c-6.66699 11.333 -5.83398 25.666 2.49902 42.999s20.833 30.666 37.5 39.999
c19.333 10.667 43.666 14.667 72.999 12c30 -1.33301 45.667 -4.66602 47 -9.99902s5.66602 -8 12.999 -8z" />
    <glyph glyph-name="t" unicode="t" horiz-adv-x="362" 
d="M185 515c6 -19.333 11.8359 -47.8291 17.5029 -85.4961s7.5 -66.834 5.5 -87.501c26 2 52.833 -0.166992 80.5 -6.5s41.834 -14.5 42.501 -24.5c2 -7.33301 0 -11 -6 -11c-4 0 -12.333 1.33301 -25 4c-30.667 4.66699 -60.334 6.66699 -89.001 6
c1.33301 -20 -0.833984 -58.5 -6.50098 -115.5s-7.16699 -97.167 -4.5 -120.5c2.66699 -10.667 6.5 -16.834 11.5 -18.501s20.167 -2.5 45.5 -2.5c34 0 51 -3 51 -9c0 -11.333 -19.333 -17.833 -58 -19.5s-63.334 2.83301 -74.001 13.5c-16 16 -19.333 69 -10 159
c6 60.667 6.66699 94.667 2 102s-24 13 -58 17c-48 4.66699 -74.667 11.667 -80 21c-0.666992 1.33301 -0.333984 2.66602 0.999023 3.99902c6.66699 2.66699 52.667 4 138 4c0 8 -2.33301 43.333 -7 106c-2.66699 29.333 -3.5 47.333 -2.5 54s4.5 10.667 10.5 12
c8.66699 1.33301 13.667 0.666016 15 -2.00098z" />
    <glyph glyph-name="u" unicode="u" horiz-adv-x="412" 
d="M41 422c2 5.33301 4.99805 8.33203 8.99805 8.99902s7.66699 -1 11 -5s5 -9 5 -15c-10.667 -200 14.666 -313.333 75.999 -340l30 -16c25.333 11.333 45.833 24.333 61.5 39s29.5 35.334 41.5 62.001c7.33301 16.667 13.166 49.167 17.499 97.5s4.5 86.833 0.5 115.5
c-4.66699 37.333 -2 56 8 56l11 -4c8 -5.33301 14.667 -35.333 20 -90c4 -40 8.5 -77.5 13.5 -112.5s11.333 -75.667 19 -122s12.834 -78.833 15.501 -97.5c2 -16 2.33301 -25.5 1 -28.5s-5.66602 -3.83301 -12.999 -2.5c-8.66699 1.33301 -15.667 10.833 -21 28.5
s-12 53.5 -20 107.5c-5.33301 38 -10.666 56.667 -15.999 56c-2.66699 0 -5.66699 -4.66699 -9 -14c-4 -13.333 -14.333 -31 -31 -53s-30.334 -35.333 -41.001 -40c-21.333 -10.667 -46.666 -13 -75.999 -7s-50.333 17.667 -63 35c-15.333 21.333 -25.666 39.333 -30.999 54
s-12.333 41.667 -21 81c-6 33.333 -8.5 69 -7.5 107s4.16699 71 9.5 99z" />
    <glyph glyph-name="v" unicode="v" horiz-adv-x="366" 
d="M30 435c0 6.66699 5.66211 6.33105 16.9951 -1.00195l5 -3c6.66699 -4 14.834 -17.667 24.501 -41s19.834 -50.333 30.501 -81s18.667 -51.667 24 -63c7.33301 -15.333 12.5 -28.333 15.5 -39s7.83301 -22.667 14.5 -36c8 -18 14 -34.333 18 -49
c5.33301 -24.667 10.333 -29.667 15 -15c2.66699 8 5.66699 22 9 42c1.33301 13.333 4.5 28.333 9.5 45s9.83301 30.834 14.5 42.501s10.834 25.834 18.501 42.501s12.5 27.667 14.5 33c7.33301 18.667 17.833 37.5 31.5 56.5s23.834 28.5 30.501 28.5
c4.66699 1.33301 8.33398 -0.166992 11.001 -4.5s3.5 -9.16602 2.5 -14.499s-3.16699 -8.33301 -6.5 -9c-5.33301 0 -16.666 -17.833 -33.999 -53.5s-33 -72.834 -47 -111.501c-6 -18 -11 -58.333 -15 -121c-2.66699 -44.667 -4.83398 -71.334 -6.50098 -80.001
s-6.16699 -13.334 -13.5 -14.001c-9.33301 -1.33301 -17.5 4.33398 -24.5 17.001s-17.833 42 -32.5 88c-10.667 32.667 -24.5 70.834 -41.5 114.501s-30.5 80.5 -40.5 110.5c-6 19.333 -20.667 58 -44 116z" />
    <glyph glyph-name="w" unicode="w" horiz-adv-x="435" 
d="M336 425c7.33301 0 13.001 -2.50098 17.001 -7.50098s9 -15.833 15 -32.5c20.667 -57.333 32.667 -114.5 36 -171.5s-2.66699 -102.833 -18 -137.5c-15.333 -33.333 -32.333 -52.5 -51 -57.5s-36.334 5.16699 -53.001 30.5c-17.333 27.333 -35 76.333 -53 147
c-9.33301 34.667 -15 52.667 -17 54l-2 -8l-1 -25c-0.666992 -59.333 -6.33398 -104.666 -17.001 -135.999c-11.333 -31.333 -20.666 -51.333 -27.999 -60s-18.333 -13 -33 -13c-12 0 -21.667 7.66699 -29 23c-11.333 23.333 -20.5 51.666 -27.5 84.999s-13.667 73 -20 119
s-11.5 78.667 -15.5 98c-1.33301 14 -4 23.667 -8 29c-1.33301 3.33301 -1.5 5.33301 -0.5 6s3.5 0.666992 7.5 0c9.33301 -1.33301 19.833 -24.166 31.5 -68.499s19.834 -93.833 24.501 -148.5c2 -24 7 -50.333 15 -79s14.667 -43.667 20 -45s13 9.5 23 32.5
s17.333 45.833 22 68.5c6 32 8.33301 69.333 7 112c-0.666992 62.667 -0.5 99.834 0.5 111.501s4.16699 17.5 9.5 17.5c8.66699 0 17.5 -11.333 26.5 -34s21.167 -64.334 36.5 -125.001c22.667 -93.333 40.667 -148.333 54 -165c11.333 -16 26.666 -7 45.999 27
c25.333 45.333 31.333 106.333 18 183c-13.333 79.333 -27 130.333 -41 153c-6 8 -8.66699 12.833 -8 14.5s5 2.5 13 2.5z" />
    <glyph glyph-name="x" unicode="x" horiz-adv-x="338" 
d="M176 151c-0.666992 -3.33301 3.83203 -12.001 13.499 -26.001s14.5 -22 14.5 -24c0 -5.33301 7.5 -16.333 22.5 -33s24.833 -25 29.5 -25c10 0 17.333 -8.83301 22 -26.5s2.66699 -28.834 -6 -33.501c-10.667 -6 -37.667 24.333 -81 91c-20.667 32.667 -32 50 -34 52
c-1.33301 1.33301 -6.16602 -1.66699 -14.499 -9s-16.5 -15.666 -24.5 -24.999s-12 -15.333 -12 -18c0 -6.66699 -1.66699 -10.667 -5 -12c-4.66699 -2 -11.834 -10.5 -21.501 -25.5s-14.5 -25.167 -14.5 -30.5c1.33301 -8 -1 -11.667 -7 -11
c-10 0.666992 -18.667 6.33398 -26 17.001c-2 3.33301 -2.66699 6 -2 8c3.33301 11.333 15.833 30.666 37.5 57.999s35.167 45 40.5 53l26 36c-52 112 -79 169.667 -81 173c-7.33301 15.333 -9.33301 26.666 -6 33.999l3 6
c0.666992 1.33301 1.83398 1.66602 3.50098 0.999023s3.5 -2 5.5 -4s5 -5.33301 9 -10c11.333 -14 26.333 -42.667 45 -86c22.667 -50.667 37.334 -77 44.001 -79c4 -1.33301 10.333 4.33398 19 17.001c6 8 11 14.333 15 19c8.66699 8.66699 24.5 30.5 47.5 65.5
s34.5 54.5 34.5 58.5c-0.666992 2 0.666016 3.66699 3.99902 5c12.667 2.66699 23 2.33398 31 -0.999023c0 -7.33301 -8.5 -25.166 -25.5 -53.499s-35.833 -56.5 -56.5 -84.5c-33.333 -45.333 -50 -71 -50 -77z" />
    <glyph glyph-name="y" unicode="y" horiz-adv-x="410" 
d="M326 -186c0 4.66699 4.66797 6.99512 14.001 6.99512c6 0 9.83301 3 11.5 9s2.5 22 2.5 48c0 25.333 -2.33301 65.333 -7 120c-4 36 -12.333 82.667 -25 140s-21 86 -25 86c-2 0 -5 -6.33301 -9 -19c-6.66699 -28 -19.167 -55.167 -37.5 -81.5
s-35.166 -42.166 -50.499 -47.499c-8 -2.66699 -21.333 -1.66699 -40 3c-49.333 12.667 -86.333 82.334 -111 209.001c-11.333 61.333 -17.5 98.166 -18.5 110.499s2.16699 18.833 9.5 19.5c14 0 25.333 -34.667 34 -104c0.666992 -12 4.16699 -31 10.5 -57
s11.5 -44 15.5 -54c2.66699 -13.333 7 -27.166 13 -41.499s10.333 -21.5 13 -21.5c4.66699 0 5.66699 -2 3 -6s1.66602 -12 12.999 -24s20.333 -18 27 -18c7.33301 0 13.666 3 18.999 9c32.667 33.333 56 67.833 70 103.5s20.667 77.834 20 126.501
c0 42.667 -1.66699 69 -5 79c-2.66699 8.66699 -2.66699 13.334 0 14.001s10 -1.66602 22 -6.99902c11.333 -4.66699 17 -15.667 17 -33c2.66699 -68.667 20.334 -174.334 53.001 -317.001c7.33301 -31.333 12 -79.166 14 -143.499s0.333008 -99.833 -5 -106.5
c-3.33301 -4 -8.83301 -6.83301 -16.5 -8.5s-14.834 -2 -21.501 -1s-10 3.16699 -10 6.5z" />
    <glyph glyph-name="z" unicode="z" horiz-adv-x="366" 
d="M293 351c2 -0.666992 4.5 -1.16504 7.5 -1.49805s5.33301 -0.5 7 -0.5s3.16699 -0.5 4.5 -1.5s2.33301 -2.5 3 -4.5c0 -3.33301 -11.5 -22.833 -34.5 -58.5s-40.5 -61.167 -52.5 -76.5c-24.667 -32 -35.667 -50.667 -33 -56c2 -4 10.667 -6.66699 26 -8
c27.333 -2 48.333 -7.33301 63 -16c2 -2 3 -3.66699 3 -5c-1.33301 -1.33301 -15.333 -3.16602 -42 -5.49902s-48.667 -3.83301 -66 -4.5c-9.33301 -0.666992 -23.833 -14.834 -43.5 -42.501s-29.834 -48.167 -30.501 -61.5c-0.666992 -7.33301 0.5 -12.333 3.5 -15
s10.5 -5.33398 22.5 -8.00098c1.33301 -1.33301 41 -2.66602 119 -3.99902c57.333 -2 86 -6 86 -12c0 -6.66699 -0.333008 -10.334 -1 -11.001l-13 -1c-9.33301 0 -22.666 -0.333008 -39.999 -1l-50 -2c-42.667 -1.33301 -71.5 -1.5 -86.5 -0.5s-28.5 4.16699 -40.5 9.5
c-22.667 10.667 -34.167 23.5 -34.5 38.5s10.5 42.167 32.5 81.5c6 11.333 7.83301 19 5.5 23s-9.5 4.66699 -21.5 2c-12.667 -3.33301 -22 -1.33301 -28 6c-10.667 9.33301 -3.66699 16.666 21 21.999c6 1.33301 16.333 2.66602 31 3.99902
c21.333 2.66699 32.666 5.33398 33.999 8.00098c8 9.33301 20.667 27.333 38 54s32.833 51.667 46.5 75s19.834 35.333 18.501 36c-2.66699 2.66699 -20 0.5 -52 -6.5s-54 -13.5 -66 -19.5c-2 -2 -12.5 -5.33301 -31.5 -10s-28.833 -9 -29.5 -13
c1.33301 -2 0 -3.66699 -4 -5c-2.66699 -0.666992 -6.33398 -0.666992 -11.001 0c-16.667 1.33301 -24.667 6.33301 -24 15c0.666992 10 9.66699 17.333 27 22c4.66699 1.33301 10 2 16 2c13.333 0.666992 25.833 3.5 37.5 8.5s20.834 8.16699 27.501 9.5
c1.33301 0 25.5 6 72.5 18s74.5 17.333 82.5 16z" />
    <glyph glyph-name="uni0093" horiz-adv-x="238" 
d="M78 161c-5.33301 0 -13.832 8.33496 -25.499 25.002s-18.5 31 -20.5 43c-2.66699 15.333 -2.5 44.166 0.5 86.499s6.83301 67.833 11.5 76.5c3.33301 6.66699 7.33301 10.667 12 12s8.33398 -0.333984 11.001 -5.00098c1.33301 -2.66699 -0.333984 -25.667 -5.00098 -69
c-8.66699 -74.667 -4.33398 -120.334 12.999 -137.001c3.33301 -3.33301 5.83301 -7.66602 7.5 -12.999s2.16699 -9.83301 1.5 -13.5s-2.66699 -5.5 -6 -5.5zM169.001 393.002c14.667 14.667 23.667 18.999 27 12.999c1.33301 -2 1.33301 -5 0 -9
c-10.667 -38 -9.66699 -85.667 3 -143c8.66699 -43.333 10 -65 4 -65l-7 3c-9.33301 5.33301 -17.833 20.333 -25.5 45s-12.5 51.334 -14.5 80.001c-2 28 -2.33301 45.667 -1 53s6 15 14 23z" />
    <glyph glyph-name="uni0094" horiz-adv-x="260" 
d="M30 388c0 10.667 5.99805 12.6709 17.998 6.00391c5.33301 -3.33301 10.666 -8.33301 15.999 -15c10 -13.333 19.5 -32.833 28.5 -58.5s13.5 -46.5 13.5 -62.5c0 -16.667 -3.5 -34.334 -10.5 -53.001s-14.167 -29.667 -21.5 -33
c-6 -2.66699 -11.333 0.666016 -16 9.99902c-5.33301 8.66699 -3.66602 19.334 5.00098 32.001c8.66699 13.333 12.834 31.166 12.501 53.499s-5.16602 44.166 -14.499 65.499c-10 21.333 -17.667 34.666 -23 39.999c-5.33301 2.66699 -8 7.66699 -8 15zM167.998 406.004
c-6 12 -7.83301 21.4971 -5.5 28.4971s10.166 2.16699 23.499 -14.5c14.667 -16.667 26 -37.667 34 -63s11 -49.333 9 -72c-1.33301 -21.333 -6.16602 -41 -14.499 -59s-17.166 -27.667 -26.499 -29c-6.66699 -1.33301 -14.334 4.33398 -23.001 17.001c-6 10 -8 15 -6 15
c0.666992 0 2.33398 -0.333008 5.00098 -1c7.33301 -2.66699 14.833 2.33301 22.5 15s12.167 27.667 13.5 45c1.33301 12.667 -1.33398 31.334 -8.00098 56.001s-14.667 45.334 -24 62.001z" />
    <glyph glyph-name=".null" horiz-adv-x="0" 
 />
    <glyph glyph-name="nonmarkingreturn" horiz-adv-x="333" 
 />
    </font>
</defs>
</svg>
