<?xml version="1.0" standalone="no"?>
<!DOCTYPE svg PUBLIC "-//W3C//DTD SVG 1.1//EN" "http://www.w3.org/Graphics/SVG/1.1/DTD/svg11.dtd" >
<svg>
<metadata>
Created by FontForge 20090914 at Sat Feb 27 00:05:00 2016
 By www-data
Copyright (c) 2016, root
</metadata>
<defs>
<font id="QuickCursive" horiz-adv-x="793" >
  <font-face 
    font-family="Quick Cursive"
    font-weight="400"
    font-stretch="normal"
    units-per-em="1000"
    panose-1="2 0 5 3 0 0 0 0 0 0"
    ascent="800"
    descent="-200"
    x-height="447.5"
    cap-height="599.998"
    bbox="28.6808 -199.998 961.758 778.953"
    underline-thickness="50"
    underline-position="-100"
    unicode-range="U+0020-U+0094"
  />
<missing-glyph horiz-adv-x="364" 
d="M33 0v666h265v-666h-265zM66 33h199v600h-199v-600z" />
    <glyph glyph-name=".notdef" horiz-adv-x="364" 
d="M33 0v666h265v-666h-265zM66 33h199v600h-199v-600z" />
    <glyph glyph-name="space" unicode=" " horiz-adv-x="692" 
 />
    <glyph glyph-name="exclam" unicode="!" horiz-adv-x="164" 
d="M30 56c0 18 6.33301 32.333 19 43c22 19.333 43.333 18.333 64 -3c18.667 -20.667 25 -39 19 -55s-22.333 -25.333 -49 -28c-35.333 -4 -53 10.333 -53 43zM62 585c12 8.66699 25 7.49902 39 -3.50098s21.333 -25.5 22 -43.5v-59v-79c0 -28.667 -0.333008 -55.667 -1 -81
s-2 -47 -4 -65s-4.66699 -28 -8 -30c-6.66699 -12 -16 -19.667 -28 -23s-24.333 -1.66602 -37 5.00098c-7.33301 4 -11.5 13.5 -12.5 28.5s-0.166992 64.5 2.5 148.5c2.66699 80 5.66699 132.167 9 156.5s9.33301 39.5 18 45.5z" />
    <glyph glyph-name="quotedbl" unicode="&#x22;" horiz-adv-x="345" 
d="M72 600c10.667 12.667 23.332 17.6699 37.999 15.0029c19.333 -4 31.5 -14.333 36.5 -31s2.16699 -35.667 -8.5 -57c-8 -15.333 -13.333 -37.666 -16 -66.999c-1.33301 -20 -1.5 -33.833 -0.5 -41.5s4.83301 -15.834 11.5 -24.501
c10.667 -14.667 14.834 -25.834 12.501 -33.501s-11.5 -13.5 -27.5 -17.5c-36.667 -8.66699 -62.5 6.16602 -77.5 44.499s-14.5 87.166 1.5 146.499c8.66699 32 18.667 54 30 66zM207.998 576.003c28.667 56.667 60.668 71.3301 96.001 43.9971
c8.66699 -7.33301 12.5 -17.666 11.5 -30.999s-6.5 -26.666 -16.5 -39.999c-10 -14 -18.167 -33.667 -24.5 -59s-7.5 -43.666 -3.5 -54.999c1.33301 -4.66699 4.16602 -10.167 8.49902 -16.5s7.83301 -11.833 10.5 -16.5s3.66699 -10.167 3 -16.5
s-4.66699 -12.833 -12 -19.5c-15.333 -15.333 -36.333 -16.333 -63 -3c-22.667 12 -35 40 -37 84s7 87 27 129z" />
    <glyph glyph-name="dollar" unicode="$" horiz-adv-x="415" 
d="M261 125l0.00292969 -17.501c0 -7 0.166992 -14.833 0.5 -23.5s0.666016 -16.5 0.999023 -23.5s1.16602 -12.667 2.49902 -17s3.33301 -6.16602 6 -5.49902c7.33301 0 13.5 4.16699 18.5 12.5s6.16699 16.833 3.5 25.5c-2.66699 10 -13.334 26.333 -32.001 49z
M177.003 401.999c0 41.333 -1.99707 61.999 -5.99707 61.999c-4.66699 0 -14.334 -9 -29.001 -27s-23 -31.333 -25 -40c-2.66699 -10 -0.333984 -22 6.99902 -36s16.666 -24.667 27.999 -32c11.333 -8 18.333 -7.33301 21 2c2.66699 8.66699 4 32.334 4 71.001z
M282.006 568.998c14 0 33.001 -5.50098 57.001 -16.501s38 -20.5 42 -28.5c5.33301 -12.667 5.33301 -22.834 0 -30.501s-14.5 -11.667 -27.5 -12s-28.833 3.16699 -47.5 10.5c-22 10 -33.667 14.333 -35 13c-2 -1.33301 -3.33301 -46.833 -4 -136.5
s-0.333984 -135.167 0.999023 -136.5c52 -38 86.5 -75.5 103.5 -112.5s15.833 -70.833 -3.5 -101.5c-6.66699 -12 -16.334 -22.667 -29.001 -32s-23.667 -15.833 -33 -19.5s-24.333 -9.16699 -45 -16.5c0 -65.333 -3 -101.666 -9 -108.999
c-7.33301 -9.33301 -17.166 -14.666 -29.499 -15.999s-23.166 1.66699 -32.499 9c-7.33301 6 -12 13 -14 21s-3.66699 25.667 -5 53l-3 61l-32 16c-61.333 30.667 -92 73.667 -92 129c0 9.33301 4.66699 20 14 32s17.666 18 24.999 18c2 0 5.5 -3.83301 10.5 -11.5
s9.5 -16.5 13.5 -26.5c18.667 -44.667 36 -67 52 -67c4.66699 -2.66699 7.66699 4 9 20c0 3.33301 0.333008 37.666 1 102.999v13l-49 41c-60 50.667 -90 93.667 -90 129c0 62 36.333 116.333 109 163l45 29v54c0 24 1 40 3 48s6.66699 16.333 14 25
c21.333 22.667 41.333 22.334 60 -0.999023c6.66699 -8.66699 10.667 -16.667 12 -24s1.33301 -21.333 0 -42c-2 -32 1 -48 9 -48z" />
    <glyph glyph-name="percent" unicode="%" horiz-adv-x="714" 
d="M599 204c2 9.33301 0.666992 14.667 -4 16c-2.66699 0 -4.33398 -1.66699 -5.00098 -5l-1 -2c0 -3.33301 -5.33301 -6.66602 -16 -9.99902c-11.333 -3.33301 -22.666 -17.333 -33.999 -42s-13 -39.334 -5 -44.001c8 -5.33301 20.167 3 36.5 25s25.833 42.667 28.5 62z
M513 24.001c-29.333 0 -50.498 11.498 -63.498 34.498s-17.5 50 -13.5 81s14.333 60.167 31 87.5c11.333 18.667 17 30.334 17 35.001s7.33301 13.334 22 26.001s27.667 21.667 39 27c10 4.66699 18.833 6.16699 26.5 4.5s18.167 -7.16699 31.5 -16.5
c14 -8.66699 25.667 -13.334 35 -14.001c12.667 -2 24 -13.667 34 -35s14 -42.666 12 -63.999c-2 -20.667 -7.33301 -39 -16 -55s-23 -35 -43 -57c-18.667 -20 -36.334 -34 -53.001 -42s-36.334 -12 -59.001 -12zM150.002 470.999c-5.33301 0 -11.667 -10.5 -19 -31.5
s-10.333 -37.5 -9 -49.5l2 -19c14 19.333 23.667 42.333 29 69c2 20.667 1 31 -3 31zM338.001 -18.001c-6 0 -15.999 5.00098 -29.999 15.001c-10.667 7.33301 -16.667 13.666 -18 18.999s-1 19.666 1 42.999c0.666992 14 2.33398 28.833 5.00098 44.5
s5.33398 29.667 8.00098 42s6.66699 27.833 12 46.5l12 42c2.66699 9.33301 7.66699 24.5 15 45.5s12.166 34.5 14.499 40.5l16 42c8.33301 22 12.833 34.333 13.5 37c12.667 30 12.334 43.667 -0.999023 41c-2 -0.666992 -4.66699 -2 -8 -4
c-22 -12 -45.5 -20.5 -70.5 -25.5s-44.833 -5.5 -59.5 -1.5c-6.66699 1.33301 -18.334 -15.334 -35.001 -50.001c-27.333 -55.333 -59.333 -83 -96 -83c-29.333 0 -53.333 13.667 -72 41c-7.33301 10.667 -11.833 20.334 -13.5 29.001s-1.83398 24.667 -0.500977 48
c1.33301 34.667 10 67.334 26 98.001c38 74.667 82.333 112 133 112c25.333 0 40.666 -20.333 45.999 -61c1.33301 -15.333 6.83301 -27.666 16.5 -36.999s21.167 -14 34.5 -14c23.333 0 57.333 11.5 102 34.5s71.667 45.5 81 67.5c4 11.333 10.333 17.666 19 18.999
c30.667 6.66699 52.334 3.66699 65.001 -9c10.667 -10.667 15.334 -23.167 14.001 -37.5s-8 -27.166 -20 -38.499c-12.667 -12 -23.334 -26.5 -32.001 -43.5s-20.667 -46.167 -36 -87.5c-36.667 -100.667 -62.334 -177.834 -77.001 -231.501s-22.667 -102.5 -24 -146.5
c0 -6 -5.16699 -13.667 -15.5 -23s-18.833 -14 -25.5 -14z" />
    <glyph glyph-name="ampersand" unicode="&#x26;" horiz-adv-x="432" 
d="M331 773c16 10.667 33 6.99805 51 -11.002c8.66699 -8.66699 13.834 -19 15.501 -31s2.16699 -45.667 1.5 -101c-1.33301 -68.667 -1 -114.667 1 -138c1.33301 -10 1 -17 -1 -21s-7.33301 -8 -16 -12c-23.333 -12 -48 -5.66699 -74 19
c-8.66699 8.66699 -15.834 13.834 -21.501 15.501s-13.167 1.5 -22.5 -0.5c-14 -3.33301 -33 -11.166 -57 -23.499s-44.667 -24.666 -62 -36.999s-24.666 -20.5 -21.999 -24.5c4 -5.33301 37.667 -7.33301 101 -6c47.333 0.666992 76.166 0.333984 86.499 -0.999023
s19.833 -6 28.5 -14c12.667 -11.333 17.667 -24 15 -38c-1.33301 -8.66699 -1 -15 1 -19s7.33301 -8.66699 16 -14c13.333 -7.33301 21.333 -18.333 24 -33s1.66699 -38 -3 -70c-9.33301 -68 -8.66602 -115 2.00098 -141c6.66699 -14.667 8.66699 -29 6 -43
c-2.66699 -13.333 -11.5 -21.5 -26.5 -24.5s-29.833 0.833008 -44.5 11.5c-15.333 11.333 -25.5 26.666 -30.5 45.999s-6.16699 50.333 -3.5 93c1.33301 22.667 2 39.334 2 50.001s-0.666992 17.334 -2 20.001c-38 -20.667 -67.5 -33 -88.5 -37s-38.167 -1.33301 -51.5 8
c-26.667 17.333 -20.334 46.666 18.999 87.999c22.667 24 33.334 36.667 32.001 38c-2 1.33301 -18 3.33301 -48 6c-58.667 3.33301 -98.334 22.666 -119.001 57.999c-6 10.667 -9.16699 18.5 -9.5 23.5s2.16699 12.833 7.5 23.5c11.333 24 39.833 49.833 85.5 77.5
s89.5 45.5 131.5 53.5l45 8l7 71c6.66699 56.667 11.167 91.667 13.5 105s5.83301 21.666 10.5 24.999z" />
    <glyph glyph-name="quotesingle" unicode="'" horiz-adv-x="150" 
d="M120 464c0 -49.333 -0.666016 -81.5 -1.99902 -96.5s-4.33301 -25.167 -9 -30.5c-15.333 -17.333 -31.666 -16 -48.999 4c-10.667 11.333 -17.334 24.166 -20.001 38.499s-5.33398 49.833 -8.00098 106.5c-2 47.333 -2.5 77.333 -1.5 90s4.16699 22 9.5 28
c9.33301 10.667 20.5 15.334 33.5 14.001s23.833 -8 32.5 -20c6.66699 -9.33301 10.667 -21 12 -35s2 -47 2 -99z" />
    <glyph glyph-name="parenleft" unicode="(" horiz-adv-x="296" 
d="M30 223c0 35.333 1.33398 62.8281 4.00098 82.4951s8.66699 47.5 18 83.5c12 44 27.833 87.833 47.5 131.5s37.167 73.834 52.5 90.501c12 12.667 22 19.334 30 20.001s17.667 -4.66602 29 -15.999s17 -21.666 17 -30.999s-5.66699 -20.666 -17 -33.999
c-30 -36 -55.833 -99.5 -77.5 -190.5s-27.167 -159.167 -16.5 -204.5c5.33301 -20.667 16.833 -41.167 34.5 -61.5s38.5 -36.5 62.5 -48.5c43.333 -21.333 59.666 -39 48.999 -53c-10 -12 -32.5 -12.833 -67.5 -2.5s-67.167 27.5 -96.5 51.5
c-20.667 17.333 -37 37.333 -49 60c-9.33301 18 -15 32.833 -17 44.5s-3 37.5 -3 77.5z" />
    <glyph glyph-name="parenright" unicode=")" horiz-adv-x="240" 
d="M125 -81l-21 0.00292969c8 90 11.667 185.667 11 287c-0.666992 64 -1.83398 105.833 -3.50098 125.5s-6.83398 44.167 -15.501 73.5c-10.667 37.333 -25 74.666 -43 111.999c-14.667 29.333 -22.5 49.666 -23.5 60.999s4.16699 20.666 15.5 27.999
c18 13.333 33.667 15.833 47 7.5s28 -30.166 44 -65.499c66.667 -145.333 88.334 -305 65.001 -479c-6.66699 -52.667 -16.167 -90.834 -28.5 -114.501s-28.166 -35.5 -47.499 -35.5z" />
    <glyph glyph-name="asterisk" unicode="*" horiz-adv-x="530" 
d="M216 611c12 13.333 23 19.8291 33 19.4961s18.667 -4.5 26 -12.5s16.333 -21 27 -39c8.66699 -17.333 18.5 -26.833 29.5 -28.5s32.167 -0.166992 63.5 4.5c35.333 2.66699 60.5 2 75.5 -2s24.167 -12.667 27.5 -26c4 -14.667 0.333008 -28 -11 -40
s-33.333 -26.667 -66 -44c-26.667 -13.333 -42.667 -22.666 -48 -27.999c-2.66699 -5.33301 1 -14 11 -26c22.667 -28 35.5 -47.833 38.5 -59.5s-1.5 -23.5 -13.5 -35.5s-19.333 -18 -22 -18c-12.667 0 -37.334 17.667 -74.001 53c-26 26 -44.667 37.667 -56 35
c-12 -3.33301 -28.5 -14.5 -49.5 -33.5s-32.833 -33.833 -35.5 -44.5c-3.33301 -12 -11 -19.333 -23 -22s-24 0.333008 -36 9c-25.333 18 -28.333 42.333 -9 73c6.66699 10 11.5 22.833 14.5 38.5s7.83301 28.5 14.5 38.5c8.66699 12.667 11.5 21.334 8.5 26.001
s-13.833 8.66699 -32.5 12c-16 2.66699 -32 9.83398 -48 21.501s-26 23.5 -30 35.5c-2.66699 10 2.66602 21.333 15.999 34c8.66699 8 15.834 12.833 21.501 14.5s16.5 1.16699 32.5 -1.5c22.667 -2.66699 38.334 -6 47.001 -10c24.667 -13.333 39.667 -8.66602 45 14.001
c2 13.333 9.66699 27.333 23 42z" />
    <glyph glyph-name="plus" unicode="+" horiz-adv-x="556" 
d="M526 350c0 -18 -5.16406 -30.3369 -15.4971 -37.0039s-28.833 -9 -55.5 -7c-62 6 -109 9.66699 -141 11c4.66699 -77.333 10 -145.666 16 -204.999c4 -37.333 3.33301 -62.5 -2 -75.5s-17.666 -19.5 -36.999 -19.5h-6c-14.667 0 -24 3.33301 -28 10c-6 12 -12 65 -18 159
c-0.666992 6 -1.33398 16 -2.00098 30l-2 34c-2 35.333 -4.33301 55.333 -7 60c-1.33301 3.33301 -30.666 6.66602 -87.999 9.99902c-50.667 2.66699 -81.834 7.33398 -93.501 14.001s-16.834 22 -15.501 46c2.66699 38 21.667 52 57 42
c31.333 -8.66699 75.666 -11.667 132.999 -9c-4 58.667 -3 94.334 3 107.001c4.66699 8.66699 13.667 13.334 27 14.001s23.666 -2.66602 30.999 -9.99902c3.33301 -4 6.83301 -12.833 10.5 -26.5s7.16699 -30.5 10.5 -50.5s5.66602 -32.667 6.99902 -38
c54.667 -6 94.334 -9.33301 119.001 -10c37.333 -1.33301 62.833 -5.5 76.5 -12.5s20.5 -19.167 20.5 -36.5z" />
    <glyph glyph-name="comma" unicode="," horiz-adv-x="209" 
d="M42 172c18.667 21.333 43.9971 15.334 75.9971 -17.999c39.333 -41.333 59.666 -96.333 60.999 -165c0.666992 -23.333 -0.166016 -39.666 -2.49902 -48.999s-8.16602 -21 -17.499 -35c-8.66699 -12.667 -16.167 -21.5 -22.5 -26.5s-14.833 -8.16699 -25.5 -9.5
c-18 -2.66699 -31.333 0.666016 -40 9.99902c-8.66699 10 -12.834 19 -12.501 27s5.83301 18 16.5 30c14.667 17.333 20.334 41.333 17.001 72s-14.666 54.667 -33.999 72c-1.33301 1.33301 -6.66602 8.66602 -15.999 21.999c-7.33301 12 -11 24.5 -11 37.5
s3.66699 23.833 11 32.5z" />
    <glyph glyph-name="hyphen" unicode="-" horiz-adv-x="487" 
d="M30 244c0 24 4.83203 38.501 14.499 43.501s35.834 6.5 78.501 4.5c36.667 -2 82.334 -0.666992 137.001 4s94 10.667 118 18c18.667 6 30 9.16699 34 9.5s11 -1.83398 21 -6.50098c10.667 -2 18.167 -14 22.5 -36s0.5 -35.667 -11.5 -41
c-12 -9.33301 -43.833 -18.166 -95.5 -26.499s-112.834 -14.5 -183.501 -18.5c-20 -0.666992 -47.667 -2.33398 -83 -5.00098c-18 -1.33301 -31.167 2.16699 -39.5 10.5s-12.5 22.833 -12.5 43.5z" />
    <glyph glyph-name="period" unicode="." horiz-adv-x="172" 
d="M142 70c0 -10 -6.33203 -19 -18.999 -27s-26.667 -12 -42 -12c-12.667 0 -21.834 2 -27.501 6s-10.834 12 -15.501 24c-12.667 34 -9 59 11 75c8.66699 7.33301 19.334 11.166 32.001 11.499s24.667 -2.83398 36 -9.50098c4.66699 -3.33301 10 -13.166 16 -29.499
s9 -29.166 9 -38.499z" />
    <glyph glyph-name="slash" unicode="/" horiz-adv-x="399" 
d="M369 607c1.33301 -3.33301 -11.168 -33.834 -37.501 -91.501s-39.5 -87.167 -39.5 -88.5c-1.33301 -4 -23.166 -58 -65.499 -162s-70.5 -180.667 -84.5 -230c-10 -33.333 -17.167 -54.833 -21.5 -64.5s-10.833 -16.834 -19.5 -21.501c-12.667 -6.66699 -27 -7.5 -43 -2.5
s-25.333 13.167 -28 24.5c-6 22.667 34.333 139.334 121 350.001l111.5 269.5c13.667 31.667 23.167 49.834 28.5 54.501c14 11.333 30.5 12.333 49.5 3s28.5 -23 28.5 -41z" />
    <glyph glyph-name="zero" unicode="0" horiz-adv-x="423" 
d="M237 490c-0.666992 -6.66699 -4.66992 -19.835 -12.0029 -39.502s-11.333 -32.167 -12 -37.5c-2 -10 -4.66699 -15.333 -8 -16c-6.66699 1.33301 -10 14 -10 38c-0.666992 16.667 -1.66699 25.334 -3 26.001c-2 -0.666992 -4.33301 -2.66699 -7 -6
c-11.333 -15.333 -24.166 -51.666 -38.499 -108.999s-23.166 -107 -26.499 -149c-2.66699 -40 -1.66699 -66 3 -78s16 -18 34 -18c39.333 0 74.333 17.333 105 52s49.334 78.334 56.001 131.001c2.66699 19.333 -0.5 45.5 -9.5 78.5s-21.5 63.833 -37.5 92.5
c-16 30 -26.667 44.333 -32 43c-1.33301 -0.666992 -2 -3.33398 -2 -8.00098zM136.997 546.999c2.66699 4 5.66602 11.834 8.99902 23.501s9.33301 20.5 18 26.5c40.667 32 88.334 7 143.001 -75c92 -136 110.667 -259 56 -369
c-26.667 -54.667 -65.334 -93.334 -116.001 -116.001c-80.667 -36.667 -140.667 -31 -180 17c-18 22 -29.167 44.333 -33.5 67s-4.16602 55.667 0.500977 99c6 53.333 20.5 117 43.5 191s42.833 119.333 59.5 136z" />
    <glyph glyph-name="one" unicode="1" horiz-adv-x="164" 
d="M42 512c8 12.667 21.499 18.499 40.499 17.499s32.5 -9.16699 40.5 -24.5c5.33301 -9.33301 8.5 -25.333 9.5 -48s0.833008 -78 -0.5 -166c-1.33301 -118 -4.66602 -190.167 -9.99902 -216.5s-19.333 -42.166 -42 -47.499c-13.333 -2.66699 -25.333 1.33301 -36 12
c-8 8 -12.5 15 -13.5 21s0.166992 18.667 3.5 38c2.66699 8 4 77 4 207s1.33301 199 4 207z" />
    <glyph glyph-name="two" unicode="2" horiz-adv-x="368" 
d="M156 150c0 -3.33301 25.9971 -5.66699 77.9971 -7c43.333 0 71.5 -2.66699 84.5 -8s19.5 -17 19.5 -35s-8.66699 -29.5 -26 -34.5s-59.666 -8.83301 -126.999 -11.5l-119 -4l-18 19c-9.33301 10 -15.166 22 -17.499 36s0.166992 23 7.5 27c7.33301 7.33301 22 28 44 62
c89.333 140 135 228.333 137 265c0 8 -2.66699 12 -8 12c-6 0 -19 -6 -39 -18s-30 -20 -30 -24c0 -7.33301 -8.16699 -17.333 -24.5 -30s-28.833 -19 -37.5 -19c-26 0 -38.333 10.333 -37 31c1.33301 27.333 21 57 59 89c15.333 12.667 32 24 50 34
c22.667 13.333 48.334 20.333 77.001 21c19.333 0.666992 32.333 0 39 -2s13.667 -7.33301 21 -16c7.33301 -7.33301 12 -14.5 14 -21.5s3 -18.833 3 -35.5c-0.666992 -30 -8.5 -62.5 -23.5 -97.5s-43.5 -87.5 -85.5 -157.5c-27.333 -45.333 -41 -70.333 -41 -75z" />
    <glyph glyph-name="three" unicode="3" horiz-adv-x="452" 
d="M218 269c-9.33301 1.33301 -26.6699 -2.83105 -52.0029 -12.498s-40 -14.834 -44 -15.501c-10 0 -21 4.16699 -33 12.5s-19 16.833 -21 25.5c-6 23.333 7 42.333 39 57c22.667 10 53.667 36.167 93 78.5s59 70.5 59 84.5c0 13.333 -14.667 13 -44 -1
c-23.333 -12 -43 -26.333 -59 -43c-15.333 -16.667 -29.333 -23.667 -42 -21c-10.667 2.66699 -21.667 9.5 -33 20.5s-17 20.5 -17 28.5c0 6.66699 10.5 20.167 31.5 40.5s39.167 34.5 54.5 42.5c22 12 48 20.333 78 25s60 2.33398 90 -6.99902
c13.333 -4.66699 23.666 -19.834 30.999 -45.501s7.66602 -47.5 0.999023 -65.5c-8 -29.333 -36.667 -69.333 -86 -120c10.667 -5.33301 25.5 -10 44.5 -14s35.167 -9.66699 48.5 -17c43.333 -21.333 65 -60.333 65 -117c0 -18.667 -1.33301 -32 -4 -40
s-9.66699 -19.333 -21 -34c-26 -33.333 -59 -60.333 -99 -81c-18.667 -10 -44.667 -13.833 -78 -11.5s-64.333 9.5 -93 21.5c-24 11.333 -46.5 28 -67.5 50s-30.833 39.667 -29.5 53c0.666992 6.66699 2.33398 11.5 5.00098 14.5s6.83398 4.33301 12.501 4
s12.667 -2.5 21 -6.5s18.5 -10 30.5 -18c53.333 -34.667 101.666 -46.667 144.999 -36c14.667 4 30.834 14.167 48.501 30.5s29.834 32.166 36.501 47.499c4 8.66699 5.83301 15.167 5.5 19.5s-3.16602 9.5 -8.49902 15.5c-7.33301 8.66699 -22.666 16.667 -45.999 24
s-44 11 -62 11z" />
    <glyph glyph-name="four" unicode="4" horiz-adv-x="502" 
d="M260 298c14 -0.666992 22.666 1 25.999 5s5 13.333 5 28v8l-2 31c-18.667 -33.333 -31 -53.333 -37 -60c-2.66699 -2.66699 -4.5 -4.66699 -5.5 -6s-1.16699 -2.33301 -0.5 -3s1.83398 -1.16699 3.50098 -1.5s5.16699 -0.833008 10.5 -1.5zM323.999 583
c14 0 23.335 -1.00098 28.002 -3.00098s8.33398 -7.33301 11.001 -16c10.667 -30.667 18.334 -69.667 23.001 -117s4.66699 -88.666 0 -123.999c51.333 13.333 79.666 0 84.999 -40c6 -34 -11.667 -54.667 -53 -62c-14.667 -2.66699 -23.834 -5.33398 -27.501 -8.00098
s-5.83398 -9.33398 -6.50098 -20.001c-1.33301 -18 1 -39 7 -63s13.667 -41.333 23 -52c12 -14.667 18 -28.334 18 -41.001c0 -21.333 -10 -36 -30 -44s-37.667 -4.66699 -53 10c-14 12.667 -24.167 28.834 -30.5 48.501s-16.5 65.834 -30.5 138.501
c-1.33301 6.66699 -5.33301 10.5 -12 11.5s-26.334 0.833008 -59.001 -0.5c-77.333 -4 -126.833 -4.16699 -148.5 -0.5s-34.167 14.167 -37.5 31.5s-1 32.5 7 45.5s18.667 19.5 32 19.5c30 0.666992 64.167 22 102.5 64s67.5 90.333 87.5 145l15.5 39.5
c6.33301 15.667 9.5 23.834 9.5 24.501c5.33301 8.66699 18.333 13 39 13z" />
    <glyph glyph-name="five" unicode="5" horiz-adv-x="493" 
d="M370 243c0 14 -2.00195 23.9971 -6.00195 29.9971s-14.667 14.667 -32 26c-28 17.333 -63 22.5 -105 15.5s-73.667 -19.167 -95 -36.5c-10 -8.66699 -24.333 -12.667 -43 -12s-32.667 5.33398 -42 14.001c-6.66699 7.33301 -11 16.333 -13 27s-3.33301 32 -4 64
c-0.666992 49.333 3 83.333 11 102s26 35.334 54 50.001c26.667 14 53.667 25 81 33c31.333 8.66699 68.833 13.167 112.5 13.5s71.167 -3.83398 82.5 -12.501c8.66699 -7.33301 13.834 -18.5 15.501 -33.5s-1.16602 -26.167 -8.49902 -33.5
c-4.66699 -4.66699 -31.334 -7.66699 -80.001 -9c-48.667 -0.666992 -89.167 -7.16699 -121.5 -19.5s-50.5 -28.166 -54.5 -47.499c-3.33301 -13.333 -3.16602 -22 0.500977 -26s11.167 -4 22.5 0c28 11.333 65.5 16.5 112.5 15.5s81.833 -7.5 104.5 -19.5
c16.667 -8.66699 33.334 -20.834 50.001 -36.501s28.667 -31.167 36 -46.5c21.333 -42.667 19.666 -86.834 -5.00098 -132.501s-68 -85.5 -130 -119.5c-22 -11.333 -38.833 -18.666 -50.5 -21.999s-27.167 -5.33301 -46.5 -6c-56 -1.33301 -93.333 14.334 -112 47.001
c-12 20 -8 36.833 12 50.5s37.667 13.834 53 0.500977c22.667 -16 57 -12.667 103 10c26.667 13.333 49.667 31.333 69 54s29 42.667 29 60z" />
    <glyph glyph-name="six" unicode="6" horiz-adv-x="436" 
d="M321 285c-17.333 8.66699 -36.834 10.666 -58.501 5.99902s-41.667 -15.5 -60 -32.5s-27.5 -34.5 -27.5 -52.5c0 -11.333 8.33301 -26 25 -44c10.667 -12 18.5 -19 23.5 -21s12.833 -1.33301 23.5 2c13.333 3.33301 29.333 13.333 48 30s30.334 31.334 35.001 44.001
c12.667 33.333 9.66699 56 -9 68zM288.999 498.999c-48 0 -84.3311 -19.333 -108.998 -58c-9.33301 -15.333 -19.333 -36.666 -30 -63.999s-14.667 -42.333 -12 -45c1.33301 -1.33301 9.66602 4 24.999 16c36 27.333 79.833 38.166 131.5 32.499s85.167 -25.167 100.5 -58.5
c11.333 -24 14 -57.167 8 -99.5s-17.667 -75.166 -35 -98.499c-11.333 -14.667 -35 -30.667 -71 -48c-23.333 -12 -41 -19.333 -53 -22s-30 -4.33398 -54 -5.00098c-22.667 -0.666992 -38.834 0.166016 -48.501 2.49902s-20.5 7.16602 -32.5 14.499
c-38 24.667 -62.333 57.334 -73 98.001c-8.66699 32 -7.66699 78.333 3 139s27.334 113.334 50.001 158.001c18 36 36.333 62.833 55 80.5s41.334 29.167 68.001 34.5c24 5.33301 49.167 6.5 75.5 3.5s43.166 -8.83301 50.499 -17.5s11.166 -16.167 11.499 -22.5
s-3.16699 -14.5 -10.5 -24.5c-4.66699 -6.66699 -10.167 -11 -16.5 -13s-17.5 -3 -33.5 -3z" />
    <glyph glyph-name="seven" unicode="7" horiz-adv-x="487" 
d="M234 124c1.33301 40 10.998 98.8291 28.998 176.496s36 136.834 54 177.501c6.66699 14.667 7.33398 23.334 2.00098 26.001c-8.66699 2.66699 -56.667 -4.33301 -144 -21l-1 -1h-1h-2h-1l-1 -1h-1h-1h-1h-1l-1 -1h-1h-1l-96 -18l-18 18
c-10.667 10.667 -16.667 22.5 -18 35.5s2.66699 23.833 12 32.5c12 12 95.667 27.333 251 46c84.667 10 131.667 11.667 141 5c12.667 -8.66699 20 -22.5 22 -41.5s-2 -35.5 -12 -49.5c-25.333 -36.667 -49 -91.167 -71 -163.5s-34.333 -137.166 -37 -194.499
c-1.33301 -26 -3.16602 -43.167 -5.49902 -51.5s-6.83301 -15.166 -13.5 -20.499c-10.667 -8.66699 -23 -11.667 -37 -9c-30.667 6.66699 -46 25 -46 55z" />
    <glyph glyph-name="eight" unicode="8" horiz-adv-x="429" 
d="M225 276c-12 9.33301 -21.499 13.167 -28.499 11.5s-18.5 -10.834 -34.5 -27.501c-34.667 -36.667 -37 -58 -7 -64c24.667 -4.66699 46.667 -5.33398 66 -2.00098s32.666 10.333 39.999 21c3.33301 4.66699 0.833008 13.834 -7.5 27.501s-17.833 24.834 -28.5 33.501z
M273.001 536.001c0 7.33301 -16.3311 5.00098 -48.998 -6.99902c-18 -6.66699 -36.333 -16.167 -55 -28.5s-28.334 -21.5 -29.001 -27.5c0 -6 6.33301 -16 19 -30s21.667 -21 27 -21c7.33301 0 23.666 16.667 48.999 50s38 54.666 38 63.999zM399.003 559.002
c0 -14 -3.00293 -23.9971 -9.00293 -29.9971s-16.333 -9 -31 -9c-10 0 -16.333 -1 -19 -3s-4 -6.66699 -4 -14c0 -25.333 -15 -59 -45 -101l-12 -17c-8.66699 -12 -12.667 -20 -12 -24s7 -12 19 -24l3 -3l2.5 -2.5l3.5 -3.5c36.667 -34.667 55 -74 55 -118
c0 -18 -1.33301 -30 -4 -36s-10.667 -15 -24 -27c-17.333 -15.333 -33.333 -25.166 -48 -29.499s-40.667 -6.16602 -78 -5.49902c-26 0 -45 1.33301 -57 4s-28.667 9 -50 19c-31.333 15.333 -49.333 28 -54 38c-7.33301 13.333 -7.16602 33.166 0.500977 59.499
s19.834 48.5 36.501 66.5c9.33301 8.66699 25.666 26.334 48.999 53.001l-32 37c-27.333 29.333 -42.166 55.666 -44.499 78.999s5.83398 46.666 24.501 69.999c12.667 17.333 36 34.666 70 51.999s65.333 28.666 94 33.999c22 4.66699 38.167 6.66699 48.5 6
s28.833 -5.66699 55.5 -15c27.333 -8.66699 44.5 -16.334 51.5 -23.001s10.5 -17.667 10.5 -33z" />
    <glyph glyph-name="nine" unicode="9" horiz-adv-x="403" 
d="M270 597c-14 0 -37.501 -18 -70.501 -54s-56.833 -69.667 -71.5 -101c-15.333 -32.667 -19.333 -50.667 -12 -54c2 -0.666992 4.66699 -1 8 -1c20 0 49.5 23.167 88.5 69.5s60.5 83.833 64.5 112.5c2.66699 18.667 0.333984 28 -6.99902 28zM271.999 -4
c-14.667 0 -25.498 2.99805 -32.498 8.99805s-11.833 18.833 -14.5 38.5s-2.66699 45 0 76s7.66699 74.833 15 131.5c8.66699 75.333 10 113 4 113c-4.66699 -3.33301 -7 -9.66602 -7 -18.999c0 -10.667 -4.5 -19.167 -13.5 -25.5s-20.833 -9.5 -35.5 -9.5
c-18 0 -28.667 -2.33301 -32 -7c-3.33301 -5.33301 -18.666 -7 -45.999 -5c-56 4 -82.667 30.667 -80 80s34 114 94 194c10.667 14 30.5 32 59.5 54s51.5 36.333 67.5 43c15.333 5.33301 28.833 6 40.5 2s25.167 -14 40.5 -30c21.333 -21.333 34.166 -38.166 38.499 -50.499
s3.16602 -29.833 -3.50098 -52.5c-4.66699 -16 -9.33398 -36.5 -14.001 -61.5s-8 -45.5 -10 -61.5s-5 -42 -9 -78s-6.33301 -57.667 -7 -65c-2 -8.66699 -5.16699 -53 -9.5 -133s-8.5 -124.667 -12.5 -134c-3.33301 -6 -14.333 -9 -33 -9z" />
    <glyph glyph-name="colon" unicode=":" horiz-adv-x="188" 
d="M48 164c8.66699 8.66699 18.001 11.667 28.001 9c28 -8 46.333 -21.333 55 -40c8 -16 3.16699 -34.333 -14.5 -55s-35.834 -23 -54.501 -7c-38 31.333 -42.667 62.333 -14 93zM77.001 444c14 8.66699 24.332 12.833 30.999 12.5s15.334 -5.5 26.001 -15.5
c12 -9.33301 19.333 -25.333 22 -48c1.33301 -14.667 1.33301 -24.5 0 -29.5s-6.33301 -9.83301 -15 -14.5c-20.667 -13.333 -42 -12.833 -64 1.5s-30.667 33.5 -26 57.5c3.33301 16 12 28 26 36z" />
    <glyph glyph-name="semicolon" unicode=";" horiz-adv-x="192" 
d="M64 184c16.667 24 36.667 25.999 60 5.99902c11.333 -10 18.333 -22.167 21 -36.5s4.33398 -46.166 5.00098 -95.499c0.666992 -34.667 0 -58.667 -2 -72s-6.33301 -27 -13 -41c-20 -40 -47 -58.333 -81 -55c-14.667 1.33301 -22.667 5.5 -24 12.5s3 20.833 13 41.5
c9.33301 19.333 15.5 45 18.5 77s1.83301 62.667 -3.5 92c-4 23.333 -5.83301 38.5 -5.5 45.5s4.16602 15.5 11.499 25.5zM111 456.999c15.333 0 28.001 -7.16504 38.001 -21.498s14.167 -29.833 12.5 -46.5s-9.5 -28.334 -23.5 -35.001
c-32.667 -14.667 -56 2.66602 -70 51.999c-4.66699 8.66699 -0.833984 19.5 11.499 32.5s22.833 19.167 31.5 18.5z" />
    <glyph glyph-name="equal" unicode="=" horiz-adv-x="521" 
d="M463 255c0 -12 -1.33203 -20.334 -3.99902 -25.001s-8.33398 -9.33398 -17.001 -14.001c-11.333 -6 -63 -13.667 -155 -23s-147.333 -12.666 -166 -9.99902c-20 2.66699 -32.667 15 -38 37s-0.333008 41.333 15 58c14 14 37 15.667 69 5
c14.667 -5.33301 54 -4.66602 118 2.00098c83.333 8.66699 133.833 11.5 151.5 8.5s26.5 -15.833 26.5 -38.5zM491.001 407.999c0 -18 -3.33105 -29.002 -9.99805 -33.002c-12 -8 -61 -12 -147 -12h-70c-98 0 -157.333 0.5 -178 1.5s-34.334 4.83301 -41.001 11.5
c-9.33301 8 -14.333 19.833 -15 35.5s3.33301 27.5 12 35.5c7.33301 8 24.666 10.667 51.999 8c39.333 -4.66699 157 -5.66699 353 -3c15.333 0.666992 26.5 -2.66602 33.5 -9.99902s10.5 -18.666 10.5 -33.999z" />
    <glyph glyph-name="greater" unicode="&#x3e;" horiz-adv-x="521" 
d="M491 362c0 -16.667 -4.16699 -29.332 -12.5 -37.999s-25.166 -17.667 -50.499 -27c-81.333 -31.333 -153 -74 -215 -128c-15.333 -13.333 -30.666 -20.166 -45.999 -20.499s-25.666 5.83398 -30.999 18.501c-10.667 23.333 -10.334 42.666 0.999023 57.999
s45 41.666 101 78.999c41.333 27.333 62 43.333 62 48c0 2 -2 3.33301 -6 4c-18 4 -38.667 8.33301 -62 13c-49.333 10.667 -92.666 21.667 -129.999 33s-58.333 20 -63 26c-5.33301 7.33301 -8.33301 18.833 -9 34.5s1.66602 28.167 6.99902 37.5
c6 13.333 18.167 21.166 36.5 23.499s33.166 -2.5 44.499 -14.5c21.333 -21.333 82.666 -42 183.999 -62c108.667 -22 169 -37.667 181 -47c5.33301 -5.33301 8 -18 8 -38z" />
    <glyph glyph-name="question" unicode="?" horiz-adv-x="354" 
d="M179 185c22.667 12.667 43.667 7.83398 63 -14.499s23.333 -43.166 12 -62.499c-3.33301 -5.33301 -9.5 -11.333 -18.5 -18s-19 -11.334 -30 -14.001s-20.167 0.333008 -27.5 9c-14.667 11.333 -22 29.166 -22 53.499s7.66699 39.833 23 46.5zM324 515
c0 -42 -20.335 -88.334 -61.002 -139.001c-15.333 -19.333 -24.333 -37 -27 -53c-6.66699 -36 -21.667 -54 -45 -54c-30 0 -45 24.333 -45 73c0 16.667 1.66699 28.667 5 36s12.666 19.666 27.999 36.999c20.667 24.667 36.667 47.334 48 68.001
c7.33301 13.333 11.333 22.333 12 27s-1.66602 9.33398 -6.99902 14.001c-12.667 12 -31.167 15 -55.5 9s-45.5 -19.333 -63.5 -40c-29.333 -31.333 -52.666 -36.333 -69.999 -15c-10 12 -14.167 26 -12.5 42s8.83398 30.333 21.501 43c12 12 27 23.833 45 35.5
s32 18.834 42 21.501c10.667 1.33301 30 2.66602 58 3.99902c84.667 1.33301 127 -35 127 -109z" />
    <glyph glyph-name="at" unicode="@" horiz-adv-x="594" 
d="M268 309c6.66699 9.33301 9.33398 18.333 8.00098 27c-0.666992 8.66699 -4.33398 6.33398 -11.001 -6.99902c-8.66699 -18.667 -10.667 -28.334 -6 -29.001c1.33301 -0.666992 4.33301 2.33301 9 9zM159 254c0 16.667 6.33496 39.499 19.002 68.499
s26.334 52.167 41.001 69.5c17.333 19.333 39.333 36.5 66 51.5s46.334 21.167 59.001 18.5c20.667 -5.33301 35.667 -43 45 -113c6.66699 -47.333 15.5 -73.833 26.5 -79.5s25.5 8.83301 43.5 43.5c20.667 39.333 25.5 91.666 14.5 156.999s-32.167 111 -63.5 137
c-15.333 12.667 -33.666 18.834 -54.999 18.501s-41.333 -7.16602 -60 -20.499c-85.333 -62 -142.666 -171.667 -171.999 -329c-12 -65.333 -15.667 -123.666 -11 -174.999s16.667 -86 36 -104c18 -16.667 47.5 -24.167 88.5 -22.5s82.833 12.167 125.5 31.5
c57.333 26 89 39 95 39c2 0 3 -4 3 -12c-0.666992 -12.667 -9.33398 -28.167 -26.001 -46.5s-36.334 -33.833 -59.001 -46.5c-58.667 -32.667 -113.334 -49 -164.001 -49c-44.667 0 -78.334 6.33301 -101.001 19s-42.334 36.334 -59.001 71.001
c-10.667 22.667 -17 41 -19 55s-2.66699 49.667 -2 107c0.666992 62 4.16699 111.667 10.5 149s18.833 81.666 37.5 132.999c20.667 55.333 49.667 108 87 158s72.666 82.667 105.999 98c22 10 46.833 14.667 74.5 14s52.834 -6.33398 75.501 -17.001
c34.667 -16 62 -39.5 82 -70.5s36.667 -75.5 50 -133.5c6.66699 -30 10.167 -51 10.5 -63s-2.16699 -31 -7.5 -57c-6 -32.667 -13.5 -58.334 -22.5 -77.001s-22.833 -39.334 -41.5 -62.001c-21.333 -25.333 -47.5 -37.166 -78.5 -35.499s-55.833 15.167 -74.5 40.5l-15 21
l-18 -17c-10.667 -10 -24.834 -19 -42.501 -27s-32.167 -12 -43.5 -12c-14.667 0.666992 -28.5 8.33398 -41.5 23.001s-19.5 30 -19.5 46z" />
    <glyph glyph-name="A" unicode="A" horiz-adv-x="506" 
d="M279 473c13.333 31.333 18.334 49.001 15.001 53.001s-18.333 -8 -45 -36c-34.667 -38 -65.834 -92.5 -93.501 -163.5s-41.5 -131.167 -41.5 -180.5c0 -35.333 3.33301 -53.333 10 -54c3.33301 0 8.33301 4.66699 15 14c24 33.333 52.667 103.666 86 210.999
c24.667 79.333 42.667 131.333 54 156zM400.001 513.001c0 -13.333 -3.33398 -24.3291 -10.001 -32.9961c-6.66699 -9.33301 -17.334 -41.666 -32.001 -96.999c-13.333 -51.333 -22 -105 -26 -161s-1.66699 -94.667 7 -116c7.33301 -18 16.833 -26.5 28.5 -25.5
s28.834 12.5 51.501 34.5c16 15.333 26.833 24.666 32.5 27.999s11.167 3 16.5 -1c8 -7.33301 10.333 -23.333 7 -48s-10.666 -44.334 -21.999 -59.001c-17.333 -22.667 -40.166 -37.334 -68.499 -44.001s-53.833 -3.33398 -76.5 9.99902
c-13.333 7.33301 -25.666 19 -36.999 35s-18.666 31.333 -21.999 46c-4.66699 24 -14 22.333 -28 -5c-0.666992 -0.666992 -1.33398 -1.66699 -2.00098 -3c-23.333 -46 -55.333 -71 -96 -75c-15.333 -2 -26.333 -2.16699 -33 -0.5s-15 7.16699 -25 16.5
c-26 22.667 -37.667 63 -35 121s19 126 49 204c26 67.333 53 120 81 158s62 68.667 102 92c21.333 12.667 39.666 19.167 54.999 19.5s25.666 -5.5 30.999 -17.5c3.33301 -10.667 8.66602 -15.334 15.999 -14.001c6.66699 0.666992 14.334 -7 23.001 -23s13 -30 13 -42z" />
    <glyph glyph-name="B" unicode="B" horiz-adv-x="802" 
d="M694 168c0 16 -10.1641 30.5 -30.4971 43.5s-48.833 22.833 -85.5 29.5c-22.667 4 -47.667 6 -75 6s-47.333 -2 -60 -6c-23.333 -8 -45.5 -17.5 -66.5 -28.5s-32.167 -19.5 -33.5 -25.5c-5.33301 -34 -7 -86.667 -5 -158c69.333 2.66699 126.166 8 170.499 16
s82.166 23.333 113.499 46c19.333 12.667 36.166 26.667 50.499 42s21.5 27 21.5 35zM469.003 372l10.499 13.5c5 6.33301 8.33301 10.666 10 12.999s3.83398 5.83301 6.50098 10.5s3.83398 8.5 3.50098 11.5s-1.5 6.33301 -3.5 10s-5 7.5 -9 11.5
c-6.66699 3.33301 -22.834 3.5 -48.501 0.5s-40.5 -6.83301 -44.5 -11.5c-4 -4 -10.5 -17.667 -19.5 -41s-15.167 -41.333 -18.5 -54c-2 -9.33301 -2.33301 -14.666 -1 -15.999s6.66602 -1.33301 15.999 0c38.667 6 71.334 23.333 98.001 52zM409.002 -50
c-22 -1.33301 -37.501 -3.00586 -46.501 -5.00586s-14 -4.33301 -15 -7s-2.66699 -7.66699 -5 -15s-6.83301 -14.666 -13.5 -21.999c-8 -8.66699 -14 -13.334 -18 -14.001s-12 1.33301 -24 6c-13.333 5.33301 -23.666 13 -30.999 23s-9.33301 19.333 -6 28
c2 6.66699 -1 11.667 -9 15c-16.667 7.33301 -31.834 17.333 -45.501 30s-23.667 28.5 -30 47.5s-0.5 37.833 17.5 56.5c11.333 13.333 20 19.333 26 18s10.667 -10.666 14 -27.999c1.33301 -7.33301 3.66602 -14.333 6.99902 -21s7 -11.5 11 -14.5s7 -3.5 9 -1.5
c2.66699 2.66699 5.33398 25 8.00098 67c2.66699 31.333 3.33398 50.5 2.00098 57.5s-6.33301 14.167 -15 21.5c-12.667 10 -20 20.333 -22 31c-1.33301 7.33301 -3.83301 12.166 -7.5 14.499s-10.5 3.5 -20.5 3.5c-16.667 0 -35.334 3.83301 -56.001 11.5
s-37 17.167 -49 28.5c-10.667 10.667 -23.334 30.834 -38.001 60.501s-22 50.5 -22 62.5c0 10 3.83301 20.167 11.5 30.5s15.167 15.5 22.5 15.5c10.667 0 20.834 -4.66699 30.501 -14s16.5 -21.333 20.5 -36c12 -46 38 -69 78 -69c23.333 0 44 8.33301 62 25
c-11.333 8 -19.333 15.833 -24 23.5s-5.16699 17.334 -1.5 29.001s12.834 24.834 27.501 39.501c20 20.667 32 39 36 55c2.66699 14 8.5 29.5 17.5 46.5s16.167 26.5 21.5 28.5c14.667 6 28 5.83301 40 -0.5s19.667 -17.166 23 -32.499
c0.666992 -6.66699 3.33398 -10.667 8.00098 -12s15 -1.33301 31 0c82.667 6 132 -21 148 -81c4 -14 5.16699 -24.667 3.5 -32s-7.5 -21.333 -17.5 -42c-15.333 -32 -21.333 -49 -18 -51h7c10 0.666992 27.167 -1.66602 51.5 -6.99902s43.5 -11.333 57.5 -18
c61.333 -26 96.166 -63.167 104.499 -111.5s-12.167 -95.166 -61.5 -140.499c-61.333 -56.667 -161.333 -90 -300 -100z" />
    <glyph glyph-name="C" unicode="C" horiz-adv-x="481" 
d="M338 576c34.667 0 52.667 -34.998 54 -104.998c0.666992 -24.667 -2.83301 -42.5 -10.5 -53.5s-20.167 -16.5 -37.5 -16.5c-24 0 -41.667 16.667 -53 50c-11.333 32.667 -23.333 50.667 -36 54s-27.667 -7.33398 -45 -32.001
c-36.667 -54 -63.834 -120.167 -81.501 -198.5s-18.167 -133.5 -1.5 -165.5c6.66699 -12.667 18.167 -22.167 34.5 -28.5s33.833 -7.83301 52.5 -4.5c28.667 4.66699 56.5 18 83.5 40s60.167 57.333 99.5 106c22.667 27.333 36.334 40.666 41.001 39.999
c2 -0.666992 4 -2.33398 6 -5.00098c6 -8 8 -26 6 -54c-5.33301 -52.667 -35.166 -102.167 -89.499 -148.5s-109.833 -69.5 -166.5 -69.5c-60.667 0 -105.334 23 -134.001 69c-26 40.667 -35.167 97.334 -27.5 170.001s30.5 149.334 68.5 230.001
c20.667 43.333 42.167 77.166 64.5 101.499s47.166 40.833 74.499 49.5c12.667 4 22.834 5.33301 30.501 4s18.167 -6.33301 31.5 -15c16.667 -12 28.667 -18 36 -18z" />
    <glyph glyph-name="D" unicode="D" horiz-adv-x="746" 
d="M466 448c-16 4 -37.666 6.66602 -64.999 7.99902s-45.333 0.666016 -54 -2.00098c-4 -1.33301 -12.667 -3.33301 -26 -6c-8 -1.33301 -12.833 -4.16602 -14.5 -8.49902s-2.83398 -14.166 -3.50098 -29.499c0 -20 -3.66699 -66.5 -11 -139.5s-14 -129.167 -20 -168.5l26 4
c80.667 9.33301 157.167 38 229.5 86s108.833 93.667 109.5 137c0 19.333 -17 41 -51 65s-74 42 -120 54zM38.001 96.999c4 6 7.66699 10.333 11 13s6.16602 4.33398 8.49902 5.00098s6 2.16699 11 4.5s10.167 5.5 15.5 9.5c12 9.33301 22 13 30 11s12 -9 12 -21
c0 -11.333 6 -18.333 18 -21c10.667 -2.66699 20.834 -1.83398 30.501 2.49902s14.5 10.166 14.5 17.499c0 8 3.66699 48 11 120s12 113.333 14 124c2 11.333 1.16699 17.166 -2.5 17.499s-12.167 -5.16699 -25.5 -16.5c-22.667 -20 -43.667 -20.333 -63 -1
c-9.33301 9.33301 -13.666 21.5 -12.999 36.5s6 25.167 16 30.5c3.33301 1.33301 18.666 13 45.999 35c22.667 18.667 49.667 35.334 81 50.001s59 23.667 83 27h1h1l1 1h1h1h1h2c20 4 35 5.33301 45 4l44 -5c60.667 -7.33301 115.5 -25.166 164.5 -53.499
s83.167 -61.5 102.5 -99.5c22.667 -46 21.334 -94 -3.99902 -144s-70.666 -94 -135.999 -132c-38.667 -22 -68.834 -37.5 -90.501 -46.5s-48.834 -17.167 -81.501 -24.5c-19.333 -4 -43.333 -9.33301 -72 -16s-46.334 -10.667 -53.001 -12l-4 -51
c-1.33301 -23.333 -3.16602 -38.5 -5.49902 -45.5s-7.83301 -13.833 -16.5 -20.5c-8 -6 -14.333 -9.33301 -19 -10s-11.667 0.666016 -21 3.99902c-28.667 12.667 -38 40.334 -28 83.001c4 22 5.66699 33.333 5 34l-48 6c-38 4 -65.333 14 -82 30s-18.667 34 -6 54z" />
    <glyph glyph-name="E" unicode="E" horiz-adv-x="525" 
d="M309 552c32.667 12.667 58.8379 17.9941 78.5049 15.9941s31.5 -15.667 35.5 -41c2.66699 -15.333 -0.5 -27.5 -9.5 -36.5s-25.167 -15.5 -48.5 -19.5c-22 -4.66699 -42.667 -12 -62 -22s-32.666 -20.667 -39.999 -32l-27.5 -41c-17 -25.333 -27.167 -43.333 -30.5 -54
c-2 -9.33301 -2.33301 -14.833 -1 -16.5s5.66602 -1.5 12.999 0.5c6.66699 1.33301 27.667 10.333 63 27s53.666 25.334 54.999 26.001c8.66699 4 19 2.16699 31 -5.5s19.333 -16.834 22 -27.501c2 -8.66699 4.66699 -19.334 8 -32.001
c1.33301 -4.66699 -2.33398 -9.83398 -11.001 -15.501s-28.667 -16.167 -60 -31.5c-46 -21.333 -80 -39.666 -102 -54.999s-43.667 -36 -65 -62c-28.667 -34.667 -43.334 -64.167 -44.001 -88.5s12.333 -41.166 39 -50.499c33.333 -12 76.666 -8.33301 129.999 11
s100.333 48.333 141 87c12 11.333 21.833 20 29.5 26s14.167 9.33301 19.5 10s9.5 -0.833008 12.5 -4.5s5.5 -10.167 7.5 -19.5c7.33301 -33.333 -5.33398 -66 -38.001 -98c-16.667 -16.667 -40.834 -33.667 -72.501 -51s-58.5 -28.666 -80.5 -33.999
c-4.66699 -0.666992 -14.167 -2.66699 -28.5 -6s-25.166 -5.66602 -32.499 -6.99902c-32.667 -7.33301 -66 -6.66602 -100 2.00098s-60.667 23.334 -80 44.001c-26 28.667 -35.5 64.334 -28.5 107.001s30.167 90.334 69.5 143.001c16.667 22 26 36 28 42
s-0.666992 12.333 -8 19c-19.333 16 -14.333 54.667 15 116c15.333 33.333 40.833 68 76.5 104s67.5 59.333 95.5 70z" />
    <glyph glyph-name="F" unicode="F" horiz-adv-x="589" 
d="M218 140c-2 -8.66699 -2.83008 -25.168 -2.49707 -49.501s-0.5 -45.833 -2.5 -64.5s-6.66699 -30.334 -14 -35.001c-20.667 -22 -41.334 -22.333 -62.001 -1c-6 6.66699 -9.83301 14.667 -11.5 24s-2.5 27.333 -2.5 54v63l-27 -4
c-19.333 -3.33301 -35.333 0.166992 -48 10.5s-18.667 24.833 -18 43.5c0.666992 17.333 5 29.666 13 36.999s22.667 12 44 14c23.333 1.33301 36.666 4.33301 39.999 9c2 3.33301 0.666992 41.666 -4 114.999c-4 56 -4.83301 95 -2.5 117s9.16602 37.667 20.499 47
c5.33301 4.66699 17.333 7.33398 36 8.00098s37.667 -1 57 -5c24 -4.66699 66.5 0 127.5 14s104.5 29.333 130.5 46c22.667 14.667 38.334 21.167 47.001 19.5s14.667 -12.167 18 -31.5c2 -17.333 0.833008 -29.666 -3.5 -36.999s-17.166 -18 -38.499 -32
c-52.667 -34.667 -127 -58.667 -223 -72c-34.667 -3.33301 -52.667 -6.66602 -54 -9.99902c-2.66699 -2.66699 -5.66699 -26 -9 -70c-2.66699 -37.333 -2.33398 -58.166 0.999023 -62.499s17 -2.16602 41 6.50098c82.667 30 124 33.667 124 11
c-0.666992 -9.33301 -6.33398 -22 -17.001 -38c-11.333 -16.667 -40 -36.334 -86 -59.001l-70 -32z" />
    <glyph glyph-name="G" unicode="G" horiz-adv-x="724" 
d="M582 322c0 7.33301 -13.002 -0.998047 -39.002 -24.998c-19.333 -18.667 -38.666 -29.334 -57.999 -32.001s-33 -10.334 -41 -23.001c-6 -10 -19.667 -28.333 -41 -55c-14.667 -17.333 -22.667 -28 -24 -32s0.666992 -8.66699 6 -14
c10.667 -9.33301 49.334 -20.333 116.001 -33c20 -4 31.667 -7.33301 35 -10s4.33301 -9 3 -19c-2.66699 -13.333 0.333008 -20 9 -20c58.667 0 74.667 64 48 192c-9.33301 43.333 -14 67 -14 71zM532.998 525.002c0 -42.667 -6.00098 -88.665 -18.001 -137.998
c-1.33301 -5.33301 -1 -8 1 -8c3.33301 1.33301 13 10.666 29 27.999c22.667 24 41.667 36 57 36c19.333 0 33.833 -12.667 43.5 -38s21.834 -81.333 36.501 -168c8.66699 -50.667 12.334 -88.667 11.001 -114s-8.33301 -49.333 -21 -72
c-14 -25.333 -28.333 -41.166 -43 -47.499s-44.667 -9.5 -90 -9.5c-42.667 0 -71.834 2.16699 -87.501 6.5s-37.834 16.833 -66.501 37.5c-11.333 8.66699 -25.833 17 -43.5 25s-34.5 18.333 -50.5 31c-40 -18 -70.333 -28.333 -91 -31c-20.667 -3.33301 -49.667 -5 -87 -5
c-7.33301 0 -14 0.5 -20 1.5s-11 2.16699 -15 3.5s-8.66699 3.5 -14 6.5s-9 5.33301 -11 7l-11.5 9.5c-5.66699 4.66699 -9.5 7.66699 -11.5 9v208c22.667 14 39.334 16.167 50.001 6.5s12.334 -34.834 5.00098 -75.501c-6.66699 -42 -4.33398 -70.667 6.99902 -86
s34.333 -21 69 -17c19.333 2 30.333 4.66699 33 8s-1 10.666 -11 21.999l-17 17l14 26c6.66699 12 12.334 19.333 17.001 22s13.667 3.66699 27 3c18.667 0 35.667 -6.33301 51 -19c14.667 -12 23.667 -18 27 -18c2.66699 0 20 17.667 52 53c31.333 36 45.666 59 42.999 69
c-14 44 -17.667 85.667 -11 125c6.66699 45.333 13 77.833 19 97.5s14 35.167 24 46.5c25.333 27.333 53 28.333 83 3c10 -8.66699 16 -16 18 -22s3 -19 3 -39z" />
    <glyph glyph-name="H" unicode="H" horiz-adv-x="728" 
d="M624 515c1.33301 12 -8.66504 7.33301 -29.998 -14c-14 -14 -20.333 -22.333 -19 -25c0.666992 -1.33301 -3.83301 -9.66602 -13.5 -24.999s-13.834 -24 -12.501 -26c2.66699 -2.66699 10.167 2.16602 22.5 14.499s24.166 26.5 35.499 42.5s17 27 17 33zM591.002 590
c24 12.667 43.6631 16.335 58.9961 11.002s29 -20 41 -44c11.333 -28 8 -58.5 -10 -91.5s-56 -77.5 -114 -133.5l-64 -61l-3 -87c-1.33301 -38.667 -1.16602 -66.334 0.500977 -83.001s6.83398 -40 15.501 -70c16.667 -60 24 -93.667 22 -101
c-1.33301 -4 -5.33301 -8.33301 -12 -13c-10 -8 -21.333 -8.66699 -34 -2c-40 21.333 -65.333 94.333 -76 219l-5 64l-50 -48c-24 -23.333 -38.833 -39.5 -44.5 -48.5s-11.167 -25.833 -16.5 -50.5c-10.667 -49.333 -28.5 -86.5 -53.5 -111.5s-50.167 -30.833 -75.5 -17.5
c-14.667 7.33301 -24.667 15.333 -30 24s-8 20.667 -8 36c0 32 22.333 70.333 67 115c19.333 19.333 31.333 35.666 36 48.999c4.66699 10.667 10 33.834 16 69.501s8 54.834 6 57.501c-6.66699 -0.666992 -23.667 -6 -51 -16s-44.333 -15.333 -51 -16
c-38 -8 -71.333 -1 -100 21c-25.333 19.333 -32.666 39 -21.999 59c2.66699 6 7.33398 11.667 14.001 17c10 7.33301 19 10.333 27 9s19 -8 33 -20c6.66699 -6.66699 20.334 -8.66699 41.001 -6c23.333 4 54.666 22.5 93.999 55.5s59 57.167 59 72.5c0 7.33301 6 20 18 38
c11.333 15.333 23.5 24.333 36.5 27s23.167 -2.33301 30.5 -15c4 -8 5.33301 -22.5 4 -43.5s-4.66602 -35.167 -9.99902 -42.5c-3.33301 -4.66699 -8.83301 -21.834 -16.5 -51.501s-14.167 -58.334 -19.5 -86.001s-6.66602 -41.5 -3.99902 -41.5c4 2.66699 10.667 8 20 16
s17.666 14.333 24.999 19c17.333 12 29.833 24 37.5 36s15.834 33.667 24.501 65c15.333 51.333 36.166 97.5 62.499 138.5s53.166 68.167 80.499 81.5z" />
    <glyph glyph-name="I" unicode="I" horiz-adv-x="539" 
d="M450 452c-1.33301 3.33301 -1.99902 3 -1.99902 -1c-2.66699 -15.333 -2.33398 -23.333 0.999023 -24l1 4c1.33301 7.33301 1.33301 14.333 0 21zM485.001 -18c-14.667 0 -29.8311 7.00098 -45.498 21.001s-26.834 30.333 -33.501 49c-8 23.333 -13.667 35 -17 35
c-2 0 -15 -11.333 -39 -34c-18.667 -18.667 -35.334 -31.334 -50.001 -38.001s-38.334 -12.667 -71.001 -18c-36 -5.33301 -71.333 -3.5 -106 5.5s-59.334 22.833 -74.001 41.5c-5.33301 6 -10.666 18 -15.999 36c-4 15.333 -2.33301 29 5 41s28.333 35 63 69
c52.667 51.333 93.334 77.666 122.001 78.999c7.33301 0 14.833 -3.83301 22.5 -11.5s11.5 -14.834 11.5 -21.501s-6.16699 -16 -18.5 -28s-27.5 -23.667 -45.5 -35c-12.667 -7.33301 -30 -23.333 -52 -48c-13.333 -16 -20.5 -25.5 -21.5 -28.5s1.5 -6.83301 7.5 -11.5
c14.667 -8.66699 28.834 -13.5 42.501 -14.5s34.167 1.5 61.5 7.5c29.333 6.66699 49.666 14 60.999 22s29 28 53 60c13.333 17.333 21 30 23 38s2.66699 25.667 2 53c-4.66699 102 -4.66699 171.333 0 208c7.33301 64 21.333 107 42 129c16 16.667 33.667 20.667 53 12
s31.666 -26 36.999 -52c17.333 -92.667 6.33301 -197 -33 -313c-8 -24 -12.5 -41.167 -13.5 -51.5s0.166992 -26.833 3.5 -49.5c4.66699 -33.333 14.334 -64.666 29.001 -93.999c6 -12 10.167 -21.667 12.5 -29s3.33301 -13.166 3 -17.499s-2 -7.33301 -5 -9
s-7.5 -2.5 -13.5 -2.5z" />
    <glyph glyph-name="J" unicode="J" horiz-adv-x="651" 
d="M329 303c-5.33301 0 -17.6689 -7 -37.002 -21s-35 -27.333 -47 -40c-28.667 -31.333 -48 -67.666 -58 -108.999s-9.16699 -79.5 2.5 -114.5s32.834 -58.833 63.501 -71.5c6 0 12 -3.66699 18 -11c6.66699 -8 15.5 -11.333 26.5 -10s19.167 6.66602 24.5 15.999
c6.66699 12 10.334 75 11.001 189c1.33301 114.667 0 172 -4 172zM330.997 371c6 101.333 8.66602 154.669 7.99902 160.002c-2.66699 2.66699 -28.667 -18.333 -78 -63c-18.667 -16.667 -45.5 -45.834 -80.5 -87.501s-55.5 -68.834 -61.5 -81.501
c-7.33301 -15.333 -9.66602 -24.666 -6.99902 -27.999c2.66699 -2 26 6.16699 70 24.5s71 31.166 81 38.499c14 10.667 36.667 23 68 37zM620.996 419.003c0 -8.66699 -7.00195 -18.4961 -21.002 -29.4961s-26.333 -16.5 -37 -16.5c-10.667 0.666992 -16 3 -16 7
c4 7.33301 1 11 -9 11c-9.33301 0 -26.666 -3.66699 -51.999 -11c-33.333 -10 -52.666 -17 -57.999 -21c-12.667 -9.33301 -19.667 -33.333 -21 -72c-0.666992 -11.333 -1.33398 -54.333 -2.00098 -129c-0.666992 -24 -1.16699 -51.833 -1.5 -83.5
s-0.666016 -54.834 -0.999023 -69.501s-1.33301 -29.5 -3 -44.5s-4.5 -26.5 -8.5 -34.5h27c17.333 0 30 -0.666992 38 -2s10.333 -4.33301 7 -9c-2.66699 -6.66699 -19.667 -10.334 -51 -11.001c-26.667 0 -39 -1.33301 -37 -4c13.333 -5.33301 13.333 -9.66602 0 -12.999
c-7.33301 -2 -17.333 -3 -30 -3c-26 0 -39 2 -39 6c0 4.66699 -25.333 8.33398 -76 11.001c-50 2.66699 -76.667 7.66699 -80 15c-0.666992 2 -0.833984 3.5 -0.500977 4.5s1.5 2 3.5 3s4.5 1.66699 7.5 2s7.16699 0.5 12.5 0.5c16 0 24.667 2 26 6s-3.66699 11.667 -15 23
c-18.667 18.667 -31 52.167 -37 100.5s-3.33301 91.166 8 128.499c7.33301 25.333 11 38.666 11 39.999c-0.666992 2 -3.5 2.83301 -8.5 2.5s-11.5 -1.5 -19.5 -3.5s-15.667 -4.33301 -23 -7c-36 -14.667 -61.667 -14 -77 2c-5.33301 6 -8 11.5 -8 16.5s2.33301 15.5 7 31.5
c6.66699 21.333 15.334 40 26.001 56c15.333 21.333 36.666 48.5 63.999 81.5s46.333 54.5 57 64.5c106.667 101.333 167.334 156 182.001 164c5.33301 0.666992 14.5 -3 27.5 -11s20.167 -14.333 21.5 -19c2.66699 -8.66699 4 -37.334 4 -86.001s-1.66699 -78 -5 -88
c-2 -8 -0.333008 -12 5 -12c3.33301 0 10.333 2 21 6c49.333 19.333 91.833 28.666 127.5 27.999s53.5 -11 53.5 -31z" />
    <glyph glyph-name="K" unicode="K" horiz-adv-x="629" 
d="M313 380c0 3.33301 11.334 12.6641 34.001 27.9971c7.33301 4 34 27.167 80 69.5s74.667 65.833 86 70.5c8.66699 0 18.334 -6 29.001 -18s16 -22.667 16 -32c-1.33301 -23.333 -16.333 -42.333 -45 -57c-16.667 -8.66699 -51.334 -40.334 -104.001 -95.001
c26 -5.33301 51.833 -14.166 77.5 -26.499s43.834 -25.5 54.501 -39.5c30 -40 45 -106.333 45 -199c0 -50.667 2.66699 -87.334 8 -110.001c4 -14.667 5.66699 -24.5 5 -29.5s-4 -10.167 -10 -15.5c-10 -8.66699 -22 -14 -36 -16c-10 -2 -17.167 -2 -21.5 0
s-9.83301 7.66699 -16.5 17c-6.66699 10 -10.834 21.833 -12.501 35.5s-2.83398 47.5 -3.50098 101.5c-0.666992 50.667 -2.33398 86.5 -5.00098 107.5s-8 37.167 -16 48.5s-22 21.666 -42 30.999c-21.333 10 -46.666 16.167 -75.999 18.5s-48.333 -0.5 -57 -8.5
c-0.666992 -0.666992 -15.5 -13.167 -44.5 -37.5s-44.167 -40.166 -45.5 -47.499c-5.33301 -23.333 -9.33301 -57.166 -12 -101.499s-2.66699 -74.166 0 -89.499c4.66699 -22 2.66699 -39.333 -6 -52c-9.33301 -13.333 -21 -20.166 -35 -20.499s-26 5.83398 -36 18.501
c-7.33301 9.33301 -11.5 19.333 -12.5 30s-0.5 38 1.5 82c2.66699 52.667 2.33398 81.334 -0.999023 86.001c-2.66699 4 -12.334 3.33301 -29.001 -2c-2 0 -3.66699 -0.333008 -5 -1c-6.66699 -2 -15.667 0.666992 -27 8s-17.333 14.333 -18 21
c0 0.666992 -0.166992 2 -0.5 4s-0.833008 4.33301 -1.5 7s-1 5 -1 7c0.666992 11.333 40 56 118 134c1.33301 23.333 5.66602 59.166 12.999 107.499s11.333 86.833 12 115.5c0 28 5.33301 47.333 16 58c18.667 19.333 38.334 18.333 59.001 -3
c8 -8.66699 12.667 -16.334 14 -23.001s1 -20.667 -1 -42c-0.666992 -6.66699 -2.16699 -18 -4.5 -34s-4.83301 -31.833 -7.5 -47.5s-5.16699 -32 -7.5 -49s-3.33301 -29.833 -3 -38.5s1.83301 -14 4.5 -16c4 -2 16.667 3.83301 38 17.5s32 22.834 32 27.501z" />
    <glyph glyph-name="L" unicode="L" horiz-adv-x="612" 
d="M170 145c0 -3.33301 -3.99707 -9.66797 -11.9971 -19.001c-7.33301 -8 -13.333 -19.167 -18 -33.5s-6.83398 -27 -6.50098 -38s3.16602 -16.5 8.49902 -16.5c4.66699 0 12.834 10.167 24.501 30.5s21.5 42.166 29.5 65.499l7.5 22
c2.33301 6.66699 3.66602 11.834 3.99902 15.501s0.166016 5.83398 -0.500977 6.50098c-4 -0.666992 -11.167 -5.5 -21.5 -14.5s-15.5 -15.167 -15.5 -18.5zM352.003 547.998c0 7.33301 9.00195 14.834 27.002 22.501s32.667 10.167 44 7.5c14 -3.33301 23 -8.5 27 -15.5
s7.33301 -23.167 10 -48.5c6 -55.333 -10 -106.666 -48 -153.999c-16.667 -22 -25 -34 -25 -36c0 -3.33301 12.333 -6.33301 37 -9c22 -2.66699 38.5 -7 49.5 -13s25.5 -18 43.5 -36c22.667 -22.667 38.5 -48.834 47.5 -78.501s14.5 -73.834 16.5 -132.501
c2 -58 1.16699 -96.833 -2.5 -116.5s-12.167 -31.834 -25.5 -36.501c-4 -4 -9.16699 -5.16699 -15.5 -3.5s-11.333 3.66699 -15 6s-8.33398 5.83301 -14.001 10.5s-9.83398 7.66699 -12.501 9v111c0 46.667 -0.833008 78.334 -2.5 95.001s-5.5 31.334 -11.5 44.001
c-7.33301 14.667 -15.5 27.167 -24.5 37.5s-16.5 15.5 -22.5 15.5c-5.33301 0 -11 3 -17 9s-19.167 10.833 -39.5 14.5s-35.5 4.16699 -45.5 1.5c-4.66699 -1.33301 -10 -8.5 -16 -21.5s-11.833 -27.333 -17.5 -43s-9.16699 -24.834 -10.5 -27.501
c-8 -31.333 -20 -64.5 -36 -99.5s-31.333 -58.5 -46 -70.5c-4 -2.66699 -10 -7.83398 -18 -15.501s-15.5 -13 -22.5 -16s-16.5 -4.5 -28.5 -4.5c-11.333 0 -20 1.5 -26 4.5s-13 9.5 -21 19.5c-12 16 -17.667 31.167 -17 45.5s7.66699 39.833 21 76.5c13.333 36 24 61 32 75
s21 29.667 39 47s25.667 28 23 32c-2.66699 3.33301 -12.667 7 -30 11c-12.667 2 -28.667 11 -48 27s-33.666 32 -42.999 48c-33.333 56 -45 124 -35 204c2 16 4.5 27.167 7.5 33.5s8.5 11.833 16.5 16.5c12 6.66699 20.5 9.83398 25.5 9.50098s11.5 -3.5 19.5 -9.5
c4.66699 -4 7.66699 -11 9 -21s1.66602 -32.333 0.999023 -67c-0.666992 -36 0 -60 2 -72s7 -26 15 -42c7.33301 -13.333 14 -23 20 -29s14.333 -11 25 -15c38 -12.667 65.667 -12.667 83 0c8 6 18.667 27.667 32 65c24 66.667 41.333 104.667 52 114c7.33301 6 11 13 11 21
z" />
    <glyph glyph-name="M" unicode="M" horiz-adv-x="910" 
d="M458 583c10 0 22.835 -7.00293 38.502 -21.0029s24.834 -27 27.501 -39c2.66699 -11.333 5.66699 -17 9 -17c2.66699 1.33301 11.667 12 27 32c13.333 18.667 30.166 33.5 50.499 44.5s37.5 14.833 51.5 11.5c29.333 -7.33301 46.833 -28.5 52.5 -63.5
s3.16699 -104.833 -7.5 -209.5c-10.667 -103.333 -4.33398 -166.666 18.999 -189.999c6.66699 -6.66699 12.5 -10.667 17.5 -12s13.167 -0.333008 24.5 3c15.333 4.66699 35.333 14 60 28c20.667 12 33.5 18.5 38.5 19.5s9.16699 -2.5 12.5 -10.5
c3.33301 -9.33301 -1.33398 -24.833 -14.001 -46.5s-27 -38.5 -43 -50.5c-37.333 -28.667 -74.833 -37.167 -112.5 -25.5s-63.167 39.834 -76.5 84.501c-6.66699 22.667 -10.167 60.834 -10.5 114.501s2.5 104.167 8.5 151.5c10 77.333 9.66699 114.333 -1 111
c-8.66699 -3.33301 -20.5 -17.833 -35.5 -43.5s-26.833 -51.834 -35.5 -78.501c-11.333 -34 -22 -83.667 -32 -149c-8.66699 -56.667 -14.667 -90.5 -18 -101.5s-10 -18.5 -20 -22.5c-26 -10.667 -46.667 -1.66699 -62 27c-6 11.333 -9.16699 20.333 -9.5 27
s1.83398 18.667 6.50098 36c23.333 85.333 34.666 156.333 33.999 213c-0.666992 62 -8 93 -22 93c-7.33301 0 -19.5 -9.5 -36.5 -28.5s-31.167 -39.167 -42.5 -60.5c-29.333 -55.333 -51 -116.333 -65 -183c-4 -16.667 -5.33301 -40 -4 -70
c1.33301 -38.667 -3.16699 -66.5 -13.5 -83.5s-26.166 -23.167 -47.499 -18.5c-14 3.33301 -24.333 12.333 -31 27c-5.33301 11.333 -8 24.166 -8 38.499s3 50.833 9 109.5c5.33301 50.667 8 77 8 79c-1.33301 5.33301 -10.666 1 -27.999 -13
c-18.667 -15.333 -40.167 -24.166 -64.5 -26.499s-44.5 2.16699 -60.5 13.5l-22 14v59c0 129.333 2.66699 194 8 194c6 -6 10.667 -31 14 -75c2.66699 -42 9.66699 -72 21 -90c12 -17.333 22.5 -26.5 31.5 -27.5s21.833 6.16699 38.5 21.5
c21.333 19.333 41.666 46.333 60.999 81s33.666 70.334 42.999 107.001c4.66699 19.333 12 34 22 44c9.33301 8.66699 20 13.167 32 13.5s22.333 -3.5 31 -11.5c7.33301 -7.33301 11.333 -19.333 12 -36s-2.66602 -29.667 -9.99902 -39c-11.333 -15.333 -14 -22.333 -8 -21
s15.667 8.33301 29 21c31.333 30 65.666 45 102.999 45z" />
    <glyph glyph-name="N" unicode="N" horiz-adv-x="590" 
d="M30 312l-0.000976562 128.009c18 -30.667 31.667 -48 41 -52c20 -10.667 43.5 -1 70.5 29s49.167 71.667 66.5 125c11.333 32.667 19.833 52.167 25.5 58.5s19.5 11.833 41.5 16.5c6.66699 1.33301 14.5 -5.83398 23.5 -21.501s12.833 -28.5 11.5 -38.5
c-0.666992 -5.33301 0.333008 -8 3 -8c4.66699 1.33301 17 8.33301 37 21c22.667 14.667 44.334 21 65.001 19c12.667 -0.666992 21.834 -2.5 27.501 -5.5s11.834 -9.5 18.501 -19.5c13.333 -20.667 21.833 -45.834 25.5 -75.501s3.16699 -73.834 -1.5 -132.501
c-1.33301 -22 -3.16602 -48.333 -5.49902 -79s-4 -51.5 -5 -62.5s-1.83301 -25.333 -2.5 -43s-0.833984 -29.5 -0.500977 -35.5s1 -14.333 2 -25s2.33301 -19.5 4 -26.5s4.16699 -15.833 7.5 -26.5c22.667 -0.666992 47 0.666016 73 3.99902l2 -25
c2 -24.667 -8.83301 -42.334 -32.5 -53.001s-49.167 -9.33398 -76.5 3.99902c-28.667 14.667 -47 41.834 -55 81.501s-8.66699 104.834 -2 195.501c2 26.667 3.83301 53 5.5 79s3 44.667 4 56s1.83301 23.666 2.5 36.999s1 21.666 1 24.999s-0.666992 8.66602 -2 15.999
s-2.5 12.333 -3.5 15l-6.5 17c-44.667 -44.667 -76.334 -86.334 -95.001 -125.001c-28.667 -62 -51 -152 -67 -270c-10.667 -84.667 -37.334 -110.334 -80.001 -77.001c-10 8 -15.833 18.5 -17.5 31.5s0.833008 32.833 7.5 59.5c2 8.66699 8.16699 40.5 18.5 95.5
s16.833 86.833 19.5 95.5c2.66699 7.33301 1 11 -5 11c-4 0 -9 -3 -15 -9c-13.333 -16 -33.5 -24.5 -60.5 -25.5s-50.5 4.16699 -70.5 15.5z" />
    <glyph glyph-name="O" unicode="O" horiz-adv-x="491" 
d="M258 31c-14.667 0 -33.334 14.6689 -56.001 44.002s-42.667 64.666 -60 105.999c-3.33301 9.33301 -5.66602 18.666 -6.99902 27.999c-2.66699 12.667 -5.66699 10 -9 -8s-6.33301 -46 -9 -84c-2.66699 -45.333 -2.16699 -76.5 1.5 -93.5s12.167 -29.833 25.5 -38.5
c18.667 -12.667 48.667 -8.66699 90 12c24 12 36 21.667 36 29c0 3.33301 -4 5 -12 5zM255 475.002c1.33301 -6 -0.167969 -12.665 -4.50098 -19.998s-8.66602 -12.833 -12.999 -16.5s-11 -9 -20 -16s-14.167 -11.167 -15.5 -12.5c-4 -83.333 1.66699 -151 17 -203
s45.333 -101.667 90 -149c35.333 49.333 59.333 108.666 72 177.999c10 52.667 6 124 -12 214c-11.333 56 -26 88.667 -44 98c-22 12 -45.333 11.667 -70 -1c-19.333 -9.33301 -25.333 -20.333 -18 -33c2 -2.66699 4.33301 -5.33398 7 -8.00098
c7.33301 -6 11 -16.333 11 -31zM234.999 629.004c29.333 9.33301 59.502 9.49902 90.502 0.499023s52.5 -24.167 64.5 -45.5c45.333 -83.333 68.666 -182.666 69.999 -297.999c0.666992 -41.333 0 -69.833 -2 -85.5s-7.33301 -36.167 -16 -61.5
c-29.333 -84 -72.833 -149.333 -130.5 -196s-115.5 -63.334 -173.5 -50.001c-21.333 5.33301 -41.833 17 -61.5 35s-32.167 37 -37.5 57c-12 44 -12 108.667 0 194s31.333 157 58 215c16 35.333 27.667 68 35 98c10.667 41.333 23.667 72.333 39 93
s36.666 35.334 63.999 44.001z" />
    <glyph glyph-name="P" unicode="P" horiz-adv-x="696" 
d="M296 303c16 0 46 7.66699 90 23s75.333 29.333 94 42c28.667 18 54.5 42 77.5 72s33.167 52.667 30.5 68c-1.33301 9.33301 -9.83301 19.666 -25.5 30.999s-32.167 19 -49.5 23c-33.333 8.66699 -67 11.667 -101 9s-58.667 -9.66699 -74 -21
c-7.33301 -5.33301 -12.5 -11.666 -15.5 -18.999s-5.16699 -20.333 -6.5 -39c-2 -18.667 -8.16699 -46.5 -18.5 -83.5s-16.5 -61.833 -18.5 -74.5c-2 -14.667 -2.33301 -23.5 -1 -26.5s7.33301 -4.5 18 -4.5zM666 501c0 -26 -5.33691 -48.8311 -16.0039 -68.498
s-30.667 -44.167 -60 -73.5c-86 -84 -194.667 -129.333 -326 -136c-6 -30.667 -9.33301 -75.334 -10 -134.001c-0.666992 -34 -1.66699 -55.667 -3 -65s-5.66602 -17.666 -12.999 -24.999c-15.333 -22 -37 -20.667 -65 4c-6 6.66699 -9.16699 16.167 -9.5 28.5
s1.5 44.833 5.5 97.5c6 74 6.33301 114.667 1 122c-6 6.66699 -26.667 10 -62 10c-39.333 -0.666992 -62.166 1.66602 -68.499 6.99902s-9.5 24.666 -9.5 57.999v55l17 -13c28.667 -22.667 62 -25.334 100 -8.00098l33 16c-31.333 8.66699 -50.333 19.334 -57 32.001
c-6.66699 13.333 -4.16699 31 7.5 53s36.834 57 75.501 105c17.333 21.333 30.333 35.5 39 42.5s20.334 12.167 35.001 15.5c6 2 17.333 5.16699 34 9.5s28 7.16602 34 8.49902c26 7.33301 58.167 10.833 96.5 10.5s70.833 -4.83301 97.5 -13.5
c42.667 -13.333 74 -31.166 94 -53.499s30 -50.5 30 -84.5z" />
    <glyph glyph-name="Q" unicode="Q" horiz-adv-x="618" 
d="M195 31c-36.667 38 -65.002 111.331 -85.002 219.998c5.33301 -86 10.333 -135.667 15 -149c4.66699 -17.333 15.334 -35.666 32.001 -54.999s31.334 -30.666 44.001 -33.999c8 -2 12 -2.33301 12 -1c-1.33301 2.66699 -7.33301 9 -18 19zM326.998 58.998
c24 0 27.333 7 10 21c-6.66699 5.33301 -10 12 -10 20c0 7.33301 -8 23.333 -24 48c-27.333 42 -36.333 69.333 -27 82c4.66699 6.66699 12.5 12.334 23.5 17.001s20.333 7.16699 28 7.5s12.167 -1.83398 13.5 -6.50098c0 -4.66699 3.33301 -7 10 -7
c7.33301 0 12.333 -6.33301 15 -19c3.33301 -14.667 12 -35 26 -61s23.333 -39 28 -39c10.667 0 24.667 22.667 42 68c10 26 15 67.333 15 124c0 100.667 -15 167 -45 199c-14 14.667 -31 21.667 -51 21c-36.667 -0.666992 -70 -10.667 -100 -30
s-50.667 -43.666 -62 -72.999c-8 -21.333 -14.333 -53 -19 -95c-5.33301 -42.667 -4.83301 -85.334 1.5 -128.001s16.833 -74.334 31.5 -95.001c11.333 -15.333 25.833 -28.166 43.5 -38.499s34.5 -15.5 50.5 -15.5zM312.998 596.998
c13.333 4.66699 33.332 6.83301 59.999 6.5s49.667 -3.16602 69 -8.49902c21.333 -5.33301 38.333 -16.666 51 -33.999s24.667 -45 36 -83l11 -35c4 -12.667 6.66699 -21.334 8 -26.001s2.83301 -11.834 4.5 -21.501s2.66699 -20 3 -31s0.833008 -25.833 1.5 -44.5
c0.666992 -48 -3.66602 -89.667 -12.999 -125c-7.33301 -25.333 -18 -52.666 -32 -81.999s-24.667 -46.333 -32 -51c-17.333 -8 -4.66602 -29.667 38.001 -65c22 -18 37.333 -28.333 46 -31c11.333 -4 18.333 -8.66699 21 -14s3.33398 -15 2.00098 -29
c-1.33301 -10 -3.33301 -17 -6 -21s-8.33398 -6.66699 -17.001 -8c-17.333 -4 -34 -2.66699 -50 4s-36.667 20.667 -62 42l-47 41l-47 -25c-63.333 -33.333 -124.833 -38.833 -184.5 -16.5s-101.5 66.833 -125.5 133.5c-8.66699 23.333 -14 42.833 -16 58.5
s-2.66699 42.834 -2 81.501c0.666992 60.667 6 104.667 16 132c8.66699 25.333 19.5 52.166 32.5 80.499s21.5 43.166 25.5 44.499c1.33301 0.666992 9.16602 10.5 23.499 29.5s25.833 29.5 34.5 31.5c4 1.33301 20.5 11.5 49.5 30.5s49.5 28.833 61.5 29.5
c18.667 1.33301 32 3.33301 40 6z" />
    <glyph glyph-name="R" unicode="R" 
d="M608 532c-19.333 16.667 -61.4971 29.499 -126.497 38.499s-111.5 8.5 -139.5 -1.5c-10.667 -3.33301 -17.334 -8.33301 -20.001 -15s-6 -29 -10 -67c-0.666992 -3.33301 -1.33398 -8 -2.00098 -14c-5.33301 -50.667 -6 -79.334 -2 -86.001c2 -3.33301 9 -6 21 -8
c2.66699 -0.666992 4.66699 -1 6 -1c5.33301 -0.666992 15.5 -2.16699 30.5 -4.5s25.167 -3.83301 30.5 -4.5c31.333 -4.66699 71.666 7.33301 120.999 36s81.333 58.334 96 89.001c6 10.667 8.66699 17.834 8 21.501s-5 9.16699 -13 16.5zM355.003 275.999
l-58.998 0.00292969c0 -10 -0.166992 -20.333 -0.5 -31s-0.833008 -25.5 -1.5 -44.5l-2 -54.5c-1.33301 -42 -3.16602 -68.5 -5.49902 -79.5s-7.5 -20.167 -15.5 -27.5c-12 -10.667 -21.333 -15.334 -28 -14.001s-15.667 9 -27 23c-9.33301 12 -14.333 21.667 -15 29
s0.666016 27.666 3.99902 60.999c5.33301 48 8 90.667 8 128c0 13.333 -0.166992 23.666 -0.5 30.999s-1 13.166 -2 17.499s-2.16699 6.83301 -3.5 7.5s-3.33301 0.666992 -6 0c-47.333 -18 -93 -6 -137 36l-34 33c0 16 0.666992 39.5 2 70.5s2 54.167 2 69.5l24 -44
c15.333 -27.333 32.166 -49.666 50.499 -66.999s32.833 -24.666 43.5 -21.999c28 8 47.333 20.333 58 37c8.66699 12.667 10 20 4 22c-2 1.33301 -5.33301 -0.333984 -10 -5.00098c-13.333 -13.333 -26.666 -11.666 -39.999 5.00098c-15.333 18.667 -19.333 39 -12 61
c0.666992 2 1.66699 4 3 6c30 58.667 78.333 99 145 121c68.667 23.333 160.334 18.666 275.001 -14.001c36 -11.333 64.333 -27.333 85 -48c19.333 -18.667 31.666 -36.5 36.999 -53.5s4.33301 -35.833 -3 -56.5c-4.66699 -16.667 -22 -40.5 -52 -71.5
s-54.333 -50.833 -73 -59.5c-7.33301 -3.33301 -13.5 -7 -18.5 -11s-6.83301 -6.66699 -5.5 -8c6 -4.66699 18.167 -12.667 36.5 -24s35.166 -22.833 50.499 -34.5s27.666 -22.834 36.999 -33.501c64.667 -66 96 -118 94 -156c-1.33301 -18 -11.333 -29.333 -30 -34
c-22 -5.33301 -43 14 -63 58c-24.667 52.667 -66 95.334 -124 128.001s-121.667 49 -191 49z" />
    <glyph glyph-name="S" unicode="S" horiz-adv-x="619" 
d="M503 476c3.33301 20.667 2.33496 30.6689 -2.99805 30.002l-4 -5c-1.33301 -2 -4 -12.667 -8 -32c-2.66699 -16.667 -2.33398 -24.334 0.999023 -23.001c5.33301 1.33301 9.66602 10 12.999 26c0.666992 1.33301 1 2.66602 1 3.99902zM464.002 230.002
c0 -42 2.66797 -80.9922 8.00098 -116.992c4.66699 -34.667 10.5 -55.334 17.5 -62.001s23.167 -7.66699 48.5 -3c14.667 3.33301 26.834 3.5 36.501 0.5s14.5 -7.83301 14.5 -14.5c0 -6 -6 -16.333 -18 -31c-8.66699 -9.33301 -16.5 -15.333 -23.5 -18
s-19.833 -4.33398 -38.5 -5.00098c-27.333 0 -48.666 -4.33301 -63.999 -13c-28 -16.667 -65 -15.334 -111 3.99902c-30.667 12 -49.667 18 -57 18c-13.333 0 -24 5.66699 -32 17s-11.333 23.666 -10 36.999s7.66602 22.666 18.999 27.999s28.666 4.66602 51.999 -2.00098
c26.667 -8 58.667 -11.333 96 -10l-5 61c-4 45.333 -8.66699 69.333 -14 72c-4 2 -13.667 -3.33301 -29 -16c-9.33301 -8 -48 -37 -116 -87c-33.333 -24 -69.333 -45.833 -108 -65.5s-62.667 -27.834 -72 -24.501c-6.66699 2 -13 8.66699 -19 20s-9 21.666 -9 30.999
c1.33301 22.667 17.333 35.334 48 38.001c25.333 2.66699 74.166 29.667 146.499 81s118.166 88.333 137.499 111c14 14 22.5 25 25.5 33s5.83301 26.333 8.5 55c8.66699 107.333 26.667 174.666 54 201.999c18.667 18.667 41 24.5 67 17.5s43.333 -24.167 52 -51.5
c19.333 -60.667 -5.66699 -132.667 -75 -216c-15.333 -17.333 -24.166 -29.833 -26.499 -37.5s-3.5 -25.167 -3.5 -52.5z" />
    <glyph glyph-name="T" unicode="T" horiz-adv-x="772" 
d="M661 604c24 0 39.1709 -0.837891 45.5039 -2.50488s12.833 -6.83398 19.5 -15.501c18.667 -24 20.167 -56.667 4.5 -98s-46.834 -85.666 -93.501 -132.999c-19.333 -20.667 -29 -32.667 -29 -36c0 -4.66699 -5.66699 -10.667 -17 -18c-12 -7.33301 -22.667 -28 -32 -62
c-2 -8.66699 -10.333 -37 -25 -85s-23.667 -81 -27 -99c-3.33301 -14.667 -8.66602 -30.5 -15.999 -47.5s-12.666 -25.5 -15.999 -25.5c-4 0 -7.33301 -5 -10 -15c-3.33301 -9.33301 -12.333 -21.166 -27 -35.499s-29 -25.166 -43 -32.499
c-14.667 -7.33301 -39.5 -13.666 -74.5 -18.999s-57.5 -6 -67.5 -2c-12 4 -28.333 6 -49 6c-42 0 -72.667 18.667 -92 56c-8 14.667 -16.167 25.167 -24.5 31.5s-17.166 16.166 -26.499 29.499c-24.667 32.667 -34.834 64.5 -30.501 95.5s20.833 46.5 49.5 46.5
c15.333 0 29.333 -8 42 -24c12 -15.333 16.667 -26.666 14 -33.999c-2.66699 -5.33301 11.666 -25 42.999 -59s50.666 -51 57.999 -51c8 0 22.333 6 43 18s37 23.667 49 35c8 8 16.5 15 25.5 21s16 12.167 21 18.5s11.167 17.5 18.5 33.5c13.333 28 21.666 42 24.999 42
c4 0 7.33301 6.33301 10 19c0 2 4.83301 22.833 14.5 62.5s13.167 62.5 10.5 68.5c-6.66699 6.66699 -20 8.33398 -40 5.00098s-39 -10.666 -57 -21.999c-23.333 -16 -36 -26.667 -38 -32c-2.66699 -7.33301 -11.667 -12.666 -27 -15.999c-16 -4 -24.333 -12 -25 -24
c1.33301 -11.333 -7.5 -21.666 -26.5 -30.999s-33.833 -9.33301 -44.5 0c-16.667 8.66699 -25.667 19.667 -27 33s4.66699 33.666 18 60.999c30 59.333 91 99.333 183 120c27.333 6 57.666 16 90.999 30c12 5.33301 20.667 11.5 26 18.5s12.333 21.167 21 42.5
c10 25.333 19.667 44.166 29 56.499s26.666 29.833 51.999 52.5c8.66699 7.33301 17.167 12 25.5 14s23.833 3 46.5 3z" />
    <glyph glyph-name="U" unicode="U" horiz-adv-x="682" 
d="M652 76c0 -27.333 -13 -47.0029 -39 -59.0029s-51 -10 -75 6c-10 6.66699 -22.5 19.834 -37.5 39.501s-22.5 32.834 -22.5 39.501c0 10.667 -5 10 -15 -2c-5.33301 -6 -10.333 -14.333 -15 -25c-10 -21.333 -27.5 -44.666 -52.5 -69.999s-47.167 -42.333 -66.5 -51
c-50.667 -23.333 -93.334 -17.833 -128.001 16.5s-58 94.166 -70 179.499c-6.66699 48 -10 84.667 -10 110c0 28.667 -2 43 -6 43s-15 -8.33301 -33 -25c-25.333 -22.667 -40.333 -33.5 -45 -32.5s-7 15.5 -7 43.5c0 21.333 1 35.833 3 43.5s7 15.834 15 24.501
c21.333 22.667 41.333 50.834 60 84.501s32.334 66.5 41.001 98.5c4.66699 19.333 12 34 22 44c7.33301 7.33301 17.833 11.5 31.5 12.5s23.167 -1.83301 28.5 -8.5c14.667 -18 14.334 -50 -0.999023 -96c-22 -66.667 -31.667 -147 -29 -241c1.33301 -59.333 8 -110 20 -152
s26.667 -66.333 44 -73c29.333 -10 67.333 19 114 87c28 41.333 47.167 76.333 57.5 105s17.166 66 20.499 112c4 49.333 9.83301 96.166 17.5 140.499s14.834 71.5 21.501 81.5c5.33301 8 14.666 13.833 27.999 17.5s24.333 3.16699 33 -1.5
c6 -3.33301 12 -13.833 18 -31.5s7.66699 -30.167 5 -37.5c-11.333 -84 -26 -166 -44 -246c-3.33301 -11.333 -2 -34 4 -68c5.33301 -32.667 15.666 -57.667 30.999 -75c10 -11.333 17.5 -18 22.5 -20s14.5 -2 28.5 0c14.667 2 23.334 2.33301 26.001 1s4 -6.33301 4 -15z
" />
    <glyph glyph-name="V" unicode="V" horiz-adv-x="562" 
d="M121 297c0 40 -3.00293 79.6699 -9.00293 119.003l-41.5 -39.5c-18.333 -17.667 -31.833 -31.167 -40.5 -40.5v41c0 26 0.666992 45.667 2 59s4.33301 20.666 9 21.999c11.333 9.33301 25.833 28.666 43.5 57.999s28.834 52.666 33.501 69.999
c3.33301 14.667 8.83301 27.334 16.5 38.001s17.167 17.5 28.5 20.5s24 -2.16699 38 -15.5c10.667 -10 16.334 -19.333 17.001 -28s-2.66602 -25 -9.99902 -49c-7.33301 -24.667 -11 -73 -11 -145s3.66699 -125.667 11 -161c7.33301 -33.333 17.333 -63 30 -89
s24 -39.667 34 -41c11.333 -1.33301 28 11.167 50 37.5s42 58.166 60 95.499c46.667 94.667 77 192 91 292c0.666992 6.66699 1.66699 13 3 19s2.5 11.5 3.5 16.5s2 9.33301 3 13s2 6.33398 3 8.00098s1.83301 2.5 2.5 2.5c6.66699 -0.666992 15.167 -12.5 25.5 -35.5
s16.166 -43.5 17.499 -61.5c5.33301 -48.667 -12.834 -124.167 -54.501 -226.5s-83.167 -173.833 -124.5 -214.5c-33.333 -32.667 -66.166 -44.167 -98.499 -34.5s-61.166 39.834 -86.499 90.501c-11.333 21.333 -21.833 51.166 -31.5 89.499s-14.5 68.166 -14.5 89.499z
" />
    <glyph glyph-name="W" unicode="W" 
d="M675 471c-8.66699 0 -15.8311 -3.50195 -21.498 -10.502s-13.167 -22.167 -22.5 -45.5c-10 -28.667 -16.833 -68.667 -20.5 -120s-1.16699 -89.333 7.5 -114c17.333 28.667 32.166 63.834 44.499 105.501s19.5 81.834 21.5 120.501c2 31.333 2.66699 49.833 2 55.5
s-4.33398 8.5 -11.001 8.5zM33.0029 240.998c4 0 11 -4.99707 21 -14.9971c10 -9.33301 20 -12.5 30 -9.5s25.667 13.5 47 31.5c40 32.667 69 76 87 130c20.667 63.333 49.334 80.333 86.001 51c12.667 -10 19 -21 19 -33s-6 -30 -18 -54s-21.167 -48 -27.5 -72
s-13.166 -59 -20.499 -105c-5.33301 -39.333 -7.16602 -75 -5.49902 -107s6.16699 -48 13.5 -48c3.33301 0 12.166 10.667 26.499 32s26.833 42 37.5 62c5.33301 8 13.166 32.333 23.499 73s18.5 64.667 24.5 72c8 8.66699 19 12.667 33 12s24.667 -5.66699 32 -15
c5.33301 -6.66699 8.5 -15.5 9.5 -26.5s0.833008 -34.167 -0.5 -69.5c-2.66699 -54.667 0 -90.334 8 -107.001c8 -17.333 16 -26 24 -26c6.66699 0 19 8.83301 37 26.5s34.667 37.167 50 58.5c20.667 27.333 24 41 10 41c-16 12 -27 38.5 -33 79.5s-7.5 82.833 -4.5 125.5
s8.5 77.667 16.5 105c15.333 43.333 38 71.666 68 84.999c13.333 5.33301 30.166 8.33301 50.499 9s35.5 -1.33301 45.5 -6c24.667 -13.333 38 -51.166 40 -113.499s-8.33301 -126.166 -31 -191.499c-11.333 -34 -30.666 -75.167 -57.999 -123.5s-53 -86.833 -77 -115.5
c-19.333 -22.667 -36.833 -38.167 -52.5 -46.5s-34.834 -12.5 -57.501 -12.5c-20.667 -0.666992 -40 4.16602 -58 14.499s-30.333 23.166 -37 38.499c-5.33301 12 -10 18 -14 18s-9.66699 -6 -17 -18c-26 -40.667 -56.5 -62.334 -91.5 -65.001s-61.833 14.333 -80.5 51
c-6.66699 13.333 -11 26.333 -13 39s-2.66699 36.334 -2 71.001v82c-38 -24 -85 -34 -141 -30c0 4 -0.5 14.667 -1.5 32s-1.5 32.666 -1.5 45.999s1 21.333 3 24z" />
    <glyph glyph-name="X" unicode="X" horiz-adv-x="500" 
d="M373 632c22.667 18.667 43.6611 18.668 62.9941 0.000976562c10 -10 14.333 -22.167 13 -36.5s-8 -28.166 -20 -41.499c-12 -14 -28.833 -41.5 -50.5 -82.5s-31.167 -62.833 -28.5 -65.5c2 -2 1.83301 -3.33301 -0.5 -4s-5 -1.5 -8 -2.5s-4.16699 -2.5 -3.5 -4.5
c-1.33301 -5.33301 -6.66602 -16.666 -15.999 -33.999l-32 -58c-12 -21.333 -19.667 -35.333 -23 -42l25 -44c22 -38.667 48.833 -72.5 80.5 -101.5s55.167 -41.5 70.5 -37.5c9.33301 3.33301 16.5 1 21.5 -7s7 -17.5 6 -28.5s-3.83301 -19.167 -8.5 -24.5
c-6.66699 -6.66699 -19.5 -9.33398 -38.5 -8.00098s-36.5 6 -52.5 14c-16 8.66699 -39.333 28 -70 58s-50 52.667 -58 68c-7.33301 14 -12.666 21 -15.999 21s-15.666 -18 -36.999 -54c-21.333 -39.333 -42.5 -72.833 -63.5 -100.5s-35.833 -41.5 -44.5 -41.5
c-7.33301 0 -17.833 6.5 -31.5 19.5s-20.5 22.833 -20.5 29.5c0 8.66699 10 24.667 30 48c14.667 18 33.834 46.667 57.501 86s39.167 68.666 46.5 87.999c3.33301 9.33301 4.5 18.166 3.5 26.499s-5.83301 22.5 -14.5 42.5c-18.667 44 -35.667 90.667 -51 140
s-23 81.666 -23 96.999c0 19.333 3.5 30.166 10.5 32.499s20.167 -2.5 39.5 -14.5c14.667 -9.33301 24.334 -18.166 29.001 -26.499s12 -29.166 22 -62.499c14.667 -50 24.667 -81 30 -93c4.66699 -12 9 -18 13 -18c6.66699 0.666992 23.667 27.334 51 80.001
c6.66699 12 16.334 30.667 29.001 56c26.667 51.333 43.667 82.333 51 93c6 8 8.5 14.167 7.5 18.5s2.83301 9.16602 11.5 14.499z" />
    <glyph glyph-name="Y" unicode="Y" horiz-adv-x="733" 
d="M382 96c-0.666992 17.333 -3.00293 26.002 -7.00293 26.002c-2 0 -9.33301 -11 -22 -33c-1.33301 -1.33301 -2.33301 -2.66602 -3 -3.99902c-8.66699 -16.667 -14.167 -30.834 -16.5 -42.501s-3.5 -31.834 -3.5 -60.501c0 -11.333 0.333008 -22.166 1 -32.499
s1.33398 -18.5 2.00098 -24.5s2.33398 -13.5 5.00098 -22.5s4.5 -14.833 5.5 -17.5s3.66699 -9.33398 8 -20.001s6.83301 -17.334 7.5 -20.001c10.667 41.333 18.334 125 23.001 251zM353.997 374.002c0 8 2.66602 13.998 7.99902 17.998c9.33301 5.33301 25 41 47 107
l19 53c24 4 44 3.16699 60 -2.5s21.667 -17.5 17 -35.5c-25.333 -98.667 -36 -180.334 -32 -245.001c58.667 25.333 111 40.333 157 45c44.667 4.66699 68.667 -5.66602 72 -30.999c1.33301 -12 -3.16699 -20.667 -13.5 -26s-28.166 -8.33301 -53.499 -9
c-54 0.666992 -109 -14.666 -165 -45.999c-2.66699 -22.667 -6.66699 -80.667 -12 -174s-10.666 -155.666 -15.999 -186.999c-2 -5.33301 -1.66699 -8.83301 1 -10.5s10 -2.5 22 -2.5c20 0 29.667 -2.66699 29 -8c-2 -4 -10.667 -6.33301 -26 -7
c-7.33301 -1.33301 -13.333 -1.5 -18 -0.5s-8.66699 1.16699 -12 0.5s-5.66602 -2.66699 -6.99902 -6c0 -4.66699 -17.167 -7 -51.5 -7s-53.166 2.33301 -56.499 7c-0.666992 2.66699 -10.667 4.83398 -30 6.50098s-29.333 4.16699 -30 7.5c0 4.66699 8.33301 7 25 7
c10.667 0 17.334 0.833008 20.001 2.5s3 5.16699 1 10.5c-14 32 -23.167 57.833 -27.5 77.5s-6.83301 46.5 -7.5 80.5c0 31.333 1 53 3 65s7.33301 26.667 16 44c11.333 24 30.666 50.333 57.999 79c16 18 26.333 31.167 31 39.5s7 18.166 7 29.499
c0 15.333 -2 22.666 -6 21.999c-4 0 -12.667 -10.667 -26 -32c-25.333 -40 -63.333 -73.667 -114 -101c-22 -12 -44 -16.667 -66 -14c-37.333 3.33301 -60 21.333 -68 54c-8 29.333 5 95.333 39 198c20.667 60.667 30 92 28 94c-6.66699 0.666992 -13.667 -3.33301 -21 -12
s-15 -19.5 -23 -32.5s-14.333 -21.833 -19 -26.5c-12.667 -14 -28.334 -20 -47.001 -18s-30.667 11.333 -36 28c-2.66699 9.33301 7.66602 28 30.999 56s46.333 49.333 69 64c22 14 44.5 20.833 67.5 20.5s40.167 -7.16602 51.5 -20.499c10 -12.667 13.667 -30 11 -52
s-13.334 -61.667 -32.001 -119c-23.333 -78.667 -35.666 -134.667 -36.999 -168c27.333 10 60.666 37 99.999 81s60.333 76 63 96z" />
    <glyph glyph-name="Z" unicode="Z" horiz-adv-x="740" 
d="M407 238c0 2 -2 3 -6 3s-13.333 -8.83301 -28 -26.5s-22 -28.834 -22 -33.501c-1.33301 -5.33301 -4.33301 -13.666 -9 -24.999s-8.5 -22.666 -11.5 -33.999s-4.83301 -22.333 -5.5 -33c-2 -22.667 -2 -34 0 -34l7 7c7.33301 12.667 15.833 32.167 25.5 58.5
s18.167 47.166 25.5 62.499c16 36 24 54.333 24 55zM400 31c0 -2.66699 -8.33691 -17.3262 -25.0039 -43.9932s-24.667 -41.334 -24 -44.001c0 -10 -10.667 -15.167 -32 -15.5s-35.666 4.5 -42.999 14.5c-4 6.66699 -4.33301 34 -1 82c2 33.333 4.66699 56.833 8 70.5
s10.333 31.167 21 52.5c34.667 67.333 57.334 109.666 68.001 126.999s24.667 32.666 42 45.999c17.333 14 27.5 23.667 30.5 29s4.5 17.333 4.5 36c0 16 -0.833008 26.167 -2.5 30.5s-5.16699 6.5 -10.5 6.5c-21.333 0 -50.833 -16.333 -88.5 -49
s-66.834 -67.334 -87.501 -104.001c-12 -21.333 -20.167 -33.666 -24.5 -36.999s-13.166 -4.33301 -26.499 -3c-23.333 3.33301 -38 10.666 -44 21.999s-2.33301 26 11 44c7.33301 11.333 19.5 42.666 36.5 93.999s26.833 87.666 29.5 108.999c2.66699 19.333 1 29 -5 29
c-7.33301 0 -21.833 -11.5 -43.5 -34.5s-41.834 -48.167 -60.501 -75.5c-23.333 -33.333 -39.333 -52.666 -48 -57.999c-23.333 -11.333 -39.333 -9 -48 7c-6 11.333 -7.83301 21.333 -5.5 30s9.5 20.667 21.5 36c16 20 27.333 35.333 34 46
c11.333 17.333 27.833 36.833 49.5 58.5s41.834 38.5 60.501 50.5c46.667 30 83.334 31.667 110.001 5c8.66699 -9.33301 13.667 -17.833 15 -25.5s1 -27.167 -1 -58.5c-2.66699 -42 -1 -63.333 5 -64c4 1.33301 9.66699 5.33301 17 12c22.667 22 57.334 33 104.001 33
c34 -0.666992 56.167 -5.5 66.5 -14.5s16.5 -28.833 18.5 -59.5c1.33301 -20 2.83301 -31.833 4.5 -35.5s6.16699 -4.83398 13.5 -3.50098c35.333 8.66699 63 12 83 10s38.333 -10.333 55 -25c16 -12.667 23.5 -25.334 22.5 -38.001s-10.5 -23 -28.5 -31
c-12 -6 -19.833 -8.66699 -23.5 -8s-9.16699 6 -16.5 16l-15 20l-113 -26c-8 -22.667 -18.833 -49.667 -32.5 -81l-46.5 -104.5z" />
    <glyph glyph-name="underscore" unicode="_" horiz-adv-x="60" 
 />
    <glyph glyph-name="grave" unicode="`" horiz-adv-x="185" 
d="M75 603c9.33301 15.333 21.334 23.167 36.001 23.5s26.334 -7.16699 35.001 -22.5c6.66699 -10.667 9.83398 -18.5 9.50098 -23.5s-4.83301 -16.5 -13.5 -34.5c-11.333 -23.333 -19.833 -49.833 -25.5 -79.5s-7.16699 -52.834 -4.5 -69.501
c7.33301 -42.667 6 -67.667 -4 -75c-8.66699 -5.33301 -18.834 -5.5 -30.501 -0.5s-21.834 13.833 -30.501 26.5c-10.667 16 -16.334 41.333 -17.001 76c0 27.333 4.5 58.833 13.5 94.5s19.5 63.834 31.5 84.501z" />
    <glyph glyph-name="a" unicode="a" horiz-adv-x="684" 
d="M465 324c0 32.667 -2.00195 49.002 -6.00195 49.002c-6.66699 0 -19.167 -12.167 -37.5 -36.5s-33.166 -48.5 -44.499 -72.5s-22.833 -52.333 -34.5 -85s-17.5 -53.334 -17.5 -62.001c0 -14.667 11.333 -13.334 34 3.99902c18.667 14 37.334 33.667 56.001 59
s31.667 48.5 39 69.5s11 45.833 11 74.5zM527.998 447.002c0 -3.33301 4.32617 -10 12.9932 -20c4.66699 -6 7.66699 -17 9 -33s2 -53 2 -111c0 -56.667 0.833008 -93.667 2.5 -111s5.16699 -30.333 10.5 -39c6.66699 -9.33301 12.334 -14.833 17.001 -16.5
s16 -1.16699 34 1.5c25.333 2.66699 38 -0.666016 38 -9.99902c0 -14.667 -4.16699 -28.834 -12.5 -42.501s-18.833 -23.5 -31.5 -29.5c-11.333 -5.33301 -19.833 -8.16602 -25.5 -8.49902s-14.834 2.16699 -27.501 7.5c-12.667 4.66699 -26.667 15.834 -42 33.501
s-25.666 33.834 -30.999 48.501c-1.33301 5.33301 -16.666 -6.66699 -45.999 -36c-68.667 -69.333 -122 -86 -160 -50c-7.33301 6.66699 -13.666 9.66699 -18.999 9s-18.666 -6.33398 -39.999 -17.001c-29.333 -14 -54.666 -20.333 -75.999 -19c-34.667 4 -65 21 -91 51
c-23.333 26.667 -28.666 47.667 -15.999 63c2.66699 4 6.33398 7 11.001 9c15.333 7.33301 26.666 10.666 33.999 9.99902s17.666 -6 30.999 -16c15.333 -11.333 29 -16.833 41 -16.5s30 6.16602 54 17.499c17.333 9.33301 29.5 19.166 36.5 29.499s16.833 33.833 29.5 70.5
c14.667 40.667 28.667 74.334 42 101.001c15.333 28.667 34.333 56 57 82s42.334 43.333 59.001 52c20 9.33301 37.333 14 52 14c10.667 -0.666992 20.834 -3.5 30.501 -8.5s14.5 -10.167 14.5 -15.5z" />
    <glyph glyph-name="b" unicode="b" horiz-adv-x="588" 
d="M354 387c-5.33301 0 -13.3311 -13.333 -23.998 -40s-18.667 -53.667 -24 -81c-8.66699 -40 -13.334 -60.667 -14.001 -62c-1.33301 -7.33301 -0.5 -11.166 2.5 -11.499s5.83301 2.16699 8.5 7.5l2 8c0.666992 2.66699 9 27.167 25 73.5s24.667 74.166 26 83.499
c3.33301 14.667 2.66602 22 -2.00098 22zM499.002 192c-8.66699 0 -20.3291 -14.3398 -34.9961 -43.0068c-14.667 -30 -30.5 -58.333 -47.5 -85s-27.5 -40 -31.5 -40c-2.66699 0 -10.667 -5.33301 -24 -16c-10.667 -10.667 -31.334 -16 -62.001 -16
c-28.667 0 -45.334 -2.33301 -50.001 -7c-4.66699 -6.66699 -18.167 -16.334 -40.5 -29.001s-39.5 -20.667 -51.5 -24c-18.667 -4 -38.334 -0.5 -59.001 10.5s-36.334 26.5 -47.001 46.5c-6.66699 12.667 -12.334 42.334 -17.001 89.001s-5.33398 80.667 -2.00098 102
c4.66699 25.333 10.667 43 18 53s18 15 32 15c21.333 0.666992 37 -6.66602 47 -21.999s9.33301 -31 -2 -47c-5.33301 -5.33301 -8.66602 -27.833 -9.99902 -67.5s0.333984 -65.5 5.00098 -77.5c8.66699 -22 29.334 -20 62.001 6c12.667 10 20.334 17.5 23.001 22.5
s3 11.833 1 20.5c-8.66699 44 -6.33398 98 6.99902 162c10 47.333 27.5 97.5 52.5 150.5s45.833 84.167 62.5 93.5c12.667 6.66699 28.167 9.83398 46.5 9.50098s32.833 -4.16602 43.5 -11.499c8.66699 -5.33301 13.5 -10.666 14.5 -15.999s0.5 -19.333 -1.5 -42
c-4 -42 -13.833 -90.167 -29.5 -144.5s-32.834 -100.166 -51.501 -137.499c-22.667 -45.333 -30.667 -67 -24 -65c4 1.33301 12.667 11.333 26 30c17.333 24 31.833 50 43.5 78s16.5 48 14.5 60c-6 21.333 0.666992 35.833 20 43.5s37.333 6.16699 54 -4.5
c6 -4.66699 16.833 -9.66699 32.5 -15s26.5 -10.666 32.5 -15.999c11.333 -11.333 10.5 -25.166 -2.5 -41.499s-29.5 -24.5 -49.5 -24.5z" />
    <glyph glyph-name="c" unicode="c" horiz-adv-x="696" 
d="M666 165c1.33301 -24.667 -8.99609 -49.5 -30.9961 -74.5s-49.667 -44.333 -83 -58s-64 -18.5 -92 -14.5c-51.333 4.66699 -93.333 25.667 -126 63c-18 20 -28 27.333 -30 22c-2.66699 -6 -6 -9 -10 -9s-14.667 -7.33301 -32 -22c-38 -33.333 -82.333 -52.333 -133 -57
c-17.333 -1.33301 -29 -1 -35 1s-15.333 9 -28 21c-27.333 24.667 -39 49.667 -35 75c2 19.333 12.333 28 31 26c8.66699 -0.666992 18 -4 28 -10c19.333 -12 37 -17.833 53 -17.5s33.667 7.16602 53 20.499c49.333 34 78 55.833 86 65.5s13.333 28.167 16 55.5
c5.33301 52.667 20.166 103.834 44.499 153.501s51.5 83.5 81.5 101.5c19.333 12 40.166 15.333 62.499 10s39.166 -18 50.499 -38c8 -12.667 17.667 -21 29 -25c11.333 -3.33301 19 -11 23 -23s5.66699 -32.667 5 -62c-0.666992 -22 -2 -35.833 -4 -41.5
s-7 -10.5 -15 -14.5c-43.333 -20.667 -70.333 2.33301 -81 69c-3.33301 21.333 -9.33301 36.333 -18 45c-6.66699 5.33301 -11 8 -13 8s-6.33301 -2.66699 -13 -8c-26.667 -24 -48 -67.667 -64 -131s-17.667 -110.333 -5 -141c9.33301 -22.667 27.666 -38.5 54.999 -47.5
s55.333 -8.5 84 1.5c14 4.66699 36.167 17.5 66.5 38.5s46.833 35.167 49.5 42.5c2.66699 6 8 9 16 9c5.33301 0 9 -2.16699 11 -6.5s3 -13.5 3 -27.5z" />
    <glyph glyph-name="d" unicode="d" horiz-adv-x="838" 
d="M449 172c-7.33301 34 -26.667 34.335 -58 1.00195c-15.333 -15.333 -28 -33.833 -38 -55.5s-15.333 -40.834 -16 -57.501c-2.66699 -21.333 10.5 -40.333 39.5 -57s52.167 -22.667 69.5 -18c7.33301 3.33301 16 13 26 29s16.333 32 19 48c0.666992 4.66699 3 12 7 22
s5.66699 17.667 5 23s-4.33398 9.66602 -11.001 12.999c-23.333 8.66699 -37.666 26 -42.999 52zM606.999 568.002c22.667 16 44.002 8.33496 64.002 -22.998c4.66699 -8.66699 0.333984 -31 -12.999 -67l-10 -30c-5.33301 -16 -9.33301 -28.667 -12 -38l-12.5 -42.5
c-5.66699 -19 -9.66699 -33.833 -12 -44.5l-9.5 -44c-4 -18.667 -5.66699 -32.334 -5 -41.001s1 -20.334 1 -35.001c2 -33.333 8 -62.333 18 -87c16.667 -36.667 32.5 -55.667 47.5 -57s38.167 14 69.5 46c30 30 49 44.333 57 43c7.33301 -1.33301 12.666 -10 15.999 -26
c3.33301 -17.333 -0.333984 -35 -11.001 -53c-17.333 -28.667 -35.5 -49.667 -54.5 -63s-43.5 -22.666 -73.5 -27.999c-17.333 -2.66699 -34.833 -1.33398 -52.5 3.99902s-26.5 11.666 -26.5 18.999c0 6 -3.66699 14.833 -11 26.5s-13 17.5 -17 17.5
c-2.66699 0 -6 -8.66699 -10 -26c-8 -42.667 -28.167 -74 -60.5 -94s-68.166 -23.333 -107.499 -10c-20 6.66699 -44 20.5 -72 41.5s-43.667 36.5 -47 46.5c-1.33301 5.33301 -2.66602 9 -3.99902 11s-3.5 2.5 -6.5 1.5s-6.33301 -3 -10 -6s-8.83398 -8.16699 -15.501 -15.5
c-14 -14 -36.333 -29.333 -67 -46c-22.667 -11.333 -37.167 -17.833 -43.5 -19.5s-16.166 -0.833984 -29.499 2.49902c-41.333 12.667 -60.333 32.334 -57 59.001c3.33301 31.333 19.666 39.333 48.999 24c11.333 -6.66699 19.333 -10 24 -10s12.667 3 24 9
c12.667 6.66699 35.667 26.5 69 59.5s58 60.167 74 81.5c67.333 92 126.666 141 177.999 147c5.33301 2.66699 16.666 -0.166016 33.999 -8.49902s27 -11.833 29 -10.5c0 9.33301 4.5 35.5 13.5 78.5s16.167 72.833 21.5 89.5c8 24 18.333 48.167 31 72.5
s22.667 39.5 30 45.5z" />
    <glyph glyph-name="e" unicode="e" 
d="M456 143c0 -7.33301 5.16895 -15.1631 15.502 -23.4961s21.5 -13.5 33.5 -15.5c28.667 -4.66699 63.334 2.66602 104.001 21.999s67 41 79 65c15.333 31.333 30.666 44.666 45.999 39.999c6.66699 -2.66699 13.167 -10.5 19.5 -23.5s9.5 -25.5 9.5 -37.5
c0 -8 -9.33301 -23.667 -28 -47c-11.333 -14 -23.166 -25.5 -35.499 -34.5s-30.833 -19.833 -55.5 -32.5c-28.667 -14.667 -49 -23.667 -61 -27s-28.667 -5 -50 -5c-56 0 -98.667 13.667 -128 41l-21 21l-36 -22c-126.667 -80.667 -224.667 -88.334 -294 -23.001
c-26.667 24.667 -31 47.334 -13 68.001c17.333 18.667 39.666 16 66.999 -8c15.333 -14 33.666 -21 54.999 -21c43.333 0 88.333 15.333 135 46c31.333 20.667 51.166 36.667 59.499 48s16.833 34.666 25.5 69.999c24.667 97.333 51.334 161.666 80.001 192.999
c18.667 20 38.667 26 60 18s34.666 -26.333 39.999 -55c4.66699 -28 -0.333008 -61.667 -15 -101s-36.667 -78 -66 -116c-17.333 -22 -26 -35.333 -26 -40z" />
    <glyph glyph-name="f" unicode="f" horiz-adv-x="692" 
d="M428 148c-6 20 -13.3359 30.334 -22.0029 31.001c-4.66699 0 -8 -3.33301 -10 -10c-5.33301 -20.667 -12.166 -52.334 -20.499 -95.001s-13.166 -72.334 -14.499 -89.001c-1.33301 -20 -0.5 -44 2.5 -72s6.83301 -44.333 11.5 -49s12 4 22 26
c6.66699 14.667 13.334 33.334 20.001 56.001c10 33.333 16.167 69 18.5 107s-0.166992 69.667 -7.5 95zM609.997 269.001c2.66699 -0.666992 8.16992 2.66309 16.5029 9.99609s13.5 11 15.5 11c9.33301 0 15.333 -4.66699 18 -14s1.83398 -19.333 -2.49902 -30
s-11.166 -18 -20.499 -22c-12 -4.66699 -19 -8.66699 -21 -12c-6 -7.33301 -20.667 -14.666 -44 -21.999s-45 -11.666 -65 -12.999l7 -40c6.66699 -29.333 6.16699 -70.666 -1.5 -123.999s-19.5 -99.333 -35.5 -138c-2.66699 -5.33301 -4.5 -10.166 -5.5 -14.499
s-1.66699 -7.33301 -2 -9s-1.5 -4 -3.5 -7s-5 -6.5 -9 -10.5c-8 -8.66699 -31.667 -13 -71 -13c-38.667 0 -62 2 -70 6c-14.667 9.33301 -23.667 41.166 -27 95.499s0.333984 106.833 11.001 157.5c9.33301 38 13 59 11 63c-3.33301 2 -9 0 -17 -6
c-22.667 -14 -56.334 -17.667 -101.001 -11s-76.667 19.667 -96 39c-13.333 13.333 -22 20 -26 20c-4.66699 1.33301 -7.83398 5.83301 -9.50098 13.5s-4.5 12.5 -8.5 14.5c-6.66699 5.33301 -13 17.333 -19 36c-5.33301 16.667 -5.5 27.667 -0.5 33s17.833 8 38.5 8
c28.667 0 45.667 -14 51 -42c4 -16 13.333 -31.333 28 -46c10 -10.667 18.167 -17.334 24.5 -20.001s18.166 -4 35.499 -4c49.333 0 83.666 9.33301 102.999 28c10 10 13 17.667 9 23c-4 2.66699 -2.16699 9.33398 5.5 20.001s15.834 21.334 24.501 32.001
s12.334 17.334 11.001 20.001c3.33301 14 11.333 33 24 57s21 41.333 25 52c13.333 31.333 22.666 47 27.999 47c4.66699 0 7 2.66699 7 8c0 6 8.66699 17.667 26 35c35.333 36 62 38.667 80 8c5.33301 -8.66699 8.16602 -16.5 8.49902 -23.5
s-1.83398 -20.833 -6.50098 -41.5c-13.333 -63.333 -24.333 -100 -33 -110c-4.66699 -5.33301 -11.167 -16 -19.5 -32s-15.833 -27.667 -22.5 -35c-6.66699 -6.66699 -10.334 -12.167 -11.001 -16.5s1.33301 -7.33301 6 -9s9.66699 -2.66699 15 -3s12 -0.5 20 -0.5
c3.33301 0.666992 10.5 1.66699 21.5 3s20.333 2.66602 28 3.99902s15.5 3.33301 23.5 6s13.333 5.66699 16 9c2 6.66699 5.33301 10 10 10z" />
    <glyph glyph-name="g" unicode="g" horiz-adv-x="863" 
d="M484 -110c3.33301 2.66699 6.83398 17.832 10.501 45.499s4.5 45.167 2.5 52.5c-1.33301 -1.33301 -9 -2.66602 -23 -3.99902c-14 -2 -23.667 -5.5 -29 -10.5s-10.666 -15.833 -15.999 -32.5c-6.66699 -19.333 -6 -35 2 -47c7.33301 -10.667 16.666 -16.5 27.999 -17.5
s19.666 3.5 24.999 13.5zM440.001 351.998c-5.33301 0 -13.834 -9.33301 -25.501 -28s-19.5 -35.667 -23.5 -51c-2 -8.66699 -2.66699 -13.5 -2 -14.5s4.33398 0.5 11.001 4.5c7.33301 4 15.833 13.833 25.5 29.5s16.5 30.5 20.5 44.5c2.66699 10 0.666992 15 -6 15z
M566 184.998c4 0 22.8301 18.4941 56.4971 55.4941s56.167 64.167 67.5 81.5c12 19.333 21.667 30.333 29 33c4.66699 0.666992 16 16.667 34 48c20.667 36 34.667 56.833 42 62.5s16.333 3.5 27 -6.5c12 -11.333 14.667 -29 8 -53s-20.334 -47.333 -41.001 -70
c-16.667 -18 -25 -29.333 -25 -34s-11.167 -20.834 -33.5 -48.501s-43.833 -52.5 -64.5 -74.5c-22 -22 -51 -55.667 -87 -101v-95c-0.666992 -43.333 -1.83398 -71.666 -3.50098 -84.999s-6.16699 -26.666 -13.5 -39.999c-10 -18.667 -22.333 -30.667 -37 -36
c-40 -14 -80 -9.33301 -120 14s-60 54 -60 92c0 12 6.33301 30.167 19 54.5s23.334 38.166 32.001 41.499c10 4.66699 19.167 10.334 27.5 17.001s12.5 12 12.5 16c0 3.33301 8.5 11.333 25.5 24s25.5 20.334 25.5 23.001c1.33301 4 -0.166992 24.667 -4.5 62
s-7.5 57.333 -9.5 60c-2 2 -15 -10.333 -39 -37c-16 -17.333 -28 -28.5 -36 -33.5s-19.333 -8.5 -34 -10.5c-15.333 -1.33301 -25.833 -1.16602 -31.5 0.500977s-13.167 7.5 -22.5 17.5c-7.33301 9.33301 -12.166 15.666 -14.499 18.999s-4.66602 8.5 -6.99902 15.5
s-3.5 14.5 -3.5 22.5c-23.333 -23.333 -40.666 -35 -51.999 -35c-8.66699 0 -21 -3.66699 -37 -11c-22.667 -7.33301 -46.167 -10.333 -70.5 -9s-46.333 9.33301 -66 24s-29.5 33 -29.5 55c0 18 10.5 27.833 31.5 29.5s38.167 -6.16602 51.5 -23.499
c8 -10.667 17.667 -16 29 -16c18 0 48.333 16.333 91 49s87 73.667 133 123c16.667 17.333 40 34.333 70 51c24.667 12.667 43.167 18.834 55.5 18.501s33.5 -7.16602 63.5 -20.499c32 -14.667 51 -33.167 57 -55.5s-3 -42.166 -27 -59.499
c-9.33301 -7.33301 -15.166 -14.833 -17.499 -22.5s-3.83301 -28.5 -4.5 -62.5c-1.33301 -46.667 -0.333008 -70 3 -70z" />
    <glyph glyph-name="h" unicode="h" horiz-adv-x="823" 
d="M679 -39c-20.667 0 -39.002 8.00293 -55.002 24.0029c-24 23.333 -39.333 44.5 -46 63.5s-12.334 59.833 -17.001 122.5c-3.33301 56.667 -7.66602 87.667 -12.999 93c-6.66699 6.66699 -19 3.5 -37 -9.5s-33.333 -30.167 -46 -51.5
c-7.33301 -12 -18.333 -27.833 -33 -47.5s-25.667 -37.167 -33 -52.5s-14.666 -37 -21.999 -65c-8.66699 -32.667 -15.834 -54.834 -21.501 -66.501s-13.834 -20.834 -24.501 -27.501c-12.667 -7.33301 -22.667 -10.666 -30 -9.99902s-17 6 -29 16
c-14 11.333 -25.333 14.333 -34 9c-12.667 -4.66699 -31.667 -7 -57 -7c-46 -0.666992 -88.667 19.333 -128 60l-23 24l4 131c1.33301 -2.66699 5.16602 -9.33398 11.499 -20.001l13.5 -22.5c2.66699 -4.33301 7.33398 -11.5 14.001 -21.5s12.334 -17.333 17.001 -22
l18 -18.5c7.33301 -7.66699 14.333 -13 21 -16s14.167 -6 22.5 -9s17 -4.33301 26 -4s18.5 1.83301 28.5 4.5c12.667 4 27.334 14.333 44.001 31s25 29.667 25 39c0 18.667 3.16699 60.5 9.5 125.5s11.833 111.5 16.5 139.5c9.33301 60 19.833 103.833 31.5 131.5
s27.5 45.167 47.5 52.5c8.66699 3.33301 20 3.16602 34 -0.500977s24 -9.16699 30 -16.5c12.667 -13.333 20 -68 22 -164c0.666992 -26 2.33398 -39.333 5.00098 -40c2 0 5.33301 1.66699 10 5c9.33301 6 24.5 10.5 45.5 13.5s37.833 3.16699 50.5 0.5
c22.667 -4 38.5 -16.333 47.5 -37s15.167 -58 18.5 -112c5.33301 -89.333 13.333 -139.333 24 -150s30 4.33301 58 45c14 20.667 25 34 33 40s16 7.33301 24 4c8 -2.66699 11.5 -15 10.5 -37s-5.83301 -42 -14.5 -60c-36.667 -60.667 -69.667 -89.667 -99 -87z" />
    <glyph glyph-name="i" unicode="i" horiz-adv-x="693" 
d="M632 199c5.33301 0 11.8369 -7.6709 19.5039 -23.0039s11.5 -28.666 11.5 -39.999c0 -19.333 -12.667 -46.5 -38 -81.5s-53.666 -64.167 -84.999 -87.5c-34.667 -24.667 -71 -35.5 -109 -32.5s-67.667 19.167 -89 48.5c-9.33301 12.667 -15.666 19.667 -18.999 21
s-7 -0.666992 -11 -6c-12 -12 -27.667 -24 -47 -36c-16.667 -10.667 -29.334 -17.167 -38.001 -19.5s-22.334 -2.83301 -41.001 -1.5c-29.333 2 -53.333 10.333 -72 25s-36.334 38.667 -53.001 72c-18 36 -28 58.833 -30 68.5s1.33301 19.167 10 28.5
c8.66699 10 20.667 14.333 36 13c11.333 -1.33301 20.166 -6.16602 26.499 -14.499s18.833 -33.166 37.5 -74.499c6.66699 -14 16 -24.5 28 -31.5s23 -8.5 33 -4.5c11.333 4.66699 27.166 17.334 47.499 38.001s34.166 38.667 41.499 54c6 11.333 13 34.5 21 69.5
s14 68.5 18 100.5c1.33301 22 9.66602 37.667 24.999 47s32.666 5.66602 51.999 -11.001c10.667 -10 16.334 -21.333 17.001 -34s-2.33301 -38.667 -9 -78c-17.333 -100.667 -20.666 -158 -9.99902 -172c18 -22 44.167 -22.667 78.5 -2s69.166 58.334 104.499 113.001
c22.667 34 37.334 51 44.001 51zM390.004 428.996c-17.333 0 -32.333 7.66699 -45 23c-27.333 32.667 -23 59.334 13 80.001c10.667 6.66699 23.5 6.5 38.5 -0.5s25.833 -17.667 32.5 -32s6.33398 -29.833 -0.999023 -46.5
c-4.66699 -10.667 -9.33398 -17.334 -14.001 -20.001s-12.667 -4 -24 -4z" />
    <glyph glyph-name="j" unicode="j" horiz-adv-x="903" 
d="M419 -55c4.66699 18 4.99902 27.168 0.999023 27.501s-6.5 0 -7.5 -1s-5.5 -6.83301 -13.5 -17.5c-2 -2.66699 -3.66699 -4.66699 -5 -6c-4 -4.66699 -7 -9.16699 -9 -13.5s-3.5 -7.83301 -4.5 -10.5s-1 -6.33398 0 -11.001s1.66699 -7.66699 2 -9s1.83301 -5 4.5 -11
s4.33398 -9.66699 5.00098 -11c14.667 18 23.667 39 27 63zM611.999 255.001c3.33301 0 10.1719 4.83496 20.5049 14.502s16.833 14.167 19.5 13.5c9.33301 4 22.5 12.667 39.5 26s29.833 22.666 38.5 27.999c22.667 14.667 38.667 28 48 40s22 17.833 38 17.5
s29.667 -6.5 41 -18.5c10.667 -12 16 -19 16 -21c0 -8.66699 -4.33301 -16.5 -13 -23.5s-20.667 -14 -36 -21s-24.666 -11.5 -27.999 -13.5c-120 -78.667 -203 -142 -249 -190c-10.667 -10.667 -17.5 -21.167 -20.5 -31.5s-6.16699 -33.5 -9.5 -69.5
c-4.66699 -54 -11 -93.5 -19 -118.5s-19.667 -44.167 -35 -57.5c-19.333 -17.333 -35.5 -26.166 -48.5 -26.499s-32.167 6.83398 -57.5 21.501c-24 14.667 -40.667 28.667 -50 42s-14 30.333 -14 51c0 14.667 2.5 29 7.5 43s9.83301 21 14.5 21c4 0 7 4 9 12
c6 13.333 40 51 102 113c0 57.333 -1.33301 88 -4 92c-1.33301 0 -19.333 -13.667 -54 -41c-57.333 -46 -110.5 -68.833 -159.5 -68.5s-99.167 24.166 -150.5 71.499c-15.333 14.667 -24 24.167 -26 28.5s-0.666992 10.166 4 17.499c7.33301 11.333 20.333 17.333 39 18
c12 0.666992 21.167 -0.166016 27.5 -2.49902s14.166 -7.83301 23.499 -16.5c8 -8 15 -14 21 -18s11.667 -9 17 -15c6 -8.66699 20.333 -12.5 43 -11.5s43 6.5 61 16.5c21.333 11.333 47.166 31.166 77.499 59.499s47.833 48.833 52.5 61.5c4 14.667 4 29.667 0 45
c-4 22 -0.5 42.333 10.5 61s27.167 25.334 48.5 20.001c3.33301 -0.666992 8 -1.66699 14 -3c9.33301 -2 15.666 -3.83301 18.999 -5.5s6.66602 -3.5 9.99902 -5.5s5.33301 -7.33301 6 -16s1.16699 -17 1.5 -25s0.5 -22.667 0.5 -44v-12
c-0.666992 -80 2.66602 -122.333 9.99902 -127c2.66699 -2.66699 18.667 8.16602 48 32.499s44.666 36.166 45.999 35.499zM429.005 584.003c17.333 4 28.833 5.33301 34.5 4s14.167 -7 25.5 -17c14 -12.667 19.667 -25.667 17 -39
c-4.66699 -17.333 -15.667 -27.333 -33 -30s-33.333 1.5 -48 12.5s-21 25.167 -19 42.5c0.666992 9.33301 2.5 15.833 5.5 19.5s8.83301 6.16699 17.5 7.5z" />
    <glyph glyph-name="k" unicode="k" horiz-adv-x="661" 
d="M387 155c6.66699 -2 11.499 -0.99707 14.499 3.00293s7.16699 6 12.5 6c11.333 3.33301 27.333 17.666 48 42.999s30.334 46.666 29.001 63.999c-27.333 -1.33301 -56 -18.333 -86 -51c-25.333 -28 -34 -48 -26 -60c1.33301 -2.66699 4 -4.33398 8 -5.00098z
M331.999 398.003c-2 -11.333 -4.66992 -27.834 -8.00293 -49.501s-6.16602 -39 -8.49902 -52s-4.16602 -27.167 -5.49902 -42.5s-1.66602 -28 -0.999023 -38c18 20.667 28.667 48.334 32 83.001c2.66699 39.333 -0.333008 72.333 -9 99zM365.996 478.002
c4 -5.33301 8.33496 -20.502 13.002 -45.502s8.66699 -40.833 12 -47.5c6 -14 9 -32 9 -54c0 -8.66699 0.333008 -15.167 1 -19.5s2 -6.83301 4 -7.5s3.83301 -0.333984 5.5 0.999023s5 3.83301 10 7.5s9.5 6.83398 13.5 9.50098c15.333 12 33.833 19.5 55.5 22.5
s39.834 -2.16699 54.501 -15.5c8 -7.33301 13.167 -14 15.5 -20s3.5 -15.667 3.5 -29c-0.666992 -14 -2.83398 -25.833 -6.50098 -35.5s-9.33398 -20.5 -17.001 -32.5s-12.834 -21 -15.501 -27c-6.66699 -12.667 -19.167 -29.5 -37.5 -50.5s-31.166 -33.167 -38.499 -36.5
c-6 -2 -4.66699 -6.66699 4 -14c8 -7.33301 27 -11 57 -11c19.333 0 32.666 1.33301 39.999 4s17.333 9.33398 30 20.001c19.333 17.333 32.833 25.666 40.5 24.999s11.5 -11.334 11.5 -32.001c0 -14 -1.33301 -24.5 -4 -31.5s-8.66699 -14.5 -18 -22.5
c-20 -20 -43.667 -32.333 -71 -37s-53.833 -2.66699 -79.5 6s-49.167 22 -70.5 40c-9.33301 9.33301 -18 14 -26 14c-5.33301 0 -9 2.33301 -11 7s-5.33301 7 -10 7c-5.33301 0 -9 2.33301 -11 7s-5 7 -9 7c-12.667 0 -22.667 -27 -30 -81c-1.33301 -15.333 -6 -29 -14 -41
s-15.667 -18 -23 -18c-11.333 1.33301 -20.833 10.833 -28.5 28.5s-10.167 36.167 -7.5 55.5c-39.333 -0.666992 -69.166 1 -89.499 5s-38.5 14.333 -54.5 31c-26.667 24.667 -41.334 53.334 -44.001 86.001c-2 26 6.33301 39 25 39c11.333 0 21.666 -5 30.999 -15
s14 -21 14 -33c0 -14 8.66699 -25.167 26 -33.5s37 -10.833 59 -7.5s36.333 8.83301 43 16.5s11.334 23.5 14.001 47.5l7 68.5c2.66699 25.667 5.83398 54.334 9.50098 86.001l8.5 72.5c1.33301 7.33301 2.83301 16.833 4.5 28.5l3.5 25
c0.666992 5 1.83398 11.833 3.50098 20.5s3 14.834 4 18.501l4 14.5c1.66699 6 3.16699 10.5 4.5 13.5s3.16602 6.5 5.49902 10.5s4.83301 7 7.5 9l9 7c3.33301 2.66699 7 5 11 7c4.66699 0 10.667 -5.33301 18 -16s12 -21 14 -31c3.33301 -15.333 6.66602 -23 9.99902 -23z
" />
    <glyph glyph-name="l" unicode="l" horiz-adv-x="613" 
d="M380 283c4 12 8.66699 33.998 14 65.998s7 53 5 63c-1.33301 6.66699 -2.66602 10 -3.99902 10c-2.66699 -9.33301 -6.83398 -32.166 -12.501 -68.499s-8.5 -58.833 -8.5 -67.5c0.666992 -10 1.16699 -15.167 1.5 -15.5s1.83301 3.83398 4.5 12.501zM583 75.998
c0 -13.333 -1.6709 -22.8291 -5.00391 -28.4961s-11.666 -14.167 -24.999 -25.5c-37.333 -30 -80.666 -38.333 -129.999 -25c-14 2.66699 -24.5 6 -31.5 10s-15 9.83301 -24 17.5s-18.5 14.5 -28.5 20.5c-9.33301 -6.66699 -19.333 -15 -30 -25s-20.667 -18.333 -30 -25
s-20.666 -13 -33.999 -19c-48.667 -21.333 -93.667 -18.333 -135 9c-20.667 14 -39 38 -55 72c-19.333 41.333 -27.666 76.5 -24.999 105.5s15.667 43.5 39 43.5c22 0 38.333 -26.667 49 -80c9.33301 -49.333 24.666 -77 45.999 -83c15.333 -4 37.166 1.83301 65.499 17.5
s48.166 33.167 59.499 52.5c6.66699 10 10.334 19 11.001 27s-0.666016 22.333 -3.99902 43c-2.66699 26 -4.16699 47 -4.5 63s1.66699 35.833 6 59.5s8.33301 42.667 12 57s8.66699 32.666 15 54.999s10.833 40.166 13.5 53.499c0 6 6.33301 21.5 19 46.5
s20.334 37.5 23.001 37.5c3.33301 0 6.33301 4.66699 9 14c0.666992 8 7.33398 13.333 20.001 16c15.333 3.33301 25.5 4 30.5 2s10.833 -8.33301 17.5 -19c16 -26 19.167 -85.833 9.5 -179.5s-26.834 -165.5 -51.501 -215.5c-11.333 -24.667 -17.833 -40.834 -19.5 -48.501
s0.833008 -15.834 7.5 -24.501c14.667 -18.667 35.5 -27.667 62.5 -27s54.833 10.667 83.5 30c12.667 8.66699 21.5 11 26.5 7s7.5 -15.333 7.5 -34z" />
    <glyph glyph-name="m" unicode="m" horiz-adv-x="991" 
d="M382 431c20 -38.667 28.665 -76.667 25.998 -114l37 39c16.667 16.667 28.834 27.167 36.501 31.5s17.5 6.5 29.5 6.5c31.333 0 59 -19 83 -57l18 -28c42.667 58.667 75 92 97 100c46 22.667 81.333 14.667 106 -24l19 -28c0 -4.66699 -0.166992 -36.167 -0.5 -94.5
s0.166992 -105.833 1.5 -142.5s4.33301 -54.667 9 -54c6 -5.33301 24.667 2.66699 56 24c32.667 21.333 50.667 30.333 54 27c10 -6 10.333 -22.167 1 -48.5s-23 -47.166 -41 -62.499c-22 -19.333 -44.5 -29.5 -67.5 -30.5s-44.167 7.5 -63.5 25.5
c-16.667 15.333 -27.334 36.666 -32.001 63.999s-5.66699 74.333 -3 141c1.33301 29.333 2.16602 51 2.49902 65s0.166016 25.5 -0.500977 34.5s-1.66699 14.333 -3 16s-3.66602 2.5 -6.99902 2.5c-20 0 -43.167 -26.5 -69.5 -79.5s-42.833 -106.167 -49.5 -159.5
c-4.66699 -38.667 -23.667 -55 -57 -49c-16.667 2.66699 -29.667 12 -39 28c-7.33301 12 -11.166 20.667 -11.499 26s2.16699 15.666 7.5 30.999c11.333 32.667 16.833 65.5 16.5 98.5s-6.16602 58.833 -17.499 77.5c-2.66699 4 -5.16699 5.83301 -7.5 5.5
s-6.83301 -3.5 -13.5 -9.5c-10 -9.33301 -24.667 -34.333 -44 -75s-29.666 -69.334 -30.999 -86.001c-2 -16.667 -6.66699 -36 -14 -58s-13.666 -34.667 -18.999 -38c-5.33301 -4 -13.5 -5.83301 -24.5 -5.5s-21.167 2.83301 -30.5 7.5c-12 5.33301 -20 15 -24 29
s-3 29.667 3 47c6.66699 18.667 8.33398 52.667 5.00098 102l-16 -42c-26 -67.333 -58.167 -113.5 -96.5 -138.5s-77.833 -25.5 -118.5 -1.5c-24 14.667 -39.833 29.334 -47.5 44.001s-11.5 38.334 -11.5 71.001c0 26.667 0.833008 42.834 2.5 48.501s6.16699 8.5 13.5 8.5
c11.333 -0.666992 20.666 -4.5 27.999 -11.5s16.333 -20.833 27 -41.5c27.333 -52.667 55.666 -60.334 84.999 -23.001c22.667 30 50 92.333 82 187c18.667 56 28 88 28 96c0 6 4 14.333 12 25c8 8.66699 21 12.167 39 10.5s29.667 -7.5 35 -17.5z" />
    <glyph glyph-name="n" unicode="n" horiz-adv-x="877" 
d="M829 331c8 0 13.333 -11.332 16 -33.999c2.66699 -24 -0.666016 -45.333 -9.99902 -64c-20 -39.333 -46.833 -78 -80.5 -116s-59.5 -58.667 -77.5 -62c-12.667 -2.66699 -25.334 -0.5 -38.001 6.5s-22.334 16.5 -29.001 28.5c-6 10 -10.333 45 -13 105l-3 56.5
c-0.666992 12.333 -2.83398 24.166 -6.50098 35.499s-6.33398 18.333 -8.00098 21l-16.5 26c-25.333 -24.667 -44 -47.334 -56 -68.001s-22.667 -52.334 -32 -95.001c-9.33301 -40 -16.833 -65.333 -22.5 -76s-14.5 -17.667 -26.5 -21c-26.667 -8 -49 -0.666992 -67 22
c-7.33301 8.66699 -10.666 20.167 -9.99902 34.5s6.33398 35.5 17.001 63.5c14.667 40.667 18.667 60.667 12 60c-3.33301 0 -9 -7.33301 -17 -22c-14 -25.333 -34.667 -51.5 -62 -78.5s-60.666 -50.167 -99.999 -69.5s-75.666 -25.333 -108.999 -18
c-28 6.66699 -46.667 21.167 -56 43.5s-4.33301 39.833 15 52.5c7.33301 4.66699 13.333 7.16699 18 7.5s12 -1.5 22 -5.5c29.333 -12.667 63 -7.33398 101 15.999c37.333 22.667 67.666 51.5 90.999 86.5s37.666 72.833 42.999 113.5
c3.33301 22.667 6.66602 37.834 9.99902 45.501s10.333 13.5 21 17.5c12 6 22.833 8 32.5 6s17.334 -4.16699 23.001 -6.5s11.167 -7.83301 16.5 -16.5s9.33301 -16.334 12 -23.001s6.33398 -15.167 11.001 -25.5s8.66699 -18.833 12 -25.5l13 16
c22 24.667 45.167 41 69.5 49s45.5 6 63.5 -6c21.333 -13.333 40 -39.666 56 -78.999s24 -77.666 24 -114.999v-43c34 38.667 56.333 66.334 67 83.001c14 21.333 28.167 39 42.5 53s24.833 21 31.5 21z" />
    <glyph glyph-name="o" unicode="o" horiz-adv-x="738" 
d="M385 308c1.33301 8 0.332031 11.999 -3.00098 11.999c-6 -1.33301 -11.333 -7.33301 -16 -18c-7.33301 -28 -9 -57.333 -5 -88s13.667 -57.667 29 -81s31.333 -33.666 48 -30.999c8 1.33301 16.333 12.5 25 33.5s13.334 41.5 14.001 61.5c0.666992 10 -1 17.167 -5 21.5
s-13.333 10.5 -28 18.5c-16 8.66699 -30.167 20.5 -42.5 35.5s-17.833 26.833 -16.5 35.5zM505.999 484.999c0 -4.66699 5.33301 -12.335 16 -23.002c12.667 -14 22.334 -32.5 29.001 -55.5s8 -42.833 4 -59.5c-4 -19.333 -4.33301 -31 -1 -35s27.666 -2 72.999 6
c35.333 6.66699 57.666 9.66699 66.999 9s14 -5.33398 14 -14.001c0 -37.333 -40.333 -66 -121 -86c-18 -5.33301 -28.833 -11.333 -32.5 -18s-8.5 -30 -14.5 -70c-9.33301 -57.333 -26.333 -93.666 -51 -108.999c-11.333 -7.33301 -27.5 -11.666 -48.5 -12.999
s-33.167 1 -36.5 7c-2.66699 4.66699 -8 7 -16 7c-19.333 0.666992 -40.333 18.834 -63 54.501s-36 71.5 -40 107.5l-5 47l-67 -69c-29.333 -29.333 -50 -48.666 -62 -57.999s-24.667 -15.333 -38 -18c-20 -6 -47.667 -4 -83 6v142
c22.667 -20.667 34.334 -34.667 35.001 -42c0 -6.66699 3.83301 -12.334 11.5 -17.001s15.167 -5.66699 22.5 -3c20.667 6 70 56 148 150c91.333 108.667 150.333 167 177 175c18.667 4.66699 30.667 7 36 7c7.33301 0.666992 16.833 -2.5 28.5 -9.5
s17.5 -13.167 17.5 -18.5z" />
    <glyph glyph-name="p" unicode="p" horiz-adv-x="899" 
d="M349 178c7.33301 0.666992 20.833 -6.16699 40.5 -20.5s32.5 -21.5 38.5 -21.5c9.33301 0 26 13.667 50 41s42.333 53.333 55 78c11.333 22.667 18 48.834 20 78.501s-1.66699 47.5 -11 53.5c-7.33301 5.33301 -19.666 7.66602 -36.999 6.99902s-32 -3.66699 -44 -9
c-24.667 -10.667 -52.334 -38.167 -83.001 -82.5s-46 -78.5 -46 -102.5c0 -9.33301 1 -15.333 3 -18s6.66699 -4 14 -4zM549 118.999c0 -1.33301 7.66504 -0.498047 22.998 2.50195s33 7.33301 53 13s36.333 10.834 49 15.501c30.667 11.333 58 28.666 82 51.999
c20.667 20.667 34.334 40.334 41.001 59.001s10 47.667 10 87c0 26 0.833008 41.5 2.5 46.5s6.16699 6.83301 13.5 5.5c9.33301 -1.33301 18.5 -14 27.5 -38s14.833 -51.667 17.5 -83c2.66699 -28.667 -2 -55.334 -14 -80.001c-15.333 -33.333 -36.166 -60.333 -62.499 -81
s-65.5 -40.334 -117.5 -59.001c-41.333 -14.667 -79 -24.334 -113 -29.001s-76 -6.33398 -126 -5.00098c-56.667 0.666992 -89.667 5.66699 -99 15c-9.33301 8 -15 12 -17 12c-4 0 -8.66699 -17.5 -14 -52.5s-8 -64.5 -8 -88.5c0 -26 -5.16699 -46.833 -15.5 -62.5
s-22.666 -22.667 -36.999 -21s-26.833 12.167 -37.5 31.5c-4 8 -4.33301 45.333 -1 112s8 114.667 14 144c3.33301 20.667 4.33301 31.667 3 33s-11.333 -2.66699 -30 -12c-18 -8.66699 -32.667 -13 -44 -13s-24.333 4.33301 -39 13s-28.5 23.834 -41.5 45.501
s-22.833 44 -29.5 67s-9.5 44.833 -8.5 65.5s6.5 34.334 16.5 41.001c10 7.33301 17.833 11 23.5 11s13.167 -3.66699 22.5 -11c9.33301 -8.66699 16.333 -29.667 21 -63c6.66699 -52.667 17.667 -79 33 -79s35.166 14.667 59.499 44s40.5 58.666 48.5 87.999
c5.33301 20 12.666 34.667 21.999 44c6.66699 6.66699 13.334 10.167 20.001 10.5s19.667 -2.5 39 -8.5c10 -3.33301 18.333 -1.66602 25 5.00098c15.333 15.333 36.333 31.333 63 48s46 26 58 28c42 7.33301 76.5 -0.833984 103.5 -24.501s41.833 -56.5 44.5 -98.5
c5.33301 -51.333 -12.667 -112.333 -54 -183c-18 -30 -27 -45.667 -27 -47z" />
    <glyph glyph-name="q" unicode="q" horiz-adv-x="881" 
d="M512 154c0 -7.33301 -2 -11.666 -6 -12.999c-3.33301 -0.666992 -7.33301 -30.5 -12 -89.5s-6 -95.833 -4 -110.5c4 -27.333 22 -13.333 54 42l33 56c-6.66699 69.333 -12.334 107.666 -17.001 114.999c-5.33301 6.66699 -14.666 10 -27.999 10s-20 -3.33301 -20 -10z
M411 234c5.33301 0 12.002 11.001 20.002 33.001s11.333 39 10 51c-2.66699 28 -14.334 31 -35.001 9c-30.667 -34 -48.334 -66.333 -53.001 -97c-2.66699 -18.667 -1 -29.334 5 -32.001s15.667 3.33301 29 18c12 12 20 18 24 18zM215.002 269.001
c2.66699 0 11.8271 6.99512 27.4941 20.9951s24.834 20.667 27.501 20c6.66699 1.33301 17.334 11.333 32.001 30c30.667 36 54 60.167 70 72.5s35.333 21.833 58 28.5c14 4 35.833 4.83301 65.5 2.5s46.5 -6.5 50.5 -12.5c2 -2 6.33301 -4.66699 13 -8
s11.334 -7.66602 14.001 -12.999s3.33398 -13.666 2.00098 -24.999c0 -36 -9 -63 -27 -81c-18.667 -18.667 -12.667 -33 18 -43c14.667 -4.66699 32.834 -4.5 54.501 0.5s39.834 13.5 54.501 25.5c13.333 10.667 22.333 16 27 16c5.33301 0 17.166 9.5 35.499 28.5
s30.5 34.5 36.5 46.5c12 24 12 41 0 51c-7.33301 6 -10.666 14.333 -9.99902 25s4.66699 17 12 19c2 0.666992 5.5 1.66699 10.5 3s7.83301 2 8.5 2c4.66699 0.666992 12.334 -3.66602 23.001 -12.999s16 -16 16 -20c0 -5.33301 2.66699 -8.66602 8 -9.99902
c12 -4 12.5 -25.667 1.5 -65s-25.5 -67.333 -43.5 -84c-36.667 -34.667 -59.334 -52 -68.001 -52c-6 0 -12.333 -3.33301 -19 -10c-1.33301 -2.66699 -8.5 -7.16699 -21.5 -13.5s-27.167 -12.833 -42.5 -19.5s-23.333 -10 -24 -10
c-0.666992 -0.666992 2.66602 -18 9.99902 -52c5.33301 -22.667 8.33301 -39 9 -49s-1 -25.333 -5 -46c-4 -23.333 -9.83301 -44.833 -17.5 -64.5s-14.167 -29.5 -19.5 -29.5c-4 0 -6 -2.33301 -6 -7c0 -6.66699 -7 -18.834 -21 -36.501s-26.333 -30.167 -37 -37.5
c-14 -9.33301 -28.333 -16 -43 -20c-16.667 -3.33301 -32 1.83398 -46 15.501s-24.333 33.5 -31 59.5c-6 23.333 -9.33301 44.833 -10 64.5s1.33301 31.167 6 34.5c4.66699 2 7 23.667 7 65c0 36 -1.66699 54.333 -5 55c-1.33301 0.666992 -4.66602 0 -9.99902 -2
c-10 -3.33301 -27.667 -5 -53 -5c-12.667 -1.33301 -23.167 -1 -31.5 1s-14.833 7 -19.5 15s-7.83398 14.5 -9.50098 19.5s-4.16699 14.5 -7.5 28.5c-4 20.667 -10.333 30.667 -19 30c-3.33301 0 -6.66602 -2.66699 -9.99902 -8c-5.33301 -6 -17.833 -13.833 -37.5 -23.5
s-31.5 -15.834 -35.5 -18.501c-21.333 -11.333 -47.333 -15.5 -78 -12.5s-48 11.833 -52 26.5c-2 8.66699 -6.66699 14.334 -14 17.001c-11.333 5.33301 -13.333 18.333 -6 39c6.66699 18.667 16.334 27.334 29.001 26.001c3.33301 -0.666992 7 -2.33398 11 -5.00098
c12 -6.66699 20 -13 24 -19c5.33301 -7.33301 19.666 -9.66602 42.999 -6.99902s40.333 8.66699 51 18c10.667 10.667 18.667 16 24 16z" />
    <glyph glyph-name="r" unicode="r" horiz-adv-x="849" 
d="M522 373c4.66699 0 8.17383 -2.5 10.5068 -7.5s6.83301 -7.16699 13.5 -6.5c8 0 18.333 -5 31 -15c28 -24 25.667 -51.333 -7 -82c-16 -16 -24 -27 -24 -33c0 -4.66699 -3.66699 -10 -11 -16c-6.66699 -5.33301 -10 -17 -10 -35c0 -12.667 1.83301 -21 5.5 -25
s14.5 -9.66699 32.5 -17l37 -15l35 17c33.333 17.333 56.666 34.833 69.999 52.5s24.333 46.167 33 85.5c3.33301 12 10.333 20.667 21 26s19.667 4 27 -4c7.33301 -8.66699 14.666 -20.667 21.999 -36s11 -26.666 11 -33.999c0 -10.667 -7 -28.5 -21 -53.5
s-28.667 -45.167 -44 -60.5c-6.66699 -8.66699 -22 -20 -46 -34s-53.167 -29.667 -87.5 -47l-53.5 -27c-23.333 -14 -49.833 -12.833 -79.5 3.5s-50.5 39.833 -62.5 70.5c-6 20 -6.33301 44.333 -1 73s12.333 56.167 21 82.5s14.667 39.833 18 40.5
c3.33301 0 6 4.33301 8 13c0.666992 2.66699 0.5 5.83398 -0.5 9.50098s-3.33301 7.33398 -7 11.001l-9.5 9.5c-2.66699 2.66699 -6.33398 6 -11.001 10s-7.33398 6.33301 -8.00098 7c-16 -34.667 -26 -55.334 -30 -62.001c-8.66699 -12.667 -13 -21.334 -13 -26.001
c0 -7.33301 -14 -30.166 -42 -68.499s-53 -68.5 -75 -90.5c-38.667 -40 -76.834 -64.833 -114.501 -74.5s-70.834 -3.5 -99.501 18.5c-15.333 11.333 -25 24.666 -29 39.999s-1.83301 28.5 6.5 39.5s21.166 16.5 38.499 16.5c18.667 0 30.334 -3.33301 35.001 -10
c8.66699 -10.667 20 -16 34 -16s28 5.33301 42 16c27.333 20 55.666 49.5 84.999 88.5s54.666 80.833 75.999 125.5c10.667 22 17 37.333 19 46s2 23 0 43c-2 19.333 -2.33301 32.166 -1 38.499s6 13.5 14 21.5c18 18 36.833 22.667 56.5 14s32.834 -27 39.501 -55
c3.33301 -16.667 9.83301 -32.167 19.5 -46.5s18.167 -21.5 25.5 -21.5z" />
    <glyph glyph-name="s" unicode="s" horiz-adv-x="806" 
d="M443 187c-6.66699 24.667 -12.001 38.998 -16.001 42.998c-4 1.33301 -12.333 -11 -25 -37c-11.333 -22 -29 -51 -53 -87c11.333 4 21.333 5.5 30 4.5s19.667 -4.83301 33 -11.5c18.667 -10 31.334 -12 38.001 -6c6 4.66699 8.5 12.834 7.5 24.501
s-5.83301 34.834 -14.5 69.501zM556.999 121.998c8.66699 0 27.3311 14.501 55.998 43.501s47.667 52.5 57 70.5c12 24 17.667 52.667 17 86c-0.666992 26 1.33301 43.667 6 53s15 16.666 31 21.999c13.333 4 25.333 -1.16699 36 -15.5s16 -32.166 16 -53.499
c0 -83.333 -35.667 -159.666 -107 -228.999c-33.333 -32.667 -72.5 -60.167 -117.5 -82.5s-87.167 -34.833 -126.5 -37.5c-36 -2.66699 -59.667 -1.66699 -71 3c-15.333 5.33301 -26.833 19 -34.5 41s-6.5 38 3.5 48c6.66699 6.66699 7.66699 9.66699 3 9
c-8.66699 -0.666992 -20 -7.33398 -34 -20.001c-53.333 -46 -112.333 -77 -177 -93c-10 -3.33301 -18.833 -5 -26.5 -5s-14 1 -19 3s-9.66699 5.5 -14 10.5s-7.66602 9.5 -9.99902 13.5s-5.5 10 -9.5 18c-4 11.333 -5.83301 19.5 -5.5 24.5s3.5 11.5 9.5 19.5
s12.167 13 18.5 15s19.5 3 39.5 3c30.667 0.666992 58.5 7 83.5 19s53.167 32.667 84.5 62c30.667 28.667 55.834 64 75.501 106s29.5 80.667 29.5 116c0 19.333 1 32.166 3 38.499s8 13.5 18 21.5c12.667 10.667 27 16.5 43 17.5s29.667 -3.16699 41 -12.5
c8 -6.66699 12.833 -13.834 14.5 -21.501s2.16699 -24.834 1.5 -51.501c-0.666992 -27.333 0 -47.166 2 -59.499s7.33301 -28.833 16 -49.5c14 -35.333 23.667 -65.666 29 -90.999c5.33301 -28 11.333 -42 18 -42z" />
    <glyph glyph-name="t" unicode="t" horiz-adv-x="785" 
d="M496 382c14 0 32.665 3.33203 55.998 9.99902c21.333 6 35 7.33301 41 4s9 -14 9 -32s-8.83301 -32.5 -26.5 -43.5s-46.5 -19.833 -86.5 -26.5c-12 -2 -19.5 -5.33301 -22.5 -10s-6.5 -17.667 -10.5 -39c-14 -78.667 -17.333 -124 -10 -136
c4 -5.33301 11.5 -5.66602 22.5 -0.999023s37.833 19.334 80.5 44.001c37.333 21.333 60.166 36.666 68.499 45.999s12.5 24.333 12.5 45c0 25.333 5.66699 44 17 56c12 12.667 24.167 18.5 36.5 17.5s27.166 -9.16699 44.499 -24.5
c12.667 -11.333 20.334 -19.833 23.001 -25.5s3.33398 -14.5 2.00098 -26.5c-2.66699 -22.667 -26.667 -56.334 -72 -101.001c-14.667 -14.667 -46.667 -37.167 -96 -67.5s-88 -51.5 -116 -63.5c-14.667 -6 -25.167 -9.16699 -31.5 -9.5s-15.166 2.16699 -26.499 7.5
c-18.667 7.33301 -32.334 21.333 -41.001 42c-5.33301 12.667 -10.166 20.5 -14.499 23.5s-9 2.66699 -14 -1s-12.167 -12.167 -21.5 -25.5c-27.333 -38.667 -58.333 -64.167 -93 -76.5s-65.667 -9.5 -93 8.5c-19.333 12.667 -37.5 33.834 -54.5 63.501
s-29.833 62.167 -38.5 97.5c-6.66699 28 -10.167 45.667 -10.5 53s2.16699 15.333 7.5 24c10.667 17.333 25.334 22.666 44.001 15.999s30 -21.334 34 -44.001c3.33301 -17.333 9.66602 -40.333 18.999 -69c10 -29.333 20.5 -48.166 31.5 -56.499s25.833 -8.5 44.5 -0.5
c18 7.33301 38.333 25.166 61 53.499s44.667 62.5 66 102.5l11 22.5c2.66699 5.66699 4.66699 11 6 16s1.83301 8.5 1.5 10.5s-1.5 3.83301 -3.5 5.5s-4.83301 2.33398 -8.5 2.00098s-8.16699 -0.833008 -13.5 -1.5c-4.66699 -0.666992 -11.667 -2 -21 -4
s-15 -3.33301 -17 -4c-8 -2.66699 -18 2.16602 -30 14.499s-18 23.5 -18 33.5c0.666992 48.667 29.334 70 86.001 64l40 -5v51c0 24 1 39.5 3 46.5s8 14.833 18 23.5c10.667 10 18.167 15.333 22.5 16s13.5 -1.66602 27.5 -6.99902c16.667 -6.66699 27.667 -15.667 33 -27
s7.33301 -29.666 6 -54.999c-1.33301 -18 -1.33301 -28.667 0 -32s6.33301 -5 15 -5z" />
    <glyph glyph-name="u" unicode="u" horiz-adv-x="822" 
d="M369 129c14 0 53.666 47.999 118.999 143.999c12 18.667 22 46 30 82c7.33301 32.667 15 54.334 23 65.001s20.667 16 38 16s30.333 -7.33301 39 -22c9.33301 -16 13.5 -30.833 12.5 -44.5s-7.5 -33.5 -19.5 -59.5c-28 -64 -37.667 -112.333 -29 -145
c6 -21.333 17.167 -33.5 33.5 -36.5s43.5 2.83301 81.5 17.5c31.333 12 55 18 71 18c10.667 0 17.334 -1 20.001 -3s4 -7 4 -15c-5.33301 -31.333 -29.666 -57.666 -72.999 -78.999s-82.333 -30 -117 -26c-14.667 3.33301 -32.834 13.5 -54.501 30.5s-34.5 31.5 -38.5 43.5
c-5.33301 16 -16 15 -32 -3l-13 -15c-12.667 -16.667 -30.834 -33 -54.501 -49s-42.167 -24 -55.5 -24c-11.333 0 -24 6.83301 -38 20.5s-24.333 29.5 -31 47.5c-8.66699 22.667 -13.667 34.667 -15 36s-10.666 -6.33398 -27.999 -23.001c-60 -60 -111.333 -85.667 -154 -77
c-9.33301 2 -18.166 6.16699 -26.499 12.5s-14.833 13.833 -19.5 22.5s-8.16699 17.5 -10.5 26.5s-2 17.167 1 24.5s8.16699 12.333 15.5 15c14 4.66699 30.667 5.33398 50 2.00098c16 -1.33301 27.5 -1 34.5 1s18.5 9.66699 34.5 23c17.333 13.333 38.5 35 63.5 65
s37.5 48.667 37.5 56c0 3.33301 2 9.66602 6 18.999c4.66699 8 13 42.667 25 104c2.66699 11.333 8 21.5 16 30.5s18 15 30 18s25.333 -0.833008 40 -11.5c18 -12.667 27.333 -30 28 -52s-8 -46.667 -26 -74c-8 -12 -14.833 -32.667 -20.5 -62
s-8.33398 -56.5 -8.00098 -81.5s3.83301 -37.5 10.5 -37.5z" />
    <glyph glyph-name="v" unicode="v" horiz-adv-x="848" 
d="M645 397c2 -4 3.99707 -12.1709 5.99707 -24.5039s6.33301 -19.833 13 -22.5c14 -4.66699 26.333 -5 37 -1s24.667 13.333 42 28c2.66699 2.66699 6.83398 6.5 12.501 11.5s9.66699 8.33301 12 10l9.5 6.5c4 2.66699 7 3.66699 9 3l7.5 -2.5c3 -1 5.83301 -3.5 8.5 -7.5
s5.33398 -9 8.00098 -15c7.33301 -18 8.33301 -33.667 3 -47c-13.333 -34 -39.5 -57 -78.5 -69s-79.167 -11.333 -120.5 2l-25 -50c-13.333 -28.667 -36.666 -61.834 -69.999 -99.501s-59.666 -61.167 -78.999 -70.5c-38 -18.667 -72 -13.667 -102 15
c-18.667 18.667 -28 31.667 -28 39s-1.33301 10.666 -4 9.99902c-4.66699 -1.33301 -19 -14.666 -43 -39.999c-34 -37.333 -68.667 -61.166 -104 -71.499s-68.333 -6.5 -99 11.5l-30 18c0 104.667 1 160.667 3 168c26 -10 40 -28.667 42 -56c4 -36 15.833 -57.667 35.5 -65
s45.167 4.33398 76.5 35.001c39.333 42 70.5 91.667 93.5 149s32.833 111.333 29.5 162c-1.33301 6.66699 2 16.334 10 29.001c6 8.66699 15.833 14.5 29.5 17.5s27.167 1.83301 40.5 -3.5c15.333 -7.33301 24.166 -21.666 26.499 -42.999s1 -49.833 -4 -85.5
s-7.5 -60.167 -7.5 -73.5c-2.66699 -44 -5.66699 -75.667 -9 -95c-3.33301 -25.333 -1 -38.166 7 -38.499s23.667 12.167 47 37.5c30.667 32.667 54.5 68.834 71.5 108.501s18.833 63.5 5.5 71.5c-4.66699 3.33301 -7 10.666 -7 21.999s2.33301 21.333 7 30
c10.667 20.667 30.5 30.5 59.5 29.5s48.5 -12.167 58.5 -33.5z" />
    <glyph glyph-name="w" unicode="w" horiz-adv-x="805" 
d="M30 86c0 28.667 2.33203 42.9961 6.99902 42.9961c6.66699 0 20.667 11.667 42 35s36.333 43.333 45 60c10.667 22 19.834 49 27.501 81s11.5 60.667 11.5 86c0 24.667 5 42 15 52c20 19.333 41.667 18.333 65 -3c10 -10 15.333 -19.333 16 -28s-2.33301 -32 -9 -70
c-6.66699 -34.667 -9 -54.334 -7 -59.001c2.66699 -1.33301 1.66699 -5 -3 -11c-8.66699 -10 -13.834 -38.167 -15.501 -84.5s1.16602 -71.833 8.49902 -76.5c4 -2.66699 14.333 5.5 31 24.5s30.667 38.167 42 57.5c10 16.667 17.667 40 23 70s6.33301 56 3 78
c-2.66699 18 2.33301 32.667 15 44c10.667 10 20 15.333 28 16s19 -2.66602 33 -9.99902c12.667 -6.66699 20.334 -15.167 23.001 -25.5s2 -27.833 -2 -52.5c-6.66699 -36.667 -8.5 -71.834 -5.5 -105.501s9.5 -50.5 19.5 -50.5c6.66699 0 17.334 8.5 32.001 25.5
s28.667 37.5 42 61.5c14 24.667 22.167 45.834 24.5 63.501s1.5 51.167 -2.5 100.5c-0.666992 13.333 2.66602 26.833 9.99902 40.5s16 21.834 26 24.501c18.667 5.33301 38 2.33301 58 -9s32.333 -26.666 37 -45.999c5.33301 -22 11 -35 17 -39s21 -5.33301 45 -4l43 2
c-1.33301 -29.333 -6.66602 -49.666 -15.999 -60.999c-7.33301 -8.66699 -20.833 -15.334 -40.5 -20.001s-38.167 -5.66699 -55.5 -3c-16.667 2.66699 -28 1.66699 -34 -3s-12.333 -17.667 -19 -39c-5.33301 -17.333 -17 -41.5 -35 -72.5s-33 -52.833 -45 -65.5
c-21.333 -23.333 -45.5 -37.166 -72.5 -41.499s-52.167 1.16699 -75.5 16.5l-28 19l-39 -37c-24 -22.667 -44.167 -36.5 -60.5 -41.5s-35.833 -2.5 -58.5 7.5c-20 9.33301 -34.333 22.666 -43 39.999c-6.66699 13.333 -12.167 20 -16.5 20s-15.5 -6.66699 -33.5 -20
c-6.66699 -4.66699 -12.834 -8.5 -18.501 -11.5s-13.167 -6.16699 -22.5 -9.5s-15.666 -5.66602 -18.999 -6.99902c-6.66699 -2.66699 -10.667 0.333008 -12 9c-0.666992 4.66699 -1 14.334 -1 29.001z" />
    <glyph glyph-name="x" unicode="x" horiz-adv-x="839" 
d="M268 242c0 -2 -6.00195 -10.3311 -18.002 -24.998s-17.667 -23 -17 -25c0 -3.33301 -16 -21.666 -48 -54.999c-50 -52 -93.667 -78 -131 -78h-24v57c-1.33301 28.667 -1 44.834 1 48.501s7.66699 1.66699 17 -6s18.333 -9.83398 27 -6.50098
c8.66699 2 27.5 18.5 56.5 49.5s56.5 63.833 82.5 98.5c34 46.667 68.833 84.5 104.5 113.5s64.834 43.5 87.501 43.5c12 0 24.667 -5.16699 38 -15.5s22.333 -22.5 27 -36.5c3.33301 -4.66699 5.5 -18.5 6.5 -41.5s2.83301 -36.167 5.5 -39.5c2 0 14.5 16.667 37.5 50
s44.5 66.333 64.5 99c7.33301 11.333 16.333 20 27 26s22.334 5.33301 35.001 -2c22.667 -18 20.667 -47 -6 -87c-19.333 -28 -37.833 -56.5 -55.5 -85.5s-33.167 -53.5 -46.5 -73.5c-22 -32.667 -33 -52.334 -33 -59.001c0 -7.33301 6.66699 -22.333 20 -45
s22.666 -34.667 27.999 -36c36 -11.333 64 -8.66602 84 8.00098c18.667 15.333 34.167 38 46.5 68s26.166 78 41.499 144c7.33301 32.667 13.833 53.667 19.5 63s14.834 14 27.501 14c8 0 14 -1.5 18 -4.5s8 -9.16699 12 -18.5c4 -8.66699 5.83301 -18.5 5.5 -29.5
s-3.5 -29.833 -9.5 -56.5c-20.667 -93.333 -44.834 -160.833 -72.501 -202.5s-64.834 -66.834 -111.501 -75.501c-21.333 -4 -44.333 -1.5 -69 7.5s-46.667 22.5 -66 40.5c-22 20.667 -33.333 30.667 -34 30c-27.333 -40.667 -55 -77.334 -83 -110.001s-46.333 -49 -55 -49
c-11.333 0 -22 2.83301 -32 8.5s-16.333 12.167 -19 19.5c-3.33301 9.33301 0.333984 22.666 11.001 39.999s25 33.666 43 48.999c22 20.667 56.667 67.667 104 141l-11 65c-10 58 -17.667 89.667 -23 95c-4.66699 4.66699 -15 -0.666016 -31 -15.999
c-1.33301 -2 -3.66602 -4.66699 -6.99902 -8c-15.333 -16 -31.666 -34.5 -48.999 -55.5s-26 -33.167 -26 -36.5z" />
    <glyph glyph-name="y" unicode="y" horiz-adv-x="899" 
d="M436 -4c-6.66699 -0.666992 -12.3291 -13.334 -16.9961 -38.001s-6 -46 -4 -64c2 2.66699 6.66699 8.33398 14 17.001s11.5 14 12.5 16s3.33301 7.16699 7 15.5s6.16699 17.333 7.5 27s2.66602 22.5 3.99902 38.5c3.33301 24.667 3.66602 36.334 0.999023 35.001
c-2.66699 -0.666992 -6.33398 -8.33398 -11.001 -23.001c-4.66699 -16 -9.33398 -24 -14.001 -24zM536.005 457c16 0 26.832 -1.17188 32.499 -3.50488s12.167 -8.83301 19.5 -19.5c10 -16 15 -28 15 -36c0 -9.33301 -2.83301 -21.666 -8.5 -36.999s-10.167 -23 -13.5 -23
c-4 0 -6 -7 -6 -21c0 -14.667 3.33301 -21.667 10 -21c2.66699 0 5.33398 2.33301 8.00098 7c4.66699 7.33301 25.167 20.5 61.5 39.5s65.5 31.833 87.5 38.5c51.333 14.667 89.333 9.66699 114 -15c13.333 -13.333 16.833 -35.166 10.5 -65.499s-17.5 -45.5 -33.5 -45.5
c-7.33301 0 -12.166 2 -14.499 6s-6.5 17.667 -12.5 41c-4.66699 18 -11.334 27.667 -20.001 29s-28.334 -4.66699 -59.001 -18c-46 -20 -91 -51 -135 -93c-16.667 -15.333 -27 -30.666 -31 -45.999s-8.66699 -57.333 -14 -126c-6 -71.333 -14.5 -121.333 -25.5 -150
s-28.833 -48.334 -53.5 -59.001c-34.667 -15.333 -62.667 -14.666 -84 2.00098s-32 46.667 -32 90c0 27.333 9.33301 63.5 28 108.5s38.667 79.167 60 102.5c18 20.667 29 35.834 33 45.501s5.66699 26.5 5 50.5l-47 -44c-24 -22.667 -42.5 -37.334 -55.5 -44.001
s-26.833 -8.33398 -41.5 -5.00098c-16.667 4 -26.834 13 -30.501 27s-2.5 40.333 3.5 79c7.33301 52 9.33301 93.667 6 125l-20 -31c-26 -39.333 -60 -74.666 -102 -105.999s-76.667 -47 -104 -47c-10 0 -22 4.16699 -36 12.5s-21 15.833 -21 22.5
c0 7.33301 5.83301 15 17.5 23s23.167 12 34.5 12c16.667 0 38.5 11.167 65.5 33.5s54.5 52.166 82.5 89.499c8 11.333 18 23.833 30 37.5s22.667 27.5 32 41.5c10 14 17.5 22.167 22.5 24.5s14.5 2.83301 28.5 1.5c20 -1.33301 32.667 -4.66602 38 -9.99902
c9.33301 -9.33301 15.5 -34.666 18.5 -75.999s1.16699 -76 -5.5 -104c-4 -18.667 -5 -28.334 -3 -29.001c2.66699 -1.33301 8.66699 4 18 16c3.33301 4.66699 11.333 12.834 24 24.501s22.334 22.834 29.001 33.501s7.33398 20 2.00098 28s-5 20.333 1 37
c6 18 14.167 30.333 24.5 37s25.833 10 46.5 10z" />
    <glyph glyph-name="z" unicode="z" horiz-adv-x="988" 
d="M561 25c-0.666992 3.33301 3.00098 22 11.001 56s12 52.333 12 55c-0.666992 0 -7.33398 -9.33301 -20.001 -28c-11.333 -18 -17 -37.667 -17 -59c0 -22 3 -34.667 9 -38c2 -0.666992 3.33301 1 4 5c0.666992 2 1 5 1 9zM498.001 408
c0 -28.667 1.66699 -43.334 5 -44.001c1.33301 0 4.66602 1.33301 9.99902 4l17 12.5c6.66699 5 12 8.83301 16 11.5s9.66699 5.66699 17 9s16 6.66602 26 9.99902c19.333 6.66699 32 9.83398 38 9.50098s15.667 -3.83301 29 -10.5c28.667 -14 43.334 -43.333 44.001 -88
c0.666992 -13.333 1.83398 -20.833 3.50098 -22.5s7.16699 -1.5 16.5 0.5c80 20.667 123 32 129 34c35.333 10 60.5 14.167 75.5 12.5s25.167 -9.83398 30.5 -24.501c4 -11.333 3.33301 -20.666 -2 -27.999c-6 -6.66699 -17.667 -12.5 -35 -17.5s-35.333 -7.5 -54 -7.5
c-13.333 0 -43.5 -7.33301 -90.5 -22s-73.833 -25.334 -80.5 -32.001c-7.33301 -7.33301 -27.333 -85.666 -60 -234.999c-6.66699 -31.333 -13.5 -50.5 -20.5 -57.5s-20.833 -8.16699 -41.5 -3.5c-25.333 6 -38 17 -38 33c0 4.66699 -3 9.33398 -9 14.001
c-10 6.66699 -19.5 18.5 -28.5 35.5s-14.5 33.5 -16.5 49.5c-2.66699 24.667 1.83301 47.834 13.5 69.501s34.5 49.167 68.5 82.5l56 55c0 56 -2.33301 85 -7 87c-4.66699 0 -21.667 -14.833 -51 -44.5s-46.666 -49.5 -51.999 -59.5
c-1.33301 -2.66699 -4.5 -10.667 -9.5 -24s-10 -23 -15 -29s-12.167 -10.667 -21.5 -14c-10 -4 -17.333 -5.83301 -22 -5.5s-11.334 2.83301 -20.001 7.5c-13.333 8 -21 17.167 -23 27.5s0.333008 32.166 7 65.499c8.66699 46.667 10 68 4 64
c-0.666992 0 -1.33398 -0.666992 -2.00098 -2c-50 -66 -92 -113 -126 -141c-30.667 -26 -57.5 -43.167 -80.5 -51.5s-49.833 -10.5 -80.5 -6.5c-14.667 2 -26 5.16699 -34 9.5s-17.667 12.166 -29 23.499c-11.333 12 -18.5 21.333 -21.5 28s-3.83301 16.334 -2.5 29.001
c0.666992 14 2.33398 22.333 5.00098 25s11 4.66699 25 6c13.333 1.33301 22.166 0.666016 26.499 -2.00098s10.166 -10.667 17.499 -24c2 -2.66699 4.16699 -6 6.5 -10s4.16602 -6.83301 5.49902 -8.5l4.5 -5.5c1.66699 -2 3.33398 -3.5 5.00098 -4.5
s3.83398 -1.83301 6.50098 -2.5s6 -1 10 -1c6 -1.33301 19.333 3.83398 40 15.501s39.334 24.5 56.001 38.5c8.66699 5.33301 41.667 42.5 99 111.5s88.333 105.5 93 109.5c7.33301 4 16.666 5.5 27.999 4.5s20.333 -4.16699 27 -9.5c8 -6 12 -25 12 -57z" />
    <glyph glyph-name="uni0093" horiz-adv-x="312" 
d="M206 480c10.667 12.667 21.668 18.999 33.001 18.999c20 0.666992 33.5 -9.66602 40.5 -30.999s2.83301 -40 -12.5 -56c-11.333 -12 -18 -28.833 -20 -50.5s2 -37.167 12 -46.5c10.667 -10 15.5 -20 14.5 -30s-7.83301 -17.667 -20.5 -23
c-32.667 -14 -58.334 -1.66699 -77.001 37c-13.333 27.333 -17.333 57 -12 89s19.333 62.667 42 92zM88.001 254.999c-12 0 -23.834 9.50098 -35.501 28.501s-18.834 40.5 -21.501 64.5c-2 19.333 -0.666992 44.166 4 74.499s10.334 52.5 17.001 66.5
c2.66699 7.33301 9.66699 17.333 21 30c10 11.333 20.833 16 32.5 14s20.834 -9.66699 27.501 -23c4 -8.66699 5.83301 -16.5 5.5 -23.5s-3.83301 -19.833 -10.5 -38.5c-12 -36.667 -18.5 -66 -19.5 -88s3.83301 -45.667 14.5 -71c3.33301 -7.33301 1 -14.833 -7 -22.5
s-17.333 -11.5 -28 -11.5z" />
    <glyph glyph-name="uni0094" horiz-adv-x="334" 
d="M36 401c-8 14 -8.49902 29.499 -1.49902 46.499s17.167 24.833 30.5 23.5c14 -0.666992 25.167 -5 33.5 -13s20.166 -25.333 35.499 -52c18.667 -32 26.167 -68.167 22.5 -108.5s-17.5 -69.5 -41.5 -87.5c-12 -9.33301 -25.333 -11 -40 -5c-14 6 -22 12.833 -24 20.5
s1 20.167 9 37.5c17.333 38.667 17.333 70.334 0 95.001c-6.66699 8 -14.667 22.333 -24 43zM299.001 375.999c11.333 -40 6.66699 -74.667 -14 -104s-49.334 -38.333 -86.001 -27c-2 2 -1.33301 11.667 2 29c12.667 45.333 13.334 79.666 2.00098 102.999
c-7.33301 16.667 -16.333 27 -27 31c-18 6.66699 -30.5 18.334 -37.5 35.001s-6.16699 33 2.5 49c11.333 21.333 28.833 27 52.5 17s47.5 -32.667 71.5 -68c16.667 -23.333 28 -45 34 -65z" />
    <glyph glyph-name=".null" horiz-adv-x="0" 
 />
    <glyph glyph-name="nonmarkingreturn" horiz-adv-x="333" 
 />
    </font>
</defs>
</svg>
