<?xml version="1.0" standalone="no"?>
<!DOCTYPE svg PUBLIC "-//W3C//DTD SVG 1.1//EN" "http://www.w3.org/Graphics/SVG/1.1/DTD/svg11.dtd" >
<svg>
<metadata>
Created by FontForge 20090914 at Sat Feb 27 01:00:39 2016
 By www-data
Copyright (c) 2016, root
</metadata>
<defs>
<font id="Armani" horiz-adv-x="445" >
  <font-face 
    font-family="Armani"
    font-weight="400"
    font-stretch="normal"
    units-per-em="1000"
    panose-1="2 0 5 3 0 0 0 0 0 0"
    ascent="800"
    descent="-200"
    x-height="389.999"
    cap-height="568.003"
    bbox="28.8882 -199.34 674.391 715.002"
    underline-thickness="50"
    underline-position="-100"
    unicode-range="U+0020-U+0094"
  />
<missing-glyph horiz-adv-x="364" 
d="M33 0v666h265v-666h-265zM66 33h199v600h-199v-600z" />
    <glyph glyph-name=".notdef" horiz-adv-x="364" 
d="M33 0v666h265v-666h-265zM66 33h199v600h-199v-600z" />
    <glyph glyph-name="space" unicode=" " horiz-adv-x="321" 
 />
    <glyph glyph-name="exclam" unicode="!" horiz-adv-x="149" 
d="M58 119c12 5.33301 20.667 8.00098 26 8.00098s8.5 -0.833008 9.5 -2.5s2 -6.66699 3 -15s2.16699 -15.5 3.5 -21.5c2 -11.333 2.16699 -18.333 0.5 -21s-7.16699 -4.33398 -16.5 -5.00098c-11.333 0 -16.666 2 -15.999 6c0.666992 2 0.666992 3.16699 0 3.5
s-2.66699 -0.166992 -6 -1.5c-5.33301 -2 -8.83301 -1.16699 -10.5 2.5s-1.83398 10.5 -0.500977 20.5c0 3.33301 -2.66699 7 -8 11c-5.33301 3.33301 -0.333008 8.33301 15 15zM93 617.001c13.333 0 21.1699 -11.501 23.5029 -34.501s1.5 -76.167 -2.5 -159.5
c-4 -74 -7.16699 -119 -9.5 -135s-7.16602 -26.667 -14.499 -32c-9.33301 -8 -17 -12 -23 -12c-4.66699 0 -10 6.33301 -16 19s-8.66699 22.334 -8 29.001c0.666992 3.33301 0.166992 5.33301 -1.5 6s-3.83398 0 -6.50098 -2c-2.66699 -1.33301 -4.33398 -2 -5.00098 -2
s-0.333984 1 0.999023 3c11.333 78 17.666 154.667 18.999 230c0.666992 26.667 1.66699 44.5 3 53.5s5 16.5 11 22.5c9.33301 9.33301 19 14 29 14z" />
    <glyph glyph-name="quotedbl" unicode="&#x22;" horiz-adv-x="311" 
d="M59 430c-3.33301 2.66699 -5.33398 1.33496 -6.00098 -3.99805l-2 -12c-1.33301 -0.666992 -3.33301 1.33301 -6 6c-7.33301 11.333 -9.33301 19.333 -6 24c1.33301 2 3.33301 2 6 0c4.66699 -0.666992 7 1 7 5c-0.666992 8 -4.33398 13.333 -11.001 16
c-11.333 4 -14.333 24.333 -9 61s14.666 60.667 27.999 72c8.66699 7.33301 15.334 11.166 20.001 11.499s10.334 -3.16699 17.001 -10.5c10 -9.33301 13.333 -26 10 -50c-2 -14 -6 -20.667 -12 -20l-4 1c-3.33301 2.66699 -4.66602 3 -3.99902 1l4 -6
c8.66699 -10.667 16 -41.334 22 -92.001c1.33301 -14.667 1.33301 -24.334 0 -29.001s-6.33301 -9.66699 -15 -15c-10.667 -6 -15.667 -8 -15 -6c2.66699 2.66699 -0.5 8.83398 -9.5 18.501s-12.833 15.834 -11.5 18.501c2 3.33301 1 6.66602 -3 9.99902zM192.999 443.001
c0 4 4.33691 2.3291 13.0039 -5.00391c8 -8 14 -9.66699 18 -5c2.66699 5.33301 0.666992 8 -6 8s-10.334 2 -11.001 6s2.33301 7.33301 9 10c6 2 7 4.66699 3 8c-5.33301 4 -10 3.33301 -14 -2c-6.66699 -6.66699 -11.5 -9.16699 -14.5 -7.5s-5.5 7.5 -7.5 17.5
c-0.666992 4.66699 -0.833984 8.16699 -0.500977 10.5s1.16602 3.83301 2.49902 4.5s3 0.333984 5 -0.999023c6.66699 -2 10 -1.33301 10 2c-1.33301 4 -4 8.33301 -8 13c-6.66699 6.66699 -7.66699 22 -3 46s11.667 41 21 51c10 11.333 17.5 17 22.5 17s10.167 -5 15.5 -15
l9 -16c0 1.33301 -0.666992 4 -2 8c-3.33301 12.667 -3.33301 19.334 0 20.001c2 0 5 -1.66699 9 -5c6.66699 -5.33301 10.167 -10.166 10.5 -14.499s-1 -11 -4 -20s-4.5 -18.167 -4.5 -27.5c-3.33301 -22.667 -6.66602 -33 -9.99902 -31s-5.33301 0 -6 -6
c-0.666992 -14.667 3.66602 -29.667 12.999 -45l6 -7c7.33301 -6 11.166 -10.5 11.499 -13.5s-2.16699 -8.16699 -7.5 -15.5s-10 -11.666 -14 -12.999s-11.667 -1 -23 1c-28.667 5.33301 -43 14.333 -43 27z" />
    <glyph glyph-name="dollar" unicode="$" horiz-adv-x="487" 
d="M88 225c3.33301 8.66699 7.33105 12.1689 11.998 10.502s10 -8.83398 16 -21.501c4 -8.66699 6.33301 -14.5 7 -17.5s0.333984 -5.5 -0.999023 -7.5s-4.66602 -4.33301 -9.99902 -7c-7.33301 -4 -12 -5.33301 -14 -4s-4.66699 6.66602 -8 15.999
c-4 12 -4.66699 22.333 -2 31zM150.998 87.002c6 4 4.33496 7.66699 -4.99805 11c-6.66699 2 -11.334 1.33301 -14.001 -2c-4 -5.33301 -2 -9.33301 6 -12c5.33301 -1.33301 9.66602 -0.333008 12.999 3zM311 277.002c-4 -1.33301 -7.5 -1.33203 -10.5 0.000976562
s-6.5 3.16602 -10.5 5.49902s-6.33301 3.5 -7 3.5c-2 -11.333 -3.16699 -42.333 -3.5 -93s0.5 -77.667 2.5 -81c3.33301 -5.33301 15.333 -6 36 -2s35 10.333 43 19c9.33301 9.33301 15.333 22 18 38c2 11.333 1.33301 20.333 -2 27s-13.333 19 -30 37
c-24 25.333 -34 40 -30 44c1.33301 2 1.5 3.16699 0.5 3.5s-3.16699 -0.166992 -6.5 -1.5zM107 476.003c0 -9.33301 1.66504 -15.834 4.99805 -19.501s10.333 -7.83398 21 -12.501c38.667 -16.667 60.667 -15 66 5c3.33301 12.667 3.83301 23.834 1.5 33.501
s-6.83301 14.5 -13.5 14.5c-3.33301 0 -5.66602 1.16699 -6.99902 3.5s-1.33301 4.83301 0 7.5c2.66699 6.66699 -0.666016 10.334 -9.99902 11.001c-12.667 0 -24 -5 -34 -15c-4.66699 -4.66699 -9.66699 -7.16699 -15 -7.5s-9 -1.5 -11 -3.5s-3 -7.66699 -3 -17z
M220.998 715.002c7.33301 0 14.9941 -4.5 22.9941 -13.5s11 -16.5 9 -22.5c-2 -5.33301 -1 -12.333 3 -21s8 -13 12 -13c2.66699 0 15 -10.667 37 -32s38.667 -38.666 50 -51.999c8.66699 -11.333 10 -19 4 -23c-7.33301 -4 -6 -6 4 -6c6.66699 0 12.667 -5.16699 18 -15.5
s8 -21.5 8 -33.5c0 -8.66699 -5.83301 -17 -17.5 -25s-21.834 -10.333 -30.501 -7c-6 2 -13.333 12.333 -22 31s-11.667 31.334 -9 38.001c0.666992 1.33301 -0.166016 2.5 -2.49902 3.5s-5.5 1.5 -9.5 1.5c-6 2.66699 -10 -4 -12 -20
c-2 -10.667 -3.33301 -30.334 -4 -59.001l-2 -35c-0.666992 -7.33301 1 -14.166 5 -20.499s12.333 -15.5 25 -27.5c22.667 -18.667 35.334 -28 38.001 -28c1.33301 0.666992 2.5 0.166992 3.5 -1.5s1.5 -3.5 1.5 -5.5s0.333008 -4.16699 1 -6.5
s1.33398 -3.83301 2.00098 -4.5s2 -0.333984 4 0.999023c9.33301 4.66699 29.666 -14.333 60.999 -57c12.667 -16.667 17.334 -30.667 14.001 -42c-2 -6.66699 -2.5 -11 -1.5 -13s4.16699 -2 9.5 0c4.66699 2.66699 7.33398 3.16699 8.00098 1.5
s0.333984 -4.16699 -0.999023 -7.5c-0.666992 -2.66699 -1 -5.33398 -1 -8.00098s1 -4.33398 3 -5.00098c2.66699 0 4.16699 -4.16699 4.5 -12.5s-0.666992 -17.333 -3 -27s-5.16602 -16.167 -8.49902 -19.5s-5 -4 -5 -2c0 1.33301 0.666992 4.33301 2 9l2 8
c-0.666992 -0.666992 -2 -2.33398 -4 -5.00098c-5.33301 -7.33301 -7 -12.333 -5 -15c3.33301 -4.66699 1.66602 -12.667 -5.00098 -24s-12.334 -16 -17.001 -14c-4 0.666992 -8.33301 -3.5 -13 -12.5s-10.334 -12.833 -17.001 -11.5c-10 0 -15.667 -2.66699 -17 -8
c-1.33301 -4 -13.666 -8 -36.999 -12c-20 -2 -33.833 -6 -41.5 -12s-11.5 -15.667 -11.5 -29s-4 -24 -12 -32c-9.33301 -10 -15.666 -14 -18.999 -12c-2 0.666992 -0.666992 4 4 10c5.33301 6 5.66602 9 0.999023 9c-2.66699 0 -6.33398 -0.666992 -11.001 -2
c-12.667 -4 -19 -3.33301 -19 2c0.666992 5.33301 -1.66602 8 -6.99902 8c-4.66699 0 -5.66699 -3.33301 -3 -10c4 -7.33301 9.33301 -11 16 -11c4 -0.666992 6.16699 -1.5 6.5 -2.5s-0.5 -1.83301 -2.5 -2.5c-5.33301 -2 -10.666 -1.66699 -15.999 1c-6 2 -10 5.5 -12 10.5
s-3 14.5 -3 28.5s-1.16699 23.667 -3.5 29s-7.16602 10.666 -14.499 15.999c-12.667 8 -17 14.667 -13 20c2 2.66699 2.5 4.33398 1.5 5.00098s-3.16699 0.333984 -6.5 -0.999023c-13.333 -5.33301 -29.666 8 -48.999 40c-9.33301 16 -12.333 24 -9 24
c0.666992 0 2 -0.333008 4 -1c6 -3.33301 11 -2.66602 15 2.00098c3.33301 3.33301 2 6 -4 8c-5.33301 2.66699 -4.33301 7.66699 3 15c5.33301 5.33301 9 8.16602 11 8.49902s4.66699 -1.83398 8 -6.50098c6 -7.33301 6.66699 -11 2 -11
c-3.33301 -1.33301 -4.83301 -3.66602 -4.5 -6.99902s1.83301 -6.66602 4.5 -9.99902s5 -4.66602 7 -3.99902c3.33301 0 4 2.33301 2 7s-1.33301 7 2 7c4.66699 0 9.5 -3.16699 14.5 -9.5s6.16699 -10.833 3.5 -13.5c-1.33301 -1.33301 -0.333008 -2.33301 3 -3
c2 0 5 0.333008 9 1c8.66699 2 15.5 5.66699 20.5 11s5.83301 10.666 2.5 15.999c-2 1.33301 -4 35 -6 101s-4 99.667 -6 101c-3.33301 4.66699 -10.666 7 -21.999 7c-10 0 -23.667 4 -41 12s-26 14 -26 18s-2.66699 4.66699 -8 2c-4 -2.66699 -13.667 1 -29 11
c-8.66699 6 -16.167 12.833 -22.5 20.5s-10.166 14.167 -11.499 19.5s0 9.33301 4 12c4.66699 2 3.66699 5.33301 -3 10c-7.33301 5.33301 -8 8 -2 8c4 0 6 2.5 6 7.5s2.33301 8.16699 7 9.5c7.33301 2.66699 9 6.66699 5 12c-2.66699 4.66699 -7 5.66699 -13 3
c-8 -3.33301 -11 -1.66602 -9 5.00098c2 6 7.66699 14.667 17 26c11.333 14 19.666 19.667 24.999 17c2 -0.666992 3.5 -0.166992 4.5 1.5s1.33301 3.5 1 5.5s0 4 1 6s2.83301 3 5.5 3c4 2.66699 6.66699 1.5 8 -3.5s3.66602 -6.5 6.99902 -4.5
c3.33301 0.666992 3.66602 6.66699 0.999023 18c-0.666992 4 0 6 2 6c0.666992 0 1.33398 -0.333008 2.00098 -1c4 -2.66699 11.333 0.666016 22 9.99902s18 13.666 22 12.999c8 0 15 6 21 18s9.33301 28 10 48c0.666992 22.667 6 37 16 43c4 2 7.33301 1.33301 10 -2
s8.33398 -5.66602 17.001 -6.99902c6.66699 -0.666992 10.167 -0.5 10.5 0.5s-2.83398 4.16699 -9.50098 9.5c-4.66699 5.33301 -5.66699 8.33301 -3 9z" />
    <glyph glyph-name="percent" unicode="%" horiz-adv-x="662" 
d="M211 4c-8.66699 0 -14.333 2.33301 -17 7s-2.16699 7 1.5 7s9.16699 -2.33301 16.5 -7c4.66699 -3.33301 7 -5.33301 7 -6s-2.66699 -1 -8 -1zM501.001 308c0 9.33301 -3.00195 17.002 -9.00195 23.002c-3.33301 4 -6.5 4.83301 -9.5 2.5
s-7.16699 -9.16602 -12.5 -20.499c-9.33301 -18 -16 -27 -20 -27s-6 -4.66699 -6 -14c0 -12 -3 -23.333 -9 -34c-6.66699 -12.667 -11.5 -35.334 -14.5 -68.001s-2.16699 -52.334 2.5 -59.001c3.33301 -4.66699 7 -7 11 -7s12.667 2.33301 26 7c20 6 33.667 8.33301 41 7
c4.66699 -0.666992 6.66699 -0.333984 6 0.999023c0 0.666992 -1.66699 2 -5 4c-6 4.66699 -6.66699 8.33398 -2 11.001c8 5.33301 17.333 20.666 28 45.999s16.334 46 17.001 62c0.666992 14 0.333984 23.167 -0.999023 27.5s-5 6.83301 -11 7.5
c-21.333 4 -32 14.333 -32 31zM454.999 47.002c3.33301 9.33301 2.66895 14.002 -1.99805 14.002c-5.33301 -2 -9 -7 -11 -15c-1.33301 -8 -6 -12 -14 -12s-15.667 2 -23 6s-13 7.66699 -17 11c-4.66699 4.66699 -6.66699 7.33398 -6 8.00098s4.66699 0 12 -2
s11.5 -2.33301 12.5 -1s-0.5 5.33301 -4.5 12c-6 10.667 -10.333 13 -13 7c-6.66699 -10.667 -15.334 -5.66699 -26.001 15c-12.667 25.333 -16 45.666 -10 60.999c0 0.666992 0.333008 1.33398 1 2.00098c4.66699 10 7.66699 25.333 9 46
c1.33301 19.333 9.83301 48.166 25.5 86.499s29.834 63.833 42.501 76.5c12 13.333 20 18.333 24 15c1.33301 -0.666992 1 -3.33398 -1 -8.00098c-2.66699 -4.66699 -1.66699 -5.66699 3 -3c3.33301 2 4.66602 6.83301 3.99902 14.5s1.66602 12.167 6.99902 13.5
c6 2.66699 10 0.5 12 -6.5s4.33301 -10.5 7 -10.5c4.66699 0 7 5 7 15c0 6 1.16699 9.5 3.5 10.5s7.16602 0.5 14.499 -1.5c9.33301 -2.66699 14.333 -2.66699 15 0l-2 5c-2 2.66699 -2.66699 4.5 -2 5.5s2.33398 0.5 5.00098 -1.5s3.83398 -5 3.50098 -9
s-0.833008 -7.33301 -1.5 -10s0 -4.83398 2 -6.50098s6.66699 -1.16699 14 1.5c12 2.66699 20 0.333984 24 -6.99902c1.33301 -4.66699 11.5 -17.834 30.5 -39.501s28.833 -36.5 29.5 -44.5c7.33301 -38 -0.333984 -82 -23.001 -132c-10 -22.667 -24.5 -44.5 -43.5 -65.5
s-32.167 -29.833 -39.5 -26.5c-4.66699 1.33301 -7 0.333008 -7 -3s-1.66699 -5 -5 -5c-4.66699 -1.33301 -8 -3.66602 -10 -6.99902c-2 -2.66699 -11.333 -7.33398 -28 -14.001c-14 -5.33301 -21 -6.33301 -21 -3c0 1.33301 0.666992 4 2 8zM205.002 61.0039
c8 0.666992 8.66797 6.66699 2.00098 18c-0.666992 1.33301 -1.33398 2.33301 -2.00098 3c-3.33301 4 -5.33301 5.83301 -6 5.5s-1 -3.83301 -1 -10.5c0 -10.667 2.33301 -16 7 -16zM92.0029 349.004c7.33301 0.666992 9.33203 4.5 5.99902 11.5
s-6.66602 9.16699 -9.99902 6.5l-3 -6c0 -8 2.33301 -12 7 -12zM92.002 415.004c-0.666992 -19.333 11.334 -34.834 36.001 -46.501s47.667 -11.167 69 1.5c33.333 20 53.333 47 60 81c2.66699 12 0.833984 30 -5.49902 54s-12.833 38 -19.5 42
c-7.33301 4.66699 -18.333 6.5 -33 5.5s-26 -4.16699 -34 -9.5c-10.667 -7.33301 -21.334 -9.66602 -32.001 -6.99902c-6.66699 2 -11.667 1.5 -15 -1.5s-7 -10.167 -11 -21.5c-4.66699 -13.333 -8 -20 -10 -20c-1.33301 0 -3 2.66699 -5 8c-4 10 -6 11 -6 3
c-1.33301 -6.66699 0.666992 -12.667 6 -18s6.16602 -12.666 2.49902 -21.999s-9.16699 -13 -16.5 -11c-8 2 -11.667 1 -11 -3c0 -6.66699 4 -12.334 12 -17.001l4 -2c6 -2 9 -7.33301 9 -16zM226.003 25.0029c-0.666992 4.66699 -4.49609 6.32715 -11.4961 4.99414
s-11.5 -0.333008 -13.5 3c-2.66699 4.66699 -7.33398 6 -14.001 4c-6.66699 -2.66699 -10 -2 -10 2c0.666992 3.33301 3.33398 13 8.00098 29c4.66699 18.667 9.33398 28 14.001 28c4 0 6 4.66699 6 14c0 10 20 58.333 60 145c9.33301 18.667 18.166 38.5 26.499 59.5
s15.5 36.833 21.5 47.5c4.66699 6 5.66699 10.333 3 13c-1.33301 2 -7.33301 -2 -18 -12l-32 -29.5c-10.667 -9.66699 -17 -12.5 -19 -8.5c-3.33301 2 -5.33301 2.33301 -6 1c-0.666992 -0.666992 -0.333984 -1.66699 0.999023 -3
c3.33301 -4.66699 -2.83398 -10.167 -18.501 -16.5s-32.5 -10.166 -50.5 -11.499s-32.667 1.33398 -44 8.00098c-18.667 9.33301 -28 12.333 -28 9c0 -1.33301 0.666992 -3.33301 2 -6v-2l-10 9c-10 10 -13.333 18 -10 24c0.666992 2 0.666992 3.5 0 4.5
s-2.33398 1.16699 -5.00098 0.5c-20.667 -2 -28.667 0.666992 -24 8c3.33301 4.66699 6.66602 4.33398 9.99902 -0.999023c2 -2.66699 3.33301 -1.66699 4 3c0.666992 2.66699 0.666992 6 0 10c0.666992 8.66699 0 13.667 -2 15s-4.33301 0.833008 -7 -1.5
s-5.66699 -3.66602 -9 -3.99902s-6 1.83398 -8 6.50098c-4.66699 8 -8.16699 20 -10.5 36s-2.16602 29.333 0.500977 40c4.66699 16.667 7.33398 29 8.00098 37c4.66699 30.667 19.334 61.667 44.001 93c15.333 20 25.333 26 30 18c3.33301 -6.66699 6.66602 -6 9.99902 2
c2 6 2 10.333 0 13c-2 3.33301 0.666992 6 8 8l42 9c22.667 4.66699 55 -4 97 -26c10 -5.33301 19 -12 27 -20s10.667 -13.333 8 -16c-0.666992 -2 0.333008 -3.33301 3 -4c6.66699 0 12.667 -8.83301 18 -26.5s8 -36.5 8 -56.5c-0.666992 -20.667 0.333008 -31 3 -31
c1.33301 -0.666992 3 0 5 2c4.66699 2.66699 7.66699 9 9 19s3.66602 16.333 6.99902 19c5.33301 6 12.333 19.667 21 41s16.334 36.333 23.001 45c8 10.667 14 21.167 18 31.5s10.667 20.5 20 30.5c11.333 11.333 22.666 17 33.999 17s20 -5.66699 26 -17
c4 -7.33301 5.33301 -14.333 4 -21s-6.33301 -19 -15 -37c-21.333 -42 -47.5 -103.833 -78.5 -185.5s-57.833 -145.5 -80.5 -191.5c-32.667 -68 -53.334 -116 -62.001 -144s-18 -42.333 -28 -43c-10 -1.33301 -15 0.333984 -15 5.00098z" />
    <glyph glyph-name="ampersand" unicode="&#x26;" horiz-adv-x="472" 
d="M221 208c-5.33301 -0.666992 -14.4971 6.33301 -27.4971 21s-21.167 22 -24.5 22c-4.66699 0 -12 5.66699 -22 17c-8.66699 9.33301 -16.334 12.833 -23.001 10.5s-10 -9.83301 -10 -22.5c0.666992 -5.33301 -1.33301 -9 -6 -11s-6 -5.66699 -4 -11
c1.33301 -4 1.33301 -6.5 0 -7.5s-4.66602 -0.833008 -9.99902 0.5c-10.667 2.66699 -15.667 1.33398 -15 -3.99902c2 -4.66699 6.66699 -8.33398 14 -11.001c11.333 -3.33301 19 -19 23 -47c-0.666992 -2.66699 1.5 -6.83398 6.5 -12.501s9.16699 -11.167 12.5 -16.5
s3.33301 -9.33301 0 -12c-2 -1.33301 -1 -2.33301 3 -3c3.33301 -0.666992 8.66602 -0.666992 15.999 0c20 1.33301 34.333 2 43 2c4.66699 0.666992 8.16699 1.5 10.5 2.5s3.16602 2.5 2.49902 4.5c-0.666992 4 18 14 56 30c-26 20.667 -38 34.334 -36 41.001
c1.33301 2 1.16602 3.66699 -0.500977 5s-4.5 2 -8.5 2zM279.003 568c-3.33301 -2 -4 -9 -2 -21c2 -5.33301 4 -8 6 -8c6 0 5.66699 8 -1 24zM215.003 566c-3.33301 -1.33301 -10.001 0.667969 -20.001 6.00098c-12 5.33301 -23.833 6.16602 -35.5 2.49902
s-22 -11.834 -31 -24.501s-16.167 -26.167 -21.5 -40.5s-7.16602 -29.666 -5.49902 -45.999s6.83398 -29.833 15.501 -40.5l17 -21c30.667 16 51.334 29.333 62.001 40c10 8.66699 19 11.667 27 9c6 -2.66699 9.5 -3 10.5 -1s0.5 5.33301 -1.5 10
c-0.666992 3.33301 -1.33398 5.83301 -2.00098 7.5s-0.833984 3.66699 -0.500977 6s1.5 4.16602 3.5 5.49902c6.66699 8 9.5 17.833 8.5 29.5s-5.16699 21.834 -12.5 30.501c-9.33301 12 -13.333 19.667 -12 23c1.33301 2.66699 1.33301 4 0 4h-2zM51.002 545.001
c0 18.667 9.00977 38.1729 27.0098 58.5059s32.667 31.833 44 34.5c4.66699 -0.666992 9.66699 1.16602 15 5.49902s11 5.5 17 3.5c5.33301 -2.66699 8 -3 8 -1c0 1.33301 -0.666992 3 -2 5c-2 4 -2.33301 6 -1 6c2 0 5.33301 -1.33301 10 -4
c7.33301 -3.33301 17 -4.66602 29 -3.99902s22 -2 30 -8c10 -6 15 -11 15 -15c-6.66699 -2 -5.66699 -7 3 -15c6.66699 -4.66699 13 -7.33398 19 -8.00098c6.66699 0 15.167 -7.5 25.5 -22.5s15.833 -27.833 16.5 -38.5c0 -8 1.5 -13.667 4.5 -17s4.5 -9 4.5 -17
c1.33301 -12 -0.333984 -18 -5.00098 -18c-3.33301 0.666992 -5.33301 -1 -6 -5c-1.33301 -4.66699 -0.333008 -7 3 -7c0.666992 0 2 0.666992 4 2s3 1 3 -1c-0.666992 -8.66699 -7.66699 -21.334 -21 -38.001c-2 -2.66699 -4 -4.66699 -6 -6
c-8 -7.33301 -12 -7.33301 -12 0c-0.666992 3.33301 -3.33398 1 -8.00098 -7c-0.666992 -2.66699 -2.66699 -7 -6 -13c-8.66699 -19.333 -22.667 -35 -42 -47c-18.667 -12.667 -28 -21.334 -28 -26.001c0 -6.66699 20.167 -28.167 60.5 -64.5s64.166 -54.5 71.499 -54.5
c4 0 8 4.33301 12 13c3.33301 11.333 10.166 22.5 20.499 33.5s19.166 16.5 26.499 16.5c5.33301 0 11.5 -2.16699 18.5 -6.5s12.667 -9.16602 17 -14.499s5.5 -9.33301 3.5 -12c-2.66699 -2 -4.66699 -0.333008 -6 5s-3 7.66602 -5 6.99902c-2.66699 0 -4.5 -2 -5.5 -6
s-0.666992 -7.66699 1 -11s4.16699 -4.66602 7.5 -3.99902c10.667 0 7.33398 -16 -9.99902 -48c-10.667 -22 -14.334 -36 -11.001 -42c2 -2.66699 3.16699 -5.83398 3.5 -9.50098s0.333008 -6.83398 0 -9.50098s0.166992 -4.66699 1.5 -6s4 -1.66602 8 -0.999023
c6.66699 2.66699 13.167 -1.16602 19.5 -11.499s11.166 -23.5 14.499 -39.5c0.666992 -3.33301 1.16699 -6.16602 1.5 -8.49902s0.5 -4.33301 0.5 -6s-0.166992 -2.83398 -0.5 -3.50098s-0.833008 -1.33398 -1.5 -2.00098s-1.5 -0.833984 -2.5 -0.500977l-4.5 1.5
c-4.66699 2 -7.33398 2.33301 -8.00098 1c0 -0.666992 0.333008 -1.66699 1 -3c2 -2.66699 -3 -4.66699 -15 -6l-10 -1c-12.667 0 -22.667 2 -30 6s-10.666 9.33301 -9.99902 16c-0.666992 2 -3 5.16699 -7 9.5s-8.66699 9 -14 14s-8.66602 8.5 -9.99902 10.5
c-54 -20.667 -86.333 -29.334 -97 -26.001c-2.66699 1.33301 -4.16699 1.83301 -4.5 1.5s0.166992 -1.83301 1.5 -4.5c3.33301 -6 2.66602 -9 -2.00098 -9c-6.66699 0 -14 -2.16699 -22 -6.5s-15 -5.5 -21 -3.5c-4 2 -5 0 -3 -6c3.33301 -7.33301 -0.333984 -11 -11.001 -11
c-10 0 -23.333 3.33301 -40 10c-8.66699 3.33301 -14.834 6.66602 -18.501 9.99902s-4.83398 6.66602 -3.50098 9.99902c2.66699 8 0.666992 13 -6 15c-4.66699 2 -7.33398 2 -8.00098 0l2 -5v-2c-2 0.666992 -5 3 -9 7c-10 9.33301 -16.5 18.5 -19.5 27.5
s-1.5 15.5 4.5 19.5c6 3.33301 6.33301 5 1 5h-5c-7.33301 -1.33301 -13.333 3.83398 -18 15.501s-5.66699 24.5 -3 38.5c2 11.333 0.333008 17 -5 17c-4 1.33301 -6 7.16602 -6 17.499s1.83301 23.833 5.5 40.5s8.5 31.334 14.5 44.001l16 34l-19 34
c-14.667 28 -22.667 57 -24 87c0 11.333 2 16.666 6 15.999c0.666992 0 1.33398 -0.333008 2.00098 -1l6 -3l-6 8c-6.66699 9.33301 -8.33398 22 -5.00098 38c2.66699 12.667 5.33398 19.334 8.00098 20.001c1.33301 0 2.66602 -1.33301 3.99902 -4c4 -2 6 0 6 6z" />
    <glyph glyph-name="quotesingle" unicode="'" horiz-adv-x="174" 
d="M89 470c-2.66699 -9.33301 -1.66699 -14.001 3 -14.001c5.33301 0 9 3.33301 11 10c0 4 -1 7.66699 -3 11c-4 4.66699 -7.66699 2.33398 -11 -6.99902zM84 424.999c2 -13.333 -1.00195 -19.333 -9.00195 -18c-9.33301 1.33301 -18.333 8.33301 -27 21
c-2.66699 4 -3 6 -1 6c6 0 9 2.66699 9 8s-3.66699 6.66602 -11 3.99902c-6.66699 -2.66699 -11.334 3.33301 -14.001 18c-2 17.333 -0.666992 43.666 4 78.999c2.66699 20 7 49.667 13 89c2 3.33301 8.16699 7.5 18.5 12.5s18.166 6.83301 23.499 5.5
c7.33301 -1.33301 15.333 -8.5 24 -21.5s11.334 -22.167 8.00098 -27.5c-3.33301 -6 -5.66602 -11.833 -6.99902 -17.5s-3.33301 -24.167 -6 -55.5c-2.66699 -25.333 -3.16699 -40.666 -1.5 -45.999s7.83398 -12.666 18.501 -21.999c9.33301 -8 14.833 -14.167 16.5 -18.5
s0.833984 -10.166 -2.49902 -17.499c-8.66699 -19.333 -22 -26 -40 -20c-4 1.33301 -5.5 5.16602 -4.5 11.499s-0.166992 11.833 -3.5 16.5c-4 7.33301 -6.33301 8 -7 2c-0.666992 -2 -1 -5 -1 -9z" />
    <glyph glyph-name="parenleft" unicode="(" horiz-adv-x="277" 
d="M136 301c0 -14.667 -1.66797 -22.6709 -5.00098 -24.0039s-4.33301 -24.666 -3 -69.999c2 -50.667 3.5 -80.667 4.5 -90s2.83301 -14 5.5 -14c3.33301 0 5 -3.66699 5 -11c0 -10 17 -47.333 51 -112c6.66699 -5.33301 6.83398 -10.5 0.500977 -15.5s-9.5 -8.5 -9.5 -10.5
c0.666992 -4 6 -2.66699 16 4c24.667 18 39.667 15.667 45 -7c3.33301 -12.667 -2 -24.667 -16 -36c-19.333 -15.333 -32.333 -20.333 -39 -15c-2.66699 2 -3 5.66699 -1 11c3.33301 5.33301 5.33301 7.33301 6 6s2 -3.66602 4 -6.99902s4.33301 -4.66602 7 -3.99902
c2 0 2.83301 1.33301 2.5 4s-1.5 6 -3.5 10c-4.66699 9.33301 -11.334 13.833 -20.001 13.5s-16 -5.16602 -22 -14.499c-5.33301 -6.66699 -9.33301 -9.83398 -12 -9.50098s-9.33398 5.5 -20.001 15.5c-8 7.33301 -17.5 18.5 -28.5 33.5s-19.667 28.667 -26 41
s-7.83301 18.5 -4.5 18.5c4 0 2.66699 4 -4 12c-14.667 14.667 -26 48.667 -34 102c-6.66699 45.333 -6.66699 101.166 0 167.499s15.334 99.5 26.001 99.5c3.33301 0 4 2 2 6c-2.66699 3.33301 2.83301 23 16.5 59s24.834 60.333 33.501 73c6.66699 10 12.334 14 17.001 12
c2.66699 -1.33301 3.66699 -0.333008 3 3c0 0.666992 -0.333008 2 -1 4c-2 6.66699 6.33301 18.334 25 35.001c16 14.667 28.167 22.834 36.5 24.501s17.5 -2.5 27.5 -12.5c20.667 -20.667 16.667 -46.667 -12 -78c-7.33301 -8 -13 -14.833 -17 -20.5s-6.66699 -10 -8 -13
s-3.5 -8.66699 -6.5 -17s-5.83301 -15.5 -8.5 -21.5c-6.66699 -12.667 -13.834 -37.167 -21.501 -73.5s-11.5 -62.5 -11.5 -78.5z" />
    <glyph glyph-name="parenright" unicode=")" horiz-adv-x="305" 
d="M156 -73c-4 0 -6 -5.33398 -6 -16.001c0 -7.33301 1 -11 3 -11c4 0.666992 6.66699 6.33398 8 17.001c0.666992 6.66699 -1 10 -5 10zM241 431.999c0 -6.66699 2.33203 -12.3281 6.99902 -16.9951c4 -4 10.167 -34.833 18.5 -92.5s10.833 -87.834 7.5 -90.501
c-2 -3.33301 -4.16699 -3.66602 -6.5 -0.999023s-4.83301 5.33398 -7.5 8.00098s-4.33398 2.66699 -5.00098 0c0 -2.66699 3.5 -8.16699 10.5 -16.5s9.5 -15.166 7.5 -20.499c-2 -4.66699 -4.5 -22.334 -7.5 -53.001s-6.16699 -48.334 -9.5 -53.001
c-5.33301 -10.667 -8 -19.667 -8 -27c0 -6 -1.83301 -13.5 -5.5 -22.5s-7.83398 -16.833 -12.501 -23.5s-8 -9.33398 -10 -8.00098c-2.66699 2.66699 -5.66699 0.666992 -9 -6c-2 -6 -1.33301 -9 2 -9c2 0 4 0.666992 6 2c5.33301 2 8.16602 2.66699 8.49902 2
s-1.5 -3.66699 -5.5 -9c-5.33301 -5.33301 -7.66602 -10.833 -6.99902 -16.5s-0.333008 -11.167 -3 -16.5c-2 -2.66699 -3.33301 -4.66699 -4 -6c-1.33301 -0.666992 -1.66602 0 -0.999023 2c0.666992 1.33301 1.33398 3 2.00098 5c2.66699 9.33301 1.66699 15 -3 17
c-2.66699 1.33301 -3.66699 -3.33398 -3 -14.001v-5c2.66699 -14.667 -2 -32.667 -14 -54c-6.66699 -10.667 -11 -13 -13 -7c-1.33301 4.66699 -2.66602 3.33398 -3.99902 -3.99902c-2 -14 -3.33301 -21 -4 -21s-1.33398 1.66699 -2.00098 5
c0 12.667 -4.33301 12.334 -13 -0.999023c-8 -12.667 -10.667 -19.667 -8 -21c2 -2 3.66699 -0.333008 5 5s3.66602 6.33301 6.99902 3c5.33301 -2.66699 5 -6 -1 -10c-11.333 -6.66699 -19.666 -8.33398 -24.999 -5.00098c-0.666992 2 -0.666992 3.66699 0 5
c2.66699 4 -1.66602 8.33301 -12.999 13c-12 5.33301 -18 16.666 -18 33.999c0 11.333 1 18.166 3 20.499s6.66699 2.5 14 0.5c6.66699 -2.66699 11.334 -2.83398 14.001 -0.500977s3.66699 5.5 3 9.5s-2.66699 6.66699 -6 8c-3.33301 -0.666992 -6.33301 3 -9 11
c-2 4.66699 -1.33301 7 2 7c1.33301 0 3 -0.666992 5 -2c6 -4 9.33301 -1.66699 10 7c0.666992 6 -0.666016 9.33301 -3.99902 10c-0.666992 0 -1.66699 -0.333008 -3 -1c-4.66699 -3.33301 -7 -2.33301 -7 3c0.666992 4 2.33398 6.33301 5.00098 7
c3.33301 0 5.66602 7.66699 6.99902 23c-0.666992 9.33301 2 18.333 8 27s9 16 9 22c-0.666992 4.66699 -0.333984 7.5 0.999023 8.5s4.66602 0.833008 9.99902 -0.5c10 -4 11 -3 3 3c-7.33301 5.33301 -8.33301 14.666 -3 27.999c3.33301 8 4.66602 15.333 3.99902 22
s0.333008 12 3 16c6.66699 8.66699 9.5 38 8.5 88s-5.16699 90.667 -12.5 122c-20.667 89.333 -55.667 160 -105 212c-12.667 12.667 -20.834 22.5 -24.501 29.5s-5.5 16.167 -5.5 27.5c0 18 2.33301 27 7 27c2.66699 -0.666992 4.5 0.833008 5.5 4.5
s1.83301 7.16699 2.5 10.5s2.33398 4.33301 5.00098 3c3.33301 -1.33301 9 1.33398 17 8.00098s14.667 9 20 7c7.33301 -1.33301 19.5 -11.166 36.5 -29.499s24.167 -29.5 21.5 -33.5c-0.666992 -2 -0.5 -3.33301 0.5 -4s2.5 -0.666992 4.5 0
c2.66699 0.666992 7.83398 -4.33301 15.501 -15s16.167 -23.834 25.5 -39.501s17.333 -30.834 24 -45.501c17.333 -38.667 26 -62.667 26 -72z" />
    <glyph glyph-name="asterisk" unicode="*" horiz-adv-x="356" 
d="M168 645c10 0 16.9951 -1.50781 20.9951 -4.50781s8.66699 -10.833 14 -23.5c9.33301 -20.667 16.333 -30.334 21 -29.001c2 0.666992 3 3.66699 3 9c0 4.66699 1.66699 6 5 4c2 -3.33301 6.33301 -2.33301 13 3s14.834 5.83301 24.501 1.5
s16.834 -12.166 21.501 -23.499c4.66699 -4 6.16699 -10 4.5 -18s-3.66699 -14.333 -6 -19s-6 -10.667 -11 -18s-8.16699 -12.666 -9.5 -15.999c31.333 -12.667 49 -22 53 -28c4.66699 -7.33301 4.33398 -16.666 -0.999023 -27.999s-13 -18.666 -23 -21.999
c-8.66699 -3.33301 -14.167 -6.66602 -16.5 -9.99902s-3.16602 -9.66602 -2.49902 -18.999s-0.333008 -16.166 -3 -20.499s-9 -8.83301 -19 -13.5c-13.333 -6.66699 -19.666 -11.667 -18.999 -15c1.33301 -2 0.333008 -3.33301 -3 -4h-6c-6 0 -9.5 1.83301 -10.5 5.5
s-1 7.83398 0 12.501s-0.5 8.33398 -4.5 11.001c-5.33301 4 -8 2.66699 -8 -4c0 -3.33301 -2.66699 -1 -8 7c-0.666992 2 -2.33398 5 -5.00098 9c-5.33301 10 -9.66602 16.167 -12.999 18.5s-7.33301 2.16602 -12 -0.500977s-13 -9.66699 -25 -21
c-33.333 -31.333 -55.333 -47 -66 -47c-3.33301 0 -3.66602 5.33301 -0.999023 16c2.66699 5.33301 3.5 8.83301 2.5 10.5s-3 1.83398 -6 0.500977s-6 -2 -9 -2s-4.83301 1 -5.5 3c0 4.66699 -3.33301 7 -10 7c-20 0 -12 18 24 54c34.667 34.667 43.334 52 26.001 52
c-6.66699 0 -19.334 4.66699 -38.001 14c-12.667 6 -20.834 11.167 -24.501 15.5s-5.5 10.833 -5.5 19.5c0 34 25.667 45 77 33l24 -6c-8 29.333 -7 51.333 3 66c8 13.333 19.333 20 34 20z" />
    <glyph glyph-name="plus" unicode="+" horiz-adv-x="433" 
d="M252 424c-6.66699 2 -9.99805 1 -9.99805 -3c-0.666992 -4.66699 2.66602 -8.33398 9.99902 -11.001c0.666992 -0.666992 1.66699 -1 3 -1c6 -2 9.66699 -5 11 -9s1.33301 -11.667 0 -23c-2 -12.667 -2.16699 -20.5 -0.5 -23.5s7.5 -4.5 17.5 -4.5
c8 0.666992 16 -1.33301 24 -6s15.667 -3.66699 23 3c9.33301 4.66699 19.666 6.33398 30.999 5.00098c7.33301 -2 16.166 -8.66699 26.499 -20s15.5 -20.333 15.5 -27c0 -4.66699 -3.66699 -2.66699 -11 6c-7.33301 10.667 -12 13.334 -14 8.00098
c-2 -3.33301 -0.333008 -9 5 -17c4 -6.66699 5.83301 -11.5 5.5 -14.5s-3.16602 -7.16699 -8.49902 -12.5c-8 -8 -31 -12.333 -69 -13c-37.333 0 -58.666 -2.66699 -63.999 -8s-8.66602 -25.666 -9.99902 -60.999c-1.33301 -31.333 -5 -51.666 -11 -60.999
s-17.667 -13 -35 -11c-15.333 2.66699 -25 1 -29 -5c-2.66699 -4.66699 -4.33398 -4.33398 -5.00098 0.999023l-1 4c-1.33301 27.333 -0.333008 45 3 53c4 11.333 2.66699 19 -4 23c-6 3.33301 -6 5 0 5s9 2.66699 9 8s-2.66699 6 -8 2c-6 -3.33301 -7 2.66699 -3 18
c3.33301 14.667 1 22 -7 22c-3.33301 0 -5.66602 0.5 -6.99902 1.5s-1.66602 2.16699 -0.999023 3.5c0.666992 2 -0.5 3.16699 -3.5 3.5s-7.5 0.166016 -13.5 -0.500977c-14 -2 -21 -0.333008 -21 5c0 3.33301 -2.33301 5.66602 -7 6.99902s-9.33398 1.33301 -14.001 0
s-7 -3.66602 -7 -6.99902c0 -6 -7.33301 -6 -22 0c-7.33301 3.33301 -12.333 7 -15 11c-4.66699 6.66699 -6.33398 15 -5.00098 25s5.33301 17.667 12 23c7.33301 7.33301 28 11 62 11c37.333 0 59 2.5 65 7.5s7.66699 20.833 5 47.5c-4 24 -4.5 48.667 -1.5 74
s12.5 40.333 28.5 45c12 4.66699 20.167 6.5 24.5 5.5s12.166 -6.16699 23.499 -15.5c10 -8 14.667 -25 14 -51c-1.33301 -16.667 -5 -24.334 -11 -23.001z" />
    <glyph glyph-name="comma" unicode="," horiz-adv-x="192" 
d="M72 313c0 4 7.66699 5.33203 23 3.99902c16 -0.666992 27.667 -8.66699 35 -24s9 -34.666 5 -57.999c-2.66699 -18 -2.66699 -27 0 -27c3.33301 0 9 -11.667 17 -35c7.33301 -20.667 10.5 -43.5 9.5 -68.5s-5.83301 -40.833 -14.5 -47.5
c-8 -6.66699 -12 -12.334 -12 -17.001c0 -2.66699 -2.16699 -5.16699 -6.5 -7.5s-5.16602 -6.5 -2.49902 -12.5v-8c-0.666992 0 -1.66699 0.333008 -3 1c-4.66699 2.66699 -15.167 0.666992 -31.5 -6s-25.5 -12.667 -27.5 -18s-8.33301 -5.33301 -19 0
c-11.333 6 -16.333 14.333 -15 25s8.66602 19.667 21.999 27c10.667 6 16 7.66699 16 5c-2.66699 -4.66699 -1.66699 -7 3 -7c3.33301 0 5.16602 9.16699 5.49902 27.5s-0.666992 37.5 -3 57.5s-5.16602 31.667 -8.49902 35c-2 2 -8 18.333 -18 49
c-8.66699 25.333 -12 47 -10 65s9.33301 28.667 22 32c8.66699 2.66699 13 5.33398 13 8.00098z" />
    <glyph glyph-name="hyphen" unicode="-" horiz-adv-x="343" 
d="M207 194c10 0 14.666 0.999023 13.999 2.99902c-1.33301 4 -7.66602 6.66699 -18.999 8c-6 0.666992 -9 -0.666016 -9 -3.99902c0 -4.66699 4.66699 -7 14 -7zM224.999 186.999c-24 0 -38.834 0.832031 -44.501 2.49902s-8.5 5.83398 -8.5 12.501c0 6 -1 9.33301 -3 10
c-4 2 -6.66699 0 -8 -6l2 -8c0.666992 -2 0.833984 -3.66699 0.500977 -5s-1.5 -2.5 -3.5 -3.5s-5 -1.5 -9 -1.5h-15c-13.333 0.666992 -19.666 1.66699 -18.999 3l4 1c10 2 15 4.66699 15 8c0.666992 5.33301 -6.33301 8 -21 8c-11.333 1.33301 -18.5 -2 -21.5 -10
s-9.83301 -11.667 -20.5 -11c-14 0 -21 2.66699 -21 8c0 4.66699 -2.33301 5.66699 -7 3c-6.66699 -4 -11.334 0.333008 -14.001 13s-1.33398 24.334 3.99902 35.001c7.33301 12.667 17.333 19 30 19c14.667 0 22.667 -3 24 -9c2.66699 -6 6 -6 10 0
c4 4.66699 27.333 9.33398 70 14.001h1h2c76.667 6 116 7.66699 118 5c0.666992 -0.666992 0.333984 -2.66699 -0.999023 -6c-3.33301 -7.33301 -3 -11 1 -11c9.33301 1.33301 15.833 -0.333984 19.5 -5.00098s4.16699 -11.334 1.5 -20.001s-8 -17.667 -16 -27
c-8.66699 -8.66699 -16.5 -14 -23.5 -16s-22.5 -3 -46.5 -3z" />
    <glyph glyph-name="period" unicode="." horiz-adv-x="175" 
d="M48 113c28 31.333 54.332 33.665 78.999 6.99805c12.667 -13.333 18.667 -27.333 18 -42s-7.66699 -27 -21 -37c-18.667 -14 -27.667 -18.333 -27 -13c0.666992 2 2.66699 5.33301 6 10c2 2 2.66699 3.33301 2 4s-4 -1.66602 -10 -6.99902c-8 -8 -13.5 -12 -16.5 -12
s-9.5 3.33301 -19.5 10c-12 7.33301 -20.667 18.666 -26 33.999c-3.33301 8.66699 -4.16602 15.834 -2.49902 21.501s7.5 13.834 17.5 24.501z" />
    <glyph glyph-name="slash" unicode="/" horiz-adv-x="335" 
d="M122 37c0 -6.66699 -5.33691 -9 -16.0039 -7h-10l2 -2c6 -2.66699 6 -7 0 -13c-3.33301 -3.33301 -8.16602 -5.83301 -14.499 -7.5s-12.166 -2.16699 -17.499 -1.5s-8 2.33398 -8 5.00098c0 4 -3.33301 5 -10 3c-6.66699 -2.66699 -10.334 -1.66699 -11.001 3
c0 4 2.66699 8.66699 8 14s6.33301 9.66602 3 12.999s-7 1.66602 -11 -5.00098c-4.66699 -7.33301 -7 -6.33301 -7 3c0 5.33301 3.66699 9.33301 11 12s10.666 8 9.99902 16c0 6.66699 -0.5 10.167 -1.5 10.5s-2.83301 -1.5 -5.5 -5.5
c-2.66699 -4.66699 -4.5 -6.83398 -5.5 -6.50098s-1.5 3.16602 -1.5 8.49902s3.66699 9.33301 11 12s10.666 8.33398 9.99902 17.001c0 18 8.33301 46.333 25 85c2 2.66699 7.33301 20.334 16 53.001s17.667 64.5 27 95.5s15.666 46.833 18.999 47.5
c2.66699 -2 4 -1.66699 4 1c0.666992 1.33301 0.333984 3.33301 -0.999023 6c-3.33301 4 -2.16602 14.5 3.50098 31.5s13.167 37 22.5 60s15.333 38.5 18 46.5c8 26.667 14.5 44.334 19.5 53.001s12.833 15.667 23.5 21c23.333 13.333 42.333 13 57 -1
c6.66699 -6 10.834 -16.333 12.501 -31s-0.166016 -25 -5.49902 -31c-47.333 -98.667 -86.666 -211.334 -117.999 -338.001c-3.33301 -12 -10.166 -31.167 -20.499 -57.5s-19.333 -50.166 -27 -71.499s-11.5 -34.333 -11.5 -39z" />
    <glyph glyph-name="zero" unicode="0" horiz-adv-x="434" 
d="M43 240c5.33301 29.333 6.33301 46.001 3 50.001c-5.33301 4 -8.33301 1 -9 -9c0 -12.667 2 -26.334 6 -41.001zM214 476.001c-40 0 -64.334 -14 -73.001 -42c-3.33301 -8.66699 -7.33301 -12 -12 -10c-4.66699 3.33301 -6 1.66602 -4 -5.00098
c0 -0.666992 0.333008 -1.66699 1 -3c4 -8 3.33301 -14.667 -2 -20c-6 -6.66699 -11.333 -43.334 -16 -110.001c-2 -46 15 -86 51 -120c12.667 -12 21.5 -18.667 26.5 -20s13.167 0.333984 24.5 5.00098c16.667 8 26.334 14.333 29.001 19c4 6 8.33301 8 13 6
c3.33301 -2.66699 5 -2.66699 5 0l-2 6c-2 4 -2.16699 6.5 -0.5 7.5s4 0.833008 7 -0.5s5.16699 -1.5 6.5 -0.5s1 3.83301 -1 8.5c-2.66699 4.66699 -3 7.33398 -1 8.00098s4.66699 0.5 8 -0.5s6.33301 -1.16699 9 -0.5s3.66699 3.33398 3 8.00098
c0 2.66699 -0.666992 4.66699 -2 6s-3 1.66602 -5 0.999023c-4.66699 -2.66699 -7 -2.66699 -7 0c0 4.66699 7 20 21 46c6 12 11 62.333 15 151l-28 30c-13.333 14 -23.333 22.5 -30 25.5s-18.667 4.5 -36 4.5zM62.999 165.001
c1.33301 -7.33301 1.00293 -11.5029 -0.99707 -12.5029s-4.33301 1.16699 -7 6.5c-2.66699 4.66699 -4 9.66699 -4 15c-4.66699 26 -5 39 -1 39l3 -1c4.66699 -2.66699 7 -0.666992 7 6c0 16.667 -6 16.667 -18 0c-5.33301 -7.33301 -8.33301 -8.66602 -9 -3.99902
c-0.666992 2 -1 6 -1 12c-1.33301 12.667 -1.83301 25.167 -1.5 37.5s0.5 21.833 0.5 28.5s2 18.167 6 34.5s6.5 26.833 7.5 31.5s4.83301 19.334 11.5 44.001c2 7.33301 7.83301 21.333 17.5 42s14.834 38 15.501 52c0 12.667 6 27.334 18 44.001c6 8 9.33301 8.66699 10 2
c0 -6.66699 2.33301 -10 7 -10c5.33301 0 6.66602 2.33301 3.99902 7c-4.66699 7.33301 1.66602 13.666 18.999 18.999c8.66699 2.66699 18.667 4.66699 30 6c23.333 3.33301 36 6 38 8c4.66699 4 14.834 4.66699 30.501 2s32.5 -7.66699 50.5 -15
c16 -6.66699 28 -13.5 36 -20.5s18.333 -20.167 31 -39.5c20 -30.667 32.667 -60.667 38 -90s4 -63.666 -4 -102.999c-9.33301 -42.667 -20.833 -77.667 -34.5 -105s-33.834 -55 -60.501 -83c-10 -10 -17.667 -16.167 -23 -18.5s-13.333 -2.5 -24 -0.5
s-17.667 2.33301 -21 1s-5.33301 -5.66602 -6 -12.999c-0.666992 -6.66699 -2.83398 -10.834 -6.50098 -12.501s-12.167 -2.16699 -25.5 -1.5c-21.333 0 -35.333 1.66699 -42 5c-4 1.33301 -6.5 2.5 -7.5 3.5s-1.16699 2 -0.5 3s2.66699 2.5 6 4.5
c4.66699 2.66699 6 4.33398 4 5.00098c-2 0 -5.66699 -0.666992 -11 -2c-11.333 -3.33301 -23 1.66699 -35 15c-8.66699 10 -11.667 14.667 -9 14c4 -2.66699 6 -2.33398 6 0.999023c0 5.33301 -2.33301 9.66602 -7 12.999c-2 0 -3.66699 -0.333008 -5 -1
c-6.66699 -3.33301 -12.334 -2.33301 -17.001 3c-2 2.66699 -1.66699 5 1 7c5.33301 2.66699 3 9 -7 19c-7.33301 7.33301 -11 10.333 -11 9s0.666992 -3.66602 2 -6.99902z" />
    <glyph glyph-name="one" unicode="1" horiz-adv-x="292" 
d="M195 148c-5.33301 2 -8.99805 -0.666992 -10.998 -8s-4.66699 -11 -8 -11c-2.66699 -0.666992 -4.33398 -2 -5.00098 -4s0 -3.66699 2 -5c2.66699 -4 9 -1 19 9c5.33301 6.66699 8.16602 11 8.49902 13s-1.5 4 -5.5 6zM199.002 78c0 -4.66699 -1.33301 -7 -4 -7
c-4.66699 0 -7.33398 2.33301 -8.00098 7c0 1.33301 0.333008 2.66602 1 3.99902c2 4 -2 9.66699 -12 17c-6.66699 4.66699 -10.334 8.83398 -11.001 12.501s0.666016 10.167 3.99902 19.5c4.66699 6.66699 5.33398 19.167 2.00098 37.5s-3 29.5 1 33.5
c4.66699 2.66699 5.33398 7 2.00098 13c-2.66699 4.66699 -4.66699 34 -6 88c-0.666992 36.667 -1.66699 58.834 -3 66.501s-5.33301 11.5 -12 11.5c-10 0 -18.667 -3.66699 -26 -11c-21.333 -20 -35 -28 -41 -24c-2.66699 2.66699 -4.66699 1 -6 -5
c-1.33301 -6.66699 -2.33301 -10 -3 -10s-1.66699 1 -3 3c-1.33301 5.33301 -4.33301 7 -9 5c-6 -4 -14.667 -1.66699 -26 7c-13.333 11.333 -13.333 19.666 0 24.999c6 0 6 1.33301 0 4c-14 5.33301 -12 16.666 6 33.999c12 11.333 20.333 16.333 25 15
c6 -2.66699 9 -1.66699 9 3c0 5.33301 7.33301 11.166 22 17.499s25.667 8.5 33 6.5l7 -1c-0.666992 0.666992 -2 1.66699 -4 3c-5.33301 2 -4.16602 7.33301 3.50098 16s16.167 17.5 25.5 26.5s13.333 14.167 12 15.5c6.66699 10 17.5 15.5 32.5 16.5
s28.167 -3.83301 39.5 -14.5c5.33301 -4.66699 8.5 -16.167 9.5 -34.5s1.83301 -67.5 2.5 -147.5v-172l-23 -1c-2 -1.33301 -0.666992 -2.66602 4 -3.99902c8.66699 -2 14 -7.83301 16 -17.5s0.333008 -20.167 -5 -31.5c-4 -8 -8 -13.167 -12 -15.5
s-10.667 -3.16602 -20 -2.49902c-15.333 2 -23 -1 -23 -9z" />
    <glyph glyph-name="two" unicode="2" horiz-adv-x="494" 
d="M274 402c-0.666992 0 5.66309 13.665 18.9961 40.998c9.33301 21.333 11.333 32.333 6 33c-5.33301 0 -22.666 -7.16699 -51.999 -21.5s-51 -26.166 -65 -35.499c-10 -7.33301 -21.833 -10.833 -35.5 -10.5s-22.834 4.16602 -27.501 11.499
c-4.66699 6.66699 -6 17.834 -4 33.501s6.33301 26.834 13 33.501c2.66699 4.66699 10.834 7.83398 24.501 9.50098s21.5 4.16699 23.5 7.5c2.66699 6 12.5 12.5 29.5 19.5s26.833 11.5 29.5 13.5c18.667 9.33301 41 18.666 67 27.999c28 10 49.167 15.167 63.5 15.5
s26.166 -3.83398 35.499 -12.501c10 -9.33301 14.5 -20.666 13.5 -33.999s-7.5 -36.333 -19.5 -69c-8.66699 -22 -24.667 -54.667 -48 -98s-40.666 -72.666 -51.999 -87.999c-18.667 -23.333 -28 -37.333 -28 -42s13 -15.334 39 -32.001s42.667 -25 50 -25
c6.66699 0 11.667 -3.66699 15 -11c2.66699 -7.33301 8.33398 -5.66602 17.001 5.00098c7.33301 9.33301 11.666 12 12.999 8c2 -10 5 -12 9 -6c3.33301 5.33301 4.33301 13 3 23c-0.666992 17.333 4.33301 30 15 38c14 12 24.667 12 32 0
c8.66699 -13.333 6.33398 -29.333 -6.99902 -48c-7.33301 -10.667 -14.333 -13.334 -21 -8.00098c-6.66699 7.33301 -9.66699 5.33301 -9 -6c1.33301 -12.667 4 -19.667 8 -21c6.66699 1.33301 10 -1 10 -7c-1.33301 -6.66699 -5.33301 -12 -12 -16
c-9.33301 -4.66699 -17.666 -4.33398 -24.999 0.999023c-6.66699 4.66699 -10 5.66699 -10 3c0.666992 -4.66699 4.66699 -9.66699 12 -15c4 -2.66699 6.33301 -4.66699 7 -6s0.333984 -2.83301 -0.999023 -4.5s-4.66602 -3.83398 -9.99902 -6.50098
c-11.333 -5.33301 -23 -6.66602 -35 -3.99902c-8.66699 2.66699 -13 3.33398 -13 2.00098s1.66699 -3 5 -5c0 -4 -3 -6.33301 -9 -7c-11.333 0 -29.166 4.83301 -53.499 14.5s-36.5 16.834 -36.5 21.501c0 4 -3.33301 6 -10 6s-13 4.33301 -19 13
c-6.66699 8.66699 -15.834 13 -27.501 13s-21.167 -4.66699 -28.5 -14c-4 -5.33301 -7.33301 -10.833 -10 -16.5s-5.33398 -10.334 -8.00098 -14.001s-8 -8.16699 -16 -13.5c-13.333 -8 -22.666 -17.667 -27.999 -29c-7.33301 -15.333 -21.833 -23 -43.5 -23
s-34.5 7.66699 -38.5 23c-2.66699 12.667 8.66602 38.334 33.999 77.001c19.333 30 38 54.833 56 74.5s30.667 29.5 38 29.5c8 0 20.667 9.66699 38 29s33.333 41.666 48 66.999c19.333 32.667 29 51 29 55z" />
    <glyph glyph-name="three" unicode="3" horiz-adv-x="423" 
d="M305 585c-0.666992 -6 2.33496 -9.33887 9.00195 -10.0059c5.33301 -0.666992 8.33301 1.33301 9 6c0 1.33301 -0.333008 2.66602 -1 3.99902c-2 6 -1.66699 9 1 9c7.33301 -0.666992 14 -7 20 -19l2 -3c9.33301 -22.667 6.33301 -53 -9 -91
c-5.33301 -13.333 -7.66602 -22.166 -6.99902 -26.499s6 -10.833 16 -19.5c19.333 -18 32.166 -36 38.499 -54s9.5 -45 9.5 -81c0 -31.333 -1.33301 -52.5 -4 -63.5s-10.334 -28.167 -23.001 -51.5c-12 -22.667 -25 -42.167 -39 -58.5s-23.667 -23.5 -29 -21.5
c-2.66699 1.33301 -10.667 -4.66699 -24 -18c-12.667 -11.333 -26.167 -19 -40.5 -23s-23.833 -2.66699 -28.5 4c-2 2.66699 -3.33301 4.33398 -4 5.00098c-2 1.33301 -1.66699 -1 1 -7c1.33301 -4.66699 1.16602 -7.83398 -0.500977 -9.50098s-5.5 -2.5 -11.5 -2.5
c-15.333 0 -27 1.83301 -35 5.5s-11 8.83398 -9 15.501c2 8 0 12 -6 12c-4 0.666992 -6.83301 -0.5 -8.5 -3.5s-2.33398 -6.33301 -2.00098 -10s0 -6.66699 -1 -9s-3.16699 -2.5 -6.5 -0.5c-4.66699 3.33301 -5.66699 7.33301 -3 12c1.33301 2 1.66602 3.5 0.999023 4.5
s-2 0.833008 -4 -0.5c-8 -4.66699 -15.667 -4 -23 2c-2 2.66699 -2.66699 5 -2 7c2 4.66699 1 7 -3 7c-5.33301 0 -8.66602 5.66699 -9.99902 17c-2.66699 12.667 1.33301 20 12 22s26.667 -0.666992 48 -8c26 -10 48.667 -12.333 68 -7s41.333 19.333 66 42
c17.333 16 28.833 28.333 34.5 37s10.167 21.334 13.5 38.001c5.33301 25.333 5.5 51.5 0.5 78.5s-12.833 41.833 -23.5 44.5c-27.333 8.66699 -61.666 -2.33301 -102.999 -33c-25.333 -18.667 -42.333 -26.334 -51 -23.001c-8.66699 2.66699 -14.334 -1 -17.001 -11
c-3.33301 -13.333 -11.666 -17.333 -24.999 -12c-14.667 6 -22 17 -22 33c0 10 9.33301 24.167 28 42.5s40 34.166 64 47.499c51.333 28.667 81.666 56.334 90.999 83.001c5.33301 12.667 5.66602 20.834 0.999023 24.501s-15.334 3.5 -32.001 -0.5
c-13.333 -3.33301 -23.166 -5.16602 -29.499 -5.49902s-10.666 0.333984 -12.999 2.00098s-3.83301 4.83398 -4.5 9.50098c0 8 -2 8 -6 0l-2 -4c-4 -8.66699 -18.667 -17.167 -44 -25.5s-40.666 -14.833 -45.999 -19.5c-11.333 -9.33301 -23.5 -12 -36.5 -8
s-19.5 12 -19.5 24c0 8.66699 9.16699 22.5 27.5 41.5s31.833 28.5 40.5 28.5c8 0 15.333 2 22 6c6.66699 3.33301 24 9 52 17s48.667 13 62 15c47.333 6.66699 71 4.33398 71 -6.99902z" />
    <glyph glyph-name="four" unicode="4" horiz-adv-x="425" 
d="M255 432c1.33301 -3.33301 -9.00098 -22.001 -31.001 -56.001s-32.667 -52 -32 -54c6 -2 12.5 -2.5 19.5 -1.5s17.333 3.16699 31 6.5s21.5 5 23.5 5c0 2.66699 0.5 14.5 1.5 35.5s1.33301 38.333 1 52s-2.16602 20.834 -5.49902 21.501c-5.33301 0 -8 -3 -8 -9z
M364.999 376.999c6.66699 0 13.6689 -5.99805 21.002 -17.998c3.33301 -4 5.66602 -8.16699 6.99902 -12.5s1.66602 -8.83301 0.999023 -13.5s-1.33398 -8.83398 -2.00098 -12.501s-2.5 -8.16699 -5.5 -13.5s-5.33301 -9.33301 -7 -12s-4.33398 -6.33398 -8.00098 -11.001
s-5.83398 -7.66699 -6.50098 -9c-11.333 -13.333 -18.666 -39.666 -21.999 -78.999c-8 -95.333 -17.333 -146 -28 -152c-6.66699 -3.33301 -9 -7.33301 -7 -12c2 -3.33301 0.5 -5.83301 -4.5 -7.5s-6.16699 -4.83398 -3.5 -9.50098c0.666992 -2 2.16699 -5.5 4.5 -10.5
s3.83301 -8.5 4.5 -10.5c2 -3.33301 2.16699 -6 0.5 -8s-3.83398 -3.16699 -6.50098 -3.5s-5.16699 -1.16602 -7.5 -2.49902s-3.16602 -3.33301 -2.49902 -6c0.666992 -2 0.666992 -3 0 -3c-1.33301 2 -5.5 3.33301 -12.5 4s-13.167 1.66699 -18.5 3
s-7.66602 4.33301 -6.99902 9c0 6.66699 -2.16699 10.167 -6.5 10.5s-7.83301 -2.5 -10.5 -8.5c-1.33301 -2.66699 -2 -0.666992 -2 6c0.666992 9.33301 3.66699 34.666 9 75.999c4.66699 38.667 8.66699 94.334 12 167.001c-68 -5.33301 -121 -12 -159 -20
c-28 -6 -46.333 -7.33301 -55 -4s-13 14 -13 32c0.666992 12.667 4 23.667 10 33s13 14 21 14c3.33301 0 6 0.666992 8 2s2.66699 2.66602 2 3.99902c-1.33301 3.33301 10.334 19 35.001 47c46 54 73.333 100.333 82 139c0.666992 6 2.16699 10.333 4.5 13
s4.83301 3.33398 7.5 2.00098c3.33301 -2.66699 5 -2.66699 5 0c0 1.33301 -0.333008 3.33301 -1 6c-3.33301 9.33301 1.66699 18.5 15 27.5s27 12.167 41 9.5c15.333 -2.66699 25.666 0.666016 30.999 9.99902c4.66699 8.66699 13.334 16.667 26.001 24
c12.667 6.66699 20.5 10.167 23.5 10.5s8.5 -2.16699 16.5 -7.5c8.66699 -6 12.667 -22.667 12 -50c-0.666992 -20.667 -2.5 -37.667 -5.5 -51s-4.83301 -30.333 -5.5 -51c-3.33301 -34 -1 -51 7 -51z" />
    <glyph glyph-name="five" unicode="5" horiz-adv-x="447" 
d="M262 568c0.666992 2 -0.999023 3.66699 -4.99902 5c-10 4 -16.333 3.66699 -19 -1c-0.666992 -1.33301 -0.666992 -2.66602 0 -3.99902c1.33301 -4 5.66602 -6.33301 12.999 -7s11 1.66602 11 6.99902zM57.001 299c1.33301 4.66699 -2.8252 8.83105 -12.4922 12.498
s-14.5 6.5 -14.5 8.5c0.666992 6.66699 8 38.5 22 95.5s22.667 88.833 26 95.5c5.33301 13.333 13.833 25.5 25.5 36.5s22.5 17.667 32.5 20s18 0.166016 24 -6.50098c4.66699 -7.33301 11 -9.33301 19 -6c3.33301 1.33301 4.66602 3.66602 3.99902 6.99902s2 6 8 8
c10 2.66699 52.667 8.33398 128 17.001c38.667 4.66699 62.167 7 70.5 7s14.833 -2.33301 19.5 -7c5.33301 -5.33301 8 -14.333 8 -27s-2.33301 -20.667 -7 -24c-3.33301 -2 -4.33301 -1 -3 3c2 9.33301 2.66699 14 2 14c-0.666992 0.666992 -2 0 -4 -2
c-4.66699 -3.33301 -7.83398 -9.16602 -9.50098 -17.499s-4.83398 -14.5 -9.50098 -18.5c-6.66699 -6.66699 -40.667 -9.66699 -102 -9c-61.333 1.33301 -92 0.333008 -92 -3c0.666992 -2 -0.666016 -3.66699 -3.99902 -5
c-4.66699 -1.33301 -7.33398 -0.666016 -8.00098 2.00098c-0.666992 0.666992 -0.333984 2 0.999023 4c2.66699 3.33301 1 5.66602 -5 6.99902c-6 0.666992 -9.33301 -0.666016 -10 -3.99902c0 -0.666992 0.333008 -1.66699 1 -3c2 -4.66699 1 -7 -3 -7
c-8 0 -16 -17.667 -24 -53c-2.66699 -10.667 -3 -17 -1 -19s10 -2.66699 24 -2c19.333 0 29 2 29 6c2.66699 3.33301 12 4.83301 28 4.5s34.5 -2.5 55.5 -6.5s34.833 -8 41.5 -12l19 -12l-17 -5l-2 -1l-11 -3c0.666992 -1.33301 10.667 -3 30 -5
c6 -0.666992 11.667 -3.33398 17 -8.00098s8 -9 8 -13c0 -4.66699 -2 -4 -6 2c-4.66699 6.66699 -6.66699 3.66699 -6 -9c0.666992 -7.33301 1.66699 -11.5 3 -12.5s4 -0.166992 8 2.5c4.66699 4 7.33398 1.66699 8.00098 -7
c0.666992 -7.33301 0.333984 -20.666 -0.999023 -39.999c-1.33301 -36 -7 -57.667 -17 -65c-6.66699 -6 -9 -9 -7 -9c6.66699 0 2.33398 -9.33301 -12.999 -28c-10 -12 -18.333 -19.333 -25 -22c-2.66699 -1.33301 -5.16699 -2.66602 -7.5 -3.99902
s-3.83301 -2.66602 -4.5 -3.99902s-0.666992 -2.33301 0 -3c2.66699 -2.66699 -2.83301 -9.66699 -16.5 -21s-23.167 -17 -28.5 -17c-4.66699 0 -6 2 -4 6c2 2.66699 -1 3.66699 -9 3h-4c-12 -2 -16.333 -6.33301 -13 -13c1.33301 -4 0.166016 -6.66699 -3.50098 -8
s-10.834 -2 -21.501 -2c-18.667 0 -29.334 3.33301 -32.001 10c-2.66699 7.33301 -6.33398 11 -11.001 11c-2.66699 0 -4.16699 -0.666992 -4.5 -2s-0.166016 -3 0.500977 -5c1.33301 -4.66699 0.333008 -7 -3 -7c-6.66699 0 -10.334 2.66699 -11.001 8
s1.66602 10.666 6.99902 15.999c6.66699 6 7 8.66699 1 8c-2.66699 0 -7.33398 -0.666992 -14.001 -2c-14.667 -2 -25 0.166992 -31 6.5s-7.33301 16.166 -4 29.499c2.66699 13.333 6.83398 20.833 12.501 22.5s15.167 -2.16602 28.5 -11.499
c16.667 -11.333 22 -20.333 16 -27c-6.66699 -8 -6 -9.33301 2 -4c1.33301 0.666992 8 5 20 13c7.33301 5.33301 21.666 10.666 42.999 15.999s35.333 6.66602 42 3.99902c3.33301 -1.33301 5.5 -1.66602 6.5 -0.999023s0.5 2.33398 -1.5 5.00098
c-3.33301 5.33301 0 15.333 10 30c9.33301 12.667 14.666 29.5 15.999 50.5s-1.66699 35.167 -9 42.5c-6.66699 6.66699 -21.834 12.5 -45.501 17.5s-37.167 5.16699 -40.5 0.5c0 -3.33301 -4.66699 -5 -14 -5s-18 0.666992 -26 2s-12.667 1.33301 -14 0
c2 -2 -0.666992 -7.33301 -8 -16s-15.666 -16.667 -24.999 -24s-15.333 -10.333 -18 -9c-4.66699 2.66699 -7 0.666992 -7 -6c0 -8 -3.5 -12.5 -10.5 -13.5s-14 0.666992 -21 5s-10.5 9.16602 -10.5 14.499c0 6.66699 2 10.334 6 11.001s7.33301 -2 10 -8s4 -6 4 0z" />
    <glyph glyph-name="six" unicode="6" 
d="M325 309c-12 9.33301 -19.667 11.6689 -23 7.00195s-7.33301 -19.334 -12 -44.001c-1.33301 -6.66699 -6.33301 -37.667 -15 -93c-7.33301 -42.667 -9.33301 -65.334 -6 -68.001c0.666992 -0.666992 2.33398 -1 5.00098 -1c10 0 22 10.5 36 31.5s23.667 42.5 29 64.5
c11.333 44.667 6.66602 79 -14.001 103zM291 407.003c3.33301 0 12.667 1.66699 28 5c4 0 0.333008 5.66699 -11 17c-7.33301 6.66699 -21 25.667 -41 57s-33.333 50.333 -40 57c-8 8.66699 -14.667 13.667 -20 15s-13.666 0.666016 -24.999 -2.00098
c-23.333 -6 -43 -70.333 -59 -193c-7.33301 -57.333 -8.5 -108.666 -3.5 -153.999s15.833 -76.666 32.5 -93.999c15.333 -16 25.333 -20.667 30 -14c4 5.33301 7.66699 26 11 62c1.33301 18 3.5 34.667 6.5 50s5.16699 28.333 6.5 39c6 49.333 14 81.666 24 96.999
c6.66699 10 17.167 22 31.5 36s24.166 21.333 29.499 22zM408.001 282.003c4 1.33301 6.33008 1.00098 6.99707 -0.999023c0.666992 -4 -1.66602 -7.33301 -6.99902 -10c-0.666992 -0.666992 -1.33398 -1 -2.00098 -1c-6 -2 -5.83301 -5.83301 0.5 -11.5
s6.83301 -9.5 1.5 -11.5c-5.33301 -2.66699 -6 -6.66699 -2 -12s2 -21 -6 -47s-14.667 -38.333 -20 -37c-2 0.666992 -3.66699 0.5 -5 -0.5s-1.66602 -2.16699 -0.999023 -3.5c1.33301 -3.33301 -0.333984 -9 -5.00098 -17s-9.83398 -15.167 -15.501 -21.5
s-9.5 -8.83301 -11.5 -7.5c-2 0.666992 -3.16699 0.666992 -3.5 0s0.166992 -2 1.5 -4c2.66699 -5.33301 -4.83301 -16.5 -22.5 -33.5s-38.167 -32.167 -61.5 -45.5c-17.333 -10 -29.666 -15.333 -36.999 -16s-22 1 -44 5c-26.667 4.66699 -43.834 9 -51.501 13
s-11.5 9.66699 -11.5 17c0 6 -2.33301 8 -7 6c-5.33301 -2.66699 -13 2 -23 14s-20.667 29.667 -32 53c-8 18 -13.167 34 -15.5 48s-3.83301 40.667 -4.5 80c-0.666992 35.333 0 63.5 2 84.5s6.16699 45.333 12.5 73s10.833 50.5 13.5 68.5c18 94 54.667 153.667 110 179
c15.333 7.33301 36.5 8.16602 63.5 2.49902s41.5 -14.167 43.5 -25.5c0 -8.66699 2.16699 -17.334 6.5 -26.001s8.83301 -11.667 13.5 -9c1.33301 0.666992 4.83301 -1.66602 10.5 -6.99902s11.834 -12.666 18.501 -21.999c13.333 -18.667 28 -36.667 44 -54
c26 -29.333 24.667 -55.333 -4 -78l-22 -18c1.33301 -1.33301 4.83301 -4.5 10.5 -9.5s10.334 -9.33301 14.001 -13s6.83398 -7.83398 9.50098 -12.501s3.33398 -9 2.00098 -13c-2.66699 -10 2 -16.333 14 -19c7.33301 -2 11.166 -5.5 11.499 -10.5s1.83301 -8.5 4.5 -10.5
c6.66699 -5.33301 8.33398 -10.333 5.00098 -15c-1.33301 -2 -3 -2.66699 -5 -2c-4 0.666992 -6.33301 0 -7 -2c-2 -12.667 -0.666992 -18.667 4 -18c0.666992 0 1.66699 0.333008 3 1z" />
    <glyph glyph-name="seven" unicode="7" horiz-adv-x="469" 
d="M422 382c-3.33301 1.33301 -5.83789 -0.166016 -7.50488 -4.49902s-4.5 -5.16602 -8.5 -2.49902c-5.33301 3.33301 -6.33301 2.33301 -3 -3c2 -3.33301 0.666992 -6.83301 -4 -10.5s-11.334 -6.66699 -20.001 -9s-17.667 -3.5 -27 -3.5c-11.333 0 -19.333 -4.5 -24 -13.5
s-13.334 -37.167 -26.001 -84.5c-10 -37.333 -18.5 -63.166 -25.5 -77.499s-14.5 -21.5 -22.5 -21.5s-8.66699 -2.33301 -2 -7c9.33301 -6 8 -9.66699 -4 -11c-7.33301 -0.666992 -16.333 0.333008 -27 3c-10 3.33301 -16 6.66602 -18 9.99902s-2.33301 11 -1 23
c0.666992 12 3.83398 25.667 9.50098 41s9.16699 27.333 10.5 36c0.666992 11.333 5.33398 31 14.001 59c4.66699 18 6.83398 29.333 6.50098 34s-3.5 9 -9.5 13c-8.66699 6 -15 7 -19 3c-7.33301 -6.66699 -15.666 -8.33398 -24.999 -5.00098
c-4 1.33301 -5 3.66602 -3 6.99902c2 2.66699 2.5 4.16699 1.5 4.5s-2.83301 -0.5 -5.5 -2.5c-5.33301 -3.33301 -15.166 -5 -29.499 -5s-23.5 2 -27.5 6s-1.5 11.167 7.5 21.5s18.5 16.5 28.5 18.5c9.33301 2.66699 44.333 12 105 28c0.666992 2 3 11.167 7 27.5
s6.83301 30 8.5 41s1.5 18.5 -0.5 22.5c-2.66699 2.66699 -34.5 0.166992 -95.5 -7.5s-97.5 -13.834 -109.5 -18.501c-8 -3.33301 -18.333 0.666992 -31 12c-8.66699 6.66699 -13.667 12.167 -15 16.5s-0.333008 10.833 3 19.5c4.66699 12.667 10.334 17.334 17.001 14.001
c3.33301 -2 5 -2 5 0c0 1.33301 -0.666992 3.66602 -2 6.99902c-4.66699 12.667 5.33301 20.667 30 24c5.33301 0 36.833 3.83301 94.5 11.5s90.834 11.5 99.501 11.5c14.667 0 27.667 3.33301 39 10c10 6 20.833 9.16699 32.5 9.5s20.667 -1.83398 27 -6.50098
s8.16602 -10.667 5.49902 -18c-2 -5.33301 -2 -8 0 -8l4 2c6 4 8.66699 1.66699 8 -7c-1.33301 -9.33301 -7 -28.333 -17 -57c-12 -37.333 -20.667 -71.666 -26 -102.999l33 4c20.667 2 35.834 -0.666992 45.501 -8s12.167 -17.666 7.5 -30.999
c-2 -4.66699 -4.33301 -8.5 -7 -11.5s-5 -4.16699 -7 -3.5z" />
    <glyph glyph-name="eight" unicode="8" horiz-adv-x="463" 
d="M266 432c-0.666992 27.333 -4.16992 44.833 -10.5029 52.5s-18.166 9.16699 -35.499 4.5c-8 -2 -15 -4.66699 -21 -8s-12.667 -8 -20 -14s-12 -9.66699 -14 -11c-8.66699 -4.66699 -12.667 -16.5 -12 -35.5s5.33398 -31.833 14.001 -38.5s21.334 -10.167 38.001 -10.5
s31 2.16699 43 7.5c8.66699 4 14 8.83301 16 14.5s2.66699 18.5 2 38.5zM261.997 512c-1.33301 -3.33301 1.66699 -6.66699 9 -10c10.667 -5.33301 16.667 -6.33301 18 -3c0.666992 2 -1.33301 5 -6 9c-9.33301 11.333 -16 14 -20 8c-0.666992 -0.666992 -1 -2 -1 -4z
M380.997 109.999c-4 0 -4.66797 -3.66895 -2.00098 -11.002c3.33301 -3.33301 2.16602 -7.16602 -3.50098 -11.499s-11.667 -8.33301 -18 -12s-8.83301 -6.5 -7.5 -8.5c2 -2.66699 -1.66699 -7 -11 -13s-21.333 -11.667 -36 -17s-27.667 -8.66602 -39 -9.99902
c-23.333 -2.66699 -37.333 -6.33398 -42 -11.001c-6 -4 -9.33301 -1.66699 -10 7c-0.666992 8 -2 8.33301 -4 1c-2 -8 -6 -12.333 -12 -13c-3.33301 -0.666992 -5 1.33301 -5 6c0 4 -8 5.33301 -24 4s-24.333 0.666992 -25 6c-0.666992 2.66699 2.33301 5.33398 9 8.00098
c0.666992 2 -0.333008 3.33301 -3 4c-8 1.33301 -12.667 -1 -14 -7c-1.33301 -4.66699 -12 -3.5 -32 3.5s-36.333 15.5 -49 25.5c-11.333 9.33301 -15.333 14 -12 14s9 -3.66699 17 -11s14.333 -10 19 -8c3.33301 2 5 2.33301 5 1c0.666992 -0.666992 0.666992 -2 0 -4
c-1.33301 -4.66699 -0.333008 -7 3 -7c5.33301 0 8 3.66699 8 11c0.666992 5.33301 -9 11.5 -29 18.5s-30 12.833 -30 17.5c-1.33301 4 -1.66602 6.33301 -0.999023 7l3 -1c2.66699 -2 4.66699 -0.333008 6 5c1.33301 4 1.66602 8.66699 0.999023 14
c0 10.667 -0.666992 16 -2 16c-1.33301 -0.666992 -3 -3 -5 -7l-5 -9c-0.666992 0.666992 -1 4.66699 -1 12c-1.33301 10.667 2.66699 19.334 12 26.001c5.33301 6 6 9.33301 2 10c-6.66699 -2 -7.66699 0.666992 -3 8c1.33301 2 3 4.33301 5 7
c3.33301 4.66699 4.33301 6.66699 3 6c-0.666992 0 -1.66699 -0.666992 -3 -2c-6 -2 -9.33301 -1.66699 -10 1c-0.666992 5.33301 2.66602 9.33301 9.99902 12c2 0.666992 3.66699 1 5 1c10 2.66699 13.667 9.66699 11 21c-3.33301 8 -2.83301 13.333 1.5 16
s7.16602 0.666992 8.49902 -6c0 -5.33301 5.66699 -6.33301 17 -3c8.66699 2 14.334 1.5 17.001 -1.5s1.33398 -7.16699 -3.99902 -12.5c-8 -8 -11.667 -32 -11 -72c0.666992 -14 2.66699 -22.833 6 -26.5s13.333 -7.5 30 -11.5c8 -2 15.833 -4.16699 23.5 -6.5
s13.334 -4 17.001 -5s9.16699 -1.83301 16.5 -2.5s16.666 -0.666992 27.999 0c18.667 0 27.334 -2.33301 26.001 -7c-2 -2.66699 -2 -4 0 -4c0.666992 0 2.33398 0.333008 5.00098 1c4.66699 1.33301 7 4 7 8v7.5c0 1 5 0.5 15 -1.5c10.667 -2 16 -1.66699 16 1
c-1.33301 1.33301 0.166992 4 4.5 8s10.166 8.33301 17.499 13c28.667 18.667 43 47.334 43 86.001c0 22.667 -6.33301 40 -19 52c-10 10 -19.833 15 -29.5 15s-23.834 -5 -42.501 -15c-5.33301 -2 -11.333 -3.83301 -18 -5.5s-13.834 -2.83398 -21.501 -3.50098
s-14.167 0.5 -19.5 3.5s-8.33301 7.5 -9 13.5c-2.66699 10 -6.16699 15.5 -10.5 16.5s-14.5 -1.83301 -30.5 -8.5c-14 -6.66699 -25 -8 -33 -4c-5.33301 4 -10 5 -14 3s-6 -6.66699 -6 -14c0 -8 5.33301 -10.333 16 -7c7.33301 2 11 2.66699 11 2
c0.666992 -0.666992 -0.666016 -2.66699 -3.99902 -6c-1.33301 -4 -4.5 -5.66699 -9.5 -5s-9.16699 1.83398 -12.5 3.50098s-7.5 4 -12.5 7s-8.16699 4.83301 -9.5 5.5c5.33301 4.66699 12.833 12.167 22.5 22.5l21.5 23.5c-1.33301 1.33301 -4.33301 4 -9 8
s-7.83398 7 -9.50098 9s-4.83398 5.5 -9.50098 10.5s-7.66699 8.66699 -9 11l-6.5 11c-3 5 -4 8.83301 -3 11.5s1.5 6.66699 1.5 12c1.33301 1.33301 0.333008 3.83301 -3 7.5s-6.16602 6.66699 -8.49902 9s-1.16602 4.5 3.50098 6.5c6 1.33301 7.66699 4.66602 5 9.99902
c-4 5.33301 -0.833008 20 9.5 44s21.833 44 34.5 60c16.667 20.667 27 27.667 31 21c2.66699 -3.33301 4.33398 -4.83301 5.00098 -4.5s1 2.83301 1 7.5c0 7.33301 12.167 18.333 36.5 33s40.833 21 49.5 19c9.33301 -1.33301 14.666 -0.333008 15.999 3
c2 3.33301 9.5 3.66602 22.5 0.999023s23.167 -6.66699 30.5 -12c8 -5.33301 18.333 -18.333 31 -39c10.667 -16 17.334 -32.5 20.001 -49.5s4.33398 -49.5 5.00098 -97.5c0 -17.333 1.16699 -29 3.5 -35s7.83301 -12 16.5 -18c20 -13.333 34.667 -33 44 -59
s11.333 -53 6 -81c-5.33301 -27.333 -16.333 -57.333 -33 -90c-5.33301 -10 -8 -12.667 -8 -8c0 6 -2.66699 9 -8 9z" />
    <glyph glyph-name="nine" unicode="9" horiz-adv-x="421" 
d="M295 470c0 8.66699 -5.99805 15.332 -17.998 19.999c-24.667 9.33301 -50.667 8.83301 -78 -1.5s-49.333 -28.166 -66 -53.499c-9.33301 -14 -14.5 -29.333 -15.5 -46s2.16699 -27.667 9.5 -33c5.33301 -4 16.166 -5.33301 32.499 -4s26.166 4.33301 29.499 9
c2 3.33301 10 8.66602 24 15.999c13.333 6.66699 30.333 21.834 51 45.501s31 39.5 31 47.5zM330.002 560.998c8 0 19.1621 -8.49707 33.4951 -25.4971s23.166 -32.167 26.499 -45.5c2.66699 -13.333 -0.666016 -30.666 -9.99902 -51.999
c-6.66699 -14.667 -10.834 -29 -12.501 -43s-2.16699 -39.333 -1.5 -76c1.33301 -98.667 1.83301 -157.5 1.5 -176.5s-2.5 -29.167 -6.5 -30.5c-5.33301 -1.33301 -13.333 -6.66602 -24 -15.999c-6.66699 -6.66699 -12.167 -10.167 -16.5 -10.5s-10.833 2.16699 -19.5 7.5
c-8.66699 4 -14.167 8.16699 -16.5 12.5s-3.16602 12.5 -2.49902 24.5l2 15c0.666992 -0.666992 1.33398 -2.33398 2.00098 -5.00098c1.33301 -10.667 4.33301 -16 9 -16c2.66699 0 4.16699 3.5 4.5 10.5s-0.5 14.5 -2.5 22.5s-4.33301 13 -7 15
c-3.33301 -1.33301 -5.66602 9.66699 -6.99902 33c-0.666992 10 -1.66699 27.667 -3 53c-2.66699 54.667 -5.66699 82 -9 82c-5.33301 4 -8.66602 2.66699 -9.99902 -4c-2 -5.33301 -12.167 -13.833 -30.5 -25.5s-30.833 -17.5 -37.5 -17.5c-7.33301 0 -11 -2 -11 -6
c0 -5.33301 -7.33301 -8.33301 -22 -9s-24.667 1.66602 -30 6.99902c-4.66699 5.33301 -7.66699 7.83301 -9 7.5s-2 -3.16602 -2 -8.49902c0 -8 -5 -12 -15 -12c-4.66699 -0.666992 -7.66699 -0.166992 -9 1.5s-1.33301 3.66699 0 6s1.66602 4 0.999023 5
s-3 0.833008 -7 -0.5c-7.33301 -2.66699 -16 -0.333984 -26 6.99902s-18.667 17.666 -26 30.999c-5.33301 10.667 -7.66602 27.5 -6.99902 50.5s4.33398 36.5 11.001 40.5c4 2 7.33301 10 10 24c4.66699 25.333 24.834 55.166 60.501 89.499s67.834 54.833 96.501 61.5
c7.33301 2 21.666 4.33301 42.999 7c7.33301 0 16.833 -1.66699 28.5 -5s21.5 -7.33301 29.5 -12s11.333 -8.33398 10 -11.001c-0.666992 -2 0 -3.5 2 -4.5s5 -1.5 9 -1.5z" />
    <glyph glyph-name="colon" unicode=":" horiz-adv-x="169" 
d="M139 119c0 -7.33301 -3.83203 -16.5029 -11.499 -27.5029s-15.167 -18.5 -22.5 -22.5c-14.667 -6.66699 -29.667 -5 -45 5s-20.333 21.333 -15 34c11.333 31.333 20 49 26 53c7.33301 4.66699 16.666 5.33398 27.999 2.00098s20.333 -9.66602 27 -18.999
c8.66699 -13.333 13 -21.666 13 -24.999zM52.001 451.997c12 10 21.8311 15.334 29.498 16.001s16.834 -2.66602 27.501 -9.99902c13.333 -10 17.333 -23.5 12 -40.5s-18 -31.5 -38 -43.5c-10.667 -6.66699 -21.167 -6.83398 -31.5 -0.500977s-16.666 14.166 -18.999 23.499
s-1.83301 16 1.5 20c4 2 4.66699 5.66699 2 11c-3.33301 4.66699 2 12.667 16 24z" />
    <glyph glyph-name="semicolon" unicode=";" horiz-adv-x="232" 
d="M93 -6c0 -7.33301 -3.33105 -10.999 -9.99805 -10.999c-7.33301 0 -11 4.33301 -11 13c0 8 -2 8.66699 -6 2c-5.33301 -7.33301 -12.666 -8.83301 -21.999 -4.5s-14 11.5 -14 21.5s3.66699 17 11 21s15.666 3 24.999 -3c8.66699 -4.66699 12.667 -5 12 -1
c-1.33301 5.33301 3.66699 11 15 17c9.33301 4.66699 14.666 12.5 15.999 23.5s0.666016 40.5 -2.00098 88.5c-1.33301 18 -1.16602 30.167 0.500977 36.5s6.5 12.833 14.5 19.5c11.333 9.33301 25 12.666 41 9.99902s25.333 -5.33398 28 -8.00098
c3.33301 -3.33301 5.5 -22.333 6.5 -57s0.166992 -61.334 -2.5 -80.001c-2 -18.667 -7.5 -34.167 -16.5 -46.5s-19.167 -19.166 -30.5 -20.499c-2.66699 -0.666992 -6.83398 -1.16699 -12.501 -1.5s-9.5 -1.16602 -11.5 -2.49902s-2 -4.66602 0 -9.99902
c2 -6.66699 1.66699 -10.334 -1 -11.001l-16 7c-9.33301 5.33301 -14 4.33301 -14 -3zM149.002 349.001c-11.333 0 -22.334 4.50195 -33.001 13.502s-16 18.167 -16 27.5c0 11.333 5.33301 23.666 16 36.999s21.334 20.666 32.001 21.999c31.333 4 49 -6.66699 53 -32
c2 -15.333 -2.66699 -30.5 -14 -45.5s-24 -22.5 -38 -22.5z" />
    <glyph glyph-name="less" unicode="&#x3c;" horiz-adv-x="434" 
d="M322 423c0.666992 6.66699 -0.000976562 10.333 -2.00098 11c-4 0.666992 -7.66699 -3 -11 -11c-1.33301 -4.66699 -0.666016 -8 2.00098 -10c4 0 7.66699 3.33301 11 10zM159.999 313.999c-4 0 -8.83105 -4.50586 -14.498 -13.5059s-7.16699 -14.833 -4.5 -17.5
c2 -1.33301 8.16699 -3 18.5 -5s17.5 -5.33301 21.5 -10c6 -6.66699 15 -9 27 -7c11.333 4 18.333 2 21 -6c3.33301 -8.66699 9.66602 -12.334 18.999 -11.001c4 1.33301 6.33301 3.66602 7 6.99902c0 6 3.33301 6.66699 10 2c4 -3.33301 11 -4.33301 21 -3
c9.33301 1.33301 29 -2.33398 59 -11.001s47.333 -15.667 52 -21c10.667 -12.667 11.334 -31 2.00098 -55c-8.66699 -19.333 -18.334 -26.666 -29.001 -21.999l-3 2c-2 2.66699 -11.167 6.33398 -27.5 11.001s-25.5 8.66699 -27.5 12s-15.333 5.33301 -40 6
s-38.334 1.66699 -41.001 3s-10.5 3 -23.5 5s-25.167 4.33301 -36.5 7s-17.333 5 -18 7c0 0.666992 -0.666992 1.33398 -2 2.00098s-3.33301 1.33398 -6 2.00098l-9.5 2.5c-3.66699 1 -8 2 -13 3s-10.167 1.83301 -15.5 2.5c-51.333 7.33301 -77 24 -77 50
c0 11.333 2.5 21.5 7.5 30.5s10.833 13.5 17.5 13.5c2.66699 -0.666992 20.834 12.666 54.501 39.999s52.5 39 56.5 35c8 -1.33301 12 0.333984 12 5.00098c-1.33301 2 2.33398 7.33301 11.001 16s17.834 15.834 27.501 21.501s15.5 5.83398 17.5 0.500977
c3.33301 -3.33301 5.33301 -4.66602 6 -3.99902s0 3.33398 -2 8.00098c-4 8 -2 12 6 12c7.33301 0 11 1.66699 11 5c-0.666992 2.66699 11.833 12.834 37.5 30.501s38.5 27.5 38.5 29.5c2 4.66699 7.5 6.16699 16.5 4.5s14.5 -5.16699 16.5 -10.5
c6.66699 -18 5.5 -33.5 -3.5 -46.5s-28.833 -27.833 -59.5 -44.5c-28.667 -16.667 -44.334 -26.334 -47.001 -29.001c-8 -8 -14.667 -9.66699 -20 -5c-3.33301 2 -5.33301 2.33301 -6 1s-0.333984 -2.66602 0.999023 -3.99902c1.33301 -2 -2.83398 -7.16699 -12.501 -15.5
s-20.5 -16.333 -32.5 -24s-20 -11.5 -24 -11.5z" />
    <glyph glyph-name="equal" unicode="=" horiz-adv-x="453" 
d="M145 173c10.667 0 16.666 1.00098 17.999 3.00098c0 0.666992 -1.33301 1.66699 -4 3c-12 5.33301 -21.333 5.66602 -28 0.999023c-0.666992 -2 0.333008 -3.66699 3 -5s6.33398 -2 11.001 -2zM65.999 251.001c113.333 0 171.666 -2.33496 174.999 -7.00195
c0 -4 3.16699 -6.33301 9.5 -7s10.5 1 12.5 5c0.666992 4 20.334 4.66699 59.001 2c26.667 -2 43.167 -4 49.5 -6s10.833 -7.33301 13.5 -16c8.66699 -19.333 5.83398 -37 -8.49902 -53s-31.833 -21.333 -52.5 -16c-4.66699 2.66699 -24 4.33398 -58 5.00098
s-52.667 3 -56 7c-6 5.33301 -10.667 6.33301 -14 3c-2.66699 -3.33301 -26.334 -5 -71.001 -5s-67 1.66699 -67 5c0 2.66699 -2.5 3.16699 -7.5 1.5s-8.5 -0.5 -10.5 3.5c-2 3.33301 -0.666992 5.83301 4 7.5s7 3.83398 7 6.50098c0 4.66699 -3.66699 5.66699 -11 3
c-14.667 -6.66699 -12.667 4.33301 6 33zM117.999 419.999c12 2.66699 50.999 2.99805 116.999 0.998047c18 -0.666992 29.167 -1.66699 33.5 -3s5.5 -4.66602 3.5 -9.99902c-4 -10 -3 -11 3 -3c4.66699 6 28.334 8 71.001 6c43.333 -2.66699 66 -5 68 -7
c4 -2.66699 6.66699 -14.667 8 -36c2 -15.333 2.16699 -24.833 0.5 -28.5s-6.5 -7.16699 -14.5 -10.5c-12.667 -5.33301 -21.334 -12 -26.001 -20l-6 -8l-1 7c0 6.66699 -5.66699 11.5 -17 14.5s-34.666 6.16699 -69.999 9.5c-56 6 -106.333 9.33301 -151 10
c-24 0.666992 -39 1.83398 -45 3.50098s-11 6.5 -15 14.5c-7.33301 11.333 -5.33301 23.5 6 36.5s23 20.833 35 23.5z" />
    <glyph glyph-name="greater" unicode="&#x3e;" horiz-adv-x="524" 
d="M133 206c2.66699 6.66699 2.83398 10.668 0.500977 12.001s-7.16602 1 -14.499 -1c-7.33301 -1.33301 -11.333 -3.83301 -12 -7.5s2.66602 -7.16699 9.99902 -10.5c7.33301 -2.66699 12.666 -0.333984 15.999 6.99902zM205 250.001
c-1.33301 2.66699 8.33594 9.16895 29.0029 19.502l62 31c20.667 10.333 30.334 16.833 29.001 19.5c0 6 -57.333 24 -172 54c-11.333 3.33301 -23.5 6.66602 -36.5 9.99902l-32 8c-8.33301 2 -13.166 3.33301 -14.499 4c-8.66699 2 -12.834 10.5 -12.501 25.5
s5.16602 28.833 14.499 41.5c7.33301 10.667 15.5 16.834 24.5 18.501s21.167 -0.5 36.5 -6.5c8.66699 -3.33301 38.667 -11.5 90 -24.5s82 -22.167 92 -27.5c19.333 -8 45.333 -16.667 78 -26s52.334 -13.333 59.001 -12c11.333 0 21.166 -3.5 29.499 -10.5
s12.5 -14.833 12.5 -23.5c0 -30 -22.333 -56 -67 -78c-28 -14.667 -45.667 -22 -53 -22c-2.66699 0 -26.334 -10 -71.001 -30s-69.334 -29.667 -74.001 -29c-11.333 0 -17 -2.33301 -17 -7c0 -2.66699 -1.66699 -3.83398 -5 -3.50098s-6.83301 1 -10.5 2
s-5.83398 0.5 -6.50098 -1.5c-1.33301 -3.33301 -22.666 -15 -63.999 -35s-65 -30 -71 -30c-13.333 0 -21.5 8.16699 -24.5 24.5s1.16699 31.166 12.5 44.499c6.66699 6.66699 11.5 11 14.5 13s7.83301 4 14.5 6s14.667 5.33301 24 10c21.333 10 35.666 13.333 42.999 10
c6 -2 9 -2.33301 9 -1c0 0.666992 -0.333008 1.66699 -1 3c-4 6 0.666992 10.667 14 14l24 3c13.333 0 20 2 20 6z" />
    <glyph glyph-name="question" unicode="?" horiz-adv-x="413" 
d="M223 117c12.667 0 23.001 -12.1641 31.001 -36.4971s6.33301 -38.833 -5 -43.5c-7.33301 -2.66699 -9.66602 -6.33398 -6.99902 -11.001s0 -9.66699 -8 -15s-15.667 -7 -23 -5c-10 2.66699 -15.667 1 -17 -5c-1.33301 -6.66699 -9.33301 -2 -24 14
c-12.667 13.333 -16.334 20.666 -11.001 21.999c4 1.33301 5.33301 7.66602 4 18.999c-4.66699 9.33301 0.666016 21 15.999 35s30 22.667 44 26zM143.001 309.003c6 0 7.99902 3.33398 5.99902 10.001c-2 5.33301 -3.66699 8.16602 -5 8.49902s-3.33301 -1.16699 -6 -4.5
c-9.33301 -9.33301 -7.66602 -14 5.00098 -14zM177 363.004c1.33301 0.666992 8.50195 5.83203 21.502 15.499s23.5 14.167 31.5 13.5c7.33301 1.33301 11 2.66602 11 3.99902c-8.66699 2.66699 -6.33398 9 6.99902 19c6 4.66699 9.66699 6.33398 11 5.00098
c3.33301 0 6 2.33301 8 7s5.66699 6 11 4s7.66602 -1 6.99902 3s0.333008 7.33301 3 10c4 3.33301 6.16699 9.33301 6.5 18s-1.5 14.334 -5.5 17.001c-3.33301 2 -15.166 4.16699 -35.499 6.5s-32.166 4.83301 -35.499 7.5c-3.33301 2 -5.83301 0.666992 -7.5 -4
s-4.5 -6.33398 -8.5 -5.00098c-11.333 2 -28 -1 -50 -9s-33 -14.667 -33 -20c0 -4.66699 -3.33301 -10.5 -10 -17.5s-12.334 -10.5 -17.001 -10.5c-4 0 -7.66699 -3.66699 -11 -11c-2.66699 -8 -9 -11.333 -19 -10s-18.333 7 -25 17c-5.33301 8 -7.83301 13.833 -7.5 17.5
s3.83301 11.167 10.5 22.5c14.667 26 34.667 48.667 60 68s46 27.666 62 24.999c5.33301 -1.33301 9.33301 -2 12 -2s4.66699 0.5 6 1.5s1.66602 2.83301 0.999023 5.5c0 1.33301 0.166992 2.5 0.5 3.5s1.16602 1.83301 2.49902 2.5s3.16602 1.33398 5.49902 2.00098
s5.33301 1 9 1h12.5h16c28.667 0 43 1.66699 43 5c-2 4 -0.333008 6 5 6c16.667 -0.666992 38.667 -9.66699 66 -27c20.667 -13.333 29.334 -24.666 26.001 -33.999c-1.33301 -10.667 0 -16 4 -16c5.33301 0 9 -6.33301 11 -19s1 -25.667 -3 -39
c-4 -15.333 -17 -34.833 -39 -58.5s-44 -41.834 -66 -54.501c-23.333 -13.333 -41 -26 -53 -38s-15.667 -20.333 -11 -25c3.33301 -2.66699 5.83301 -10.167 7.5 -22.5s4.16699 -19.833 7.5 -22.5c6.66699 -4 8.16699 -16.5 4.5 -37.5s-9.5 -35.5 -17.5 -43.5
c-9.33301 -10 -22.666 -13.333 -39.999 -10c-12 2.66699 -19.167 5.16699 -21.5 7.5s-2.5 7.16602 -0.5 14.499c4 8.66699 2.16699 14.334 -5.5 17.001s-11.5 6.66699 -11.5 12c1.33301 1.33301 -0.833984 10.166 -6.50098 26.499s-10.667 32.333 -15 48
s-4.83301 23.834 -1.5 24.501c4.66699 2 6 6.33301 4 13c-2 4.66699 6.33301 16.834 25 36.501s31.334 29.5 38.001 29.5z" />
    <glyph glyph-name="at" unicode="@" horiz-adv-x="665" 
d="M221 200c-1.33301 -26 4.16504 -41.833 16.498 -47.5s26 -4 41 5s26.833 20.167 35.5 33.5c14.667 22.667 24.334 39.167 29.001 49.5s8 24 10 41s4.66699 31.833 8 44.5c4.66699 20.667 2.33398 36 -6.99902 46s-22 12.333 -38 7s-30 -17 -42 -35
c-10 -15.333 -21.333 -40 -34 -74s-19 -57.333 -19 -70zM241.998 434c0.666992 -2.66699 3.33594 -3.66602 8.00293 -2.99902s10 2.16699 16 4.5s10 4.83301 12 7.5c2 3.33301 9.5 5.83301 22.5 7.5s20.167 4.5 21.5 8.5c2 6.66699 12.667 10 32 10c18.667 0 36 -8 52 -24
c23.333 -23.333 41.5 -54.166 54.5 -92.499s18.167 -76.166 15.5 -113.499c-2 -22.667 -0.666992 -44 4 -64s10.667 -30 18 -30c10 0 22 14.167 36 42.5s22.667 55.166 26 80.499c1.33301 7.33301 0 30.666 -4 69.999s-5.66699 61.333 -5 66c1.33301 6 -0.666992 9 -6 9
c-2.66699 -0.666992 -4 1.66602 -4 6.99902v15c0 10.667 -1 16 -3 16c-3.33301 -0.666992 -5.5 0.5 -6.5 3.5s-1.83301 7.16699 -2.5 12.5s-1.66699 9 -3 11c-2.66699 6.66699 -0.333984 13.667 6.99902 21c3.33301 3.33301 5.5 5.83301 6.5 7.5s1 3 0 4
s-3.16699 2.16699 -6.5 3.5c-8.66699 3.33301 -13.834 4.5 -15.501 3.5s-1.16699 -4.83301 1.5 -11.5c2 -4.66699 1 -5.66699 -3 -3c-2.66699 2 -6 5.33301 -10 10c-8.66699 9.33301 -16.334 15 -23.001 17s-19.667 2.66699 -39 2c-84 2 -151.333 -30.667 -202 -98z
M615 446.001c-0.666992 -1.33301 -0.495117 -3.83105 0.504883 -7.49805l3 -11c1 -3.66699 1.66699 -7.33398 2 -11.001s-0.166992 -6.5 -1.5 -8.5s-3.66602 -2.66699 -6.99902 -2c-7.33301 0 -11 -2.66699 -11 -8s4.66699 -6.33301 14 -3c5.33301 2 9 2.16699 11 0.5
s3 -5.83398 3 -12.501s1.33301 -30.667 4 -72c4.66699 -59.333 -6 -108 -32 -146c-9.33301 -12.667 -14 -21 -14 -25c0 -5.33301 -9.83301 -16.5 -29.5 -33.5s-34.5 -27.5 -44.5 -31.5c-22.667 -8.66699 -44.667 -8.33398 -66 0.999023s-38.333 26.333 -51 51l-15 27
c-18.667 -21.333 -42 -39.333 -70 -54s-54.333 -21.667 -79 -21c-28 -1.33301 -43 1.33398 -45 8.00098c-1.33301 6 -4.33301 7.66699 -9 5c-2.66699 -1.33301 -5.83398 0 -9.50098 4s-6.33398 8.83301 -8.00098 14.5s-1.83398 9.83398 -0.500977 12.501
c2 4.66699 0 8 -6 10c-10 4 -15 18.333 -15 43s5 55.334 15 92.001c2 6 2.66699 9.16699 2 9.5s-2 -0.5 -4 -2.5c-7.33301 -7.33301 -15.333 -28.833 -24 -64.5s-13.334 -65.834 -14.001 -90.501c-0.666992 -74.667 26.333 -133.667 81 -177c7.33301 -6 11.666 -7 12.999 -3
c4 3.33301 19.5 3.5 46.5 0.5s42.833 -3.5 47.5 -1.5c64.667 10 119 26.333 163 49c33.333 17.333 56 23.333 68 18c8.66699 -4 15.167 -11.833 19.5 -23.5s4.83301 -23.167 1.5 -34.5c-2 -6.66699 -12.667 -15.334 -32 -26.001s-33.666 -16 -42.999 -16
c-2 1.33301 -8.16699 -0.5 -18.5 -5.5s-19.333 -9 -27 -12s-13.167 -1.83301 -16.5 3.5c-4 6.66699 -6 6 -6 -2c-0.666992 -6 -6.16699 -9 -16.5 -9s-17.166 -1.66699 -20.499 -5c-6 -4 -10 -3.5 -12 1.5s-4.66699 7.5 -8 7.5c-5.33301 0 -6.33301 -2.33301 -3 -7
c2 -3.33301 -1.66699 -6 -11 -8c-24 -6.66699 -61.333 -8.33398 -112 -5.00098c-40 2.66699 -69.667 9.33398 -89 20.001c-18 10 -32.333 20 -43 30s-15 17.333 -13 22c1.33301 4 -2.33398 9.66699 -11.001 17s-13 12 -13 14c2.66699 14.667 1.33398 23.334 -3.99902 26.001
c-0.666992 0.666992 -1.66699 0.666992 -3 0c-4.66699 -2.66699 -9 3.33301 -13 18c-8.66699 34 -11.334 83 -8.00098 147c0.666992 11.333 7.66699 36.333 21 75s25.333 68.667 36 90c58.667 119.333 125.334 198.666 200.001 237.999
c21.333 10.667 51.666 20.667 90.999 30s75.666 14.666 108.999 15.999c9.33301 0.666992 23 -2.66602 41 -9.99902s29 -14.333 33 -21c8.66699 -16 10.667 -28.667 6 -38c-2 -3.33301 -4.66699 -4.33301 -8 -3c-2.66699 0.666992 -4.33398 0.666992 -5.00098 0
s-0.666992 -2 0 -4c1.33301 -2.66699 6 -5 14 -7s11.667 -6.33301 11 -13c0 -8.66699 2.66699 -15 8 -19c4 -3.33301 5.66699 -2 5 4c-0.666992 2 -1.66699 5.33301 -3 10c-1.33301 6.66699 -1.66602 10 -0.999023 10s2.66699 -2.66699 6 -8c4 -8 6.66699 -20 8 -36
c1.33301 -14.667 3.33301 -21.667 6 -21c1.33301 1.33301 2.66602 1.33301 3.99902 0s2 -3.33301 2 -6z" />
    <glyph glyph-name="A" unicode="A" horiz-adv-x="559" 
d="M281 286c-4.66699 0 -4.66309 -2.33301 0.00390625 -7c3.33301 -4 12.166 -5.33301 26.499 -4s29.833 3.5 46.5 6.5s25 4.83301 25 5.5c0 8.66699 -2.83301 26.667 -8.5 54s-8.5 45 -8.5 53c-0.666992 18 -9.33398 12.333 -26.001 -17
c-4.66699 -8 -10.334 -18.333 -17.001 -31c-20.667 -40 -33.334 -60 -38.001 -60zM514.004 18c6.66699 0 11.1641 -10.9971 13.4971 -32.9971s0.5 -35 -5.5 -39s-6 -7.33301 0 -10c13.333 -6 9.66602 -13.667 -11.001 -23c-10 -4 -15 -5.66699 -15 -5
c0.666992 0.666992 3.33398 3 8.00098 7c8.66699 6.66699 9.33398 11.334 2.00098 14.001c-8 3.33301 -16.667 3.16602 -26 -0.500977s-13 -8.16699 -11 -13.5c2 -6 1.33301 -9 -2 -9c-6.66699 1.33301 -13.667 14.666 -21 39.999s-15.166 59.166 -23.499 101.499
s-12.5 64.166 -12.5 65.499c-4.66699 22.667 -5.66699 37.334 -3 44.001c1.33301 6 0 9 -4 9c-4.66699 0 -7 4.66699 -7 14c0.666992 10.667 -5.83301 16.834 -19.5 18.501s-31.834 0.833984 -54.501 -2.49902s-36.667 -5 -42 -5c-24 -1.33301 -40.333 -6 -49 -14
s-23.667 -30.667 -45 -68c-8 -13.333 -14.333 -29 -19 -47c-2.66699 -15.333 -6 -23 -10 -23s-8.33301 -8.66699 -13 -26c-6.66699 -20.667 -17.167 -40.167 -31.5 -58.5s-26.166 -27.5 -35.499 -27.5c-8.66699 0 -16.167 2.5 -22.5 7.5s-8.83301 10.5 -7.5 16.5
c0 2 -0.333008 3 -1 3c-4.66699 -8.66699 -9 -9.33398 -13 -2.00098c-4.66699 7.33301 -4.33398 12.666 0.999023 15.999c0.666992 0.666992 1.33398 1 2.00098 1c4.66699 0 8.66699 8.33301 12 25c2.66699 14 7.83398 30.167 15.501 48.5s13.834 29.166 18.501 32.499
s5.33398 7.33301 2.00098 12c-2.66699 5.33301 -0.666992 14.333 6 27c10 19.333 13 34.666 9 45.999c-0.666992 3.33301 -2.66699 4.33301 -6 3c-3.33301 -2 -5.33301 -0.333008 -6 5c-2 14 0.666992 25.667 8 35c2.66699 4.66699 6 6.33398 10 5.00098
c4.66699 0 13.334 5.5 26.001 16.5s19 18.5 19 22.5c5.33301 12 18 34.167 38 66.5s32 53.166 36 62.499c8.66699 15.333 15 23 19 23c3.33301 0 5 2 5 6c0 3.33301 4 11.333 12 24s16.167 24.5 24.5 35.5s13.166 15.833 14.499 14.5c2.66699 -2 11.667 9.33301 27 34
c1.33301 1.33301 3.83301 4.83301 7.5 10.5s6 9.16699 7 10.5l6.5 9c3.33301 4.66699 5.66602 7.5 6.99902 8.5s3.66602 3.16699 6.99902 6.5s6.16602 5.33301 8.49902 6s5.33301 1.83398 9 3.50098s7.5 2.83398 11.5 3.50098s8.33301 1 13 1
c6.66699 -0.666992 11.834 -3.16699 15.501 -7.5s7.5 -12.833 11.5 -25.5c12.667 -46 21 -91.667 25 -137c0.666992 -10 2.66699 -20.167 6 -30.5s5.33301 -22.5 6 -36.5c0 -11.333 4.66699 -27.833 14 -49.5s13.333 -37.834 12 -48.501
c-2 -9.33301 -0.166992 -36.5 5.5 -81.5s11.5 -78.833 17.5 -101.5c4.66699 -16 4 -26 -2 -30s-6 -6 0 -6z" />
    <glyph glyph-name="B" unicode="B" horiz-adv-x="451" 
d="M310 289c-20 18.667 -52 20.332 -96 4.99902c-33.333 -11.333 -53.5 -22.166 -60.5 -32.499s-13.833 -39.166 -20.5 -86.499c-7.33301 -56 -10.666 -84.333 -9.99902 -85c2 -2 20.333 1.83301 55 11.5s58 17.5 70 23.5c17.333 9.33301 31 19.166 41 29.499
s19.667 25.833 29 46.5c17.333 38 14.666 67.333 -8.00098 88zM276 495.998c-4 11.333 -23.5 12.168 -58.5 2.50098s-54.5 -21.167 -58.5 -34.5c-2.66699 -9.33301 -4.5 -27.333 -5.5 -54s-0.166992 -41.334 2.5 -44.001c4 -4 15 -0.5 33 10.5s34 23.833 48 38.5
c32.667 35.333 45.667 62.333 39 81zM281 582c-0.666992 2.66699 1.66699 3.00195 7 1.00195c2 -1.33301 6.33301 -3.66602 13 -6.99902c8.66699 -4.66699 13.334 -6.33398 14.001 -5.00098l-1 2c-2.66699 4.66699 0 7.33398 8 8.00098c10 2 19.333 0 28 -6
c7.33301 -4 14.166 -13 20.499 -27s9.5 -26.333 9.5 -37c0 -19.333 -5.33301 -37 -16 -53c-2.66699 -4 -5 -5.66699 -7 -5c-2.66699 -1.33301 -4.33398 -4.33301 -5.00098 -9c1.33301 -3.33301 -3 -13.833 -13 -31.5s-12.333 -28.5 -7 -32.5
c4 -5.33301 8.33301 -7.33301 13 -6c5.33301 3.33301 17.166 -5.33398 35.499 -26.001s29.5 -38 33.5 -52c8 -28.667 8.83301 -55.167 2.5 -79.5s-21.833 -51.5 -46.5 -81.5c-8.66699 -11.333 -14.667 -17.666 -18 -18.999s-7.33301 0.666992 -12 6
c-5.33301 8 -8.33301 6 -9 -6c0 -11.333 -4 -21 -12 -29c-9.33301 -8.66699 -25.5 -17.667 -48.5 -27s-37.167 -13 -42.5 -11c-6.66699 2 -10.667 0.666992 -12 -4c-3.33301 -4 -22.5 -6.5 -57.5 -7.5s-54.5 -2.83301 -58.5 -5.5
c-12.667 -4.66699 -21.667 -4.33398 -27 0.999023c-3.33301 5.33301 -9.16602 5.83301 -17.499 1.5s-14.166 -5.5 -17.499 -3.5c-2.66699 2 -4.83398 6.66699 -6.50098 14s-2.16699 14.166 -1.5 20.499s2.33398 9.5 5.00098 9.5c4.66699 0 6.33398 4 5.00098 12
c0.666992 52 3.66699 110.667 9 176s8.66602 110.666 9.99902 135.999c1.33301 39.333 3.66602 78 6.99902 116c2.66699 18.667 14 34.167 34 46.5s34.333 12.833 43 1.5c3.33301 -4 7.83301 -5.83301 13.5 -5.5s16.834 3.83301 33.501 10.5c25.333 10 47 14 65 12
c17.333 -2.66699 26 -2 26 2z" />
    <glyph glyph-name="C" unicode="C" horiz-adv-x="490" 
d="M388 541c0 -6 2.00098 -7.66602 6.00098 -4.99902c5.33301 2.66699 12.5 -0.833008 21.5 -10.5s16.167 -22.334 21.5 -38.001s5.66602 -29.5 0.999023 -41.5c-2.66699 -8 -6.16699 -13 -10.5 -15s-12.166 -2.66699 -23.499 -2
c-14.667 0.666992 -30.167 6.33398 -46.5 17.001s-25.833 21 -28.5 31c-2 9.33301 -6.66699 12.333 -14 9c-8 -2.66699 -12 -1.66699 -12 3c0 12.667 -12.667 12 -38 -2c-12.667 -6.66699 -21.334 -9 -26.001 -7c-4 2 -6 1.33301 -6 -2c0 -2.66699 -9.33301 -14.667 -28 -36
c-32 -34 -54.333 -75.333 -67 -124c-8.66699 -34.667 -13.5 -61.667 -14.5 -81s1.83301 -39.333 8.5 -60c5.33301 -18 10 -29.5 14 -34.5s11.667 -8.83301 23 -11.5c18.667 -5.33301 33.667 -7.33301 45 -6s29 6.66602 53 15.999c58 22.667 92.333 42.334 103 59.001
c0.666992 2.66699 6 9.5 16 20.5s14 18.5 12 22.5c-11.333 8.66699 -12 20.667 -2 36s22.333 21.333 37 18c8.66699 -2.66699 14.5 -8.33398 17.5 -17.001s0.833008 -15 -6.5 -19c-2.66699 -1.33301 -4 -3.5 -4 -6.5s1.16699 -5.33301 3.5 -7
s4.83301 -1.83398 7.5 -0.500977c1.33301 0.666992 2.5 0 3.5 -2s2.16699 -5 3.5 -9s2 -8.33301 2 -13c1.33301 -18 -4.33398 -34.667 -17.001 -50c-16 -18.667 -28.333 -27.334 -37 -26.001c-2 2 -3.33301 4.33301 -4 7c0 5.33301 -2.33301 4.66602 -7 -2.00098
c-2 -2.66699 -2.83301 -5 -2.5 -7s1 -3.83301 2 -5.5s1.83301 -3.16699 2.5 -4.5s0.5 -2.66602 -0.5 -3.99902s-3.5 -2.66602 -7.5 -3.99902c-10 -2.66699 -15 -5.66699 -15 -9s-7.16699 -9.16602 -21.5 -17.499s-22.833 -11.166 -25.5 -8.49902
c-3.33301 3.33301 -7.33301 1.33301 -12 -6c-3.33301 -5.33301 -26.333 -13.666 -69 -24.999c-34.667 -9.33301 -62.834 -13.333 -84.501 -12s-43.5 8.33301 -65.5 21c-11.333 6 -18.666 11.5 -21.999 16.5s-4.66602 10.833 -3.99902 17.5s0.5 10.334 -0.5 11.001
s-2.83301 -1 -5.5 -5c-4 -6.66699 -10 -1.33398 -18 15.999c-0.666992 2 -1.66699 4 -3 6c-9.33301 21.333 -13.666 51.333 -12.999 90c1.33301 38 3.33301 57 6 57c3.33301 0 5 7 5 21c0 12.667 3 28.667 9 48s11 29 15 29c3.33301 0 4 3.33301 2 10
c-3.33301 3.33301 -1.5 9.5 5.5 18.5s10.167 13.833 9.5 14.5c11.333 26 34.166 55.833 68.499 89.5s62.833 55.5 85.5 65.5c15.333 7.33301 31.333 11.666 48 12.999s26.667 -0.666992 30 -6c2.66699 -5.33301 7.66699 -6 15 -2c6 2 17.333 -2.33301 34 -13
s25 -19.334 25 -26.001z" />
    <glyph glyph-name="D" unicode="D" horiz-adv-x="539" 
d="M203 68c-8 0 -12.0029 -3.00195 -12.0029 -9.00195c0 -7.33301 -2.33301 -7 -7 1c-1.33301 2.66699 -3.16602 4.33398 -5.49902 5.00098s-4.33301 0.833984 -6 0.500977s-3.66699 -1 -6 -2s-3.83301 -1.5 -4.5 -1.5c0 3.33301 -4.33301 19.333 -13 48h16
c4.66699 0 10.834 -0.166992 18.501 -0.5s13.334 -0.833008 17.001 -1.5s4.5 -1.66699 2.5 -3c-5.33301 -1.33301 -8.66602 -3 -9.99902 -5s-1.33301 -4.5 0 -7.5s4.66602 -7.16699 9.99902 -12.5c7.33301 -8 7.33301 -12 0 -12zM330.997 199.998
c0 2 8.50098 12.9971 25.501 32.9971s25.167 31.667 24.5 35c0 7.33301 1.66699 11.333 5 12c8 3.33301 14.667 14 20 32s7 35.667 5 53c-3.33301 30.667 -9.5 51.667 -18.5 63s-28.167 23 -57.5 35c-24 10.667 -55 16.167 -93 16.5s-71 -3.5 -99 -11.5
c-0.666992 -16.667 -1.83398 -54 -3.50098 -112s-3 -109.667 -4 -155s-1.5 -75 -1.5 -89c0 -14.667 -4.33301 -29.5 -13 -44.5s-18 -24.5 -28 -28.5c-4 -2.66699 -7.16699 -3.83398 -9.5 -3.50098s-3.83301 1.83301 -4.5 4.5s-1.16699 5.66699 -1.5 9s-0.5 7 -0.5 11v11
l-9 -20.5l-9 -20.5l-14 33c-0.666992 0.666992 -1.33398 0.666992 -2.00098 0c-1.33301 -6 -4 -9 -8 -9c-5.33301 0 -6.66602 13.333 -3.99902 40c2 10 4.16699 49.333 6.5 118s4.16602 107.334 5.49902 116.001c1.33301 2.66699 1.33301 6.33398 0 11.001
c-3.33301 12.667 -5 46.834 -5 102.501s1.66699 83.5 5 83.5c4.66699 0 7 3.33301 7 10c2.66699 8.66699 10.667 16.334 24 23.001s26.333 8.33398 39 5.00098c6.66699 -2 13 -3.16699 19 -3.5s10.667 -0.666016 14 -0.999023s10.666 -0.166016 21.999 0.500977
s21.333 1 30 1c28.667 1.33301 61 0.333008 97 -3s54.667 -7 56 -11c1.33301 -4.66699 9 -7 23 -7c19.333 0 29.666 -7.33301 30.999 -22c0 -6 2 -9.33301 6 -10c2.66699 0.666992 4.33398 2.66699 5.00098 6c0 5.33301 1.16699 8.16602 3.5 8.49902
s7.16602 -1.16699 14.499 -4.5c11.333 -5.33301 17 -10.666 17 -15.999c0.666992 -3.33301 -2.66602 -3.66602 -9.99902 -0.999023c-7.33301 1.33301 -11 0 -11 -4c0 -4.66699 3.66699 -6.33398 11 -5.00098c1.33301 0.666992 3 1.33398 5 2.00098
c10.667 2.66699 22.334 -3.33301 35.001 -18c13.333 -14.667 20 -23.334 20 -26.001c11.333 -60.667 8.66602 -112.334 -8.00098 -155.001c-5.33301 -14.667 -10.333 -25.334 -15 -32.001s-8.33398 -9.33398 -11.001 -8.00098s-4.66699 1.33301 -6 0
c0 -1.33301 0.333008 -2.66602 1 -3.99902c4 -5.33301 2 -13 -6 -23c-6.66699 -10.667 -19.167 -25.834 -37.5 -45.501s-29.166 -29.5 -32.499 -29.5c-2 0 -14.167 -9.5 -36.5 -28.5s-34.833 -28.167 -37.5 -27.5c-6 0 -9 -2 -9 -6s-8 -9.66699 -24 -17
c-14 -6 -21 -7.66699 -21 -5c2.66699 4.66699 2.33398 7 -0.999023 7c-5.33301 -0.666992 -11.666 -5.33398 -18.999 -14.001c-12 -13.333 -20.333 -17.333 -25 -12l-1 5c0 4.66699 2.33301 7 7 7s5.66699 7 3 21c-2 8.66699 -1.5 16 1.5 22s11.167 15.333 24.5 28
c21.333 20 40.333 35 57 45c17.333 10.667 26 18.334 26 23.001z" />
    <glyph glyph-name="E" unicode="E" horiz-adv-x="494" 
d="M49 188c-4.66699 -7.33301 -4.33301 -12 1 -14s8.33301 0.666992 9 8c0 1.33301 -0.333008 3.33301 -1 6c-2.66699 6.66699 -5.66699 6.66699 -9 0zM383.001 504c0 -5.33301 -2.83105 -8.5 -8.49805 -9.5s-18.834 -0.5 -39.501 1.5
c-38.667 2.66699 -80.167 -1.66602 -124.5 -12.999s-66.5 -23.333 -66.5 -36c0 -14 41.333 -22 124 -24c60.667 -1.33301 96.334 -4.66602 107.001 -9.99902c9.33301 -5.33301 15 -14 17 -26c3.33301 -12 -1.66699 -24.667 -15 -38c-8.66699 -8 -17.667 -13.333 -27 -16
s-26 -4.66699 -50 -6c-68.667 -5.33301 -122 -27 -160 -65c-16.667 -17.333 -23.334 -32 -20.001 -44l5 -15c2 -6 3 -9.66699 3 -11c3.33301 -5.33301 16.833 -12.5 40.5 -21.5s40.834 -13.167 51.501 -12.5c14.667 1.33301 22 -0.333984 22 -5.00098
s4.66699 -6.33398 14 -5.00098c4.66699 1.33301 7 3.33301 7 6c0 3.33301 9 5 27 5c21.333 1.33301 39.333 5 54 11c19.333 6.66699 31.666 7.33398 36.999 2.00098c6 -5.33301 9 -4 9 4c0 15.333 8.5 26 25.5 32s31.167 3.66699 42.5 -7
c7.33301 -7.33301 9.33301 -19 6 -35c-2 -9.33301 -5.33301 -12.666 -10 -9.99902c-2 2 -8.33301 -1.33301 -19 -10s-16.667 -12.334 -18 -11.001c-2.66699 2 -11.834 -0.5 -27.501 -7.5s-23.5 -12.167 -23.5 -15.5c-1.33301 -2.66699 -7.33301 -4.83398 -18 -6.50098
s-17.334 -3.5 -20.001 -5.5c-8 -5.33301 -36.5 -8.5 -85.5 -9.5s-81.833 0.833008 -98.5 5.5c-3.33301 0.666992 -7.66602 1.66699 -12.999 3c-16 4 -27 8.33301 -33 13c-0.666992 1.33301 -2 3 -4 5l-20 17c-21.333 20 -34.5 36.833 -39.5 50.5s-4.83301 31.167 0.5 52.5
c7.33301 27.333 16.333 47.666 27 60.999c2.66699 3.33301 4 3.33301 4 0c0 -4.66699 10.667 4.66602 32 27.999l16 18c4 4.66699 5 8.5 3 11.5s-9.33301 7.16699 -22 12.5c-39.333 15.333 -53.666 43.333 -42.999 84c15.333 55.333 71.666 95 168.999 119
c16 4.66699 49.833 7.83398 101.5 9.50098s82.167 -1.5 91.5 -9.5c7.33301 -7.33301 10.833 -17.166 10.5 -29.499s-4.83301 -23.166 -13.5 -32.499c-6.66699 -6.66699 -11 -10.334 -13 -11.001s-4.66699 1.33301 -8 6c-4.66699 6.66699 -7 6.66699 -7 0z" />
    <glyph glyph-name="F" unicode="F" horiz-adv-x="412" 
d="M213 284c0 -0.666992 5.49902 -25.3271 16.499 -73.9941s15.5 -75.334 13.5 -80.001c-2 -6 -0.5 -10.167 4.5 -12.5s7.5 -5.16602 7.5 -8.49902c0 -2 -0.5 -3.16699 -1.5 -3.5s-2.16699 -0.333008 -3.5 0s-2.83301 0.666016 -4.5 0.999023
s-2.83398 0.166016 -3.50098 -0.500977s-1 -2.33398 -1 -5.00098c0 -9.33301 -8.16699 -16.666 -24.5 -21.999s-30.166 -5.66602 -41.499 -0.999023c-9.33301 3.33301 -10.333 7 -3 11c6.66699 4.66699 4.66699 7 -6 7c-6.66699 0 -11.167 2.16699 -13.5 6.5
s-4.5 13.5 -6.5 27.5c-1.33301 10 -6.83301 31.667 -16.5 65s-14.834 56.666 -15.501 69.999c0 7.33301 -1 12.666 -3 15.999s-5 5.16602 -9 5.49902s-8.66699 0.5 -14 0.5s-11.333 0.333008 -18 1c-14 1.33301 -24.667 8 -32 20c-5.33301 8.66699 -8 14.667 -8 18
s3.33301 7.33301 10 12c10 7.33301 19.667 11 29 11c22.667 0 32 17 28 51c-1.33301 6.66699 -3.66602 28.667 -6.99902 66s-6 60 -8 68c-3.33301 5.33301 1 14.666 13 27.999s23.667 21.666 35 24.999c13.333 4 23.666 4.66699 30.999 2s16 -10 26 -22
c8.66699 -10 14.667 -13 18 -9c3.33301 6 16.666 12.5 39.999 19.5s40 9.5 50 7.5c11.333 -2 21.333 -6 30 -12c4.66699 -3.33301 7 -4.83301 7 -4.5s-0.666992 1.83301 -2 4.5c-3.33301 6 -3.33301 8.66699 0 8c3.33301 0 9.66602 -2.66699 18.999 -8
c7.33301 -4 14.5 -9.66699 21.5 -17s10.833 -13 11.5 -17c-3.33301 -8 -10.166 -16.5 -20.499 -25.5s-19.5 -10.833 -27.5 -5.5c-5.33301 1.33301 -10.833 3.33301 -16.5 6s-9.66699 4.33398 -12 5.00098s-6.66602 0.833984 -12.999 0.500977s-14.833 -1.83301 -25.5 -4.5
c-16 -3.33301 -26.667 -6.83301 -32 -10.5s-9.33301 -9.83398 -12 -18.501c-2 -6 -4.5 -12 -7.5 -18s-5 -10.5 -6 -13.5s-2.33301 -7.83301 -4 -14.5s-3.16699 -15.334 -4.5 -26.001c-2.66699 -22 -1 -33.833 5 -35.5s26 3.83301 60 16.5c22 8 36.167 12.333 42.5 13
s13.5 -1.33301 21.5 -6c28.667 -19.333 32.334 -40 11.001 -62c-17.333 -18 -46.666 -31.333 -87.999 -40c-26.667 -4.66699 -40 -10 -40 -16z" />
    <glyph glyph-name="G" unicode="G" horiz-adv-x="616" 
d="M334 289c-6.66699 -4 -16.333 -7.00098 -29 -9.00098s-21.667 -6 -27 -12c-5.33301 -6.66699 -14.833 -10 -28.5 -10s-24.167 3.66699 -31.5 11c-4 4 -6.66699 10.5 -8 19.5s-1 17.167 1 24.5s5 10.666 9 9.99902c2.66699 0 4.16699 1 4.5 3s0 4.33301 -1 7s-1 5 0 7
s3.5 2.66699 7.5 2c8 0 12 2.33301 12 7c5.33301 6 22.5 13.5 51.5 22.5s48.833 13.167 59.5 12.5c5.33301 0.666992 8 5.33398 8 14.001s-2.33301 14.667 -7 18c-2.66699 1.33301 -10.667 14.333 -24 39s-21.666 37.667 -24.999 39c-14 6 -25.333 9.83301 -34 11.5
s-18 0 -28 -5s-19.5 -12 -28.5 -21s-21.5 -22.833 -37.5 -41.5c-41.333 -50.667 -62 -103.667 -62 -159s20.667 -94.666 62 -117.999c14 -7.33301 24.5 -11.5 31.5 -12.5s22.167 0.5 45.5 4.5c33.333 6.66699 52.333 11.667 57 15c13.333 12 41 28 83 48
c8.66699 4 18 15 28 33c14 28 29.667 42.667 47 44c7.33301 0 9.66602 3.66699 6.99902 11c-2 4.66699 -5.66699 7.5 -11 8.5s-16 0.5 -32 -1.5c-46 -4.66699 -79.333 -12 -100 -22zM469.001 172.999c-2 0 -9.99609 -4.83105 -23.9961 -14.498s-22.333 -14.167 -25 -13.5
c-5.33301 0 -8 -1.66699 -8 -5s-16 -12.666 -48 -27.999c-34.667 -16.667 -72.334 -30.167 -113.001 -40.5s-63 -11.833 -67 -4.5c-2 4.66699 -8 5.66699 -18 3c-7.33301 -2 -20 2.16699 -38 12.5s-33 22.166 -45 35.499c-22 24.667 -37.5 56.167 -46.5 94.5
s-9.16699 74.5 -0.5 108.5c8 31.333 21.667 66.666 41 105.999c20 41.333 49 79.666 87 114.999c28.667 26.667 43.334 32.334 44.001 17.001c0 -4.66699 1.66699 -3.33398 5 3.99902l2 6c5.33301 16.667 24 26.334 56 29.001s55.333 -1 70 -11
c13.333 -8.66699 34.666 -33.834 63.999 -75.501s44.333 -68.5 45 -80.5c1.33301 -14 5 -21.667 11 -23c12 -0.666992 19.667 -1.66699 23 -3s5 -4.66602 5 -9.99902c0 -11.333 7 -12.666 21 -3.99902c4 2 8.66699 2.5 14 1.5s10 -3.33301 14 -7s5 -6.83398 3 -9.50098
c-1.33301 -1.33301 -1 -2.33301 1 -3c1.33301 0 3.33301 0.333008 6 1c2.66699 1.33301 6.16699 -0.5 10.5 -5.5s9.16602 -13.167 14.499 -24.5c7.33301 -16.667 11.333 -29.834 12 -39.501s-1 -31.5 -5 -65.5c-4.66699 -44.667 -9.33398 -70 -14.001 -76
c-2.66699 -3.33301 -2.16699 -10.333 1.5 -21s3.5 -18.334 -0.5 -23.001c-4.66699 -8.66699 -4.33398 -17 0.999023 -25c4.66699 -9.33301 5 -21.166 1 -35.499s-11 -25.5 -21 -33.5c-22 -16.667 -41 -14.667 -57 6c-8.66699 10.667 -11.334 19 -8.00098 25
c1.33301 2.66699 3.33301 3 6 1c4.66699 -2 7 0.333008 7 7c-1.33301 7.33301 -4.66602 11 -9.99902 11c-7.33301 0 -11 16.333 -11 49s-2 49 -6 49z" />
    <glyph glyph-name="H" unicode="H" horiz-adv-x="594" 
d="M536 37c-4.66699 1.33301 -7.99707 -0.00195312 -9.99707 -4.00195s-5.66699 -5 -11 -3c-2.66699 0.666992 -4.5 1.66699 -5.5 3s-1.33301 2.83301 -1 4.5s0.666016 3.16699 0.999023 4.5s0.166016 2.33301 -0.500977 3s-2.33398 1 -5.00098 1
c-7.33301 -1.33301 -15.333 -0.333008 -24 3c-6.66699 2.66699 -11.334 10.5 -14.001 23.5s-6 46.167 -10 99.5c-2 29.333 -4.16699 56 -6.5 80s-4 43.333 -5 58s-1.83301 33 -2.5 55c-35.333 -4 -80.333 -10.833 -135 -20.5s-92.334 -15.834 -113.001 -18.501
c2 -25.333 10.333 -91 25 -197l-20 -17c-9.33301 -8 -15.666 -12.333 -18.999 -13s-6.66602 1.66602 -9.99902 6.99902c-6 7.33301 -13.333 11 -22 11s-15.834 2.83301 -21.501 8.5s-8.5 12.834 -8.5 21.501c0 4 0.333008 6.66699 1 8s1.66699 1.83301 3 1.5
s3.33301 -1.83301 6 -4.5c6.66699 -6 10 -7.33301 10 -4c0 2.66699 -1.33301 7.33398 -4 14.001c-2.66699 7.33301 -5.66699 10 -9 8c-6 -4 -12.333 30 -19 102c-4 32 -13.667 45 -29 39c-7.33301 -2.66699 -16.5 -2.16699 -27.5 1.5s-17.167 8.5 -18.5 14.5
c-2.66699 11.333 -0.833984 22.833 5.49902 34.5s15.833 20.5 28.5 26.5l27 11l-4 178l23 24c13.333 13.333 24 20.5 32 21.5s17.333 -3.5 28 -13.5c7.33301 -6.66699 11.5 -15 12.5 -25s0.5 -36.667 -1.5 -80c0 -4.66699 -0.333008 -10.667 -1 -18
c-1.33301 -41.333 0.333984 -64.666 5.00098 -69.999c4 -4 17.333 -3.33301 40 2c4.66699 0.666992 8.33398 1.33398 11.001 2.00098l41 8c20.667 4 35.334 7 44.001 9c66.667 12 103.667 23.333 111 34c4.66699 4.66699 9.66699 21 15 49c4.66699 25.333 12 48 22 68
s20 32 30 36c26.667 10.667 45.667 7.66699 57 -9c5.33301 -8 7.66602 -15.833 6.99902 -23.5s-6 -30.834 -16 -69.501c-4.66699 -16.667 -7 -59.167 -7 -127.5s2 -122.166 6 -161.499c12.667 -117.333 14 -182 4 -194c-3.33301 -4 -8.33301 -4.66699 -15 -2z" />
    <glyph glyph-name="I" unicode="I" horiz-adv-x="164" 
d="M40 105c0 7.33301 0.167969 11.001 0.500977 11.001s2.16602 -3.33301 5.49902 -10c5.33301 -11.333 7.33301 -18.333 6 -21c-2 -3.33301 -5 -2 -9 4c-3.33301 5.33301 -4.33301 10.666 -3 15.999zM30.001 532.001c36.667 40.667 67.334 52.6689 92.001 36.002
c6 -2.66699 9.5 -33.334 10.5 -92.001s0.5 -178 -1.5 -358c-0.666992 -12 -1.66699 -19.833 -3 -23.5s-4 -4.83398 -8 -3.50098c-6 2.66699 -11 1.33398 -15 -3.99902c-2.66699 -3.33301 -3 -4.66602 -1 -3.99902c1.33301 0 3.33301 0.666992 6 2
c3.33301 2.66699 5.33301 3.66699 6 3s0.333984 -1.66699 -0.999023 -3c-2.66699 -4.66699 -12.667 -7.66699 -30 -9c-10.667 -0.666992 -17.334 -0.333984 -20.001 0.999023s-3.66699 4.66602 -3 9.99902c1.33301 8 -2.33398 18.667 -11.001 32
c-5.33301 8.66699 -9 25.167 -11 49.5s-4 79.833 -6 166.5z" />
    <glyph glyph-name="J" unicode="J" horiz-adv-x="331" 
d="M31 77c2.66699 10.667 6.66992 16.502 12.0029 17.502s13.666 -3.16699 24.999 -12.5l16 -13c-1.33301 -1.33301 -3.83301 -3.33301 -7.5 -6s-6.66699 -5 -9 -7l-8.5 -7.5c-3.33301 -3 -5.83301 -5.83301 -7.5 -8.5s-2.83398 -5 -3.50098 -7
c-2.66699 -8.66699 -6.83398 -5.83398 -12.501 8.49902s-7.16699 26.166 -4.5 35.499zM206.003 166.002c-6 0 -8.66504 20.6699 -7.99805 62.0029c1.33301 38 0 94.667 -4 170c-2 68.667 -0.666992 103 4 103c6 -4 7 -3 3 3s0.666992 15.667 14 29
c11.333 11.333 23.666 17.833 36.999 19.5s24 -2.16602 32 -11.499c7.33301 -8 12.666 -60 15.999 -156c4 -123.333 -1.66699 -213 -17 -269s-44.666 -95 -87.999 -117c-15.333 -7.33301 -25.666 -11.333 -30.999 -12s-13 1.66602 -23 6.99902c-14 7.33301 -24 10.333 -30 9
c-2.66699 -0.666992 -4.83398 0.166016 -6.50098 2.49902s-2.83398 5.5 -3.50098 9.5c0 6.66699 -0.333008 11.667 -1 15s-1.66699 5.5 -3 6.5s-2.83301 0.666992 -4.5 -1l-8.5 -8.5c-4.66699 -4.66699 -8.5 -8.33398 -11.5 -11.001s-5.66699 -4 -8 -4s-4 1 -5 3
s-1.5 5.33301 -1.5 10s3 10.667 9 18s12.667 13.166 20 17.499s12 4.83301 14 1.5c1.33301 -3.33301 12.333 -4.33301 33 -3c16 2 27.667 7.66699 35 17s13.333 26 18 50c4 17.333 9.33301 28.333 16 33c8 4.66699 9 7 3 7z" />
    <glyph glyph-name="K" unicode="K" horiz-adv-x="423" 
d="M377 151c-1.33301 0 -5.33203 -0.328125 -11.999 -0.995117c-26 -2.66699 -39 -1.33398 -39 3.99902v2c0 5.33301 -4.5 8.66602 -13.5 9.99902s-14.5 -0.666992 -16.5 -6c-2 -4.66699 -10.5 -5.5 -25.5 -2.5s-22.5 6.83301 -22.5 11.5c0 5.33301 -8.66699 8 -26 8
s-46 4 -86 12v-21v-30.5c0 -7 -0.166992 -16 -0.5 -27s-1 -19.167 -2 -24.5s-2.5 -8 -4.5 -8c-4 2 -7.66699 1 -11 -3c-2.66699 -4.66699 -0.333984 -7 6.99902 -7c6.66699 0 10.334 -4 11.001 -12s-1.66602 -16 -6.99902 -24c-4.66699 -7.33301 -7 -8.66602 -7 -3.99902
c0 4 -3 3.66699 -9 -1c-8.66699 -7.33301 -34 -9 -76 -5v16c0 25.333 1 38 3 38c1.33301 0 2.66602 -1.66699 3.99902 -5c4 -7.33301 6.33301 -8.33301 7 -3c1.33301 6.66699 -0.666992 12.667 -6 18c-4 4 -7.66699 38.667 -11 104s-4.66602 127.666 -3.99902 186.999
c2 106.667 4.33301 165 7 175c2 6 7.33301 12.667 16 20c10 8.66699 21.5 14 34.5 16s23.833 0.333008 32.5 -5c14.667 -9.33301 19.667 -49.666 15 -120.999c-3.33301 -52.667 -4.33301 -80.667 -3 -84c1.33301 -1.33301 7 2 17 10s15.333 11.667 16 11
c3.33301 0 27 22 71 66c37.333 36.667 63.666 59.667 78.999 69s29.666 10.666 42.999 3.99902c45.333 -20 24 -65 -64 -135c-25.333 -20.667 -53.333 -46.834 -84 -78.501s-45 -49.5 -43 -53.5c2.66699 -4 9 -6 19 -6s28.833 -4 56.5 -12s41.5 -13.333 41.5 -16
c0 -4 6.66699 -4.66699 20 -2c6.66699 1.33301 15 0.666016 25 -2.00098s20 -6.16699 30 -10.5s16.667 -6.83301 20 -7.5c6 0 10.167 -5.16699 12.5 -15.5s2 -20.833 -1 -31.5s-7.5 -16.334 -13.5 -17.001z" />
    <glyph glyph-name="L" unicode="L" horiz-adv-x="415" 
d="M175 130c1.33301 -2 5.32617 -0.168945 11.9932 5.49805l21 17.5c7.33301 6 12 8 14 6c7.33301 0 18.333 3.66699 33 11c28.667 14.667 44.334 21.334 47.001 20.001c0.666992 -0.666992 1.66699 -2.66699 3 -6c2.66699 -8 6.66699 -11.333 12 -10
c6 0 6.33301 1.33301 1 4c-8.66699 5.33301 -5.33398 13 9.99902 23c19.333 12.667 35 14.667 47 6c2.66699 -2 4.66699 -4.33301 6 -7c5.33301 -8.66699 1.33301 -19.667 -12 -33c-12 -12.667 -20.667 -19.5 -26 -20.5s-12.333 2.16699 -21 9.5
c-5.33301 5.33301 -9.16602 7.5 -11.499 6.5s-4.83301 -6.5 -7.5 -16.5c-2.66699 -8.66699 -5.66699 -14.5 -9 -17.5s-8.16602 -5.33301 -14.499 -7s-12.166 -4.5 -17.499 -8.5c-5.33301 -4.66699 -7.66602 -7.33398 -6.99902 -8.00098c0.666992 0 1.66699 0.333008 3 1
c2 1.33301 4 2 6 2s3 -0.333008 3 -1l-3 -2c-1.33301 -1.33301 -3.83301 -3 -7.5 -5s-8 -4.16699 -13 -6.5l-16.5 -7.5l-18.5 -8c-6.33301 -2.66699 -13 -5.16699 -20 -7.5l-19.5 -6.5c-6 -2 -12 -3.66699 -18 -5s-11.333 -2 -16 -2c-22.667 -1.33301 -41.5 2 -56.5 10
s-22.833 19.333 -23.5 34s-2.16699 61.334 -4.5 140.001s-4.83301 131.334 -7.5 158.001c-4.66699 53.333 -6 82 -4 86c1.33301 4.66699 0.333008 9.33398 -3 14.001c-14 22.667 -6.66699 46 22 70c16.667 14 33.834 16.667 51.501 8s26.834 -24.334 27.501 -47.001
c8.66699 -160 13 -252 13 -276c1.33301 -48 2.83301 -79 4.5 -93s4.83398 -21.333 9.50098 -22c7.33301 -1.33301 11 -4.33301 11 -9z" />
    <glyph glyph-name="M" unicode="M" horiz-adv-x="637" 
d="M193 242c0 2.66699 -3.67969 7.99902 -11.0127 15.999s-10.666 14.333 -9.99902 19c0 6 -3.33301 12.5 -10 19.5s-12.667 10.5 -18 10.5c-4.66699 0 -7 -4 -7 -12c0 -144.667 0.333008 -217.667 1 -219c1.33301 -6.66699 -4 -14.667 -16 -24s-28.667 -12 -50 -8
c-14 3.33301 -22.667 6.33301 -26 9s-4.66602 8.66699 -3.99902 18c0 14 -2 22.333 -6 25c-3.33301 2 -5.16602 34.333 -5.49902 97s0.833984 103.667 3.50098 123c0.666992 4 1.66699 13.167 3 27.5s3.33301 25.666 6 33.999s7 13.166 13 14.499
c3.33301 0 5.5 0.166992 6.5 0.5s1.16699 1.16602 0.5 2.49902s-2.66699 3.33301 -6 6c-6.66699 6.66699 -9 27.167 -7 61.5s7 56.833 15 67.5c6.66699 10 20 17.667 40 23c13.333 3.33301 22.333 4.16602 27 2.49902s12.667 -8.16699 24 -19.5
c14 -15.333 27.333 -39.333 40 -72c18 -51.333 41.833 -103.833 71.5 -157.5s49.834 -80.5 60.501 -80.5c5.33301 0 9.66602 3.66699 12.999 11c32.667 66.667 49 103.667 49 111c26.667 80 47 134.333 61 163c10.667 24 16 37.333 16 40c0 6.66699 5.33301 15.167 16 25.5
s21.334 16.833 32.001 19.5c13.333 4 21.5 5.66699 24.5 5s9.16699 -4.66699 18.5 -12c12 -9.33301 18.333 -23.666 19 -42.999c1.33301 -20.667 3.33301 -58.834 6 -114.501s5.33398 -103.667 8.00098 -144s6 -77.166 10 -110.499c4 -44.667 5.66699 -71.5 5 -80.5
s-4.66699 -16.833 -12 -23.5c-5.33301 -5.33301 -10 -8.16602 -14 -8.49902s-9.16699 0.333984 -15.5 2.00098s-12.166 2.5 -17.499 2.5c-9.33301 -1.33301 -16 0.666992 -20 6c-3.33301 6 -2.66602 7.33301 2.00098 4c6.66699 -4 8.33398 -2 5.00098 6
c-3.33301 7.33301 -8.66602 8 -15.999 2c-6 -5.33301 -9 -5.66602 -9 -0.999023c0 2.66699 0.666992 6.33398 2 11.001c1.33301 10.667 1 16 -1 16c-2 -1.33301 -4.33301 5.5 -7 20.5s-5 35.167 -7 60.5s-3 50.666 -3 75.999c-1.33301 38 -3.66602 58.667 -6.99902 62
c-7.33301 7.33301 -13.666 1 -18.999 -19l-3 -12c-3.33301 -21.333 -14.333 -46.666 -33 -75.999s-36.667 -49.666 -54 -60.999c-19.333 -12.667 -39 -19.5 -59 -20.5s-37.667 3.83301 -53 14.5c-11.333 8 -26.166 22.667 -44.499 44s-27.5 34.666 -27.5 39.999z" />
    <glyph glyph-name="N" unicode="N" horiz-adv-x="508" 
d="M400 518c-3.33301 0 -5.83301 -1.49805 -7.5 -4.49805s-2.83398 -4.83301 -3.50098 -5.5s-3.33398 1.66602 -8.00098 6.99902c-7.33301 8.66699 -13 11.334 -17 8.00098c-6.66699 -4 -9.66699 -1 -9 9c1.33301 17.333 7 30 17 38c8 6 16 8.33301 24 7
c7.33301 -2.66699 12.833 -8.83398 16.5 -18.501s4.33398 -18.834 2.00098 -27.501s-7.16602 -13 -14.499 -13zM264 398.002c0 -8.66699 2.00098 -12.9951 6.00098 -12.9951c3.33301 0 17.333 -24.667 42 -74c28 -55.333 44.667 -83 50 -83c6 0 7.66699 33.667 5 101v10
c-2.66699 80 -5.66699 125.333 -9 136c-4 12 -3 16 3 12c6 -3.33301 8.66699 -2.33301 8 3c-1.33301 4 -3.66602 6.33301 -6.99902 7c-4 0 -5 2.33301 -3 7c4 6.66699 9.33301 5.33398 16 -3.99902c4.66699 -8 6 -15.333 4 -22c-2 -5.33301 -2.66699 -8.16602 -2 -8.49902
s3.66699 1.5 9 5.5c7.33301 6 9.66602 11.333 6.99902 16c-1.33301 3.33301 0.666992 5.33301 6 6c9.33301 1.33301 17 -0.333984 23 -5.00098c16.667 -11.333 28.667 -88.333 36 -231c1.33301 -17.333 2.16602 -38.833 2.49902 -64.5s1.33301 -46.334 3 -62.001
s5.16699 -30.167 10.5 -43.5c10.667 -28 -3.66602 -48 -42.999 -60l-33 -10c-40.667 40 -74 80.333 -100 121l-25 39l-17 25.5c-3.33301 5 -8 13.167 -14 24.5l-25 48c-26 50.667 -43.333 76.334 -52 77.001c-4.66699 0 -15.334 -65.667 -32.001 -197
c-2.66699 -24.667 -7 -39.334 -13 -44.001c-5.33301 -3.33301 -5 -5 1 -5c5.33301 0 7 -8.66699 5 -26c-3.33301 -24.667 -6.5 -40.5 -9.5 -47.5s-8.16699 -11.5 -15.5 -13.5c-8.66699 -0.666992 -12.5 -6.66699 -11.5 -18s-4.83301 -15.666 -17.5 -12.999
c-6 0 -10.333 0.333008 -13 1s-3.66699 2 -3 4c1.33301 3.33301 1 6.16602 -1 8.49902s-4.83301 3.5 -8.5 3.5s-6.5 -1.66699 -8.5 -5c-3.33301 -6 -5.66602 -5.33301 -6.99902 2v5c-2 25.333 -1 65.166 3 119.499s9.33301 99.166 16 134.499c3.33301 26 5 125 5 297
c3.33301 2 7.66602 5.33301 12.999 10s9.33301 8 12 10s7.16699 4.66699 13.5 8s12 4.66602 17 3.99902s12.5 -1.33398 22.5 -2.00098c25.333 -4.66699 43 -9.66699 53 -15s16.333 -14 19 -26c0.666992 -6.66699 10.667 -32.334 30 -77.001s29 -70 29 -76z" />
    <glyph glyph-name="O" unicode="O" horiz-adv-x="400" 
d="M114 356c-5.33301 0 -6.33594 -7.00195 -3.00293 -21.002c2.66699 -13.333 -0.333008 -25.333 -9 -36c-7.33301 -7.33301 -9.66602 -11 -6.99902 -11c0.666992 -0.666992 1.33398 -0.666992 2.00098 0c2.66699 2 5.5 2.33301 8.5 1s4.66699 -3.33301 5 -6
s-0.833984 -5 -3.50098 -7c-3.33301 -2 -4.33301 -6.5 -3 -13.5s2 -14.333 2 -22s-2 -11.167 -6 -10.5c-6 0 -7 -4 -3 -12c4.66699 -8.66699 8.33398 -25.334 11.001 -50.001c4 -26 12 -44.333 24 -55c47.333 -40 87.333 -25 120 45c8 17.333 13 32.333 15 45
s2.66699 34.334 2 65.001c-0.666992 72.667 -12.667 127.334 -36 164.001c-7.33301 12.667 -13.166 19.834 -17.499 21.501s-9.83301 -0.833008 -16.5 -7.5c-2 -3.33301 -13.167 -5.33301 -33.5 -6s-30.166 -5 -29.499 -13c-0.666992 -4.66699 -2 -7.5 -4 -8.5
s-3.83301 -1.16699 -5.5 -0.5s-3 0.166992 -4 -1.5s-0.5 -5.16699 1.5 -10.5c2.66699 -6 1.66699 -13.833 -3 -23.5s-6.33398 -16.167 -5.00098 -19.5c2.66699 -4.66699 2 -7 -2 -7zM344.997 424.998c0 -7.33301 2.33301 -12.6709 7 -16.0039
c5.33301 -3.33301 9 -15.666 11 -36.999s0.666992 -33.666 -4 -36.999c-5.33301 -3.33301 -4.33301 -6.33301 3 -9s9.66602 -24.667 6.99902 -66c-1.33301 -41.333 -4.66602 -64.666 -9.99902 -69.999c-4.66699 -4.66699 -7.66699 -11.667 -9 -21
c-5.33301 -28.667 -24.333 -59.334 -57 -92.001c-26 -26 -43.667 -37.667 -53 -35s-14 0.666992 -14 -6c0 -5.33301 -6.33301 -9.66602 -19 -12.999s-20.667 -2.66602 -24 2.00098c-2 3.33301 -8.33301 4.66602 -19 3.99902s-17.334 -2.66699 -20.001 -6
c-2.66699 -2.66699 -13.167 0.833008 -31.5 10.5s-27.5 16.5 -27.5 20.5c0 2.66699 -7 11 -21 25c-19.333 19.333 -30.5 52.666 -33.5 99.999s2.16699 101.666 15.5 162.999c7.33301 34.667 14.333 54.334 21 59.001c7.33301 3.33301 11 7.33301 11 12
s-2.33301 5.66699 -7 3c-6.66699 -4 -8.66699 -1.33301 -6 8l13 27c22 40 40.333 60 55 60c6.66699 0.666992 15.667 4.83398 27 12.501s21.333 12.5 30 14.5c44.667 12.667 80.334 6 107.001 -20c8 -8 18 -23.667 30 -47s18 -38.666 18 -45.999z" />
    <glyph glyph-name="P" unicode="P" horiz-adv-x="381" 
d="M107 1c4.66699 -2.66699 7.33203 -0.666992 7.99902 6c-1.33301 7.33301 -4 11 -8 11c-5.33301 0 -7.66602 -2.5 -6.99902 -7.5s3 -8.16699 7 -9.5zM221.998 491c-23.333 8.66699 -44.334 4.99805 -63.001 -11.002c-9.33301 -7.33301 -15 -14.666 -17 -21.999
s-2.66699 -23 -2 -47c0.666992 -44.667 4 -68 10 -70c4 -1.33301 11.333 2 22 10c35.333 25.333 58.333 52.833 69 82.5s4.33398 48.834 -18.999 57.501zM319.997 398.998c-4 0 -6.00293 -3.33105 -6.00293 -9.99805c0 -14.667 -13 -33.167 -39 -55.5
s-54.333 -39.5 -85 -51.5l-35 -14c8.66699 -65.333 16.334 -138 23.001 -218c-26.667 -24.667 -40.667 -40 -42 -46c0 -6 -6.33301 -9.83301 -19 -11.5s-21.334 0.166016 -26.001 5.49902c-6 7.33301 -12 40 -18 98c-10 97.333 -21.333 150.666 -34 159.999
c-4.66699 4 -7.16699 8 -7.5 12s1.5 12.333 5.5 25c6.66699 7.33301 7 37.5 1 90.5s-8.66699 84.5 -8 94.5c0 18 1.16699 30.333 3.5 37s7.83301 14.667 16.5 24c8.66699 8.66699 16.5 14.167 23.5 16.5s19.167 3.16602 36.5 2.49902c18 -0.666992 32.5 2 43.5 8
s20.167 9.66699 27.5 11c16 3.33301 26.333 5 31 5s15.667 -1.66699 33 -5c12.667 -2 19.334 -4 20.001 -6c0.666992 -0.666992 -0.666016 -1.66699 -3.99902 -3l-2 -1c-11.333 -4 -6.33301 -6 15 -6c18 -0.666992 32.333 -5.16699 43 -13.5s19.334 -22.833 26.001 -43.5
c4.66699 -14 7 -23.167 7 -27.5s-2.33301 -8.16602 -7 -11.499c-7.33301 -5.33301 -8.33301 -9 -3 -11c4 -1.33301 2.83301 -10.833 -3.5 -28.5s-11.833 -26.5 -16.5 -26.5z" />
    <glyph glyph-name="Q" unicode="Q" horiz-adv-x="468" 
d="M209 420c-6.66699 0 -17.666 -7.66309 -32.999 -22.9961c-12.667 -13.333 -18.667 -17.333 -18 -12c0 0.666992 0.333008 1.33398 1 2.00098c1.33301 6 1.33301 9 0 9c-0.666992 0 -1.66699 -0.666992 -3 -2c-5.33301 -2.66699 -6.33301 -9.66699 -3 -21
c2 -7.33301 2.5 -12 1.5 -14s-3.83301 -2 -8.5 0c-3.33301 1.33301 -5.5 1.66602 -6.5 0.999023s-1.16699 -1.83398 -0.5 -3.50098s1 -3.33398 1 -5.00098s-1 -2.5 -3 -2.5c-3.33301 0 -5 -10.667 -5 -32c0 -20 -3.33301 -32.333 -10 -37
c-4.66699 -2.66699 -7 -11.834 -7 -27.501s-1 -25.167 -3 -28.5c-2.66699 -4.66699 -3.16699 -10.667 -1.5 -18s0.833984 -14 -2.49902 -20c-4 -11.333 -2.66699 -28.333 4 -51s12.167 -37.834 16.5 -45.501s12.166 -15.834 23.499 -24.501
c8.66699 -6.66699 15.167 -10.167 19.5 -10.5s12.833 2.83398 25.5 9.50098c19.333 11.333 32 20.333 38 27c5.33301 6 7.5 11.5 6.5 16.5s-7.83301 16.5 -20.5 34.5c-16.667 25.333 -27 38 -31 38c-2.66699 0.666992 -4.83398 4.66699 -6.50098 12s-4.5 11.333 -8.5 12
c-8 4 -15.833 13.333 -23.5 28s-7.83398 26.667 -0.500977 36c6 14.667 15.667 21 29 19c3.33301 0 5 1.66699 5 5s5.66699 5.66602 17 6.99902c8.66699 0.666992 18.334 -3.33301 29.001 -12s25 -24 43 -46c16 -18 25 -26 27 -24c10 22.667 15 59.5 15 110.5
s-5.66699 82.833 -17 95.5c-7.33301 9.33301 -18.5 14.833 -33.5 16.5s-26.167 -1.16602 -33.5 -8.49902s-15 -11 -23 -11zM378.001 82.0039c-2 -3.33301 0.333984 -5.66797 7.00098 -7.00098s9 -3.66602 7 -6.99902c-2 -4 0 -5 6 -3s14.167 -3 24.5 -15
s15.5 -22.667 15.5 -32c0 -14 -14 -21 -42 -21c-6.66699 -0.666992 -11.5 0.333008 -14.5 3s-4.33301 5.66699 -4 9s-0.666992 6.5 -3 9.5s-6.83301 4.5 -13.5 4.5l-11 -1l2 -1c6.66699 -3.33301 9.33398 -7 8.00098 -11s-6 -6 -14 -6
c-6.66699 1.33301 -10.334 3.33301 -11.001 6c2 4 -2.33301 9 -13 15c-12 6.66699 -24.333 6.66699 -37 0c-6 -3.33301 -13 -6.16602 -21 -8.49902s-14.333 -5.83301 -19 -10.5c-4 -4.66699 -17.667 -9.66699 -41 -15c-14.667 -2.66699 -24.167 -3.66699 -28.5 -3
s-7.5 4.33398 -9.5 11.001c-1.33301 4.66699 -2.5 7.66699 -3.5 9s-2 1.66602 -3 0.999023s-2.5 -3 -4.5 -7c-6.66699 -12.667 -16.667 -15.5 -30 -8.5s-17.666 17.167 -12.999 30.5c1.33301 4.66699 0.333008 7.33398 -3 8.00098c-5.33301 -0.666992 -8.33301 -4 -9 -10
c0 -7.33301 -3 -9.66602 -9 -6.99902c-6.66699 2.66699 -15 12.667 -25 30s-14 28.666 -12 33.999c3.33301 7.33301 2 11.666 -4 12.999c-4 0 -6.33301 -2.66699 -7 -8c-0.666992 -4 -2 -3 -4 3c-0.666992 2 -1.66699 6 -3 12
c-8.66699 41.333 -9.33398 85.666 -2.00098 132.999c3.33301 20.667 7.33301 30 12 28c2.66699 -2 4 -2 4 0l-1 7c-3.33301 9.33301 -0.833008 26 7.5 50s19.5 47.333 33.5 70c16.667 27.333 23.667 44.333 21 51c-2 5.33301 3.66699 17.333 17 36s25.666 31.667 36.999 39
c12 7.33301 25.667 13.333 41 18c30 9.33301 59.667 11.333 89 6c9.33301 -3.33301 14 -7 14 -11c-1.33301 -2 2.66699 -2.66699 12 -2h7c10 0.666992 17.833 -0.5 23.5 -3.5s14.167 -10.833 25.5 -23.5c36 -42 51 -102.667 45 -182
c-5.33301 -73.333 -21 -131.666 -47 -174.999c-6.66699 -12 -10.167 -19.833 -10.5 -23.5s2.16699 -8.5 7.5 -14.5c7.33301 -8.66699 9.33301 -15.334 6 -20.001z" />
    <glyph glyph-name="R" unicode="R" horiz-adv-x="508" 
d="M177 413c-2 0 -3.33398 -3.99902 -4.00098 -11.999s-0.5 -16.5 0.5 -25.5s2.5 -14.5 4.5 -16.5s7.16699 1.83301 15.5 11.5s17.833 22.5 28.5 38.5s20 31.667 28 47c14.667 28 23.667 41 27 39c2 -1.33301 3.33301 0.666992 4 6
c0.666992 19.333 -8.33301 24.666 -27 15.999c-22 -10 -40.333 -28.667 -55 -56c-6 -10 -10 -19.667 -12 -29c-3.33301 -12.667 -6.66602 -19 -9.99902 -19zM223.999 261.001c6 0 29.332 -2.16602 69.999 -6.49902s60 -7.83301 58 -10.5c0 -2 8 -3.66699 24 -5
c15.333 -0.666992 32.833 -5 52.5 -13s29.5 -15.333 29.5 -22c0 -3.33301 1 -5.83301 3 -7.5s4.33301 -1.83398 7 -0.500977s4.66699 4 6 8c2 0 3.33301 -2.66699 4 -8c1.33301 -8 -1.66699 -13.333 -9 -16s-11 -7.33398 -11 -14.001
c-0.666992 -15.333 -14.334 -21.666 -41.001 -18.999c-22 2 -34.667 7 -38 15v4c1.33301 4.66699 0.333008 6.33398 -3 5.00098c-1.33301 0 -4 -1.66699 -8 -5c-6.66699 -4.66699 -10 -5.66699 -10 -3c-2.66699 2.66699 -28.5 7 -77.5 13s-75.167 8 -78.5 6
c-4 -2 -1.33301 -34.333 8 -97c4.66699 -33.333 -0.333008 -54.333 -15 -63c-8.66699 -6 -18.334 -3.33301 -29.001 8c-7.33301 7.33301 -11 8.33301 -11 3c0 -8.66699 -5.33301 -10.334 -16 -5.00098c-6 3.33301 -11 7.66602 -15 12.999c-4.66699 5.33301 -8 15.333 -10 30
s-5 24.334 -9 29.001c-6.66699 10 -17.667 72.833 -33 188.5s-25.666 177.167 -30.999 184.5c-3.33301 4.66699 -6.33301 16.334 -9 35.001c-3.33301 18 0 32.333 10 43c13.333 14.667 28.833 21.5 46.5 20.5s29.167 -9.5 34.5 -25.5
c2.66699 -8.66699 7.83398 -13.167 15.501 -13.5s15.167 3.83398 22.5 12.501c10 11.333 21 20.166 33 26.499s21.333 8.16602 28 5.49902c4.66699 -2 7.5 -2.5 8.5 -1.5s0.833008 2.83301 -0.5 5.5c-1.33301 6 0 9.33301 4 10c4 1.33301 11.667 2.16602 23 2.49902
s21.833 0 31.5 -1s14.5 -2.16699 14.5 -3.5c0 -2.66699 -3 -7 -9 -13c-5.33301 -5.33301 -5.33301 -8 0 -8c6.66699 0 11 3.33301 13 10c3.33301 8 7.33301 11.667 12 11c2.66699 -0.666992 3.66699 -3.33398 3 -8.00098c-1.33301 -6 1.33398 -10 8.00098 -12
c2.66699 -0.666992 4.5 -0.666992 5.5 0s0.833008 2.33398 -0.5 5.00098c-4 6 -4 8.66699 0 8c6.66699 -1.33301 14.334 -7.66602 23.001 -18.999c9.33301 -11.333 14.166 -21.333 14.499 -30s-2.83398 -25.667 -9.50098 -51
c-13.333 -53.333 -49.666 -108.666 -108.999 -165.999c-30.667 -30.667 -43 -48.334 -37 -53.001c2 -1.33301 4.33301 -2 7 -2z" />
    <glyph glyph-name="S" unicode="S" horiz-adv-x="344" 
d="M298 509c0 -6 2.33398 -11.333 7.00098 -16c4 -4 3.16699 -10.333 -2.5 -19s-13.834 -16.334 -24.501 -23.001s-20 -10 -28 -10c-7.33301 0 -14 1.33301 -20 4s-10 5.83398 -12 9.50098s-1.66699 7.16699 1 10.5c1.33301 2 1.66602 3 0.999023 3
s-2.33398 -0.666992 -5.00098 -2c-5.33301 -3.33301 -10.666 0 -15.999 10s-13.833 16.167 -25.5 18.5s-21.834 -0.166992 -30.501 -7.5c-9.33301 -8 -13.833 -17.167 -13.5 -27.5s5.83301 -24.5 16.5 -42.5c13.333 -24 38 -51.667 74 -83
c16.667 -15.333 31.834 -31.833 45.501 -49.5s23.5 -33.334 29.5 -47.001s6 -21.834 0 -24.501c-3.33301 -0.666992 -3.66602 -1.66699 -0.999023 -3l6 -1c3.33301 0 5.83301 -0.666992 7.5 -2s3 -3.5 4 -6.5s1.66699 -5.5 2 -7.5s0.5 -5.33301 0.5 -10v-9
c0.666992 -6.66699 -3.5 -16.834 -12.5 -30.501s-19.5 -26.5 -31.5 -38.5c-3.33301 -4.66699 -9 -6.66699 -17 -6s-13.333 -1 -16 -5c-2.66699 -3.33301 -3 -4.66602 -1 -3.99902c1.33301 0 3.33301 0.666992 6 2c4.66699 2 6.66699 2.66699 6 2
c-0.666992 -1.33301 -2 -3 -4 -5c-9.33301 -10 -32.666 -14.333 -69.999 -13c-24.667 2 -36 6.66699 -34 14c2 2.66699 2.5 4.16699 1.5 4.5s-2.83301 -0.166992 -5.5 -1.5c-6 -4 -18.667 -2 -38 6c-6.66699 4 -9.66699 7 -9 9c1.33301 2.66699 -2 8 -10 16
c-4.66699 4.66699 -7.66699 10.334 -9 17.001s-0.5 12.5 2.5 17.5s7.5 7.5 13.5 7.5c9.33301 0 16.333 -2.16699 21 -6.5s5.66699 -9.83301 3 -16.5c-4 -7.33301 -2.33301 -11.333 5 -12c8 0 12.667 2.66699 14 8c-1.33301 3.33301 2.66699 5.33301 12 6
c2.66699 0 7.66699 -0.333008 15 -1c14 -0.666992 21.333 0 22 2c0 2.66699 4.66699 5.33398 14 8.00098c8 2 12.5 8.16699 13.5 18.5s-1.83301 21.5 -8.5 33.5c-10 16 -32 41 -66 75c-67.333 69.333 -101 126 -101 170c0 21.333 5.66699 42 17 62s25.666 34.333 42.999 43
c10 4.66699 18.667 9.66699 26 15s15 9.66602 23 12.999c29.333 8.66699 61 4.83398 95 -11.499s55.333 -37.5 64 -63.5z" />
    <glyph glyph-name="T" unicode="T" horiz-adv-x="386" 
d="M278 441c-6.66699 0 -10.8359 -1.49512 -12.5029 -4.49512s-2.16699 -9.16699 -1.5 -18.5c0.666992 -4 1.33398 -18.833 2.00098 -44.5s1.66699 -49.334 3 -71.001s3.33301 -34.834 6 -39.501c4 -8 3.66699 -13 -1 -15c-4.66699 -3.33301 -4.66699 -12.666 0 -27.999
c4 -14.667 5.33301 -37.334 4 -68.001s-4.66602 -51 -9.99902 -61c-6.66699 -12.667 -17.167 -18.334 -31.5 -17.001s-27.833 8.66602 -40.5 21.999c-9.33301 10 -15.166 19 -17.499 27s-3.83301 23.333 -4.5 46c0 19.333 -3 77 -9 173c-4 68.667 -11 103 -21 103
c-1.33301 0 -3 -0.333008 -5 -1c-6 -3.33301 -18 -5.83301 -36 -7.5s-33 -1.5 -45 0.5c-14.667 2.66699 -23.5 8.5 -26.5 17.5s0.166992 18.167 9.5 27.5s14 16.666 14 21.999c0 4 4.83301 7.16699 14.5 9.5s15.834 1.5 18.501 -2.5c2.66699 -5.33301 17.667 -5.33301 45 0
c2 0.666992 0 3 -6 7c-4 2.66699 -2 5 6 7c12.667 2 45.334 5.33301 98.001 10c24.667 2 49.167 1.83301 73.5 -0.5s38.166 -5.83301 41.499 -10.5c12 -19.333 14 -36 6 -50c-4.66699 -7.33301 -11.334 -9.66602 -20.001 -6.99902c-5.33301 2 -8 2 -8 0l2 -4
c2 -2.66699 0.666992 -5.83398 -4 -9.50098s-11.167 -6.66699 -19.5 -9s-16.5 -3.5 -24.5 -3.5z" />
    <glyph glyph-name="U" unicode="U" horiz-adv-x="461" 
d="M382 465c0 6 -4 13.001 -12 21.001c-12 12 -19.333 14.667 -22 8c-2.66699 -5.33301 -0.666992 -14 6 -26c5.33301 -10 12.333 -14.333 21 -13c4.66699 1.33301 7 4.66602 7 9.99902zM86 588.001c0 6.66699 7.33789 6.33203 22.0049 -1.00098
c6.66699 -3.33301 12 -7.33301 16 -12c5.33301 -6.66699 11 -30.5 17 -71.5s8.66699 -75.833 8 -104.5c-1.33301 -19.333 0.666992 -46.333 6 -81c4 -33.333 3.66699 -51.666 -1 -54.999c-5.33301 -3.33301 -5.33301 -6.66602 0 -9.99902
c4.66699 -4.66699 10 -19.667 16 -45c7.33301 -35.333 19.666 -56.5 36.999 -63.5s38.333 -3.16699 63 11.5c17.333 9.33301 33.166 32.833 47.499 70.5s21.5 75.167 21.5 112.5c0 20.667 2.66699 32.334 8 35.001c4 3.33301 4 8.66602 0 15.999
c-5.33301 10.667 -8.83301 22.834 -10.5 36.501s-0.5 21.167 3.5 22.5c1.33301 0.666992 1.66602 2.16699 0.999023 4.5s-2.16699 5.5 -4.5 9.5s-5.5 8 -9.5 12c-12.667 13.333 -20.334 26.166 -23.001 38.499s-0.333984 21.833 6.99902 28.5c18 14.667 33.333 17 46 7
c8 -6.66699 10.667 -10 8 -10c-5.33301 -1.33301 -3 -6 7 -14c5.33301 -4.66699 8.66602 -5.66699 9.99902 -3c4 2 7.66699 0.666992 11 -4c2.66699 -4 1.66699 -6 -3 -6c-1.33301 0 -3.66602 0.333008 -6.99902 1c-10 2.66699 -16.667 1.66699 -20 -3
c-2.66699 -4 -0.333984 -7.33301 6.99902 -10c8 -2.66699 12 -7.66699 12 -15c0 -3.33301 0.666992 -5.16602 2 -5.49902s2.83301 -0.166016 4.5 0.500977s3 0.666992 4 0s0.833008 -2.66699 -0.5 -6c-2.66699 -6.66699 -0.333984 -11.334 6.99902 -14.001
c5.33301 -0.666992 8.83301 -10 10.5 -28s4.16699 -28 7.5 -30c4.66699 -2 5.66699 -11 3 -27c-2 -10 -2.66699 -15.333 -2 -16s2.33398 0.666016 5.00098 3.99902c3.33301 4.66699 5.5 7 6.5 7s1.5 -2.66699 1.5 -8c0 -8 -4 -14.667 -12 -20
c-8 -4.66699 -9 -8.66699 -3 -12c6 -2.66699 6.33301 -5.66699 1 -9c-4.66699 -3.33301 -4.66699 -10 0 -20c5.33301 -9.33301 5 -19 -1 -29s-9 -18 -9 -24c-1.33301 -10 -5.16602 -20.333 -11.499 -31s-10.5 -20 -12.5 -28
c-4.66699 -14.667 -14.334 -31.334 -29.001 -50.001c-16.667 -20 -42.667 -39 -78 -57c-18 -8.66699 -27.333 -10.667 -28 -6c0 5.33301 -1.66699 6 -5 2c-1.33301 -1.33301 -2.33301 -3 -3 -5c-6 -8.66699 -20 -12.667 -42 -12c-23.333 1.33301 -35 3.66602 -35 6.99902
s-6 6.33301 -18 9c-12 4 -16.667 9.33301 -14 16c2 6 1 8 -3 6c-5.33301 -3.33301 -15 5.83398 -29 27.501s-22 39.5 -24 53.5c-16 81.333 -25 148 -27 200c-2 48.667 -4.66699 76 -8 82c-2 4.66699 -1 8 3 10c4 2.66699 2.66699 10.667 -4 24c-14 28.667 -13 43 3 43
c8.66699 0 9.33398 2.33301 2.00098 7c-10.667 3.33301 -7.66699 12.333 9 27c12.667 12 20.667 16.333 24 13c6 -2.66699 9 -2 9 2z" />
    <glyph glyph-name="V" unicode="V" 
d="M414 387c-1.33301 -5.33301 -2.33398 -5 -3.00098 1c-1.33301 14 -0.666016 21.333 2.00098 22c0 0.666992 0.333008 0 1 -2c1.33301 -6.66699 1.33301 -13.667 0 -21zM292.999 237c5.33301 0 8.16699 0.498047 8.5 1.49805s-1.5 2.83301 -5.5 5.5
c-2.66699 2 -4.33398 3.5 -5.00098 4.5s-0.5 2 0.5 3s3.5 2.16699 7.5 3.5c8 2 9 5.66699 3 11s-6.33301 10 -1 14c11.333 14 19 54.333 23 121c0 6 0.166992 10 0.5 12s1 3.33301 2 4s2.33301 0.333984 4 -0.999023l8.5 -7c6.66699 -6.66699 10.667 -9.66699 12 -9
s2 4.66699 2 12c0 4 -0.666992 7.16699 -2 9.5s-3 3.16602 -5 2.49902c-4.66699 -3.33301 -8 -0.333008 -10 9c-2 8 -2 17.333 0 28c5.33301 30 22 45.333 50 46c12.667 0.666992 20.334 -0.166016 23.001 -2.49902s4.66699 -9.83301 6 -22.5c1.33301 -18 0 -27 -4 -27
c-3.33301 0 -7 -4.5 -11 -13.5s-6.66699 -19.5 -8 -31.5c-1.33301 -10.667 1.33398 -24.667 8.00098 -42c5.33301 -15.333 6.5 -33 3.5 -53s-13.167 -65.667 -30.5 -137c-8.66699 -37.333 -13 -61.333 -13 -72c0 -12.667 -8 -24.667 -24 -36s-31.667 -16.333 -47 -15
c-15.333 0.666992 -28.333 10.667 -39 30c-10 19.333 -13.667 31 -11 35c2 4.66699 1 5.33398 -3 2.00098c-2 -2 -5.16699 -0.166992 -9.5 5.5s-9.16602 13.5 -14.499 23.5c-69.333 136 -111.666 215 -126.999 237c-14.667 20.667 -25.334 32.334 -32.001 35.001
c-4.66699 1.33301 -7.83398 5.83301 -9.50098 13.5s-4.5 11.834 -8.5 12.501c-4 2.66699 -5.16699 7.66699 -3.5 15s6 15.666 13 24.999s14.5 16.666 22.5 21.999c14 9.33301 21.667 14 23 14c11.333 1.33301 31.166 -17.5 59.499 -56.5s56.5 -86.167 84.5 -141.5
c17.333 -36 30 -60 38 -72s15 -18 21 -18z" />
    <glyph glyph-name="W" unicode="W" horiz-adv-x="623" 
d="M566 465c2 -2 3.66699 -0.666992 5 4c3.33301 10.667 3 19.667 -1 27c-1.33301 2.66699 -3 1 -5 -5l-2 -8c-2.66699 -10 -1.66699 -16 3 -18zM269 382c0 5.33301 5.00781 18.332 15.0078 38.999s14.667 34 14 40c0 8.66699 8 19.167 24 31.5s29.667 18.5 41 18.5
c12.667 0 23.667 -5 33 -15s14.333 -21.667 15 -35c0.666992 -25.333 8.33398 -65 23.001 -119c23.333 -85.333 40.666 -130.333 51.999 -135h3c4.66699 4.66699 10 36.667 16 96c6.66699 60.667 13.667 93.334 21 98.001c4 2.66699 6.66699 4.83398 8 6.50098
s1.33301 3 0 4s-4.66602 2.16699 -9.99902 3.5c-10 2.66699 -15 7.66699 -15 15c0.666992 5.33301 3.83398 7.66602 9.50098 6.99902s10.834 0.666016 15.501 3.99902c9.33301 8 12.666 14 9.99902 18c-1.33301 2 -4 1.66699 -8 -1s-5.66699 -1 -5 5
c1.33301 14.667 1.33301 22.334 0 23.001c-0.666992 0.666992 -1.33398 1 -2.00098 1c-2 1.33301 -3.66699 0 -5 -4l-2 -15l-2 -15c-0.666992 1.33301 -1.33398 4.33301 -2.00098 9c-2.66699 16 -1.33398 32.5 3.99902 49.5s12.666 27.833 21.999 32.5
c13.333 6.66699 23.333 7 30 1s11.334 -19.667 14.001 -41c1.33301 -18.667 1.83301 -29.834 1.5 -33.501s-2.33301 -9.83398 -6 -18.501s-6.16699 -17 -7.5 -25c-2.66699 -13.333 -2 -20.333 2 -21c1.33301 0 3.33301 0.666992 6 2c6 2 9 0.333008 9 -5l-2 -23
c-2.66699 -22 -6.33398 -35.333 -11.001 -40c-2 -4.66699 -3 -8.66699 -3 -12s0.833008 -9.16602 2.5 -17.499s2.5 -13.166 2.5 -14.499l5 22c3.33301 13.333 5.33301 0.333008 6 -39c0 -34 -1.66699 -51 -5 -51c-0.666992 0 -1.33398 0.666992 -2.00098 2
c-4 5.33301 -5.33301 -4.66699 -4 -30c0 -9.33301 0.666992 -20 2 -32c2.66699 -48 1.33398 -72 -3.99902 -72c-4.66699 0 -4.33398 -4.66699 0.999023 -14c8 -13.333 3.5 -27.666 -13.5 -42.999s-35.167 -21.666 -54.5 -18.999
c-9.33301 1.33301 -17.666 9.66602 -24.999 24.999c-2 4 -4.16699 7.66699 -6.5 11s-4.33301 5.66602 -6 6.99902s-2.83398 1.66602 -3.50098 0.999023c-2 -2 -8.16699 2.83301 -18.5 14.5s-20.833 25.167 -31.5 40.5s-17.334 27 -20.001 35
c-4.66699 12.667 -9.33398 19 -14.001 19c-1.33301 0 -2.5 0.833008 -3.5 2.5s-1.66699 3.83398 -2 6.50098s-0.5 5.5 -0.5 8.5s-0.166992 5.83301 -0.5 8.5s-1 4.83398 -2 6.50098s-2.16699 2.5 -3.5 2.5c-4 0 -7.33301 5.66699 -10 17
c-1.33301 6.66699 -6.33301 22.167 -15 46.5s-14 38.166 -16 41.499c-2 1.33301 -6.5 -1.83398 -13.5 -9.50098s-9.16699 -13.167 -6.5 -16.5c2 -2.66699 -1.5 -23.667 -10.5 -63s-12.833 -60.333 -11.5 -63c2 -4 2 -10.833 0 -20.5s-4.83301 -18 -8.5 -25
s-6.83398 -9.83301 -9.50098 -8.5c-2.66699 2 -4 1 -4 -3c0 -2 0.666992 -4.66699 2 -8c2.66699 -8.66699 1.5 -16.667 -3.5 -24s-12.167 -11 -21.5 -11c-6.66699 0 -16 -3 -28 -9c-18 -12 -35.333 6 -52 54c-2 8.66699 -6.83301 22.334 -14.5 41.001s-13.834 35 -18.501 49
s-6 22 -4 24c2.66699 4.66699 1 10 -5 16s-15.333 27.333 -28 64c-33.333 97.333 -54 150 -62 158c-4 4 -6 16.333 -6 37c0 19.333 5 34 15 44c9.33301 8.66699 20.666 13.334 33.999 14.001s23.666 -3 30.999 -11c10 -12 41.667 -95.333 95 -250
c7.33301 -22.667 12.333 -34 15 -34c1.33301 0 2.66602 1.83301 3.99902 5.5s2.83301 8.5 4.5 14.5l5.5 19l5.5 19c1.66699 6 3.5 10.833 5.5 14.5s3.66699 5.16699 5 4.5c4.66699 0 5.33398 2.33301 2.00098 7c-0.666992 3.33301 2.33301 9.66602 9 18.999
s9.33398 16.333 8.00098 21z" />
    <glyph glyph-name="X" unicode="X" horiz-adv-x="486" 
d="M200 455c5.33301 0 10.665 4.5 15.998 13.5s8 18.167 8 27.5c0 8.66699 5.66699 18.167 17 28.5s23.666 17.5 36.999 21.5s25.833 3.33301 37.5 -2s18.167 -13.333 19.5 -24c0.666992 -6 -0.166016 -13.667 -2.49902 -23s-5.33301 -17.166 -9 -23.499
s-6.83398 -8.83301 -9.50098 -7.5c-1.33301 1.33301 -2.33301 1 -3 -1c0 -0.666992 0.333008 -2 1 -4c0.666992 -5.33301 -1.66602 -14.333 -6.99902 -27s-13 -28.5 -23 -47.5l-16 -30.5l30 -42.5l26 -37.5l20.5 -28.5c9 -12.333 16.333 -21.666 22 -27.999l20 -22.5
c7.66699 -8.66699 15.5 -17 23.5 -25c13.333 -15.333 21.833 -26.5 25.5 -33.5s5.16699 -15.5 4.5 -25.5c-1.33301 -16.667 2 -27 10 -31s9.66699 -6 5 -6l-22 6c-11.333 4 -21.5 3.66699 -30.5 -1s-12.167 -11.334 -9.5 -20.001c1.33301 -4.66699 1 -6.33398 -1 -5.00098
c-2 0.666992 -6 3.33398 -12 8.00098c-20 16 -27.667 27.667 -23 35v3c-0.666992 0 -1.66699 -0.333008 -3 -1c-4 -2.66699 -16.167 6.83301 -36.5 28.5s-42.166 48.5 -65.499 80.5c-19.333 26.667 -32 40 -38 40c-1.33301 1.33301 -4.16602 -1 -8.49902 -7
s-9.16602 -13.5 -14.499 -22.5l-15.5 -27c-5 -9 -9.5 -16.5 -13.5 -22.5s-6.66699 -8.66699 -8 -8c-2 0.666992 -3 0 -3 -2c0 -0.666992 0.333008 -2.33398 1 -5.00098c0.666992 -7.33301 -0.333008 -11 -3 -11c-5.33301 0 -8 -3.33301 -8 -10c0 -6 -6 -16.333 -18 -31
c-12.667 -15.333 -25 -21.333 -37 -18c-7.33301 1.33301 -15 4.16602 -23 8.49902s-13.667 7.16602 -17 8.49902c-2.66699 0 -0.333984 -3.33301 6.99902 -10c3.33301 -3.33301 4.33301 -5.66602 3 -6.99902c-2.66699 -2.66699 -8.33398 -1 -17.001 5
c-6 4.66699 -8 10.667 -6 18s11 26.666 27 57.999c8 16.667 22.5 43.334 43.5 80.001s35.833 68.334 44.5 95.001c0 4 -5.16699 14.167 -15.5 30.5s-18.833 27.5 -25.5 33.5c-8 7.33301 -20.833 23.5 -38.5 48.5s-26.5 39.833 -26.5 44.5c0 6.66699 9 17.667 27 33
c18.667 15.333 33.834 22.333 45.501 21s22.167 -11.333 31.5 -30c8 -16 18 -31.333 30 -46s20.667 -22 26 -22z" />
    <glyph glyph-name="Y" unicode="Y" horiz-adv-x="449" 
d="M419 589c0 -20 -5.33398 -37.999 -16.001 -53.999c-3.33301 -5.33301 -5.66602 -7 -6.99902 -5c-1.33301 1.33301 -2.5 1.5 -3.5 0.5s-1.5 -2.83301 -1.5 -5.5c0 -7.33301 -4.33301 -20.333 -13 -39c-7.33301 -15.333 -16.5 -41.666 -27.5 -78.999
s-15.833 -58.333 -14.5 -63c1.33301 -5.33301 -5.66699 -27 -21 -65c-5.33301 -13.333 -10 -27.166 -14 -41.499s-7.83301 -31.833 -11.5 -52.5l-8 -46c-1.66699 -10 -4.5 -29.5 -8.5 -58.5s-6.33301 -46.833 -7 -53.5c0 -4 -4 -6.33301 -12 -7s-16.833 -1 -26.5 -1
s-15.167 -1 -16.5 -3c-11.333 -11.333 -19.333 -3.33301 -24 24s-5 69 -1 125c1.33301 6 3.66602 7.66699 6.99902 5c3.33301 0 5.5 13.5 6.5 40.5s3.5 41.167 7.5 42.5c15.333 36 9.33301 68 -18 96c-38 46.667 -59.667 73.667 -65 81c-23.333 32 -44 57.333 -62 76
c-21.333 22.667 -32 39.334 -32 50.001c0 11.333 6.5 23.166 19.5 35.499s25.167 18.5 36.5 18.5c10.667 0 20.834 -2.5 30.501 -7.5s14.5 -10.167 14.5 -15.5c0 -6 6.66699 -15.667 20 -29c6 -4 23 -25.833 51 -65.5s44.333 -61.5 49 -65.5c3.33301 0 6.33301 8.33301 9 25
c0.666992 7.33301 9.5 29.166 26.5 65.499s26.167 57.166 27.5 62.499c0 5.33301 7.66699 14 23 26c18.667 14.667 37 20.167 55 16.5s27 -14.834 27 -33.501z" />
    <glyph glyph-name="Z" unicode="Z" horiz-adv-x="514" 
d="M96 246c6 5.33301 5.33203 9.33301 -2.00098 12c-3.33301 2 -7.66602 2 -12.999 0c-14 -2.66699 -15 -6 -3 -10c10 -4 16 -4.66699 18 -2zM343.999 394c-3.33301 -3.33301 -5.3291 -7.00195 -5.99609 -11.002s0.833008 -7 4.5 -9s10.167 -1.66699 19.5 1
c12 4.66699 23.333 2 34 -8s17 -20.667 19 -32c0 -11.333 -8 -22.666 -24 -33.999s-36.667 -20.666 -62 -27.999l-50 -12l-27 -52c-22 -40.667 -27.333 -61 -16 -61c2.66699 0 6.66699 1 12 3c4.66699 2 26 7 64 15s60.333 14.333 67 19c13.333 7.33301 26.333 10.5 39 9.5
s22 -6.16699 28 -15.5c7.33301 -10 11 -12 11 -6c0 8.66699 3.66699 10 11 4c5.33301 -5.33301 9.33301 -11.666 12 -18.999c2.66699 -6.66699 4 -10.667 4 -12s-2.33301 1 -7 7l-2 2c-6.66699 8.66699 -10 11.334 -10 8.00098s2.33301 -9.66602 7 -18.999
c6 -10 5.66699 -18 -1 -24c-4.66699 -4.66699 -9.33398 -3.33398 -14.001 3.99902c-4 6.66699 -7.66699 5.66699 -11 -3c-2.66699 -12 -9 -8 -19 12c-2.66699 5.33301 -4.33398 8.33301 -5.00098 9c5.33301 -24.667 5.33301 -37.667 0 -39c-2.66699 0 -4.5 1.16699 -5.5 3.5
s-1.66699 4.83301 -2 7.5s-1.33301 5.16699 -3 7.5s-3.83398 3.16602 -6.50098 2.49902c-4 0 -7 -1.16699 -9 -3.5s-2.33301 -4.83301 -1 -7.5s4 -4 8 -4c2 -0.666992 1.66699 -1.33398 -1 -2.00098s-8.66699 -2.33398 -18 -5.00098c-20 -4 -36.333 -4.33301 -49 -1
c-11.333 1.33301 -16.666 0.333008 -15.999 -3c2 -2.66699 -10.5 -7.16699 -37.5 -13.5s-55.667 -11.833 -86 -16.5s-48.833 -6 -55.5 -4c-20.667 6.66699 -33.667 17 -39 31s-1.66602 27.667 11.001 41c6.66699 7.33301 10.167 14.5 10.5 21.5s3.5 15.167 9.5 24.5
c9.33301 14.667 17 37.334 23 68.001l-25 -7c-13.333 -4 -32.5 -5 -57.5 -3s-38.833 5.66699 -41.5 11c-4 7.33301 -0.666992 16.666 10 27.999s18.667 10.666 24 -2.00098c2 -3.33301 5.16699 -4.83301 9.5 -4.5s8 2.33301 11 6s3.5 7.16699 1.5 10.5
c-3.33301 7.33301 -1.33301 11 6 11c6 0 26.667 5.66699 62 17c34.667 11.333 54.667 22.333 60 33c26 51.333 37.667 79.333 35 84c-0.666992 2.66699 -22.667 0.333984 -66 -6.99902c-36 -6 -59.333 -7.16699 -70 -3.5s-15.334 14.5 -14.001 32.5
c1.33301 16 8.16602 28.167 20.499 36.5s33.166 14.5 62.499 18.5c28 4 63 11 105 21c55.333 12.667 87.333 5.66699 96 -21c2.66699 -7.33301 -1.83301 -27.666 -13.5 -60.999s-20.5 -52 -26.5 -56z" />
    <glyph glyph-name="underscore" unicode="_" 
d="M309 -50c0 6.66699 -2.00586 7.00195 -6.00586 1.00195c-3.33301 -6 -33.666 -10.667 -90.999 -14c-20.667 -1.33301 -36.167 -2.16602 -46.5 -2.49902s-18.666 -0.333008 -24.999 0s-10 1.33301 -11 3s-0.833008 3.83398 0.5 6.50098c2 6 1 9.66699 -3 11
c-4.66699 0.666992 -7.33398 -1.66602 -8.00098 -6.99902v-2c0 -6.66699 -3 -10 -9 -10c-3.33301 0 -17 -2 -41 -6c-18 -2.66699 -29.5 -1.83398 -34.5 2.49902s-5.83301 14.5 -2.5 30.5c2.66699 12.667 9.5 21.667 20.5 27s24.5 5.66602 40.5 0.999023
c17.333 -4.66699 30 -5.66699 38 -3c4 2 6.33301 2.66699 7 2s0 -2.66699 -2 -6c-2.66699 -4.66699 -1 -7 5 -7c2.66699 0 6.33398 0.666992 11.001 2c2.66699 2.66699 17.334 5.16699 44.001 7.5s58.334 4.66602 95.001 6.99902s60.334 4.16602 71.001 5.49902
c0 0.666992 5.33301 0.833984 16 0.500977s21.334 -0.833008 32.001 -1.5c4 -0.666992 5.5 -7.83398 4.5 -21.501s-3.83301 -22.834 -8.5 -27.501c-6 -6 -23.667 -8.83301 -53 -8.5s-44 3.5 -44 9.5z" />
    <glyph glyph-name="grave" unicode="`" horiz-adv-x="194" 
d="M69 642c4.66699 -2 8.17188 -1.00195 10.5049 2.99805s6.16602 4.66699 11.499 2c6.66699 -2 13.5 -9.33301 20.5 -22s8.83301 -20.667 5.5 -24c-0.666992 -2.66699 2.16602 -6.33398 8.49902 -11.001s8.16602 -9.66699 5.49902 -15
c-2.66699 -9.33301 2.33301 -19.666 15 -30.999c20.667 -18.667 21.667 -36.667 3 -54c-8.66699 -8.66699 -19.334 -13 -32.001 -13s-19 4.33301 -19 13c0 4 -3.16699 10.833 -9.5 20.5s-8.83301 17.834 -7.5 24.501c2 6.66699 0.666992 11.667 -4 15
c-2.66699 0 -4.33398 -2 -5.00098 -6c0.666992 -2.66699 -1.66602 -1.33398 -6.99902 3.99902c-1.33301 1.33301 -4.33301 4.66602 -9 9.99902l-3 3c-14.667 16.667 -22.334 32.334 -23.001 47.001c0 6.66699 2.66699 8.33398 8 5.00098c4 -2 5 0 3 6
c-2 6.66699 0.5 12.834 7.5 18.501s13.833 7.16699 20.5 4.5z" />
    <glyph glyph-name="a" unicode="a" horiz-adv-x="429" 
d="M123 166c0 -17.333 1.00195 -28.5 3.00195 -33.5s6.5 -8.33301 13.5 -10s12.833 -4.83398 17.5 -9.50098c6 -6 15.667 -7.66699 29 -5c12.667 2.66699 18.667 2.33398 18 -0.999023c0 -0.666992 -0.333008 -1.66699 -1 -3c-4 -5.33301 -3.66699 -8 1 -8s10 3.33301 16 10
c6 7.33301 11.667 11 17 11s17 9.66699 35 29c18 13.333 28.5 34.5 31.5 63.5s-0.833008 56.167 -11.5 81.5s-25.334 40.333 -44.001 45c-16 6 -25.333 9.33301 -28 10s-8.33398 0 -17.001 -2c-8 -2 -20.667 -15.833 -38 -41.5s-29.333 -48.167 -36 -67.5
c-5.33301 -18 -7.33301 -41 -6 -69zM388.002 42c-2.66699 -3.33301 -4.49902 -8.00195 -5.49902 -14.002s-3.16699 -10.667 -6.5 -14s-9.33301 -5.33301 -18 -6c-20.667 -4 -35.5 -0.833008 -44.5 9.5s-12.5 27.833 -10.5 52.5c0.666992 8.66699 -2.33301 12.334 -9 11.001
c-4 -0.666992 -17.667 -8 -41 -22c-7.33301 -4.66699 -12 -6.33398 -14 -5.00098c-7.33301 0 -11.666 -3 -12.999 -9c-2 -5.33301 -16 -9 -42 -11s-40.667 -0.333008 -44 5c-3.33301 4.66699 -9 7 -17 7c-4.66699 0 -13 4 -25 12s-22.5 16.333 -31.5 25s-12.5 14 -10.5 16
c3.33301 2 0.333008 6.66699 -9 14c-8.66699 6.66699 -8.33398 10.334 0.999023 11.001l10 2c-0.666992 0.666992 -4.66699 2.66699 -12 6c-12.667 6 -18 11.667 -16 17c0.666992 2 2.66699 3 6 3c4.66699 0 8.33398 3.66699 11.001 11c2 5.33301 2.66699 8.16602 2 8.49902
s-3.33398 -1.5 -8.00098 -5.5c-6 -5.33301 -9.33301 -3.66602 -10 5.00098l-1 16c0 18.667 2.33301 28 7 28c2.66699 0 3 5 1 15c-1.33301 4 -1 5.66699 1 5c1.33301 0 3 -0.666992 5 -2c3.33301 -2 5.5 -2.66699 6.5 -2s0.5 3.33398 -1.5 8.00098
c-3.33301 8 1.66699 24 15 48s25.333 39 36 45c6.66699 3.33301 10.334 5.66602 11.001 6.99902s-0.666016 2.33301 -3.99902 3h-2c-8.66699 0 3.66602 15 36.999 45c29.333 26 49 40 59 42c12 2.66699 29.167 2.83398 51.5 0.500977s34.833 -5.16602 37.5 -8.49902
c5.33301 -7.33301 14.166 -13 26.499 -17s24.166 -4.66699 35.499 -2c18 2.66699 30.333 0.666992 37 -6c5.33301 -4.66699 8.5 -15.834 9.5 -33.501s0.833008 -60.167 -0.5 -127.5c-2 -91.333 -3.5 -145.5 -4.5 -162.5s-2.83301 -27.167 -5.5 -30.5z" />
    <glyph glyph-name="b" unicode="b" horiz-adv-x="483" 
d="M240 110c10 0 25.167 6 45.5 18s36.166 24.333 47.499 37c10 12.667 17.333 27.334 22 44.001c12 44 -0.333008 74 -37 90c-10.667 4.66699 -19 7 -25 7s-20.333 -2.33301 -43 -7c-10 -2 -26 -4.33301 -48 -7c-9.33301 -0.666992 -13.666 -2.33398 -12.999 -5.00098
c2.66699 -2.66699 -4.33301 -13 -21 -31c-15.333 -16.667 -25.5 -31.167 -30.5 -43.5s-7.83301 -29.5 -8.5 -51.5c-0.666992 -35.333 1 -53.333 5 -54c2 -0.666992 4.66699 -0.333984 8 0.999023c4 2 6.66699 2.33301 8 1s1.33301 -3.66602 0 -6.99902
c-1.33301 -4 -0.333008 -6.5 3 -7.5s11 -1.83301 23 -2.5h12c3.33301 0 6.33301 0.166992 9 0.5s4.5 0.833008 5.5 1.5s1.5 1.33398 1.5 2.00098c-2 3.33301 1 6.66602 9 9.99902c8 2.66699 17 4 27 4zM379 349c6.66699 -1.33301 10.333 1 11 7c0 4 -2 6.33301 -6 7
c-5.33301 0.666992 -9 -2 -11 -8c0.666992 -3.33301 2.66699 -5.33301 6 -6zM343.999 75c-2 0 -6.16699 -3.66504 -12.5 -10.998s-11.5 -10.666 -15.5 -9.99902c-6.66699 0 -10 -2.33301 -10 -7c0 -5.33301 -16.833 -10.5 -50.5 -15.5s-67.167 -7.5 -100.5 -7.5
c-43.333 0 -68.666 -2 -75.999 -6c-10.667 -5.33301 -18.834 -5 -24.501 1s-9.83398 18.333 -12.501 37c-7.33301 49.333 -8 80 -2 92c5.33301 8 5.33301 13.667 0 17c-4.66699 2.66699 -7.66699 59.667 -9 171c-0.666992 82 -0.5 131 0.5 147s4.5 27.667 10.5 35
c21.333 21.333 40 27.333 56 18c6.66699 -4 10.834 -11.667 12.501 -23s3.5 -40.333 5.5 -87c0.666992 -24 1.33398 -42.167 2.00098 -54.5s1.66699 -22.333 3 -30s2.83301 -12.334 4.5 -14.001s3.83398 -2.5 6.50098 -2.5c4 2 8 -0.333008 12 -7c1.33301 -2 3 -1 5 3
c0 1.33301 0.333008 2.66602 1 3.99902c4 10 16.833 20.167 38.5 30.5s38.167 14.166 49.5 11.499c10.667 -3.33301 17.667 -1.33301 21 6c2.66699 6.66699 17.667 10.334 45 11.001c28 0.666992 43.667 -3 47 -11c2 -5.33301 3.66699 -8.16602 5 -8.49902
s3.33301 1.5 6 5.5c3.33301 6 8.66602 7.66699 15.999 5s14.666 -7.16699 21.999 -13.5s10.666 -10.833 9.99902 -13.5c0.666992 -2.66699 0.666992 -4 0 -4l-5 5c-4 5.33301 -6.66699 6.66602 -8 3.99902c0 -5.33301 4.66699 -11.833 14 -19.5
s15.666 -9.83398 18.999 -6.50098c2 1.33301 2.66699 0.666016 2 -2.00098c-0.666992 -12 -0.666992 -18 0 -18c4.66699 0 5 -8.33301 1 -25c-4.66699 -18 -3 -29.667 5 -35c4 -1.33301 8 -0.666016 12 2.00098c2 2 2.66699 -2 2 -12
c-2.66699 -26.667 -7.33398 -46.667 -14.001 -60c-5.33301 -10.667 -7.66602 -17 -6.99902 -19s0.333984 -3.5 -0.999023 -4.5s-2.83301 -1.5 -4.5 -1.5s-3.16699 -0.666992 -4.5 -2s-2 -3 -2 -5c0 -10.667 -10.167 -25.5 -30.5 -44.5s-35.166 -27.5 -44.499 -25.5z" />
    <glyph glyph-name="c" unicode="c" horiz-adv-x="431" 
d="M275 285c0 5.33301 -3.00195 8 -9.00195 8c-5.33301 0 -11 5.66699 -17 17s-9 22 -9 32c0 8 -5.66699 19 -17 33c-8 9.33301 -13.667 14.166 -17 14.499s-10.333 -2.16699 -21 -7.5c-11.333 -6 -21.5 -17 -30.5 -33s-19.5 -42 -31.5 -78c-16 -50.667 -11.667 -84 13 -100
c12 -8 33.333 -13 64 -15c10.667 -0.666992 15.667 0.333008 15 3c-2 2.66699 0.333008 5 7 7c14.667 4 23.667 3 27 -3c1.33301 -4.66699 7.66602 -1 18.999 11l3 3c12 14 19.667 18 23 12c2 -2.66699 3.5 -4.33398 4.5 -5.00098s2 -0.666992 3 0s2.16699 2.66699 3.5 6
c3.33301 7.33301 2.33301 11 -3 11c-9.33301 0 2.33398 11.667 35.001 35c10 7.33301 17.333 11.5 22 12.5s11.667 -0.5 21 -4.5c22.667 -8.66699 27 -26 13 -52c-11.333 -22.667 -23 -33 -35 -31c-2.66699 0.666992 -4.5 0.166992 -5.5 -1.5s-1.5 -3.5 -1.5 -5.5
s-0.333008 -4 -1 -6s-2.33398 -3 -5.00098 -3c-3.33301 -0.666992 -5.66602 1.66602 -6.99902 6.99902c-1.33301 4 -3 4.33301 -5 1l-2 -4c-4 -8.66699 -6 -10 -6 -4c-1.33301 6 -4.66602 4 -9.99902 -6c-5.33301 -11.333 -11.666 -19 -18.999 -23
c-33.333 -17.333 -57.666 -25 -72.999 -23c-12.667 1.33301 -19 0 -19 -4c0 -3.33301 -7 -5.33301 -21 -6s-29.667 0.333008 -47 3s-30.333 6 -39 10c-82 42 -89 135.667 -21 281c8.66699 18.667 23.167 38.334 43.5 59.001s38.166 33.667 53.499 39
c24 9.33301 48.5 9.33301 73.5 0s37.833 -24.333 38.5 -45c-1.33301 -2.66699 -2 -4.5 -2 -5.5s0.5 -1.66699 1.5 -2s2.83301 -0.166016 5.5 0.500977c5.33301 2.66699 12.5 -4.16602 21.5 -20.499s11.833 -27.5 8.5 -33.5c-2.66699 -3.33301 -2.66699 -5 0 -5
c0.666992 0 1.33398 0.333008 2.00098 1c2 1.33301 4.5 -0.166992 7.5 -4.5s5.83301 -10.5 8.5 -18.5c4 -12 5.83301 -20.5 5.5 -25.5s-3.5 -10.5 -9.5 -16.5c-5.33301 -5.33301 -12.833 -10 -22.5 -14s-17.834 -6 -24.501 -6s-10.667 1.66699 -12 5z" />
    <glyph glyph-name="d" unicode="d" horiz-adv-x="439" 
d="M253 318c-13.333 14 -25.001 21.834 -35.001 23.501s-22.333 -2.16602 -37 -11.499s-25 -18.5 -31 -27.5s-13 -26.5 -21 -52.5c-18 -58 -19.667 -93.667 -5 -107c6 -6 28.333 -9 67 -9c18.667 0 27 1.66699 25 5c-1.33301 2 0 4.66699 4 8s8.5 6 13.5 8
s8.16699 2.33301 9.5 1c2.66699 -2.66699 6.83398 -0.833984 12.501 5.49902s11 14.666 16 24.999s8.16699 19.5 9.5 27.5c6 44 -3.33301 78.667 -28 104zM29.999 151.001c0 14.667 2.33203 21.998 6.99902 21.998s7 4.33301 7 13c0 8 -2.33301 8.33301 -7 1s-7 -7 -7 1
c0 13.333 5.66699 39 17 77s20 60.333 26 67c8.66699 10 13 17.333 13 22s9 14.167 27 28.5s35.667 26.166 53 35.499c18 9.33301 32 14.333 42 15s25.667 -2.66602 47 -9.99902c20.667 -7.33301 32.667 -8.33301 36 -3c2.66699 4 5.83398 28 9.50098 72
s5.16699 75.667 4.5 95c-0.666992 17.333 3.16602 33.666 11.499 48.999s18.166 24.333 29.499 27c6.66699 1.33301 15.334 3.33301 26.001 6c9.33301 2.66699 17.166 -0.166016 23.499 -8.49902s7.16602 -16.166 2.49902 -23.499c-2 -3.33301 -2 -4.66602 0 -3.99902
c0.666992 0 2.33398 0.666992 5.00098 2c3.33301 2 5.33301 0.333008 6 -5c0.666992 -6.66699 -0.333008 -20.667 -3 -42c-2 -14 -3 -47 -3 -99s-0.833008 -98.167 -2.5 -138.5s-5.16699 -60.833 -10.5 -61.5c-1.33301 0.666992 -2.5 -4 -3.5 -14s-1.83301 -23.333 -2.5 -40
c-2 -92.667 -10 -146 -24 -160c-8 -8.66699 -19 -13.334 -33 -14.001s-22.333 3 -25 11c-1.33301 5.33301 -4.66602 7.5 -9.99902 6.5s-9.33301 0.166992 -12 3.5c-6 9.33301 -14.333 15 -25 17c-3.33301 -0.666992 -5 -2 -5 -4c0.666992 -4 -1 -7.16699 -5 -9.5
s-8.66699 -3.16602 -14 -2.49902s-9.33301 3 -12 7c-6 6.66699 -7 5.66699 -3 -3c2.66699 -8 -4.66602 -15.667 -21.999 -23c-36.667 -15.333 -73.167 -13.5 -109.5 5.5s-54.5 46.167 -54.5 81.5z" />
    <glyph glyph-name="e" unicode="e" horiz-adv-x="442" 
d="M200 364c2.66699 7.33301 3.33203 11.002 1.99902 11.002c-2.66699 -0.666992 -11.334 -8.33398 -26.001 -23.001c-6.66699 -6.66699 -12 -12.834 -16 -18.501s-5.33301 -8.83398 -4 -9.50098c3.33301 -3.33301 16.333 -6.33301 39 -9
c14.667 -1.33301 23.834 -1.33301 27.501 0s5.83398 5.33301 6.50098 12c0.666992 8 -0.666016 12 -3.99902 12c-0.666992 0 -1.33398 -0.333008 -2.00098 -1c-5.33301 -3.33301 -11 -1.66602 -17 5.00098s-8 13.667 -6 21zM118.998 230.002l0.00488281 -24.0039
c0 -22.667 8.5 -44.667 25.5 -66s34.5 -32 52.5 -32c5.33301 -2 25.666 4.83301 60.999 20.5s55.666 22.834 60.999 21.501c7.33301 -2.66699 14.333 1.33301 21 12c5.33301 8.66699 13.833 14.834 25.5 18.501s23.167 4.16699 34.5 1.5c8.66699 -2 12.667 -10 12 -24
c-0.666992 -12.667 -5.83398 -22.5 -15.501 -29.5s-21.167 -9.5 -34.5 -7.5c-10 2 -14.667 2 -14 0c0 -3.33301 4.66699 -5.66602 14 -6.99902c2.66699 -0.666992 4.66699 -0.333984 6 0.999023c2.66699 1.33301 3.66699 1 3 -1c0 -0.666992 -0.333008 -1.66699 -1 -3
c-4.66699 -3.33301 -9.33398 -4.5 -14.001 -3.5s-9.33398 1 -14.001 0s-7.66699 -4.83301 -9 -11.5c-3.33301 -10 -9.66602 -13.667 -18.999 -11c-9.33301 4 -15 1.33301 -17 -8c-2 -8 -9.66699 -15 -23 -21s-24.333 -7.66699 -33 -5
c-5.33301 2 -8.16602 2.66699 -8.49902 2s1.5 -2.66699 5.5 -6c6 -4 4.33301 -6.66699 -5 -8l-12 -1c-24.667 -1.33301 -47.834 -0.166016 -69.501 3.50098s-38.334 9 -50.001 16s-16.167 14.5 -13.5 22.5c2 4.66699 2.5 7.5 1.5 8.5s-3.83301 0.5 -8.5 -1.5
c-4.66699 -3.33301 -8.5 -3.16602 -11.5 0.500977s-5.66699 8.33398 -8 14.001s-4.5 8.5 -6.5 8.5c-12.667 10.667 -20.5 44.334 -23.5 101.001s1.16699 87.667 12.5 93c3.33301 0 11.5 13.5 24.5 40.5s21.167 40.5 24.5 40.5c2 0 2.33301 -2.5 1 -7.5s-1 -7.5 1 -7.5
c4 0 9.16699 5 15.5 15s8.16602 16.333 5.49902 19c-4.66699 4 0 9 14 15c10 4.66699 18 6 24 4c10 -3.33301 13.333 -1 10 7c-2.66699 7.33301 1.33301 13 12 17c12 5.33301 21.667 7.66602 29 6.99902s17 -4.66699 29 -12c11.333 -7.33301 29.833 -24.833 55.5 -52.5
s44.167 -50.167 55.5 -67.5c8.66699 -12.667 12.834 -25.334 12.501 -38.001s-4.83301 -22.667 -13.5 -30c-10.667 -9.33301 -26 -15.5 -46 -18.5s-59 -4.83301 -117 -5.5h-62z" />
    <glyph glyph-name="f" unicode="f" horiz-adv-x="428" 
d="M328 524c0 8.66699 1.49805 14.001 4.49805 16.001s11.167 3 24.5 3c18.667 0 30.667 -2.66699 36 -8c4.66699 -4.66699 6.16699 -13.834 4.5 -27.501s-5.16699 -20.5 -10.5 -20.5s-9.66602 -1.66699 -12.999 -5c-4.66699 -4.66699 -10 -6.33398 -16 -5.00098
s-10.833 3.5 -14.5 6.5l-13.5 11.5c-5.33301 4.66699 -9.33301 7.66699 -12 9c-5.33301 2.66699 -8.16602 4.33398 -8.49902 5.00098s2.16699 0.333984 7.5 -0.999023c4.66699 -1.33301 7.66699 -0.833008 9 1.5s2 7.16602 2 14.499zM299.998 553.001
c0 -5.33301 3.33496 -3.6543 10.002 5.0127c5.33301 7.33301 9.83301 10.166 13.5 8.49902s3.83398 -6.83398 0.500977 -15.501c-2.66699 -8 -8.66699 -12 -18 -12c-4.66699 0 -7.83398 -0.666992 -9.50098 -2s-1.5 -3.33301 0.5 -6c3.33301 -4.66699 1 -10.667 -7 -18
c-6.66699 -4.66699 -9.5 -7.83398 -8.5 -9.50098s-0.833008 -4.83398 -5.5 -9.50098c-10 -10.667 -15.333 -13.667 -16 -9c-0.666992 1.33301 0 3.66602 2 6.99902c2.66699 3.33301 3 4.66602 1 3.99902l-4 -2c-4 -4 -5.83301 -10.667 -5.5 -20s-2.16699 -17.333 -7.5 -24
c-2.66699 -4 -5 -8.5 -7 -13.5s-3.5 -10.667 -4.5 -17s-1.83301 -11.833 -2.5 -16.5s-1.5 -11 -2.5 -19s-1.5 -13.333 -1.5 -16c-0.666992 -6 1.83301 -9.66699 7.5 -11s20.834 -1.66602 45.501 -0.999023s40.834 0 48.501 -2s15.5 -7 23.5 -15
c14 -14 19.667 -23.667 17 -29c-0.666992 -2 -3.33398 -1.66699 -8.00098 1c-5.33301 3.33301 -6.33301 2.33301 -3 -3c7.33301 -12 1.66602 -23.833 -17.001 -35.5s-36.667 -14.834 -54 -9.50098c-13.333 3.33301 -35.333 3.66602 -66 0.999023
c0.666992 -8.66699 1.83398 -26.667 3.50098 -54l4.5 -74c1.33301 -22 2.66602 -35.333 3.99902 -40c3.33301 -3.33301 0 -11.833 -10 -25.5s-19 -21.834 -27 -24.501c-19.333 -7.33301 -36.833 -3.83301 -52.5 10.5s-17.834 28.5 -6.50098 42.5c6.66699 7.33301 6 11 -2 11
c-6.66699 0 -11.667 19.333 -15 58c-2.66699 36 -5.33398 58.833 -8.00098 68.5s-7.33398 14.5 -14.001 14.5c-7.33301 0 -9.33301 2.33301 -6 7c2.66699 4 1.33398 6 -3.99902 6c-2.66699 0 -6.33398 -0.666992 -11.001 -2c-12.667 -2.66699 -24.334 -0.5 -35.001 6.5
s-14.667 15.5 -12 25.5c2 6 4.83301 9.66699 8.5 11s10.834 1.66602 21.501 0.999023c3.33301 -0.666992 6.16602 -1 8.49902 -1h6.5c2 0 3.5 0.166992 4.5 0.5s1.83301 0.833008 2.5 1.5s1 1.5 1 2.5s-0.333008 2.16699 -1 3.5
c-1.33301 3.33301 -1.33301 5.66602 0 6.99902s4 1 8 -1c4.66699 -2 7.33398 0.666992 8.00098 8c1.33301 6.66699 1.66602 29 0.999023 67c-0.666992 37.333 -0.166992 60.666 1.5 69.999s6.83398 18.666 15.501 27.999c10.667 12.667 25.667 19 45 19
c11.333 0 20.833 1.83301 28.5 5.5s17.834 11.5 30.501 23.5c20 18.667 35 27 45 25c9.33301 -2.66699 15 -1.66699 17 3c4 7.33301 6.33301 9.33301 7 6l-2 -11c-2.66699 -4.66699 -3 -7.33398 -1 -8.00098c0.666992 0 2 0.333008 4 1c6 2 9 1 9 -3z" />
    <glyph glyph-name="g" unicode="g" horiz-adv-x="422" 
d="M125 -151c5.33301 10 11.833 12.833 19.5 8.5s12.167 -13.166 13.5 -26.499c0.666992 -5.33301 0.833984 -8.83301 0.500977 -10.5s-0.833008 -2 -1.5 -1s-1.66699 2.16699 -3 3.5s-2.83301 2 -4.5 2s-3.83398 -1.33301 -6.50098 -4
c-8 -6.66699 -14.333 -5.33398 -19 3.99902c-4 7.33301 -3.66699 15.333 1 24zM274 194c-0.666992 6 -0.168945 19.832 1.49805 41.499s2.33398 40.834 2.00098 57.501s-3.83301 26 -10.5 28c-8 4 -14.667 6 -20 6c-16 -3.33301 -28.333 -7.33301 -37 -12
s-20.334 -14.667 -35.001 -30c-21.333 -22.667 -35.333 -43.667 -42 -63c-5.33301 -16 -6.66602 -35 -3.99902 -57s7.66699 -36 15 -42c12.667 -10.667 31.834 -13.5 57.501 -8.5s45.167 15.5 58.5 31.5c8 9.33301 12.667 25.333 14 48zM387.998 -59.001
c2.66699 0.666992 4.16504 -9.00684 4.49805 -29.0068s-1.16699 -40.333 -4.5 -61s-8.33301 -31.334 -15 -32.001c-2.66699 0.666992 -4.66699 0.333984 -6 -0.999023s-2 -3.66602 -2 -6.99902c0 -4.66699 -5.66699 -7.66699 -17 -9s-38.333 -1.66602 -81 -0.999023h-1
c-58.667 0.666992 -88.667 2.66699 -90 6l4 6c4.66699 5.33301 9.5 8.33301 14.5 9s15.167 -0.333008 30.5 -3c14.667 -3.33301 25 -4.66602 31 -3.99902s10.667 3.33398 14 8.00098c6 7.33301 10 9.66602 12 6.99902c1.33301 -0.666992 2.33301 1 3 5
c4.66699 22 5.33398 42 2.00098 60c-1.33301 6 -2.66602 32.667 -3.99902 80c-1.33301 55.333 -7.33301 83 -18 83c-2.66699 0 -6 -1.66699 -10 -5c-3.33301 -2.66699 -14.666 -5.66699 -33.999 -9s-30.333 -7.33301 -33 -12c-4 -6.66699 -6 -5.66699 -6 3
c0 6.66699 -2.16699 10.5 -6.5 11.5s-7.5 -1.5 -9.5 -7.5c-4.66699 -6 -15.834 -6.5 -33.501 -1.5s-35.667 14.333 -54 28s-26.166 25.5 -23.499 35.5c0 10.667 -1.33301 15 -4 13c-0.666992 -0.666992 -1.33398 -1.66699 -2.00098 -3c-2.66699 -4.66699 -5.66699 -2 -9 8
c-1.33301 4.66699 -3 11.334 -5 20.001c-4.66699 26.667 -4 55.667 2 87c2.66699 12.667 7 25.834 13 39.501s10.333 20.5 13 20.5c4 0 6 3.66699 6 11c0 6.66699 12.667 22.834 38 48.501s41.333 38.834 48 39.501c6 1.33301 12.667 1.33301 20 0
c4.66699 -0.666992 7 -0.5 7 0.5s-2.33301 2.83301 -7 5.5c-3.33301 2 -5.33301 3.5 -6 4.5s-0.666992 1.83301 0 2.5s2.66699 1.66699 6 3c2 0 5 0.833008 9 2.5s9.5 3.66699 16.5 6l16.5 5.5c46 14.667 90 4.33398 132 -30.999c14.667 -14 25 -21.333 31 -22
c6 -2.66699 8.66699 -28.334 8 -77.001c-4.66699 -229.333 -4.66699 -344 0 -344z" />
    <glyph glyph-name="h" unicode="h" horiz-adv-x="428" 
d="M356 363c0 8.66699 -2 15.999 -6 21.999c-4 6.66699 -6 7.66699 -6 3s2 -11.667 6 -21s6 -10.666 6 -3.99902zM277 481.999c4.66699 0 8.16699 -0.665039 10.5 -1.99805s3.16602 -2.66602 2.49902 -3.99902c-0.666992 -2 0.5 -4.16699 3.5 -6.5
s7.83301 -5.16602 14.5 -8.49902c22.667 -10 42.167 -41.333 58.5 -94s26.5 -117.667 30.5 -195c2 -36.667 1.33301 -63 -2 -79s-10 -27.333 -20 -34c-7.33301 -4.66699 -15.666 -6.33398 -24.999 -5.00098s-14 4.66602 -14 9.99902s-0.5 8.5 -1.5 9.5
s-3.16699 1.83301 -6.5 2.5s-6.66602 2 -9.99902 4c-5.33301 3.33301 -8.33301 3.5 -9 0.5s-0.166992 -6.66699 1.5 -11s0.833984 -7.16602 -2.49902 -8.49902c-6 0 -9.5 4.33301 -10.5 13s1.16699 16 6.5 22c7.33301 7.33301 11 14.666 11 21.999
c-0.666992 6 -4.33398 4.66699 -11.001 -4c-5.33301 -7.33301 -8.33301 -10.333 -9 -9s-1 5.66602 -1 12.999c0 13.333 2.33301 21.333 7 24c3.33301 2.66699 5.5 1.5 6.5 -3.5s2.83301 -6.83301 5.5 -5.5c2.66699 4 0.333984 9.66699 -6.99902 17
c-8.66699 9.33301 -16.334 41.666 -23.001 96.999c-12.667 92 -27.334 138 -44.001 138c-5.33301 0 -13.5 -4 -24.5 -12s-16.833 -14.333 -17.5 -19c-2 -10 -7.5 -22.5 -16.5 -37.5s-15.167 -21.833 -18.5 -20.5c-6.66699 2.66699 -9.66699 1.66699 -9 -3
c0.666992 -3.33301 3 -7 7 -11c4.66699 -4.66699 4 -12.667 -2 -24c-6.66699 -12 -9.33398 -40.333 -8.00098 -85c1.33301 -67.333 -5.66699 -108.666 -21 -123.999c-2.66699 -2.66699 -6.66699 -4.66699 -12 -6s-10 -1.5 -14 -0.5s-6 2.83301 -6 5.5
s-1.66699 4.33398 -5 5.00098s-7 0.166992 -11 -1.5s-6.66699 -3.83398 -8 -6.50098c-2.66699 -6 -8.33398 -3.66699 -17.001 7c-5.33301 7.33301 -8 13.666 -8 18.999c0 4 3.33301 1.66699 10 -7c2.66699 -6 5.5 -9.16699 8.5 -9.5s5.5 1.33398 7.5 5.00098
s3.66699 6.83398 5 9.50098s2.33301 5.66699 3 9c0 4 -2 3.33301 -6 -2c-2.66699 -6 -9 -6.33301 -19 -1c-6 3.33301 -9.66699 9.66602 -11 18.999s-2.33301 30.666 -3 63.999c-1.33301 118 -4.66602 177 -9.99902 177c-2 0 -3 26.167 -3 78.5s0.666992 91.833 2 118.5
c0.666992 12.667 6.5 27 17.5 43s21.833 25.667 32.5 29c17.333 3.33301 33.333 -2 48 -16s17.334 -32 8.00098 -54c-5.33301 -20.667 -6.33301 -61 -3 -121c15.333 14.667 32.833 29 52.5 43s35.167 22 46.5 24c10 2.66699 15.333 3 16 1c0 -1.33301 -0.666992 -3 -2 -5
c-2 -3.33301 -2.66699 -5.33301 -2 -6c0.666992 0 2 0.666992 4 2c6.66699 2 10.334 1.66699 11.001 -1l1 -2c0 0.666992 -0.333008 2 -1 4s0.666016 4 3.99902 6s7.33301 3 12 3z" />
    <glyph glyph-name="i" unicode="i" horiz-adv-x="215" 
d="M72 104c-2 8.66699 -7.00098 9 -15.001 1c-5.33301 -6 -6.66602 -10.667 -3.99902 -14c2.66699 -2.66699 6.5 -2.16699 11.5 1.5s7.5 7.5 7.5 11.5zM41.999 108c-1.33301 5.33301 -2.33301 4.33203 -3 -3.00098c-2 -17.333 -1.66699 -25.666 1 -24.999l2 4
c1.33301 7.33301 1.33301 15.333 0 24zM124.999 176.999c0 -42.667 1.66992 -63.9971 5.00293 -63.9971c1.33301 0 2.66602 0.666992 3.99902 2c8.66699 8 19.334 10.5 32.001 7.5s19 -9.5 19 -19.5c0 -7.33301 -4.33301 -15.166 -13 -23.499s-16.334 -11.833 -23.001 -10.5
c-3.33301 0.666992 -5.83301 0.5 -7.5 -0.5s-2.16699 -2.83301 -1.5 -5.5c1.33301 -6.66699 -1.66699 -12.334 -9 -17.001s-13.666 -4.66699 -18.999 0c-6.66699 5.33301 -12.334 4 -17.001 -4c-4 -8 -8 -10.667 -12 -8c-4 3.33301 -3 9 3 17c4 4.66699 6 7.83398 6 9.50098
s-2 4.16699 -6 7.5c-14 8 -20.333 8.33301 -19 1c0 -1.33301 0.333008 -3 1 -5c2 -4.66699 1 -7.83398 -3 -9.50098s-5 -4.5 -3 -8.5c1.33301 -2.66699 1.66602 -4.33398 0.999023 -5.00098s-2.66699 -0.666992 -6 0c-4.66699 2 -8 7 -10 15s-5 13 -9 15
c-5.33301 4 -8 27.667 -8 71s3 86.666 9 129.999c6.66699 44 6.66699 76.333 0 97c-4.66699 16.667 -5.5 30 -2.5 40s11.5 21 25.5 33c10 8.66699 21.333 12.5 34 11.5s23.667 -6.5 33 -16.5c7.33301 -7.33301 11.833 -15.333 13.5 -24s2.16699 -27.667 1.5 -57
c0 -43.333 -3.33301 -67 -10 -71c-6.66699 -3.33301 -7 -8 -1 -14s7 -13.333 3 -22c-2 -2.66699 -4.33301 -3.66699 -7 -3c-0.666992 0 -1.33398 -3 -2.00098 -9s-1.16699 -14.333 -1.5 -25s-0.5 -22.334 -0.5 -35.001zM143.002 585.002
c0 -4.66699 -2.33398 -3.33008 -7.00098 4.00293c-4 7.33301 -6.66699 4.66602 -8 -8.00098c-1.33301 -14.667 -1.33301 -25.334 0 -32.001c1.33301 -4.66699 -2.66699 -11 -12 -19c-9.33301 -8.66699 -21.166 -11.334 -35.499 -8.00098s-25.166 11.666 -32.499 24.999
c-14.667 25.333 -8.33398 46.666 18.999 63.999c13.333 7.33301 22.5 11.333 27.5 12s12.5 -1.66602 22.5 -6.99902c17.333 -9.33301 26 -19.666 26 -30.999z" />
    <glyph glyph-name="j" unicode="j" horiz-adv-x="316" 
d="M75 -51c0 21.333 2.66699 22.667 8 4l2 -7c2 -10.667 1.33301 -17 -2 -19c-2 -1.33301 -4 1 -6 7c-2 4 -2.66699 9 -2 15zM33 -22.999c-6 10.667 -5.33398 19.668 1.99902 27.001c5.33301 6 11.333 5 18 -3c7.33301 -7.33301 8 -16 2 -26
c-6 -9.33301 -7.33301 -16.333 -4 -21c2 -3.33301 1.33301 -5 -2 -5c-4.66699 0.666992 -7.66699 2.66699 -9 6c0.666992 1.33301 -1.66602 8.66602 -6.99902 21.999zM151.999 -51.998c8 0.666992 9.66699 4.66602 5 11.999c-4 6.66699 -7.33301 8.33398 -10 5.00098
c-1.33301 -1.33301 -2 -3.33301 -2 -6c0 -7.33301 2.33301 -11 7 -11zM201.999 385.001c0 8 8.00098 9.33398 24.001 4.00098c8 -2.66699 15 -6.66699 21 -12l17 -15l-4 -156c-2 -86 -5.66699 -147.5 -11 -184.5s-15.333 -67.833 -30 -92.5
c-8.66699 -15.333 -18 -26.833 -28 -34.5s-18.333 -9.83398 -25 -6.50098c-2.66699 3.33301 -8 2.5 -16 -2.5s-13 -5.16699 -15 -0.5c-4 4.66699 -9.33301 6 -16 4c-3.33301 -1.33301 -5.33301 -1.66602 -6 -0.999023l1 3c2 4 -1 9.33301 -9 16
c-4 3.33301 -7.5 9.5 -10.5 18.5s-4.33301 17.333 -4 25s2.16602 11.5 5.49902 11.5c2.66699 0 5 -2.16699 7 -6.5s5.66699 -5.5 11 -3.5c6.66699 3.33301 10 1.66602 10 -5.00098c0.666992 -4.66699 3.66699 -2 9 8c0.666992 0.666992 1.33398 1.66699 2.00098 3
c8 14.667 14.167 48.5 18.5 101.5s5.5 110.167 3.5 171.5c-1.33301 57.333 0.166992 96 4.5 116s13.166 30 26.499 30c9.33301 0 14 2.66699 14 8zM286 579.002c0 -4.66699 -2.33301 -3.66699 -7 3c-3.33301 4 -5.66602 6 -6.99902 6s-4 -2 -8 -6s-5.66699 -6.33301 -5 -7
l5 2c2.66699 2 4.66699 2 6 0s2 -5.66699 2 -11c0 -6.66699 0.333008 -10.167 1 -10.5s2.66699 1.5 6 5.5c4.66699 7.33301 7 8.66602 7 3.99902c-0.666992 -5.33301 -4 -14.666 -10 -27.999c-7.33301 -14.667 -19 -24.834 -35 -30.501s-31.333 -2.16699 -46 10.5
c-11.333 12 -17.833 21.833 -19.5 29.5s1.5 20.5 9.5 38.5c5.33301 11.333 10.166 18.333 14.499 21s11.5 3.33398 21.5 2.00098c14 -1.33301 23 0 27 4c2.66699 2.66699 9.66699 -0.833008 21 -10.5s17 -17.167 17 -22.5z" />
    <glyph glyph-name="k" unicode="k" horiz-adv-x="432" 
d="M64 46c8.66699 0.666992 10.001 4.33301 4.00098 11c-6.66699 6.66699 -11.334 6.66699 -14.001 0c-0.666992 -0.666992 -1 -1.66699 -1 -3c0 -5.33301 3.66699 -8 11 -8zM134.001 376.999c0 -0.666992 8.00195 6.66797 24.002 22.001l48 45c16 14.667 24.333 21 25 19
c2 -0.666992 3 -0.333984 3 0.999023c0 0.666992 -0.333008 2 -1 4c-2 3.33301 1.16699 9 9.5 17s17.5 13.333 27.5 16c8.66699 2.66699 18.667 0.666992 30 -6s18.666 -15 21.999 -25c1.33301 -6 1.16602 -9.66699 -0.500977 -11s-6.16699 -1.33301 -13.5 0
c-8 2.66699 -12 2.66699 -12 0c0 -4 4 -8 12 -12c4 -2 6.33301 -2.33301 7 -1c3.33301 2 5 1.66699 5 -1c-0.666992 -8 -8 -19 -22 -33c-6 -4.66699 -10 -6.66699 -12 -6c-5.33301 0 -8 -2.33301 -8 -7c0 -4 -14 -20 -42 -48c-18.667 -18.667 -35.667 -38.667 -51 -60
s-21.666 -33.333 -18.999 -36s22 -5.33398 58 -8.00098s68.667 -4 98 -4c41.333 0.666992 62 -2.66602 62 -9.99902c0 -4 2.33301 -7.33301 7 -10s5.66699 -8 3 -16c-2 -6.66699 -2.83301 -10.334 -2.5 -11.001s2.16602 1 5.49902 5c4 5.33301 5.66699 3.66602 5 -5.00098
l-4 -39c-0.666992 -4.66699 -7.33398 -8.83398 -20.001 -12.501s-22 -3.83398 -28 -0.500977c-20 6 -57.667 11 -113 15s-89 7 -101 9c2.66699 -76.667 2.66699 -117.334 0 -122.001c-3.33301 0 -5.66602 5.66699 -6.99902 17c-0.666992 5.33301 -1.33398 8 -2.00098 8
l-5 -15c-6 -22.667 -25 -30.667 -57 -24c-10 2 -16.333 4.66699 -19 8s-4.66699 10 -6 20c-1.33301 10.667 -1.16602 16.834 0.500977 18.501s5.83398 0.5 12.501 -3.5s10.334 -5.5 11.001 -4.5s-1 5.16699 -5 12.5c-4.66699 10 -9.33398 16.667 -14.001 20
c-4.66699 2.66699 -8.16699 31.334 -10.5 86.001s-1.16602 83.334 3.50098 86.001c5.33301 4 8 8.33301 8 13c0 5.33301 -2.33301 4.66602 -7 -2.00098c-3.33301 -5.33301 -5.33301 -5.66602 -6 -0.999023c-1.33301 6.66699 -2.33301 45.667 -3 117
c-0.666992 48.667 0.666016 80.334 3.99902 95.001s11.333 25.334 24 32.001c26.667 15.333 49.667 13.333 69 -6c8 -8 12.667 -15.333 14 -22s1 -20 -1 -40c-0.666992 -7.33301 -1.33398 -15.333 -2.00098 -24s-1.5 -17 -2.5 -25s-1.5 -13 -1.5 -15
c-2.66699 -13.333 -2.66699 -20 0 -20z" />
    <glyph glyph-name="l" unicode="l" horiz-adv-x="188" 
d="M148 194c-4.66699 6 -6.99805 6.66309 -6.99805 1.99609c1.33301 -5.33301 3.66602 -9.66602 6.99902 -12.999c5.33301 -11.333 8.66602 -29.833 9.99902 -55.5s-3.33398 -42.167 -14.001 -49.5c-7.33301 -0.666992 -15.5 -3 -24.5 -7s-13.5 -7.66699 -13.5 -11
c0 -2.66699 -1.66699 -4.5 -5 -5.5s-7 -0.833008 -11 0.5s-7 3.33301 -9 6c-0.666992 2 0 3 2 3c0.666992 0 2.33398 -0.333008 5.00098 -1c7.33301 0 11 1.33301 11 4c0 5.33301 -3.33301 8 -10 8c-7.33301 0 -13.333 6 -18 18c-5.33301 14.667 -7 22.334 -5 23.001
c1.33301 0.666992 4 1 8 1c6 0 9.33301 4.66699 10 14s-1.66602 21 -6.99902 35c-3.33301 12 -4.66602 11.667 -3.99902 -1c0 -3.33301 0.333008 -9.66602 1 -18.999v-17v1c-6.66699 14 -12.334 12.667 -17.001 -4c-3.33301 -12 -4 -23.333 -2 -34
c-4.66699 27.333 -4 47.333 2 60c5.33301 9.33301 5.66602 14 0.999023 14c-2.66699 -3.33301 -4.66699 10.334 -6 41.001c-0.666992 17.333 -1.33398 46 -2.00098 86c-0.666992 36 -1.33398 54 -2.00098 54c-2 5.33301 -5 34.833 -9 88.5s-6.66699 83.167 -8 88.5
c-1.33301 10.667 -1.5 16.667 -0.5 18s3.33301 3.33301 7 6s6.16699 7 7.5 13c-0.666992 5.33301 6.33301 12.166 21 20.499s25.334 12.833 32.001 13.5c0.666992 0.666992 8.33398 -3 23.001 -11c9.33301 -5.33301 15 -11 17 -17c2.66699 -10.667 5 -65.667 7 -165
c1.33301 -38 3 -59 5 -63c6 -9.33301 7.33301 -45.333 4 -108c-1.33301 -27.333 -3.33301 -39.666 -6 -36.999z" />
    <glyph glyph-name="m" unicode="m" horiz-adv-x="705" 
d="M537 427c6 1.33301 7.66895 4.66699 5.00195 10c-2.66699 2.66699 -6 4 -10 4c-8.66699 0 -10.334 -3 -5.00098 -9c3.33301 -4 6.66602 -5.66699 9.99902 -5zM612.002 392.001c10 -3.33301 19.3311 -9.67285 27.998 -19.0059s10.667 -19.333 6 -30
c-3.33301 -14 -2.33301 -22.333 3 -25c2.66699 -2.66699 3.33398 -7.16699 2.00098 -13.5s0.333984 -10.5 5.00098 -12.5c7.33301 -4 11.333 -28.667 12 -74c1.33301 -53.333 3 -94 5 -122c3.33301 -33.333 0.666016 -54.666 -8.00098 -63.999
c-7.33301 -8.66699 -17 -13.167 -29 -13.5s-21 3.5 -27 11.5s-10.667 10.333 -14 7c-3.33301 -2 -3.66602 -4.16699 -0.999023 -6.5s5.33398 -4.83301 8.00098 -7.5s2.66699 -4.33398 0 -5.00098c-6.66699 0 -13.5 3.66699 -20.5 11s-11.5 15 -13.5 23
c-1.33301 10.667 0.333984 16 5.00098 16s4.66699 3 0 9c-6 6.66699 -8.33301 40.334 -7 101.001v29v25c0 7.33301 -0.166992 13.833 -0.5 19.5s-0.666016 9.83398 -0.999023 12.501s-0.833008 4 -1.5 4s-1.33398 0.5 -2.00098 1.5s-1.5 2.83301 -2.5 5.5
s-1.83301 5.66699 -2.5 9s-1.33398 7.33301 -2.00098 12c-2.66699 21.333 -7.66699 39 -15 53c-4.66699 9.33301 -9.16699 15.166 -13.5 17.499s-12.5 3.16602 -24.5 2.49902c-18.667 -1.33301 -28 -4 -28 -8c0 -4.66699 -4 -3.66699 -12 3
c-6 4.66699 -9 6.33398 -9 5.00098c-0.666992 -1.33301 0 -5 2 -11c3.33301 -10.667 0 -20.334 -10 -29.001c-6 -5.33301 -13 -8.5 -21 -9.5s-13.667 -3.83301 -17 -8.5c-1.33301 -4.66699 -1.33301 -7.33398 0 -8.00098c0.666992 0 1.66699 0.333008 3 1
c2 2 3.33301 1.66699 4 -1c0 -2 -0.666992 -4.66699 -2 -8c-0.666992 -4 -4.33398 -9 -11.001 -15s-9.33398 -11.333 -8.00098 -16c2 -4 0.666992 -10 -4 -18s-6.66699 -12.667 -6 -14c1.33301 -4.66699 0.333008 -10.334 -3 -17.001c-4 -11.333 -8 -32.333 -12 -63
c-6.66699 -46 -12.667 -76.333 -18 -91s-14 -24 -26 -28c-14.667 -5.33301 -26.334 -7.66602 -35.001 -6.99902s-17.334 4.66699 -26.001 12c-6.66699 5.33301 -10.834 12.833 -12.501 22.5s-2.16699 30.834 -1.5 63.501c0 16 -0.166992 36.333 -0.5 61
s-0.5 38.334 -0.5 41.001c-0.666992 29.333 -6.16699 59.5 -16.5 90.5s-20.166 46.5 -29.499 46.5c-3.33301 0.666992 -5.83301 -0.5 -7.5 -3.5s-2.5 -6.5 -2.5 -10.5s-0.666992 -7.16699 -2 -9.5s-3.66602 -2.5 -6.99902 -0.5c-1.33301 1.33301 -2.66602 2 -3.99902 2l1 -3
c0 -0.666992 0.333008 -1.33398 1 -2.00098c3.33301 -6 2.66602 -14 -2.00098 -24c-19.333 -37.333 -34 -94.666 -44 -171.999c-6 -48 -11 -70.667 -15 -68s-6 1.33398 -6 -3.99902s-3.66699 -11.666 -11 -18.999c-4.66699 -5.33301 -8 -7.83301 -10 -7.5
s-5.33301 3.5 -10 9.5c-6 8.66699 -9.66699 10.334 -11 5.00098c0 -4 -1.83301 -6.66699 -5.5 -8s-8 -1 -13 1s-9.5 5 -13.5 9c-4.66699 4.66699 -7.5 17.334 -8.5 38.001s-0.833008 67.334 0.5 140.001c0.666992 46 1.66699 81.333 3 106s3.33301 44.5 6 59.5
s5.83398 24.167 9.50098 27.5s9.16699 4 16.5 2c4 -1.33301 6.5 -1.5 7.5 -0.5s1.33301 2.33301 1 4s0 3.5 1 5.5s3.16699 3.33301 6.5 4c5.33301 2 13.5 0.833008 24.5 -3.5s18.5 -9.5 22.5 -15.5c1.33301 -5.33301 6 -5.5 14 -0.5s13 6.16699 15 3.5
c2.66699 -2.66699 4.33398 -2.66699 5.00098 0v2c-2 9.33301 -1.66699 15.666 1 18.999s7.16699 6 13.5 8s11.166 5 14.499 9c13.333 17.333 30.333 24.666 51 21.999c8 -0.666992 22 -14.834 42 -42.501s33.333 -51.167 40 -70.5c5.33301 -15.333 10.333 -23.5 15 -24.5
s11.667 4.5 21 16.5c6.66699 8 12.167 13.333 16.5 16s10.333 5.5 18 8.5s16.167 7.83301 25.5 14.5c20.667 14 35.667 19.667 45 17c8 -2 13.667 -0.666992 17 4c2 4.66699 1 7 -3 7c-10.667 0 -12 2.66699 -4 8c6.66699 4.66699 16 8.66699 28 12
c22 5.33301 38 7.83301 48 7.5s18 -4.16602 24 -11.499c4 -4.66699 6.33301 -6.66699 7 -6l-1 2c-1.33301 4 -0.666016 6 2.00098 6c4.66699 0.666992 9 -2 13 -8c1.33301 -3.33301 1 -6 -1 -8c-2 -6 -1 -8 3 -6s9.66699 -2 17 -12c4 -5.33301 6.33301 -9.16602 7 -11.499
s0.5 -4 -0.5 -5s-3.5 -2.5 -7.5 -4.5c-4 -1.33301 -6 -2.66602 -6 -3.99902z" />
    <glyph glyph-name="n" unicode="n" horiz-adv-x="496" 
d="M421 358c-1.33301 -6 -2.33301 -5.33301 -3 2c-0.666992 16 0 23.333 2 22l1 -2c1.33301 -6.66699 1.33301 -14 0 -22zM388 17c0.666992 1.33301 -0.666016 2.66602 -3.99902 3.99902c-10.667 4 -19.334 4.33301 -26.001 1c-2 -0.666992 -2.33301 -2 -1 -4
c1.33301 -2.66699 4.5 -4.5 9.5 -5.5s9.83301 -1.16699 14.5 -0.5s7 2.33398 7 5.00098zM358 394c-1.33301 4 -2.33398 3 -3.00098 -3c-2 -14 -1.66699 -21 1 -21c0.666992 -0.666992 1.33398 0.333008 2.00098 3c1.33301 7.33301 1.33301 14.333 0 21zM101.999 440
c30 -17.333 42.9951 -40.6641 38.9951 -69.9971c0 -28 2 -46.333 6 -55c4.66699 -12 13 -18.333 25 -19c8 0 12 4 12 12c0 6 3.33301 11 10 15s13.334 5 20.001 3c3.33301 0 8.16602 4 14.499 12s11.833 11.667 16.5 11c5.33301 0.666992 13.833 4.83398 25.5 12.501
s21.167 11.5 28.5 11.5c3.33301 0 6.16602 0.333008 8.49902 1s4.16602 1.33398 5.49902 2.00098s1.66602 1.66699 0.999023 3c-1.33301 2 1.33398 5.16699 8.00098 9.5s14.334 8.33301 23.001 12s15.334 5.5 20.001 5.5c2.66699 0 4.5 -0.833008 5.5 -2.5
s1 -3.33398 0 -5.00098s-1.5 -3.16699 -1.5 -4.5s0.666992 -2.16602 2 -2.49902s4.33301 0.166992 9 1.5c8 3.33301 13 1.66602 15 -5.00098s4.33301 -10.334 7 -11.001c4 -0.666992 6.33301 -2.83398 7 -6.50098s0.5 -7.83398 -0.5 -12.501s-0.833008 -10 0.5 -16
c0 -8 0.666992 -11.667 2 -11c1.33301 0 3 1.33301 5 4c4.66699 2 7.33398 -1.33301 8.00098 -10c0 -2 -0.333008 -33.5 -1 -94.5s-0.666992 -100.167 0 -117.5c0.666992 -7.33301 5.16699 -15.5 13.5 -24.5s15.833 -13.5 22.5 -13.5c4.66699 0 7 -4.66699 7 -14
s-7.66699 -20 -23 -32s-27 -16.667 -35 -14c-8.66699 2 -13 0 -13 -6c0.666992 -3.33301 -1.33301 -5.33301 -6 -6c-12 -2.66699 -23 -1 -33 5c-2 1.33301 -3 2.33301 -3 3c0 4 -3.33301 9.33301 -10 16c-4.66699 4.66699 -6.66699 8.33398 -6 11.001s4 7.33398 10 14.001
c6.66699 7.33301 9.83398 12 9.50098 14s-4.16602 5 -11.499 9c-7.33301 4.66699 -11.333 6 -12 4s0 -5.5 2 -10.5s1.33301 -8.5 -2 -10.5s-5.33301 0 -6 6c-2.66699 12 -3.66699 55 -3 129c0.666992 76 -2.33301 114 -9 114c-4 0 -8.66699 -2.33301 -14 -7
s-10.666 -6 -15.999 -4c-7.33301 2.66699 -12 0.333984 -14 -6.99902c-0.666992 -4.66699 -10.5 -13 -29.5 -25s-28.833 -19.333 -29.5 -22c0 -2 -0.666992 -3.16699 -2 -3.5s-3.16602 -0.333008 -5.49902 0s-4.66602 0.833008 -6.99902 1.5s-4 0.666992 -5 0
s-1.16699 -2.33398 -0.5 -5.00098c1.33301 -6.66699 -1.16699 -15 -7.5 -25s-11.5 -13.667 -15.5 -11c-3.33301 2.66699 -4.66602 1.66699 -3.99902 -3c0 -2 0.333008 -4.33301 1 -7c2.66699 -6 1 -13.667 -5 -23s-9 -15 -9 -17c0 -1.33301 -0.333008 -4.83301 -1 -10.5
s-1.5 -13.667 -2.5 -24s-1.83301 -19.5 -2.5 -27.5c-2.66699 -23.333 -5.5 -39.833 -8.5 -49.5s-8.83301 -19.167 -17.5 -28.5c-14 -15.333 -21 -19.333 -21 -12c0 6.66699 -2.66699 7.33398 -8 2.00098c-8.66699 -8.66699 -14.334 -11.334 -17.001 -8.00098
c-0.666992 1.33301 0 3.66602 2 6.99902c2.66699 4 1 5.33301 -5 4c-1.33301 0 -3 -0.333008 -5 -1c-6.66699 -2 -11.834 -1.83301 -15.501 0.5s-6.66699 9.16602 -9 20.499s-3.83301 26.5 -4.5 45.5s-0.666992 45.833 0 80.5c1.33301 78 0 138.667 -4 182
c-2.66699 28 -3.66699 46.167 -3 54.5s4.66699 17.166 12 26.499c8 15.333 28 25 60 29z" />
    <glyph glyph-name="o" unicode="o" horiz-adv-x="437" 
d="M46 237c2.66699 9.33301 1.5 13.833 -3.5 13.5s-7.16699 -4.83301 -6.5 -13.5c0.666992 -17.333 4 -17.333 10 0zM262 139c-0.666992 -4.66699 1.66504 -7.33496 6.99805 -8.00195c3.33301 -0.666992 5.33301 0.666016 6 3.99902l-1 4c-2 6.66699 0.666992 13.667 8 21
c21.333 23.333 32.666 42.333 33.999 57s4.33301 26 9 34c8.66699 16 8.83398 35 0.500977 57s-21.166 37.667 -38.499 47c-29.333 14.667 -60 16 -92 4c-16.667 -6.66699 -35 -10.667 -55 -12c-17.333 -1.33301 -25 -4.66602 -23 -9.99902
c2.66699 -5.33301 1.33398 -8.66602 -3.99902 -9.99902c-4 -1.33301 -7.33301 -11.666 -10 -30.999c-8 -56.667 -5.83301 -101.5 6.5 -134.5s32.5 -48.5 60.5 -46.5c43.333 2.66699 70.333 9.33398 81 20.001c7.33301 7.33301 11 8.66602 11 3.99902zM57.999 141.999
c-2.66699 -1.33301 -6.33398 2.3291 -11.001 10.9961c-12.667 22.667 -15.334 40 -8.00098 52c2 2.66699 4.33301 4.66699 7 6c1.33301 2 0 3.33301 -4 4c-4 0 -7 0.666992 -9 2s-3.16699 4.16602 -3.5 8.49902s0.166992 10 1.5 17l6 30.5c8 38 16 57.333 24 58
c2.66699 0 5.33398 -1.33301 8.00098 -4c6.66699 -5.33301 10 -5 10 1c0.666992 6.66699 -1.33301 11.667 -6 15c-1.33301 0.666992 -2.33301 1 -3 1c-6 2.66699 -3.66699 5.66699 7 9c10.667 4 16 8.66699 16 14c0 4 11.333 12.333 34 25s43 22 61 28
c13.333 4.66699 30.833 6.33398 52.5 5.00098s39.167 -4.66602 52.5 -9.99902c19.333 -7.33301 40.666 -22.333 63.999 -45c23.333 -22 38.333 -43 45 -63s7 -45.667 1 -77c-3.33301 -19.333 -9.16602 -38.833 -17.499 -58.5s-17.166 -34.834 -26.499 -45.501
s-16.666 -14.334 -21.999 -11.001c-4 2 -5 1 -3 -3c4 -6.66699 -1.66699 -15 -17 -25s-34.666 -18 -57.999 -24c-30 -8 -60.333 -9.33301 -91 -4c-25.333 4.66699 -48.5 13.5 -69.5 26.5s-30.5 24.5 -28.5 34.5c1.33301 4.66699 1.16602 7.33398 -0.500977 8.00098
s-3.66699 0.333984 -6 -0.999023s-4 -1.66602 -5 -0.999023s-0.5 3.33398 1.5 8.00098c2.66699 4.66699 2.66699 7.33398 0 8.00098c-0.666992 0.666992 -1.33398 0.666992 -2.00098 0z" />
    <glyph glyph-name="p" unicode="p" horiz-adv-x="431" 
d="M119 -144c7.33301 -1.33301 11.333 1 12 7c0 4 -2.33301 6.33301 -7 7c-5.33301 0.666992 -9 -2 -11 -8c0.666992 -3.33301 2.66699 -5.33301 6 -6zM173 131c0.666992 0 6.83496 3.83008 18.502 11.4971s20.167 10.834 25.5 9.50098c8 0 12 2.66699 12 8
c0 6 7.66699 15.5 23 28.5s25 18.167 29 15.5c2.66699 -1.33301 4 -1.66602 4 -0.999023s-0.333008 1.66699 -1 3c-2.66699 4.66699 0.333008 14.334 9 29.001s14.5 31.667 17.5 51s1.83301 32.333 -3.5 39c-6.66699 7.33301 -21.334 10.333 -44.001 9
s-42.667 -6.33301 -60 -15c-14 -8 -22.5 -14.167 -25.5 -18.5s-4.83301 -13.833 -5.5 -28.5c-4.66699 -94 -4.33398 -141 0.999023 -141zM279.001 386.997c0 -5.33301 0.667969 -8.00391 2.00098 -8.00391c0.666992 0 1.66699 1 3 3c2.66699 5.33301 12.334 7.5 29.001 6.5
s26 -4.16699 28 -9.5c1.33301 -6 7.33301 -9 18 -9c10 0 19.5 -9.33301 28.5 -28s13.167 -37.667 12.5 -57c-0.666992 -13.333 -4.83398 -28.333 -12.501 -45s-14.167 -25 -19.5 -25c-3.33301 0 -4 -1.66699 -2 -5c2 -4 -4.83301 -15.667 -20.5 -35
s-31.167 -35.333 -46.5 -48c-1.33301 -1.33301 -3.33301 -3 -6 -5c-16 -15.333 -30.667 -26.666 -44 -33.999c-1.33301 -0.666992 -3.66602 -2 -6.99902 -4c-10.667 -5.33301 -19.667 -10 -27 -14l-53 -28c0 -5.33301 0.166992 -20.166 0.5 -44.499
s0.166016 -45 -0.500977 -62s-2.33398 -26.833 -5.00098 -29.5c-4 0 -3 -5 3 -15c4 -6.66699 5.5 -11.5 4.5 -14.5s-5.16699 -7.5 -12.5 -13.5c-11.333 -10 -24 -13.667 -38 -11c-20 4 -31.833 11 -35.5 21s-4.5 37 -2.5 81c4 80.667 -3.66699 121 -23 121
c-14.667 0 -22.334 5.33301 -23.001 16c-1.33301 10.667 5 17.667 19 21c2.66699 0.666992 5.66699 1 9 1c10 0.666992 15.833 3.16699 17.5 7.5s3.5 19.833 5.5 46.5c2 16.667 1.5 40.667 -1.5 72s-2.5 52.666 1.5 63.999c4.66699 12.667 7 29.667 7 51
c0 12.667 1.16699 21.334 3.5 26.001s7.5 9.33398 15.5 14.001c8.66699 4 15.167 6 19.5 6s10.833 -2 19.5 -6c12 -6.66699 33.333 -7.33398 64 -2.00098c30.667 4.66699 49.834 6.83398 57.501 6.50098s11.5 -4.16602 11.5 -11.499z" />
    <glyph glyph-name="q" unicode="q" horiz-adv-x="499" 
d="M295 344c-13.333 17.333 -31.666 22.8301 -54.999 16.4971s-47.666 -23.166 -72.999 -50.499c-14 -15.333 -26.833 -36.833 -38.5 -64.5s-16.5 -48.5 -14.5 -62.5c1.33301 -9.33301 3.66602 -15.166 6.99902 -17.499s11.333 -3.16602 24 -2.49902
c28.667 0.666992 62.667 14.167 102 40.5s61.666 50.833 66.999 73.5c6 20.667 -0.333008 43 -19 67zM416 -144.003c0 -3.33301 -3.33594 -3.99805 -10.0029 -1.99805s-11.667 0.666992 -15 -4c-3.33301 -6 -14 -8.33301 -32 -7s-31.667 5.66602 -41 12.999
c-8 6 -16 21 -24 45s-10.667 40.333 -8 49c0 1.33301 1 13 3 35s4.33301 40.667 7 56s6 25 10 29c10 14.667 13 35.334 9 62.001c-2.66699 14.667 -6.66699 21.667 -12 21c-2.66699 -0.666992 -6.5 -1.5 -11.5 -2.5s-8.83301 -1.83301 -11.5 -2.5
s-5.5 -1.83398 -8.5 -3.50098s-5.83301 -4.16699 -8.5 -7.5c-13.333 -17.333 -44.333 -30.666 -93 -39.999s-83.667 -8.66602 -105 2.00098c-11.333 6 -18.666 12.833 -21.999 20.5s-7 26.5 -11 56.5c-2 15.333 -2.33301 25.833 -1 31.5s5.66602 11.5 12.999 17.5
c8.66699 7.33301 11.334 10.666 8.00098 9.99902c-0.666992 0 -2 -0.333008 -4 -1c-6.66699 -2.66699 -10.5 -1.83398 -11.5 2.49902s1.16699 6.83301 6.5 7.5c4.66699 0 7 4.66699 7 14c0 21.333 15.167 50.166 45.5 86.499s59.833 61.166 88.5 74.499
c18.667 8.66699 42 13 70 13s50.667 -4.33301 68 -13c14 -7.33301 26.667 -9 38 -5s23.666 4.33301 36.999 1s22.333 -9.33301 27 -18c4.66699 -9.33301 4.66699 -29.333 0 -60c-3.33301 -23.333 -9.16602 -89.5 -17.499 -198.5s-16.166 -177.833 -23.499 -206.5
c-2 -8.66699 -2 -14 0 -16s7.66699 -2.66699 17 -2c36.667 2.66699 58.667 -2.66602 66 -15.999c4.66699 -8.66699 4.83398 -15.5 0.500977 -20.5s-14.5 -9.16699 -30.5 -12.5c-13.333 -2.66699 -20 -5.66699 -20 -9z" />
    <glyph glyph-name="r" unicode="r" horiz-adv-x="327" 
d="M196 342c-3.33301 0 -5.66602 -0.668945 -6.99902 -2.00195s-1.66602 -3 -0.999023 -5c2.66699 -4.66699 -0.666016 -15.667 -9.99902 -33c-21.333 -42 -34.666 -93 -39.999 -153c-2.66699 -28 -7.33398 -47.333 -14.001 -58s-17.334 -16 -32.001 -16
c-23.333 0 -37.333 8.16699 -42 24.5s-8 68.5 -10 156.5c-2.66699 76 -5 116.333 -7 121c-4 6.66699 -4.16699 15.5 -0.5 26.5s8.5 16.5 14.5 16.5c3.33301 0 5.5 0.833008 6.5 2.5s1.16699 3.33398 0.5 5.00098s-0.5 3.16699 0.5 4.5s3.5 2 7.5 2c12 0 24 -3.66699 36 -11
s20.333 -16 25 -26c4.66699 -10.667 8.66699 -16.667 12 -18s8.33301 1.33398 15 8.00098c5.33301 5.33301 22.666 15.666 51.999 30.999c24.667 13.333 39.167 20.333 43.5 21s10.5 -1.66602 18.5 -6.99902c26 -13.333 36.667 -29.333 32 -48s-22.334 -30.667 -53.001 -36
c-19.333 -4 -35 -6 -47 -6z" />
    <glyph glyph-name="s" unicode="s" horiz-adv-x="427" 
d="M285 235c0 -5.33301 4.66504 -6.00293 13.998 -2.00293c8.66699 2 15 0.333008 19 -5c-0.666992 -2 5 -7 17 -15s22.833 -16.167 32.5 -24.5s12.5 -13.5 8.5 -15.5c-6 -4.66699 -5.66699 -7.33398 1 -8.00098c2 -0.666992 5 -0.666992 9 0c1.33301 0.666992 2 0 2 -2
c1.33301 -3.33301 1 -8.66602 -1 -15.999c-2 -8.66699 -2.66699 -13.167 -2 -13.5s2.33398 1.16699 5.00098 4.5c4 7.33301 6.33301 5.33301 7 -6c1.33301 -23.333 -0.333984 -39.666 -5.00098 -48.999c-0.666992 -1.33301 -1.33398 -1.66602 -2.00098 -0.999023
c-4 0 -6 -3 -6 -9s-5.5 -14.167 -16.5 -24.5s-24.167 -19.5 -39.5 -27.5c-16 -8 -43.667 -12.167 -83 -12.5s-68.666 3.16699 -87.999 10.5c-13.333 5.33301 -30.5 16.833 -51.5 34.5s-31.5 29.5 -31.5 35.5c0 7.33301 5.5 11 16.5 11s25.167 -3.66699 42.5 -11
c32.667 -13.333 64.667 -18.833 96 -16.5s57 11.5 77 27.5c30 25.333 13.667 52.666 -49 81.999c-23.333 10.667 -38.666 16.334 -45.999 17.001c-78 8 -130.667 26.333 -158 55c-16.667 17.333 -24.334 41.5 -23.001 72.5s10.666 50.167 27.999 57.5
c12 5.33301 22.333 7.83301 31 7.5s13 -3.83301 13 -10.5c0 -7.33301 2.33301 -11 7 -11c2 2 2.83301 5.33301 2.5 10s-1.66602 9.16699 -3.99902 13.5s-4.5 6.16602 -6.5 5.49902c-3.33301 0 -4 2.33301 -2 7c4 4 13.5 6.16699 28.5 6.5s24.833 2.16602 29.5 5.49902
c14 5.33301 43.333 5 88 -1c27.333 -4 46.666 -13 57.999 -27c10 -12 15.333 -21.667 16 -29s-2.66602 -14.666 -9.99902 -21.999c-13.333 -14 -29.666 -14 -48.999 0c-8 6 -22.667 9.33301 -44 10s-41.666 -1.66602 -60.999 -6.99902
c-18 -4.66699 -29.833 -9.5 -35.5 -14.5s-7.5 -12.167 -5.5 -21.5c5.33301 -18 32 -30.667 80 -38c18.667 -3.33301 38.5 -8.66602 59.5 -15.999s31.5 -13 31.5 -17z" />
    <glyph glyph-name="t" unicode="t" horiz-adv-x="343" 
d="M188 117c1.33301 -0.666992 4.5 -0.171875 9.5 1.49512s9 2.83398 12 3.50098s5.16699 -0.666016 6.5 -3.99902c0 -5.33301 -4 -8.66602 -12 -9.99902c-8 -2 -8 -3.33301 0 -4c13.333 0 20 1.66699 20 5c0 4.66699 5.66699 13.334 17 26.001
c13.333 14 17.666 21.667 12.999 23c-2 0.666992 -6.66699 -1.66602 -14 -6.99902c-10.667 -8.66699 -11.667 -7.66699 -3 3c2.66699 4.66699 8.16699 8.33398 16.5 11.001s13.5 7.66699 15.5 15c1.33301 4.66699 2.83301 7.66699 4.5 9s3.83398 1.5 6.50098 0.5
s7.66699 -3.5 15 -7.5c13.333 -8 19.333 -16.667 18 -26c-0.666992 -4.66699 -4.33398 -6.33398 -11.001 -5.00098c-5.33301 1.33301 -8 -1 -8 -7c0.666992 -4 -3.33301 -5 -12 -3c-10.667 2 -16 2.66699 -16 2c-0.666992 -1.33301 2.33301 -4.66602 9 -9.99902
c8.66699 -10 11.334 -18.667 8.00098 -26c-4 -9.33301 -7.66699 -10.333 -11 -3c-4 6 -7.33301 3.66699 -10 -7c-3.33301 -10.667 -8.66602 -13 -15.999 -7c-4.66699 4 -7.33398 5.83301 -8.00098 5.5s0 -3.83301 2 -10.5c4 -8 2.33301 -14.5 -5 -19.5
s-11 -9.83301 -11 -14.5c0 -8.66699 -10.167 -14.5 -30.5 -17.5s-39.833 -1.16699 -58.5 5.5c-13.333 5.33301 -28.333 22.666 -45 51.999c-12 22 -19.167 38.333 -21.5 49s-3.16602 36 -2.49902 76l2 81l-22 9c-24.667 8.66699 -22.667 18.334 6 29.001
c10.667 4 16.334 14 17.001 30c2 44 4.66699 75 8 93s9.33301 31.667 18 41c7.33301 6.66699 17.166 9.5 29.499 8.5s23.166 -6.83301 32.499 -17.5s11.666 -22.334 6.99902 -35.001c-4 -17.333 -7.66699 -50.333 -11 -99l63 2c10.667 2 21 2.16699 31 0.5
s17 -2.16699 21 -1.5s8.5 -0.5 13.5 -3.5s8.16699 -5 9.5 -6s4.5 -4 9.5 -9l11.5 -11.5c-19.333 -14.667 -34.666 -23 -45.999 -25c-11.333 -2.66699 -27.666 -4.33398 -48.999 -5.00098c-38.667 -1.33301 -59.334 -3.66602 -62.001 -6.99902c-4 -4 -5.33301 -32.667 -4 -86
c0.666992 -36.667 1.66699 -60.167 3 -70.5s5.33301 -18.5 12 -24.5c9.33301 -6.66699 14.333 -7.66699 15 -3c0 7.33301 2.33301 11 7 11z" />
    <glyph glyph-name="u" unicode="u" horiz-adv-x="387" 
d="M117 246c0 -47.333 4.33984 -77.0029 13.0068 -89.0029c11.333 -15.333 31 -23.666 59 -24.999s51.333 5 70 19c10.667 7.33301 17.667 26 21 56c3.33301 27.333 3.33301 40.333 0 39c-2.66699 -1.33301 -5 0.666992 -7 6c-5.33301 16.667 -5.33301 30 0 40
c2.66699 4 3.5 8 2.5 12s-3.33301 7.33301 -7 10s-6.5 3.33398 -8.5 2.00098c-0.666992 -6.66699 -6.33398 -1 -17.001 17c-6.66699 11.333 -10.334 19.666 -11.001 24.999c0 12.667 7.33301 17.334 22 14.001c15.333 -4.66699 26.666 -14.334 33.999 -29.001
c5.33301 -12 10 -15 14 -9c3.33301 8.66699 8.66602 7.33398 15.999 -3.99902c4.66699 -8 5.33398 -13.333 2.00098 -16c-2 -4 -0.333008 -6.66699 5 -8c7.33301 0 7.33301 -1.33301 0 -4c-6.66699 -2 -4 -8.66699 8 -20c11.333 -11.333 18.666 -33.666 21.999 -66.999
c2.66699 -28 2.83398 -47.5 0.500977 -58.5s-9.16602 -19.167 -20.499 -24.5c-7.33301 -4 -9.33301 -6 -6 -6c1.33301 0 2.66602 0.333008 3.99902 1c5.33301 1.33301 8.16602 1.5 8.49902 0.5s-3.16699 -6.5 -10.5 -16.5c-8 -12.667 -18 -21.667 -30 -27
c-31.333 -14.667 -53.833 -23.667 -67.5 -27s-31.167 -4 -52.5 -2c-16 1.33301 -31.667 4.16602 -47 8.49902s-27.333 9.33301 -36 15s-12.334 10.5 -11.001 14.5c0.666992 2.66699 0.5 4.66699 -0.5 6s-2.83301 1.33301 -5.5 0c-3.33301 -1.33301 -8 2.16699 -14 10.5
s-12 19.833 -18 34.5s-10.667 29.667 -14 45c-4.66699 14 -6.33398 47.833 -5.00098 101.5s6.33301 82.5 15 86.5c7.33301 8.66699 15.166 13 23.499 13s19.5 -4 33.5 -12c8.66699 -5.33301 14.167 -10.166 16.5 -14.499s2.83301 -11.5 1.5 -21.5c-2 -26 -3 -58 -3 -96z" />
    <glyph glyph-name="v" unicode="v" horiz-adv-x="318" 
d="M147 321c-0.666992 -4 5.16797 -18.998 17.501 -44.998s18.5 -40.667 18.5 -44c0 -5.33301 2.16699 -8.33301 6.5 -9s7.83301 1.33301 10.5 6c2 3.33301 4.66699 26 8 68s5.33301 82 6 120c0 29.333 3.33301 47.333 10 54c8.66699 10.667 21.5 14 38.5 10
s25.5 -12.333 25.5 -25c0 -8 -2 -8.66699 -6 -2s-9 5 -15 -5c-5.33301 -11.333 -4.66602 -20.666 2.00098 -27.999c6.66699 -8 10.667 -23.667 12 -47s2.66602 -38.333 3.99902 -45c2.66699 -18.667 2.33398 -27.667 -0.999023 -27c-4 2 -5.33301 -14 -4 -48
c2 -34 -2 -62 -12 -84c-5.33301 -10.667 -9 -20.334 -11 -29.001s-4.33301 -16 -7 -22s-7.66699 -13.667 -15 -23c-8.66699 -10.667 -19.334 -17.5 -32.001 -20.5s-24 -1.16699 -34 5.5c-7.33301 5.33301 -16 19.166 -26 41.499s-12.667 34.833 -8 37.5
c5.33301 3.33301 3 7.66602 -7 12.999c-10.667 5.33301 -18.334 17 -23.001 35c-5.33301 19.333 -10 30 -14 32c-3.33301 2 -11.833 23.333 -25.5 64s-21.834 62 -24.501 64c-5.33301 5.33301 -8.66602 16.333 -9.99902 33c-2.66699 16.667 0.666016 27.667 9.99902 33
c16.667 8.66699 33.834 9.5 51.501 2.5s26.5 -18.167 26.5 -33.5c-0.666992 -6 3.83301 -19.833 13.5 -41.5s14.5 -35.167 14.5 -40.5z" />
    <glyph glyph-name="w" unicode="w" horiz-adv-x="491" 
d="M422 404c-1.33301 -2 0.328125 -3.83398 4.99512 -5.50098s5.66699 -4.16699 3 -7.5c-3.33301 -4.66699 -8.33301 -6 -15 -4c-6 2.66699 -12.667 2.66699 -20 0s-11 -6.33398 -11 -11.001c0 -4 4.66699 -4.66699 14 -2c6 2.66699 10 3 12 1s3 -4.83301 3 -8.5
s1.16699 -6.5 3.5 -8.5s6.5 -1.66699 12.5 1c5.33301 1.33301 9.5 1.16602 12.5 -0.500977s5.66699 -6.66699 8 -15s4.33301 -19.833 6 -34.5s3.16699 -35.334 4.5 -62.001c2.66699 -46 0 -82.667 -8 -110c-8.66699 -28 -20.667 -51 -36 -69
c-6.66699 -8 -10 -8.66699 -10 -2c0.666992 4.66699 -1.33301 7.33398 -6 8.00098c-5.33301 0.666992 -7.66602 -1.33301 -6.99902 -6v-2c0.666992 -2.66699 -0.666016 -5 -3.99902 -7s-7.33301 -3.33301 -12 -4c-9.33301 -1.33301 -17.166 0.833984 -23.499 6.50098
s-20.5 21.834 -42.5 48.501c-7.33301 8.66699 -18 26.667 -32 54s-21 43.666 -21 48.999c0 6.66699 -1.66699 10 -5 10c-5.33301 -2 -9.33301 -8.33301 -12 -19c-7.33301 -33.333 -12 -74 -14 -122c0 -17.333 -8.16699 -30 -24.5 -38s-32.166 -7.66699 -47.499 1
c-9.33301 6 -20 25 -32 57s-34 100.667 -66 206c-13.333 42 -21.666 64.333 -24.999 67c-3.33301 2 -2.33301 7.33301 3 16s12.166 16.834 20.499 24.501s14.833 11.5 19.5 11.5c10.667 0 20.167 -5.5 28.5 -16.5s13.833 -25.167 16.5 -42.5c2.66699 -16 7 -29.667 13 -41
s11 -26.333 15 -45c8 -26.667 14 -40 18 -40c1.33301 0 2.66602 0.666992 3.99902 2c5.33301 5.33301 8.83301 15.166 10.5 29.499s3.83398 24.5 6.50098 30.5c5.33301 15.333 8.66602 28.666 9.99902 39.999c4 30.667 22.667 39.667 56 27
c8.66699 -3.33301 19.834 -17 33.501 -41s20.5 -42 20.5 -54c0 -7.33301 2 -11 6 -11s12.167 -14.167 24.5 -42.5s17.5 -44.166 15.5 -47.499c-0.666992 -1.33301 0 -2.66602 2 -3.99902s4.66699 -2.33301 8 -3c9.33301 -0.666992 15.333 2.16602 18 8.49902
s4.33398 23.833 5.00098 52.5c1.33301 33.333 3.66602 50 6.99902 50c4 0 5.33301 4 4 12c-2 4.66699 -4.66699 6.33398 -8 5.00098c-4 -1.33301 -7 1.66699 -9 9c-4.66699 16 -3.66699 29.667 3 41c1.33301 2.66699 2.66602 4.33398 3.99902 5.00098
c5.33301 4 5 7.66699 -1 11c-7.33301 6.66699 -12 20.334 -14 41.001c-1.33301 19.333 4.33398 28.666 17.001 27.999c2.66699 0 5.66699 -0.666992 9 -2c10 -2 17.333 -5.5 22 -10.5s5.33398 -9.83301 2.00098 -14.5z" />
    <glyph glyph-name="x" unicode="x" horiz-adv-x="368" 
d="M144 408c0 -3.33301 4.33887 -13.8379 13.0059 -31.5049s15 -28.5 19 -32.5c2.66699 -3.33301 7.33398 -2.16602 14.001 3.50098s10 10.834 10 15.501c0 7.33301 3.33301 7 10 -1c2.66699 -4 4 -5 4 -3c-0.666992 1.33301 -1.66699 4.33301 -3 9
c-3.33301 6 -1.83301 13.667 4.5 23s9.16602 15 8.49902 17c-3.33301 3.33301 -2 8.33301 4 15c8.66699 10.667 27 9 55 -5c7.33301 -4 13.166 -11 17.499 -21s4.16602 -16.667 -0.500977 -20c-2.66699 -0.666992 -8.5 -9 -17.5 -25s-15.5 -24 -19.5 -24
c-4.66699 0 -5.66699 -2.33301 -3 -7s-1.33301 -14.667 -12 -30c-10.667 -14.667 -16.334 -35.667 -17.001 -63c0.666992 -10.667 2.66699 -15.667 6 -15c3.33301 1.33301 9.33301 -6.66699 18 -24c1.33301 -7.33301 10.833 -20.5 28.5 -39.5s32.5 -36.5 44.5 -52.5
s13.667 -26 5 -30c-16.667 -10 -32.334 -7.66699 -47.001 7c-2.66699 2.66699 -5.16699 4.66699 -7.5 6s-4.33301 2 -6 2s-2.83398 -0.666992 -3.50098 -2c-2 0 -6 2.33301 -12 7s-13.167 11 -21.5 19l-23 22.5l-23 23.5l-15.5 16l-11 -16l-16 -22.5
c-4.66699 -6.33301 -8.33398 -10.166 -11.001 -11.499c-4 -1.33301 -6 -4.66602 -6 -9.99902s-9.33301 -16.666 -28 -33.999c-12 -10.667 -21 -17.334 -27 -20.001s-13 -3 -21 -1c-12.667 4 -20.334 12.667 -23.001 26c-2 10 -0.5 22.333 4.5 37s10.167 22 15.5 22
c2 0 6.33301 4.5 13 13.5l20 27.5c6.66699 9.33301 10.334 14.333 11.001 15c9.33301 9.33301 18.666 25.333 27.999 48c3.33301 6.66699 3.5 15.334 0.5 26.001s-10.5 29 -22.5 55c-17.333 42 -29 66 -35 72c-4.66699 4.66699 -6.66699 12 -6 22s3.33398 17.333 8.00098 22
c10 10 25.167 10.833 45.5 2.5s30.5 -19.5 30.5 -33.5z" />
    <glyph glyph-name="y" unicode="y" horiz-adv-x="353" 
d="M210 -81c24.667 39.333 34.001 88.3379 28.001 147.005c-1.33301 42.667 -3.66602 65.667 -6.99902 69c0 1.33301 -4 0.5 -12 -2.5s-15.833 -6.16699 -23.5 -9.5s-11.5 -4 -11.5 -2c0 2.66699 -3.33301 1.66699 -10 -3c-8 -4 -18.667 -4.83301 -32 -2.5
s-25.5 7.33301 -36.5 15s-14.5 14.5 -10.5 20.5c2 4.66699 -1.33301 8 -10 10c-7.33301 -0.666992 -12.166 8.33301 -14.499 27s-4.5 28.667 -6.5 30c-1.33301 0 -3 8.5 -5 25.5s-4.33301 35 -7 54s-5.66699 30.167 -9 33.5c-3.33301 8 -5.16602 17.5 -5.49902 28.5
s-1.83301 19.833 -4.5 26.5c-2.66699 5.33301 -3.33398 16 -2.00098 32c0.666992 8.66699 2.66699 14 6 16s11.666 3.66699 24.999 5c19.333 0.666992 32.333 -2.66602 39 -9.99902c12 -14 17.667 -27 17 -39c0 -3.33301 -1.33301 -5 -4 -5c-4.66699 0 -7 -2.66699 -7 -8
c0 -4.66699 2 -6 6 -4c3.33301 2 6.33301 -0.666992 9 -8c4.66699 -14 5.33398 -29.667 2.00098 -47c-2 -10.667 -2 -15.667 0 -15c0.666992 0.666992 1.33398 1.66699 2.00098 3c3.33301 4.66699 7 -5 11 -29l3 -21c6.66699 -42.667 13.834 -65.334 21.501 -68.001
s18.834 13 33.501 47c11.333 25.333 19.333 65.666 24 120.999c3.33301 35.333 6.16602 58.5 8.49902 69.5s6.83301 19.167 13.5 24.5c8.66699 7.33301 15 10.833 19 10.5s12.667 -4.16602 26 -11.499l21 -13c-4 -116 -1.66699 -202.333 7 -259c5.33301 -38 8 -63.667 8 -77
s-2.66699 -24 -8 -32c-4.66699 -6.66699 -3.66699 -11 3 -13c5.33301 -2 6.66602 -17.333 3.99902 -46c-4.66699 -48 -9.66699 -72 -15 -72c-0.666992 0 -1.66699 0.333008 -3 1c-2.66699 2 -4.33398 1.33301 -5.00098 -2c0 -2 0.666992 -4.66699 2 -8
c2.66699 -8.66699 -3 -21.667 -17 -39s-26 -26 -36 -26c-8.66699 0 -14.334 -2.33301 -17.001 -7s-8.66699 -6.83398 -18 -6.50098s-14 2.83301 -14 7.5c0 5.33301 -3.66699 4.33301 -11 -3c-6.66699 -6.66699 -12.334 -10.334 -17.001 -11.001s-11.334 1.33301 -20.001 6
c-6 4 -21 10 -45 18c-14.667 5.33301 -25.5 12.166 -32.5 20.499s-7.83301 15.166 -2.5 20.499c5.33301 6 16 7.33301 32 4c5.33301 -2 8 -4 8 -6c-0.666992 -2 -0.166992 -3.66699 1.5 -5s4.16699 -2 7.5 -2c9.33301 0 19 -1.66699 29 -5
c8.66699 -2.66699 13 -2.66699 13 0l-2 5c-2.66699 4.66699 -1.66699 7 3 7l10 -2c10.667 -1.33301 16 -0.666016 16 2.00098c-1.33301 1.33301 -0.833008 3.16602 1.5 5.49902s5.5 4.16602 9.5 5.49902s7.66699 2 11 2z" />
    <glyph glyph-name="z" unicode="z" horiz-adv-x="469" 
d="M182 455c43.333 0 66.6709 -1.66992 70.0039 -5.00293s13.333 -4.33301 30 -3c13.333 1.33301 25.333 -2 36 -10s16 -17.333 16 -28c0 -6.66699 2.66699 -10 8 -10s6 -8.66699 2 -26c-2.66699 -18.667 -8.5 -35.334 -17.5 -50.001s-21.833 -31 -38.5 -49
s-28.334 -31.667 -35.001 -41c-17.333 -22 -34.333 -41.333 -51 -58c-16 -17.333 -24 -30.666 -24 -39.999c0 -3.33301 2.66699 -3.33301 8 0c7.33301 4 36 6.66699 86 8s76.333 0 79 -4c2.66699 -1.33301 5.16699 -2 7.5 -2s5.5 1.16699 9.5 3.5s7.5 4.66602 10.5 6.99902
l10 8c3.66699 3 6.16699 4.83301 7.5 5.5c28.667 -18.667 43 -33 43 -43c0 -13.333 -7.5 -22.666 -22.5 -27.999s-45.5 -9 -91.5 -11c-24 -1.33301 -55.333 -3.66602 -94 -6.99902s-72.334 -5.66602 -101.001 -6.99902s-54 -1.33301 -76 0
c-4.66699 1.33301 -8 2.83301 -10 4.5s-2.66699 3.5 -2 5.5c2.66699 4.66699 1 7 -5 7c-4 -1.33301 -5 -0.333008 -3 3c0.666992 2 2.66699 5.33301 6 10c2.66699 4 4 6.16699 4 6.5s-1.33301 -0.166992 -4 -1.5h-10c1.33301 10 10.666 23 27.999 39
c22.667 20.667 51.834 52 87.501 94l73.5 85c6.66699 6.66699 12.5 13 17.5 19l11.5 14c2.66699 3.33301 3.66699 5 3 5c-2.66699 0 -1 3.66699 5 11c9.33301 10.667 3 16.334 -19 17.001c-10.667 0.666992 -25 0 -43 -2c-38.667 -4 -63 -5.5 -73 -4.5
s-18.333 5.83301 -25 14.5c-12.667 14 -10.334 29.667 6.99902 47c6.66699 7.33301 14.167 11.833 22.5 13.5s27.166 2.5 56.499 2.5z" />
    <glyph glyph-name="uni0093" horiz-adv-x="477" 
d="M302 301c0 4.66699 -3.6709 5.66602 -11.0039 2.99902c-14 -4.66699 -33.667 5.66602 -59 30.999c-7.33301 7.33301 -10.833 30.666 -10.5 69.999s4.5 62 12.5 68c6.66699 6 9 10 7 12c-2 1.33301 2 13.333 12 36c8.66699 18.667 18.334 29.334 29.001 32.001
s23.334 -2.66602 38.001 -15.999l19 -16c-10.667 -24 -20.334 -54 -29.001 -90s-9.33398 -58.333 -2.00098 -67c4.66699 -8 13.334 -12.833 26.001 -14.5s22.334 0.833008 29.001 7.5c4.66699 4.66699 15 6.33398 31 5.00098c10 -0.666992 16.5 -2.16699 19.5 -4.5
s4.16699 -6.83301 3.5 -13.5c-0.666992 -10.667 1.33301 -16 6 -16c2.66699 0 5.33398 3 8.00098 9c2 4.66699 5.33301 1.66699 10 -9l1 -3c3.33301 -8.66699 4.83301 -15 4.5 -19s-3.16602 -8.66699 -8.49902 -14c-8.66699 -10 -24.667 -13.333 -48 -10
c-58.667 6 -88 12.333 -88 19zM123.996 415.999c0 -16.667 8.66602 -33.666 25.999 -50.999c16.667 -16.667 25 -30 25 -40c0 -12.667 -5.83301 -23 -17.5 -31s-25.834 -11 -42.501 -9c-6 0.666992 -20.667 10.667 -44 30s-36.333 32 -39 38
c-3.33301 8.66699 -2.33301 31 3 67s11 58.333 17 67c5.33301 7.33301 9.66602 17 12.999 29s7.33301 21.667 12 29c6.66699 10 17.334 15.167 32.001 15.5s28.334 -4.5 41.001 -14.5c22 -17.333 22 -36.333 0 -57c-12 -10.667 -21.333 -22.334 -28 -35.001
c-9.33301 -18 -12.666 -27 -9.99902 -27c1.33301 0 3.33301 2 6 6c4 4.66699 6 -1 6 -17z" />
    <glyph glyph-name="uni0094" horiz-adv-x="344" 
d="M201 414c6.66699 8 17.668 10.001 33.001 6.00098c18.667 -4 31.834 -11.5 39.501 -22.5s12.5 -28.833 14.5 -53.5c1.33301 -26 5.33301 -44.333 12 -55c3.33301 -3.33301 4.66602 -8 3.99902 -14s0.333008 -10 3 -12c6 -2 6 -8.33301 0 -19
c-4 -8 -5.33301 -12.333 -4 -13c0.666992 0 1.66699 0.333008 3 1c6 3.33301 8.66699 3.33301 8 0c-0.666992 -6.66699 -8 -16.667 -22 -30c-14 -14.667 -27.333 -20.334 -40 -17.001c-15.333 4 -26.5 11.5 -33.5 22.5s-5.83301 19.5 3.5 25.5
c11.333 8 6.66602 33.333 -14.001 76c-24 48.667 -26.333 83.667 -7 105zM138.001 212.001c4.66699 -2.66699 6.99902 -0.666016 6.99902 6.00098c-0.666992 8 -3 12 -7 12c-5.33301 -0.666992 -7.66602 -3.33398 -6.99902 -8.00098s3 -8 7 -10zM154 265.002
c3.33301 0 5.00195 -7.00293 5.00195 -21.0029c0 -13.333 -4.83301 -26.166 -14.5 -38.499s-18.834 -17.166 -27.501 -14.499c-8.66699 2 -14.334 -0.333008 -17.001 -7c-2 -5.33301 -10.333 -8.66602 -25 -9.99902s-25.667 0.333984 -33 5.00098
c-10 6.66699 -12.833 15.667 -8.5 27s13.833 20 28.5 26c10 4 14 13.5 12 28.5s-9.33301 29.5 -22 43.5l-22 25l18 99c2.66699 0 21 -3 55 -9c10 -2.66699 18.833 -11.834 26.5 -27.501s12.167 -33.834 13.5 -54.501c2.66699 -35.333 4.5 -56.166 5.5 -62.499
s2.83301 -9.5 5.5 -9.5z" />
    <glyph glyph-name=".null" horiz-adv-x="0" 
 />
    <glyph glyph-name="nonmarkingreturn" horiz-adv-x="333" 
 />
    </font>
</defs>
</svg>
