<?xml version="1.0" standalone="no"?>
<!DOCTYPE svg PUBLIC "-//W3C//DTD SVG 1.1//EN" "http://www.w3.org/Graphics/SVG/1.1/DTD/svg11.dtd" >
<svg>
<metadata>
Created by FontForge 20090914 at Sat Feb 27 01:00:52 2016
 By www-data
Copyright (c) 2016, root
</metadata>
<defs>
<font id="Brianna" horiz-adv-x="253" >
  <font-face 
    font-family="Brianna"
    font-weight="400"
    font-stretch="normal"
    units-per-em="1000"
    panose-1="2 0 5 3 0 0 0 0 0 0"
    ascent="800"
    descent="-200"
    x-height="300"
    cap-height="431.998"
    bbox="28.8049 -201.026 554.765 685.002"
    underline-thickness="50"
    underline-position="-100"
    unicode-range="U+0020-U+0094"
  />
<missing-glyph horiz-adv-x="364" 
d="M33 0v666h265v-666h-265zM66 33h199v600h-199v-600z" />
    <glyph glyph-name=".notdef" horiz-adv-x="364" 
d="M33 0v666h265v-666h-265zM66 33h199v600h-199v-600z" />
    <glyph glyph-name="space" unicode=" " horiz-adv-x="228" 
 />
    <glyph glyph-name="exclam" unicode="!" horiz-adv-x="105" 
d="M45 138c6 0 10.5 -4.66699 13.5 -14s1.83301 -15.333 -3.5 -18c-4.66699 -3.33301 -10.5 -1.33301 -17.5 6s-9.16699 13.333 -6.5 18c4 5.33301 8.66699 8 14 8zM39 556c-4 44.667 -1.66602 65.332 7.00098 61.999c2.66699 -1.33301 6 -5.66602 10 -12.999
c4 -8 8.66699 -34 14 -78s6.66602 -68 3.99902 -72c-1.33301 0 -2.66602 -17 -3.99902 -51s-2.83301 -67.833 -4.5 -101.5s-3.83398 -50.167 -6.50098 -49.5c-4.66699 -1.33301 -10 0 -16 4c-4 3.33301 -6.16699 11.833 -6.5 25.5s1.5 44.167 5.5 91.5
c3.33301 66 5 100.167 5 102.5s-2.66699 28.833 -8 79.5z" />
    <glyph glyph-name="quotedbl" unicode="&#x22;" horiz-adv-x="211" 
d="M160 587c4 6 8.66797 6.66699 14.001 2s7.66602 -33.667 6.99902 -87c-2 -52.667 -6 -79.334 -12 -80.001c-4 0.666992 -8 5 -12 13c-4.66699 8.66699 -6.5 34.334 -5.5 77.001s3.83301 67.667 8.5 75zM76.001 476c4.66699 0.666992 7.83301 -2.00098 9.5 -8.00098
s1.16699 -10.333 -1.5 -13c-15.333 -7.33301 -28.333 -4.66602 -39 8.00098c-6.66699 7.33301 -10.834 15.5 -12.501 24.5s-2.5 27.5 -2.5 55.5c0 43.333 1.66699 66.666 5 69.999c2.66699 2.66699 8 3.33398 16 2.00098c6.66699 -2 9.33398 -20.667 8.00098 -56
c-2 -55.333 3.66699 -83 17 -83z" />
    <glyph glyph-name="dollar" unicode="$" horiz-adv-x="274" 
d="M186 356c-4 0 -6 -24.668 -6 -74.001s3.33301 -73.666 10 -72.999c4 0 9.33301 9.33301 16 28c12.667 33.333 11.667 65 -3 95c-7.33301 16 -13 24 -17 24zM94 426.999c-2 0 -4.49902 -24.168 -7.49902 -72.501s-4.5 -85.5 -4.5 -111.5
c-0.666992 -22.667 5 -38.167 17 -46.5s31 -11.5 57 -9.5l-6 208c-22.667 14.667 -41.334 25.334 -56.001 32.001zM159.001 489.998c0 23.333 -0.666992 39.834 -2 49.501s-3.33301 14.167 -6 13.5c-10 -0.666992 -20.5 -3.83398 -31.5 -9.50098s-17.5 -11.167 -19.5 -16.5
c-2.66699 -8 -4.5 -20.667 -5.5 -38s-0.5 -27 1.5 -29c28 -22 46.333 -33 55 -33c5.33301 0 8 21 8 63zM89.001 644.999c6 0 9.83398 -2.33301 11.501 -7s2.5 -15.334 2.5 -32.001c-0.666992 -11.333 -0.666992 -19.833 0 -25.5s2.16699 -9 4.5 -10s4.83301 -1 7.5 0
s6.5 2.66699 11.5 5s9.16699 3.83301 12.5 4.5c8 2.66699 12.667 10 14 22c0.666992 8 3 13.5 7 16.5s8 2.83301 12 -0.5s6.33301 -9 7 -17c1.33301 -12.667 4.66602 -19 9.99902 -19c6 0 16.333 -6.33301 31 -19c12 -8.66699 19.333 -18.5 22 -29.5
s0.333984 -20.167 -6.99902 -27.5c-4 -4 -7.66699 -6.5 -11 -7.5s-5.33301 -0.333008 -6 2s-0.333984 5.83301 0.999023 10.5c5.33301 16.667 -3 31 -25 43c-5.33301 2.66699 -8.33301 -0.333008 -9 -9c-0.666992 -7.33301 -0.333984 -30 0.999023 -68
s3.16602 -62.5 5.49902 -73.5s7.83301 -22.167 16.5 -33.5c52 -65.333 50.333 -127 -5 -185c-10.667 -12 -19.167 -19.333 -25.5 -22s-18.166 -4 -35.499 -4c-16 0 -26.333 -0.833008 -31 -2.5s-8 -5.5 -10 -11.5c-2 -8 -6.83301 -13.833 -14.5 -17.5
s-14.167 -3.16699 -19.5 1.5c-3.33301 2 -7.83301 17.833 -13.5 47.5s-9.83398 45.834 -12.501 48.501c-7.33301 9.33301 -11.166 19 -11.499 29s2.83398 18.333 9.50098 25c12 12 20.667 74 26 186c0.666992 21.333 2.66699 61 6 119c2 27.333 4 44.333 6 51s6 10 12 10z
" />
    <glyph glyph-name="percent" unicode="%" horiz-adv-x="313" 
d="M231 180c-4 0 -7.16602 -5.33398 -9.49902 -16.001s-1.83301 -17.667 1.5 -21c7.33301 -7.33301 12.666 -6.33301 15.999 3c1.33301 4.66699 1.33301 10.334 0 17.001c-1.33301 11.333 -4 17 -8 17zM220.001 212.999c22.667 24 37.332 28 43.999 12
c0.666992 -3.33301 1 -6 1 -8s-1.66699 -4.66699 -5 -8s-6 -5.83301 -8 -7.5l-8.5 -7c-3.66699 -3 -6.16699 -4.83301 -7.5 -5.5c2 -0.666992 5.33301 -1.5 10 -2.5s7.33398 -1.66699 8.00098 -2s2.66699 -1.5 6 -3.5s4.66602 -4 3.99902 -6s0 -5.16699 2 -9.5
s1.66699 -9.16602 -1 -14.499c-2 -32 -16.667 -44.667 -44 -38c-18.667 4.66699 -28.167 17.667 -28.5 39s8.83398 41.666 27.501 60.999zM272.999 517.999c16 0 15.001 -9.66797 -2.99902 -29.001c-2.66699 -3.33301 -6 -6.66602 -10 -9.99902
c-48 -42.667 -97.333 -117 -148 -223c-28.667 -58.667 -43 -90.334 -43 -95.001c0 -4 -3.66699 -7.66699 -11 -11s-13 -3.66602 -17 -0.999023c-4.66699 2 1 22 17 60c25.333 59.333 54.166 114.5 86.499 165.5s61.833 88.5 88.5 112.5c22 20.667 35.333 31 40 31z
M62 495.998c0.666992 -10 3.66699 -12.667 9 -8c6 6.66699 7.33301 13 4 19c-1.33301 2 -3.33301 3.33301 -6 4c-4.66699 0 -7 -5 -7 -15zM58 454.998c-15.333 0 -24.501 8.16699 -27.501 24.5s2.16699 32.166 15.5 47.499c11.333 12.667 26.333 14.334 45 5.00098
c14.667 -7.33301 17.334 -22 8.00098 -44s-23 -33 -41 -33z" />
    <glyph glyph-name="ampersand" unicode="&#x26;" 
d="M132 155c0 7.33301 4 10.665 12 9.99805c6 -1.33301 12 -12.166 18 -32.499s9.66699 -39.166 11 -56.499s-0.666992 -27.333 -6 -30c-3.33301 0 -10 15.667 -20 47s-15 52 -15 62zM140 469.999c-3.33301 0 -5.99902 -5.00098 -7.99902 -15.001s-5.33301 -14.667 -10 -14
c-7.33301 0 -11 2.33301 -11 7c0 12.667 -10.333 10 -31 -8l-5 -5c-20.667 -21.333 -26.334 -36.666 -17.001 -45.999c2.66699 -2.66699 7.33398 -4 14.001 -4c13.333 0 25.333 3.66699 36 11s21.5 10.166 32.5 8.49902s16.5 -6.83398 16.5 -15.501s-8 -16 -24 -22
c-33.333 -10.667 -50 -35.667 -50 -75c0 -24.667 4.83301 -41.667 14.5 -51s25.5 -12.333 47.5 -9c10.667 1.33301 20 3.33301 28 6s13.833 5.83398 17.5 9.50098s4.5 6.83398 2.5 9.50098c-2 3.33301 -1 8.33301 3 15s9.66699 7 17 1c14 -12 12 -26.333 -6 -43
c-10 -10 -28.667 -16.833 -56 -20.5s-47.333 -1.83398 -60 5.49902c-14.667 7.33301 -25.167 24.333 -31.5 51s-5.83301 50.334 1.5 71.001c1.33301 4 2.33301 7.16699 3 9.5s0.666992 4.16602 0 5.49902s-1.83398 2.5 -3.50098 3.5s-3.83398 1.83301 -6.50098 2.5
c-8.66699 2.66699 -15.334 10.667 -20.001 24c-10.667 26.667 2.33301 55.334 39 86.001l30 26c-9.33301 41.333 -12.666 67.333 -9.99902 78c5.33301 14 11.333 14 18 0c4.66699 -9.33301 8 -21.333 10 -36c4.66699 -28 10.334 -45.333 17.001 -52
c7.33301 -7.33301 8 -12 2 -14z" />
    <glyph glyph-name="quotesingle" unicode="'" horiz-adv-x="104" 
d="M47 431c0 -7.33301 -2.00293 -11 -6.00293 -11c-10 -1.33301 -13 13.334 -9 44.001c1.33301 11.333 4.33301 29.333 9 54c5.33301 28 7.33301 43.667 6 47c0.666992 17.333 3.33398 27 8.00098 29c2 0.666992 5 0.666992 9 0c6.66699 -2 9.83398 -13.667 9.50098 -35
s-4.16602 -44.333 -11.499 -69c-10 -32.667 -15 -52.334 -15 -59.001z" />
    <glyph glyph-name="parenleft" unicode="(" horiz-adv-x="234" 
d="M161 532c0 -9.33301 -2.00293 -14 -6.00293 -14c-4.66699 0 -12.167 -13 -22.5 -39s-20.5 -57.333 -30.5 -94c-29.333 -106.667 -43.666 -195.167 -42.999 -265.5s16.334 -110.833 47.001 -121.5c16 -5.33301 36 -8 60 -8c25.333 0 38 -3.33301 38 -10
c0 -7.33301 -15 -11 -45 -11c-47.333 0 -78.666 9 -93.999 27c-32.667 42.667 -42.667 104.667 -30 186c10 64 24.333 132.333 43 205s33.667 118.667 45 138c10 16.667 20 23.667 30 21c5.33301 -1.33301 8 -6 8 -14z" />
    <glyph glyph-name="parenright" unicode=")" horiz-adv-x="165" 
d="M68 526c8.66699 14.667 20.999 5.00098 36.999 -28.999c5.33301 -11.333 10.666 -25 15.999 -41c14.667 -44 18.667 -105.5 12 -184.5s-21.667 -154.5 -45 -226.5c-18.667 -57.333 -34.667 -84 -48 -80c-2 0.666992 -3.66699 1.66699 -5 3
c-6 5.33301 -5.33301 14.666 2 27.999c8.66699 15.333 17.334 37 26.001 65c26.667 81.333 41.834 160.333 45.501 237s-4.83301 137 -25.5 181c-12.667 26 -17.667 41.667 -15 47z" />
    <glyph glyph-name="asterisk" unicode="*" horiz-adv-x="262" 
d="M30 527c-1.33301 2.66699 -0.168945 5.00391 3.49805 7.00391s8.33398 3.66699 14.001 5l17 4c5.66699 1.33301 10.667 2.83301 15 4.5s6.5 3.5 6.5 5.5c0 3.33301 -8 10.666 -24 21.999c-19.333 13.333 -27.666 23.666 -24.999 30.999c2 2.66699 5 4 9 4
c6 0 13.333 -3.66699 22 -11c15.333 -12 25 -14.333 29 -7c2 2 2.33301 5 1 9c0 0.666992 -2.66699 13.667 -8 39c-2 11.333 -2.33301 18.5 -1 21.5s4.66602 4.5 9.99902 4.5c7.33301 0 12.166 -3.33301 14.499 -10s6.16602 -28.334 11.499 -65.001c8 -52 23 -41.667 45 31
c1.33301 4.66699 2.66602 9.66699 3.99902 15c8 26.667 13 41.334 15 44.001c2.66699 5.33301 6.66699 5.33301 12 0c4 -6 3 -20.333 -3 -43s-9 -35 -9 -37c-2.66699 -12.667 -5.66699 -23 -9 -31c-2 -4.66699 -2 -7.5 0 -8.5s6.66699 -0.5 14 1.5
c12.667 3.33301 19 1.33301 19 -6c0.666992 -3.33301 -1.66602 -6.5 -6.99902 -9.5s-11.166 -5.66699 -17.499 -8s-9.83301 -4.5 -10.5 -6.5c0 -6.66699 15 -15 45 -25c5.33301 -2 8.5 -3.83301 9.5 -5.5s-0.166992 -3.83398 -3.5 -6.50098c-6 -6 -19.667 -5 -41 3
c-17.333 6.66699 -29.333 9.5 -36 8.5s-9.66699 -10.5 -9 -28.5c0.666992 -8.66699 -0.166016 -14.834 -2.49902 -18.501s-5.33301 -5.66699 -9 -6s-8 -1.33301 -13 -3s-9.16699 -4.5 -12.5 -8.5c-9.33301 -7.33301 -16.333 -8.66602 -21 -3.99902
c-5.33301 5.33301 -1.66602 15.333 11.001 30c12.667 15.333 19 28.333 19 39c0 8.66699 -1.83301 13.667 -5.5 15s-16.167 0.666016 -37.5 -2.00098c-28 -3.33301 -42 -1.33301 -42 6z" />
    <glyph glyph-name="plus" unicode="+" horiz-adv-x="369" 
d="M206 351l-0.000976562 30.9961c0 66.667 3.33301 100.334 10 101.001c13.333 0 19.666 -26.333 18.999 -79v-48h39c29.333 -0.666992 46.833 -1.5 52.5 -2.5s9.5 -4.16699 11.5 -9.5c1.33301 -6 -4.66699 -9 -18 -9c-8 0 -37 -3 -87 -9
c2 -81.333 5.33301 -135.666 10 -162.999c1.33301 -10 -1.66699 -14.667 -9 -14s-13.666 6.33398 -18.999 17.001c-6 10.667 -9 40.667 -9 90c0 36 -0.666992 56.833 -2 62.5s-5.66602 7.83398 -12.999 6.50098c-57.333 -12.667 -98.5 -19 -123.5 -19
s-37.5 6.33301 -37.5 19c0 6.66699 10 10 30 10c13.333 0 40 2.5 80 7.5s62 7.83301 66 8.5z" />
    <glyph glyph-name="comma" unicode="," horiz-adv-x="109" 
d="M79 52c0 -15.333 -3.66699 -35.666 -11 -60.999s-15.333 -44.333 -24 -57c-7.33301 -12 -11 -11.667 -11 1c0 9.33301 2.33301 22.666 7 39.999c6.66699 24.667 10.167 49.167 10.5 73.5s-2.83398 42.5 -9.50098 54.5c-5.33301 9.33301 -9 18.333 -11 27
c0 6 4.33301 8.33301 13 7c8.66699 -2 16.834 -11.833 24.501 -29.5s11.5 -36.167 11.5 -55.5z" />
    <glyph glyph-name="hyphen" unicode="-" horiz-adv-x="257" 
d="M31 264c-1.33301 7.33301 -1.16895 11.6641 0.498047 12.9971s6.16699 0.666016 13.5 -2.00098s39.333 -6 96 -10c57.333 -4.66699 86 -9.66699 86 -15c0 -0.666992 -0.666992 -1.66699 -2 -3c-3.33301 -3.33301 -28.166 -5.66602 -74.499 -6.99902
s-76.166 -0.666016 -89.499 2.00098c-11.333 2.66699 -19 5.33398 -23 8.00098s-6.33301 7.33398 -7 14.001z" />
    <glyph glyph-name="period" unicode="." horiz-adv-x="88" 
d="M58 110c0 -9.33301 -4.66797 -13.999 -14.001 -13.999c-7.33301 0 -11.5 0.833008 -12.5 2.5s-0.166992 6.5 2.5 14.5s7.33398 11.667 14.001 11s10 -5.33398 10 -14.001z" />
    <glyph glyph-name="slash" unicode="/" horiz-adv-x="331" 
d="M256 535c12 25.333 20.5 41.332 25.5 47.999s9.5 8.66699 13.5 6c5.33301 -6 6.5 -13.667 3.5 -23s-14.5 -33.666 -34.5 -72.999c-37.333 -71.333 -73.333 -134 -108 -188c-44.667 -71.333 -73.667 -134.666 -87 -189.999c-11.333 -42.667 -23 -60.334 -35 -53.001l-3 3
c-4 4 0.333008 25.5 13 64.5s26 72.5 40 100.5l58.5 98.5l70.5 121c20 35.667 34.333 64.167 43 85.5z" />
    <glyph glyph-name="zero" unicode="0" horiz-adv-x="329" 
d="M215 575c24.667 0 39.999 -3 45.999 -9c5.33301 -5.33301 7.83301 -16.666 7.5 -33.999s-3.16602 -30 -8.49902 -38c-6.66699 -9.33301 -11.667 -10.666 -15 -3.99902c-2.66699 5.33301 -1.33398 13 3.99902 23c3.33301 6.66699 4.66602 11.334 3.99902 14.001
s-3.66699 6 -9 10c-26.667 18.667 -55.667 12.334 -87 -18.999c-23.333 -23.333 -45.666 -59.5 -66.999 -108.5s-32 -88.833 -32 -119.5c0 -28.667 7.5 -51.834 22.5 -69.501s34.833 -26.5 59.5 -26.5c27.333 0 56.333 11 87 33s48 44.333 52 67
c4 21.333 2.16699 48.666 -5.5 81.999s-17.167 54.666 -28.5 63.999c-7.33301 6 -11 12.167 -11 18.5s3.66699 10.833 11 13.5s15.166 -3 23.499 -17s15.5 -33.167 21.5 -57.5s9 -48.5 9 -72.5c0.666992 -20 -0.166016 -34.333 -2.49902 -43s-8.16602 -19.667 -17.499 -33
c-18.667 -26.667 -45 -47.834 -79 -63.501s-65 -20.834 -93 -15.501c-21.333 4.66699 -39.5 18.5 -54.5 41.5s-22.5 48.833 -22.5 77.5c0.666992 35.333 13.5 80.833 38.5 136.5s50.833 95.834 77.5 120.501c14.667 13.333 25.5 21.5 32.5 24.5s19.167 4.5 36.5 4.5z" />
    <glyph glyph-name="one" unicode="1" horiz-adv-x="108" 
d="M66 490c8 0 12.332 -20.8311 12.999 -62.498s-2.66602 -92.5 -9.99902 -152.5c-7.33301 -56 -11 -92.667 -11 -110c0 -10.667 -1 -17.834 -3 -21.501s-5.66699 -5.5 -11 -5.5c-8.66699 0 -13.167 8.33301 -13.5 25s3.16699 57.667 10.5 123s10 112.666 8 141.999v14v12
v10c0 4 0.166992 6.83301 0.5 8.5s1 3.66699 2 6s2 4 3 5s2.5 2.16699 4.5 3.5s4.33301 2.33301 7 3z" />
    <glyph glyph-name="two" unicode="2" horiz-adv-x="299" 
d="M269 138c0 -4.66699 -7 -9.66504 -21 -14.998s-42 -13.333 -84 -24c-64.667 -16.667 -105 -19 -121 -7c-6.66699 4.66699 -10.667 12.167 -12 22.5s0.666992 17.166 6 20.499c6.66699 4 27.5 30 62.5 78s55.5 78.333 61.5 91c6 14.667 9 29 9 43s-2.66699 23.667 -8 29
c-11.333 11.333 -29.5 13 -54.5 5s-35.5 -18.667 -31.5 -32c2.66699 -7.33301 0 -12.833 -8 -16.5s-14.667 -2.83398 -20 2.49902s-3.16602 16.833 6.50098 34.5s20.167 29.167 31.5 34.5c13.333 6.66699 30 9.5 50 8.5s34 -5.5 42 -13.5c22 -22 26.5 -51.167 13.5 -87.5
s-45.5 -85.833 -97.5 -148.5c-24.667 -29.333 -32.667 -46 -24 -50c4 -2 13.667 -2 29 0c30 4.66699 60.333 11 91 19l41 9c9.33301 2 17.166 3.16699 23.499 3.5s10.333 0 12 -1s2.5 -2.83301 2.5 -5.5z" />
    <glyph glyph-name="three" unicode="3" 
d="M185 339c0 -9.33301 -4.99609 -19.1631 -14.9961 -29.4961s-21.333 -17.833 -34 -22.5c-7.33301 -2.66699 -11 -4.66699 -11 -6c0 -2 8.66699 -7.66699 26 -17h1l1 -1c29.333 -14.667 49.666 -33.334 60.999 -56.001s11.666 -45.334 0.999023 -68.001
c-10 -22 -28.167 -35.667 -54.5 -41s-56.833 -1.66602 -91.5 11.001c-14.667 5.33301 -24.167 9.83301 -28.5 13.5s-6.5 9.16699 -6.5 16.5c0 12 5.33301 18.333 16 19c10 0.666992 15 -2.33301 15 -9c0 -16.667 23.333 -25 70 -25c31.333 0 51 9.5 59 28.5
s0.666992 39.833 -22 62.5c-16 16 -47.333 29 -94 39c-32.667 6 -23.334 21.667 27.999 47c32 15.333 48.667 27.333 50 36c1.33301 8 -4.83398 15.167 -18.501 21.5s-29.167 9.66602 -46.5 9.99902s-33.333 -2.16699 -48 -7.5c-8.66699 -3.33301 -13 -2 -13 4
c0 7.33301 5.33301 14.666 16 21.999c20 14 48.167 14.667 84.5 2s54.5 -29.334 54.5 -50.001z" />
    <glyph glyph-name="four" unicode="4" horiz-adv-x="315" 
d="M256 244c14.667 0 24.0029 -5.33203 28.0029 -15.999c2.66699 -6 1.33398 -10.333 -3.99902 -13c-5.33301 -4 -14.333 -4.66699 -27 -2c-8.66699 2 -13.334 1 -14.001 -3s0.333008 -16.333 3 -37c4 -32.667 5.83301 -54.167 5.5 -64.5s-2.83301 -16.166 -7.5 -17.499
c-4 -1.33301 -7.83301 1 -11.5 7s-7 15.333 -10 28s-5.5 28.334 -7.5 47.001l-4 46h-71c-38 0.666992 -64.167 2.5 -78.5 5.5s-23.166 8.16699 -26.499 15.5c-2.66699 7.33301 -1.16699 31.5 4.5 72.5s10.5 64.5 14.5 70.5c5.33301 9.33301 11.666 7.33301 18.999 -6
c6 -10.667 7.33301 -18.667 4 -24c-2 -10 -6.33301 -46.667 -13 -110c48.667 5.33301 99 7.66602 151 6.99902l-4 45c-4 36 -5.83301 58.167 -5.5 66.5s3.5 13.166 9.5 14.499c3.33301 0.666992 6.16602 0.166992 8.49902 -1.5s4.5 -5.83398 6.5 -12.501s3.66699 -15 5 -25
s2.66602 -24.333 3.99902 -43c2 -22.667 4.16699 -36.667 6.5 -42s7.16602 -8 14.499 -8z" />
    <glyph glyph-name="five" unicode="5" horiz-adv-x="264" 
d="M202 409c0 -5.33301 -1.66602 -8.99707 -4.99902 -10.9971s-10 -2.66699 -20 -2c-21.333 1.33301 -61.666 -0.666992 -120.999 -6c0.666992 -3.33301 1.5 -10.5 2.5 -21.5s2.16699 -20.667 3.5 -29s3 -13.5 5 -15.5s11 0.666992 27 8c22 11.333 46.167 12 72.5 2
s45.166 -27.333 56.499 -52c7.33301 -14.667 11 -33.334 11 -56.001c0 -39.333 -14.833 -68.166 -44.5 -86.499s-63.834 -19.833 -102.501 -4.5c-17.333 6.66699 -29.333 15.834 -36 27.501s-7.33398 23.834 -2.00098 36.501c5.33301 11.333 11 16.166 17 14.499
s8.33301 -8.83398 7 -21.501c-2 -12.667 4.33301 -22.334 19 -29.001c36.667 -19.333 68 -15.333 94 12c9.33301 10 15 18.167 17 24.5s2.33301 16.833 1 31.5c-4 42 -21.667 67.667 -53 77c-11.333 3.33301 -20.666 4.66602 -27.999 3.99902s-18 -4.33398 -32 -11.001
c-25.333 -11.333 -40.5 -15.5 -45.5 -12.5s-9.16699 19.167 -12.5 48.5c-3.33301 32.667 -3.83301 54 -1.5 64s8.83301 16.333 19.5 19c8.66699 2.66699 36.667 4 84 4c31.333 -0.666992 50.333 -1.66699 57 -3s10 -5.33301 10 -12z" />
    <glyph glyph-name="six" unicode="6" horiz-adv-x="220" 
d="M149 237c-8.66699 0 -19.001 -12.501 -31.001 -37.501s-15 -40.167 -9 -45.5c0.666992 -1.33301 3.83398 -1.83301 9.50098 -1.5s11.5 1.5 17.5 3.5c12.667 4 20.5 9.83301 23.5 17.5s2.83301 20.834 -0.5 39.501c-2.66699 16 -6 24 -10 24zM102.999 440.999
c8.66699 0 13.335 -4.00293 14.002 -12.0029s-2.66602 -15.667 -9.99902 -23c-16.667 -16.667 -28.334 -35.5 -35.001 -56.5s-10.334 -49.833 -11.001 -86.5c0 -56.667 4.33301 -83 13 -79c2.66699 1.33301 6 8 10 20c4.66699 14.667 14.334 29.667 29.001 45
s25.667 22.333 33 21c9.33301 -2 18.333 -9.66699 27 -23s14 -28 16 -44c4.66699 -38 -11 -62.333 -47 -73c-10.667 -2.66699 -17.667 -5.66699 -21 -9s-4 -7.66602 -2 -12.999c2 -8.66699 -0.666992 -13 -8 -13c-11.333 0.666992 -21.333 7.66699 -30 21l-2 4
c-8.66699 16 -16.334 27.333 -23.001 34c-9.33301 10 -16.333 27.833 -21 53.5s-6 52.834 -4 81.501c2 27.333 5.66699 48.833 11 64.5s15.666 34.834 30.999 57.501c14 20 24 30 30 30z" />
    <glyph glyph-name="seven" unicode="7" horiz-adv-x="241" 
d="M159 92c-8 0 -12 5.66504 -12 16.998c0 13.333 6.66699 55.333 20 126c12 61.333 16.667 96 14 104c-3.33301 7.33301 -21.333 11 -54 11s-49 -3.66699 -49 -11c0 -6.66699 -4.33301 -10.167 -13 -10.5s-17.334 2.83398 -26.001 9.50098c-8 6 -10.667 12.833 -8 20.5
s9.33398 12.5 20.001 14.5c14 1.33301 38.333 2.66602 73 3.99902c17.333 0 31 -0.333008 41 -1s19 -3.16699 27 -7.5s13.167 -9.33301 15.5 -15s3.5 -15.167 3.5 -28.5s-1.33301 -27.666 -4 -42.999s-7 -36.666 -13 -63.999c-12 -60.667 -18.333 -95.667 -19 -105
c-0.666992 -14 -6 -21 -16 -21z" />
    <glyph glyph-name="eight" unicode="8" horiz-adv-x="242" 
d="M138 163c-14.667 31.333 -27.333 32 -38 2c-5.33301 -16.667 -7.5 -29.167 -6.5 -37.5s6.16699 -17.833 15.5 -28.5c16 -18 28 -20 36 -6c10 16.667 7.66699 40 -7 70zM57.001 306c0.666992 -5.33301 4.50195 -12.6689 11.502 -22.002s16.333 -20.333 28 -33
s18.5 -20 20.5 -22l9 5c6 3.33301 11.333 6.16602 16 8.49902l18 9c7.33301 3.66699 13.666 6.16699 18.999 7.5s10.666 2.33301 15.999 3s9.5 -0.166016 12.5 -2.49902s4.5 -6.16602 4.5 -11.499c-1.33301 -6 -4.33301 -10.5 -9 -13.5s-12.167 -5.83301 -22.5 -8.5
s-16.5 -4.33398 -18.5 -5.00098l-20 -7l18 -31c16.667 -28.667 22.5 -57.334 17.5 -86.001s-18.167 -43 -39.5 -43c-9.33301 0 -23 7.33301 -41 22c-39.333 24.667 -39 70.334 1 137.001l-21.5 21.5c-12.333 12.333 -22.166 22.666 -29.499 30.999s-12.333 15.5 -15 21.5
c-3.33301 10.667 -3 21.667 1 33s10.333 18.666 19 21.999c17.333 7.33301 39 5.5 65 -5.5s44 -25.833 54 -44.5c5.33301 -9.33301 4.33301 -13.666 -3 -12.999c-9.33301 1.33301 -21.666 8.33301 -36.999 21c-10.667 8.66699 -21.834 14.834 -33.501 18.501
s-21.334 4.33398 -29.001 2.00098s-11.5 -7.16602 -11.5 -14.499z" />
    <glyph glyph-name="nine" unicode="9" horiz-adv-x="243" 
d="M120 399c-15.333 0 -29.5029 -10.332 -42.5029 -30.999s-19.5 -43.334 -19.5 -68.001c0 -20.667 2.83301 -35.167 8.5 -43.5s15.834 -12.5 30.501 -12.5c16 0 30.167 5.5 42.5 16.5s20.5 25.5 24.5 43.5c4.66699 21.333 6.33398 35.833 5.00098 43.5
s-7.66602 17.5 -18.999 29.5c-13.333 14.667 -23.333 22 -30 22zM170.997 258.001c-4.66699 0 -6.99902 -1.66699 -6.99902 -5c0 -4 -8 -11 -24 -21c-22 -14.667 -44 -19 -66 -13s-35.667 20.333 -41 43c-6.66699 24.667 -3.5 55.5 9.5 92.5s28.167 58.833 45.5 65.5
c8 4 16.333 6 25 6c8.66699 0.666992 20.667 -3 36 -11s27.333 -17 36 -27c8.66699 -8.66699 13.667 -19 15 -31s2.33301 -49 3 -111c1.33301 -82 3.33301 -124.333 6 -127c4 -4.66699 5 -10 3 -16s-6.66699 -11 -14 -15c-12.667 -7.33301 -20.334 -3.33301 -23.001 12
c-2 12.667 -2 39 0 79c4 52.667 2.66699 79 -4 79z" />
    <glyph glyph-name="colon" unicode=":" horiz-adv-x="319" 
d="M149 158c0 -22.667 2.66797 -38.5 8.00098 -47.5s15.666 -15.167 30.999 -18.5c18 -3.33301 33.667 -1.83301 47 4.5s22.333 16.833 27 31.5c4 12.667 5 29.167 3 49.5s-5.66699 32.166 -11 35.499c-2.66699 2.66699 -5 9 -7 19s-5.66699 16.667 -11 20
c-24 20.667 -44.667 21.334 -62 2.00098c-16.667 -18.667 -25 -50.667 -25 -96zM121.001 158c2 44 8.00098 78.666 18.001 103.999s28 38 54 38c24.667 0 49.334 -15.667 74.001 -47c8 -10.667 13.167 -20.667 15.5 -30s4.16602 -25.666 5.49902 -48.999
c1.33301 -32 -0.666992 -54.5 -6 -67.5s-17.333 -24.167 -36 -33.5s-38.334 -12.5 -59.001 -9.5s-37 11.833 -49 26.5c-7.33301 8.66699 -12 17.167 -14 25.5s-3 22.5 -3 42.5zM34.002 337.999c10.667 10 18.333 2.33105 23 -23.002c4 -20.667 6.33301 -54 7 -100
c0.666992 -40.667 1.66699 -66.167 3 -76.5s5 -17.5 11 -21.5c4 -3.33301 5.5 -7.66602 4.5 -12.999s-4.33301 -10.333 -10 -15s-11.5 -6.66699 -17.5 -6c-7.33301 1.33301 -12 5.33301 -14 12s-4 23.334 -6 50.001c-3.33301 42 -5 83.667 -5 125s1.33301 64 4 68z" />
    <glyph glyph-name="semicolon" unicode=";" horiz-adv-x="215" 
d="M158 380c4 4 8.33203 4.16699 12.999 0.5s8.33398 -10.834 11.001 -21.501c4 -13.333 4.5 -61.166 1.5 -143.499s-6.5 -125.833 -10.5 -130.5c-4.66699 -4 -9 -2.66699 -13 4c-4 6 -6.33301 55 -7 147s1 140 5 144zM50.999 399c9.33301 0 14.666 -8.50195 15.999 -25.502
s-0.333984 -54.833 -5.00098 -113.5c-6 -78.667 -7.33301 -119 -4 -121c2.66699 -2.66699 5.33398 -1.66699 8.00098 3c2 6 4.33301 11 7 15s5.16699 6.5 7.5 7.5s4.5 0.833008 6.5 -0.5c3.33301 -4 0 -14.667 -10 -32c-10.667 -17.333 -21 -26 -31 -26
c-8.66699 0 -13.667 3.33301 -15 10s-1.66602 29.334 -0.999023 68.001c0 46.667 2 95.334 6 146.001c3.33301 46 8.33301 69 15 69z" />
    <glyph glyph-name="less" unicode="&#x3c;" horiz-adv-x="395" 
d="M93 132c-0.666992 -2.66699 -1.50293 -5.00391 -2.50293 -7.00391s-2.16699 -3.66699 -3.5 -5s-3 -2.5 -5 -3.5s-3.66699 -1.66699 -5 -2s-3.66602 -0.666016 -6.99902 -0.999023s-5.83301 -0.5 -7.5 -0.5h-8.5h-9c-7.33301 128.667 -11.666 198.334 -12.999 209.001
c-2.66699 17.333 -2.66699 27 0 29c4 4.66699 8.83301 6.16699 14.5 4.5s9.83398 -5.5 12.501 -11.5c3.33301 -6 6.33301 -41 9 -105c2 -63.333 6 -94.666 12 -93.999c2 0 4 3 6 9c2 6.66699 4.66699 7.66699 8 3c4 -3.33301 3.66699 -11.666 -1 -24.999zM181.997 172.996
c0 -6.66699 12.332 -10.1719 36.999 -10.5049s51 2.16699 79 7.5c40.667 7.33301 62 10 64 8c7.33301 -7.33301 -0.666992 -15.333 -24 -24c-39.333 -14 -82.333 -20 -129 -18c-18 0.666992 -31 3.33398 -39 8.00098c-10.667 6 -15.5 14.5 -14.5 25.5
s8.16699 29.167 21.5 54.5c22.667 42.667 34.334 65 35.001 67c8 15.333 11.5 28.333 10.5 39s-6.16699 16 -15.5 16c-38 -1.33301 -59.333 -9.66602 -64 -24.999c-2 -6 -4.33301 -10.167 -7 -12.5s-5 -2.16602 -7 0.500977s-3 7.33398 -3 14.001
c0 10 5.33301 19.833 16 29.5s24 15.834 40 18.501c18.667 3.33301 30.5 4.83301 35.5 4.5s11.833 -3.5 20.5 -9.5c26 -18.667 18.333 -63 -23 -133c-22 -38 -33 -58 -33 -60z" />
    <glyph glyph-name="equal" unicode="=" horiz-adv-x="434" 
d="M105 285c10 1.33301 20.999 2.5 32.999 3.5s22.5 1.83301 31.5 2.5s14.5 1 16.5 1c14 0.666992 40.5 -1.83301 79.5 -7.5s59.833 -9.83398 62.5 -12.501c4 -3.33301 -38 -6.66602 -126 -9.99902c-85.333 -3.33301 -134.166 -5 -146.499 -5s-19.833 1.33301 -22.5 4
c-10.667 10.667 13.333 18.667 72 24zM51.999 441c5.33301 3.33301 50.667 5.16699 136 5.5s141.666 -1.16699 168.999 -4.5c31.333 -4 46.666 -10 45.999 -18c0 -2 -2.66699 -4 -8 -6s-29.333 -0.666992 -72 4c-40 4.66699 -90.667 4 -152 -2s-97.166 -9 -107.499 -9
s-16.166 4 -17.499 12s0.666992 14 6 18z" />
    <glyph glyph-name="greater" unicode="&#x3e;" horiz-adv-x="515" 
d="M30 212c0 6.66699 29.1709 24.3311 87.5039 52.998s125.5 58 201.5 88c76.667 30 117.334 47.333 122.001 52s-4 9 -26 13c-46.667 8 -114 11.667 -202 11c-84 -1.33301 -134.333 -2.66602 -151 -3.99902c-9.33301 -0.666992 -15.833 0.166016 -19.5 2.49902
s-3.83398 5.33301 -0.500977 9s9.33301 6.5 18 8.5c107.333 14.667 212.333 14.334 315 -0.999023c26 -3.33301 46.833 -6.5 62.5 -9.5s27.667 -6.66699 36 -11s12.166 -8.66602 11.499 -12.999s-5.83398 -9.66602 -15.501 -15.999s-22.834 -13.333 -39.501 -21
s-39 -16.834 -67 -27.501c-127.333 -50.667 -213.333 -88.667 -258 -114s-69.334 -34.333 -74.001 -27c-0.666992 2 -1 4.33301 -1 7z" />
    <glyph glyph-name="question" unicode="?" horiz-adv-x="344" 
d="M171 124c-7.33301 2 -9.33301 9 -6 21c4 12 9.66699 16.667 17 14c1.33301 -0.666992 3 -2 5 -4c2.66699 -2.66699 1.66699 -8.5 -3 -17.5s-9 -13.5 -13 -13.5zM262 358c-4 -9.33301 -7.33105 -21.6709 -9.99805 -37.0039s-6.33398 -26.666 -11.001 -33.999
s-13.667 -12.333 -27 -15c-4.66699 0 -7.16699 3.16699 -7.5 9.5s1.5 10.5 5.5 12.5s16.667 36.833 38 104.5s32.666 102.5 33.999 104.5c4.66699 11.333 6.66699 25.833 6 43.5s-3.33398 28.834 -8.00098 33.501c-10.667 10.667 -39.5 11.334 -86.5 2.00098
s-83.833 -22.666 -110.5 -39.999c-20.667 -12.667 -31.334 -27 -32.001 -43c-1.33301 -15.333 -5.66602 -23 -12.999 -23c-6 0 -9.33301 5.83301 -10 17.5s1.66602 22.5 6.99902 32.5s18.833 21.5 40.5 34.5s45.834 23.833 72.501 32.5c29.333 10 58.5 15.333 87.5 16
s49.167 -3.33301 60.5 -12c10.667 -10 16 -24.667 16 -44c-1.33301 -39.333 -18.666 -104.333 -51.999 -195z" />
    <glyph glyph-name="at" unicode="@" horiz-adv-x="584" 
d="M267 -56c-72.667 -4 -129.329 16.498 -169.996 61.498s-63 103.167 -67 174.5c0 23.333 4.83301 53.166 14.5 89.499s19.834 62.166 30.501 77.499c17.333 25.333 43.833 50.5 79.5 75.5s67.167 40.167 94.5 45.5c28.667 5.33301 53 3.83301 73 -4.5
s39.667 -25.833 59 -52.5c23.333 -31.333 38.666 -64.5 45.999 -99.5s5.33301 -66.167 -6 -93.5c-11.333 -28 -31.833 -55.333 -61.5 -82s-54.167 -40 -73.5 -40c-18.667 0 -35.334 13 -50.001 39c-2 4 -3.83301 6.5 -5.5 7.5s-3.83398 0.833008 -6.50098 -0.5
s-6.66699 -4.66602 -12 -9.99902c-10 -10 -20.833 -17.5 -32.5 -22.5s-20.834 -6.16699 -27.501 -3.5c-8.66699 3.33301 -17 16 -25 38s-12 43.333 -12 64c0 33.333 10.167 66.333 30.5 99s40.833 49 61.5 49c13.333 0 27 -4.33301 41 -13s22.333 -17.667 25 -27
c3.33301 -13.333 3 -20.666 -1 -21.999s-10 3.66699 -18 15c-14 19.333 -32 24.666 -54 15.999s-38.667 -27.667 -50 -57c-4.66699 -11.333 -7.66699 -32.666 -9 -63.999c-0.666992 -34.667 4.66602 -57.167 15.999 -67.5s25.666 -6.16602 42.999 12.501
c6.66699 7.33301 11.334 15.5 14.001 24.5s4.66699 24.833 6 47.5s3 37.5 5 44.5s5.66699 10.833 11 11.5s8.66602 -1.33301 9.99902 -6s2 -17.667 2 -39c0 -62.667 10 -99 30 -109c12.667 -6.66699 31.667 -0.333984 57 18.999s45.666 43 60.999 71
c15.333 28.667 18.166 64.167 8.49902 106.5s-28.5 76.833 -56.5 103.5c-24.667 24 -58.667 30.833 -102 20.5s-83.333 -34.5 -120 -72.5c-50 -52 -73.667 -117.5 -71 -196.5s30.334 -136.833 83.001 -173.5c48 -33.333 103 -44.666 165 -33.999s117.667 40.667 167 90
c28 28 46.5 52.833 55.5 74.5s12.5 50.5 10.5 86.5c-2.66699 58 -20 90 -52 96c-13.333 2 -21 6.66699 -23 14c-1.33301 4 0.333984 6.33301 5.00098 7c7.33301 0 18 -3.33301 32 -10c28 -11.333 45.833 -39.666 53.5 -84.999s1.83398 -87.666 -17.499 -126.999
c-12.667 -26.667 -33 -53.167 -61 -79.5s-58 -47.5 -90 -63.5c-23.333 -11.333 -41 -18.333 -53 -21s-33 -4.33398 -63 -5.00098z" />
    <glyph glyph-name="A" unicode="A" horiz-adv-x="461" 
d="M94 148l12 18.001c21.333 38.667 30 59 26 61c-1.33301 2 -5 -2.66699 -11 -14c-16.667 -32.667 -25.667 -54.334 -27 -65.001zM317 356.001c-4.66699 22 -10.832 38.167 -18.499 48.5s-15.834 12.833 -24.501 7.5c-11.333 -6.66699 -30.833 -32.5 -58.5 -77.5
s-39.5 -70.5 -35.5 -76.5c1.33301 -2 15.833 -1.16699 43.5 2.5s56.167 8.5 85.5 14.5c8.66699 2 13.667 9 15 21s-1 32 -7 60zM268.002 431.001c4.66699 2.66699 10.0049 6.33398 16.0049 11.001c6 4 9.66699 5.83301 11 5.5s5.33301 -4.16602 12 -11.499
c1.33301 -0.666992 2.16602 -1.33398 2.49902 -2.00098s0.833008 -1.33398 1.5 -2.00098l2 -2c13.333 -15.333 26.333 -55 39 -119c3.33301 -15.333 7.66602 -24.166 12.999 -26.499s19.666 -0.833008 42.999 4.5c14.667 3.33301 22 3.33301 22 0
c0.666992 -6 -10.333 -12.333 -33 -19c-16.667 -4.66699 -26.334 -9 -29.001 -13c-4 -6 -3.66699 -33.333 1 -82c1.33301 -8 2 -13.667 2 -17c3.33301 -36.667 2.66602 -55 -2.00098 -55c-7.33301 0 -12.833 5 -16.5 15s-6.83398 27.667 -9.50098 53
c-2.66699 36.667 -6 59.334 -10 68.001c-3.33301 8 -6.66602 12.5 -9.99902 13.5s-11.333 0.5 -24 -1.5c-81.333 -17.333 -125.666 -26 -132.999 -26c-4 0 -10.167 -7.5 -18.5 -22.5s-28.5 -53.5 -60.5 -115.5c-25.333 -50.667 -41.666 -76 -48.999 -76
s-9.33301 9.33301 -6 28c3.33301 16.667 10.666 40.167 21.999 70.5s27.666 71.666 48.999 123.999s33.333 82.166 36 89.499c17.333 45.333 30 68 38 68c3.33301 0 6.33301 -4.66699 9 -14c2 -6.66699 0.833008 -16.667 -3.5 -30s-9.16602 -22 -14.499 -26
c-2.66699 -2 -9 -14.667 -19 -38c-10 -22.667 -12.333 -33 -7 -31c7.33301 2 19 18.333 35 49c39.333 72 69.666 115.333 90.999 130z" />
    <glyph glyph-name="B" unicode="B" horiz-adv-x="298" 
d="M89 158c0 -11.333 1.16602 -18.835 3.49902 -22.502s7.16602 -6.5 14.499 -8.5c19.333 -4.66699 41.5 -0.5 66.5 12.5s44 29.333 57 49s13.833 35.834 2.5 48.501c-6.66699 7.33301 -21.167 13.833 -43.5 19.5s-42.833 7.83398 -61.5 6.50098
c-20 -1.33301 -29.667 0.666992 -29 6c0.666992 6 12.334 13.667 35.001 23c24 10 45.833 25.167 65.5 45.5s31.167 39.833 34.5 58.5c2 11.333 2.33301 19.5 1 24.5s-6.33301 11.167 -15 18.5c-16 14 -43 18.833 -81 14.5s-63.333 -11.5 -76 -21.5
c-3.33301 -1.33301 -1.66602 -9.33301 5.00098 -24c3.33301 -10 4.5 -42.333 3.5 -97s-3.83301 -89.667 -8.5 -105c-2 -8.66699 1.66699 -14.334 11 -17.001c6 -1.33301 10 -4.16602 12 -8.49902s3 -11.833 3 -22.5zM71.999 465.998
c15.333 5.33301 27.502 8.33105 36.502 8.99805s27.833 0.333984 56.5 -0.999023c27.333 -0.666992 44.833 -2 52.5 -4s15.5 -7.66699 23.5 -17c14.667 -14.667 20 -32.334 16 -53.001s-11.667 -39.834 -23 -57.501s-22.333 -30.167 -33 -37.5l-23 -18
c52 -13.333 81 -30 87 -50c7.33301 -17.333 4.66602 -36.5 -8.00098 -57.5s-30 -38.167 -52 -51.5s-44.833 -22.5 -68.5 -27.5s-42.834 -0.166992 -57.501 14.5c-11.333 10 -20.333 14 -27 12c-5.33301 -2 -9 1.66699 -11 11c-4.66699 18 -4.66699 65.333 0 142
c4.66699 60.667 3 102.334 -5 125.001c-4 8 -6 15.333 -6 22s0.666992 11.834 2 15.501s5 7.33398 11 11.001s10.333 6 13 7s8 2.83301 16 5.5z" />
    <glyph glyph-name="C" unicode="C" horiz-adv-x="379" 
d="M281 509c0 19.333 -9.50391 32.6641 -28.5039 39.9971s-41.167 6.33301 -66.5 -3c-13.333 -5.33301 -33.833 -22 -61.5 -50s-45.834 -50.667 -54.501 -68c-14.667 -29.333 -19.167 -62.166 -13.5 -98.499s19.834 -65.166 42.501 -86.499
c30.667 -28 67.5 -41.667 110.5 -41s78.833 15.334 107.5 44.001c20.667 20.667 31.334 27.667 32.001 21c0 -4 -5 -14 -15 -30c-19.333 -29.333 -48.5 -47.833 -87.5 -55.5s-77.667 -3.66699 -116 12s-66.166 40.167 -83.499 73.5c-12 22.667 -17.667 50.667 -17 84
s7.66699 62.666 21 87.999c12.667 24 31.334 48.667 56.001 74s47.334 43 68.001 53c17.333 8.66699 36 13.5 56 14.5s34.667 -1.83301 44 -8.5c10 -7.33301 18.167 -19.666 24.5 -36.999s6.83301 -29 1.5 -35c-13.333 -15.333 -20 -12.333 -20 9z" />
    <glyph glyph-name="D" unicode="D" horiz-adv-x="304" 
d="M46 491c6.66699 2 11.499 3.33203 14.499 3.99902s6.33301 0.833984 10 0.500977s6.66699 -0.666016 9 -0.999023s6.83301 -1.33301 13.5 -3s14 -3.16699 22 -4.5c50 -12 88.333 -34.5 115 -67.5s41.334 -74.167 44.001 -123.5c2 -39.333 -8.33301 -72.333 -31 -99
s-49.334 -38.334 -80.001 -35.001s-50 13.333 -58 30c-6 12 -1.33301 21.667 14 29c15.333 6.66699 22.666 6.66699 21.999 0l-5 -10c-5.33301 -7.33301 -4.66602 -13 2.00098 -17s17.834 -6 33.501 -6s27.834 2 36.501 6c18 10 30.667 33.167 38 69.5
s5.33301 68.166 -6 95.499c-12 29.333 -32 53.666 -60 72.999s-59.667 31 -95 35c-20 2.66699 -30.333 2.33398 -31 -0.999023c0 -1.33301 1 -4 3 -8c4 -6.66699 6 -53 6 -139v-63.5c0 -16.333 0.333008 -28.833 1 -37.5s1.5 -14.5 2.5 -17.5s2.5 -4.16699 4.5 -3.5
c6.66699 2.66699 10 1.66699 10 -3c-1.33301 -9.33301 -7.33301 -16.666 -18 -21.999c-16 -7.33301 -25.667 -4.83301 -29 7.5s-3.33301 44.5 0 96.5c4 64 2.66699 127 -4 189c-0.666992 8.66699 0.166016 14.667 2.49902 18s6.83301 6 13.5 8z" />
    <glyph glyph-name="E" unicode="E" horiz-adv-x="309" 
d="M219 268c-41.333 0 -91.9961 -3.33203 -151.996 -9.99902c-3.33301 0 -5.33301 -4.83301 -6 -14.5s0.333008 -20.334 3 -32.001s6 -19.834 10 -24.501c6.66699 -7.33301 13.167 -11.333 19.5 -12s23.833 1 52.5 5c80.667 10.667 124.334 10.667 131.001 0
c4.66699 -8 -1 -13.667 -17 -17c-9.33301 -1.33301 -22.666 -2.33301 -39.999 -3c-14.667 0 -38.334 -2 -71.001 -6s-59.334 -5 -80.001 -3l-39 5c-0.666992 44 -0.333984 100.833 0.999023 170.5s3.66602 110.5 6.99902 122.5c2.66699 2.66699 5.66699 3.33398 9 2.00098
s6.66602 -4.33301 9.99902 -9s5 -9 5 -13c0 -7.33301 5.33301 -9.33301 16 -6c9.33301 3.33301 36.333 6.33301 81 9c14 1.33301 25.167 2 33.5 2s15 -0.333008 20 -1s8.16699 -1.5 9.5 -2.5s2 -2.83301 2 -5.5c0 -15.333 -9.66699 -20 -29 -14
c-11.333 4.66699 -31.666 3.66699 -60.999 -3c-34.667 -7.33301 -54.834 -14 -60.501 -20s-7.83398 -22.333 -6.50098 -49c1.33301 -23.333 3 -37 5 -41s8.66699 -7 20 -9c16.667 -2.66699 44 -1.66699 82 3c41.333 4.66699 64 4.66699 68 0c2 -2 3 -6 3 -12
c0 -8 -8.66699 -12 -26 -12z" />
    <glyph glyph-name="F" unicode="F" horiz-adv-x="289" 
d="M91 317c0 -20.667 0.668945 -33.334 2.00195 -38.001s5.33301 -7 12 -7c6 0 9.66699 1 11 3s1 6.66699 -1 14c-2.66699 10 -2.16699 15.667 1.5 17s10.167 -2.33398 19.5 -11.001s31.333 -13 66 -13c22.667 0 37.5 -0.666992 44.5 -2s11.167 -4.66602 12.5 -9.99902
c0.666992 -5.33301 -1.33301 -8.66602 -6 -9.99902s-16.667 -2 -36 -2c-29.333 0 -57.333 -3 -84 -9c-20 -4 -32 -7.5 -36 -10.5s-7 -11.167 -9 -24.5l-4 -27.5l-4 -27.5c-1.33301 -10.667 -3.33301 -18 -6 -22s-6.66699 -6 -12 -6c-6.66699 0 -10.5 3.83301 -11.5 11.5
s-1.5 30.834 -1.5 69.501c0 54.667 -3.66699 91 -11 109c-8 19.333 -9.33301 31.666 -4 36.999c2.66699 2 5.16699 3.16699 7.5 3.5s5.16602 -1 8.49902 -4s6.16602 -5.83301 8.49902 -8.5s4.83301 -5.83398 7.5 -9.50098s4.33398 -5.83398 5.00098 -6.50098
c-0.666992 6.66699 -1.33398 16.834 -2.00098 30.501s-1.33398 24.167 -2.00098 31.5c7.33301 0.666992 24.833 1.66699 52.5 3s51.834 2.83301 72.501 4.5s33.334 3.5 38.001 5.5c5.33301 5.33301 12.166 5.33301 20.499 0s10.833 -11.666 7.5 -18.999
c-2.66699 -5.33301 -26 -10 -70 -14c-52 -4 -81.333 -8.33301 -88 -13c-6 -9.33301 -9 -24.333 -9 -45z" />
    <glyph glyph-name="G" unicode="G" horiz-adv-x="360" 
d="M317 132c0 -14.667 -2.66699 -23.832 -8 -27.499s-12 -0.833984 -20 8.49902c-4.66699 6.66699 -3.33398 27.334 3.99902 62.001c8 42 10.333 80 7 114c-33.333 1.33301 -58.666 -0.666992 -75.999 -6c-14 -4 -20.667 -3 -20 3c0.666992 8 9.66699 15.667 27 23
c36 15.333 62.333 14.333 79 -3c10.667 -11.333 17 -23.833 19 -37.5s0.666992 -33.834 -4 -60.501c-5.33301 -36 -8 -61.333 -8 -76zM173 385.002c-13.333 0 -29.499 -5.50195 -48.499 -16.502s-33.833 -23.167 -44.5 -36.5c-9.33301 -11.333 -15.5 -28.166 -18.5 -50.499
s-2.16699 -42.833 2.5 -61.5c5.33301 -20 16.333 -37.5 33 -52.5s33.334 -22.5 50.001 -22.5c18.667 0 37 5.5 55 16.5s27.667 22.5 29 34.5c1.33301 12.667 4.33301 19 9 19c7.33301 -1.33301 12.333 -10 15 -26c1.33301 -6.66699 1.33301 -12.667 0 -18
c-2 -8.66699 -14.667 -18.667 -38 -30s-45 -18.666 -65 -21.999c-39.333 -5.33301 -72 14 -98 58c-26.667 44 -32.167 88.167 -16.5 132.5s48.167 76.5 97.5 96.5c30 12.667 58.667 12 86 -2c8 -4 12.167 -9.16699 12.5 -15.5s-2.83398 -12.333 -9.50098 -18
s-15.667 -9.5 -27 -11.5c-12.667 -2 -19 -2.33301 -19 -1l7 7c6 5.33301 9.66699 9.33301 11 12s0.166016 4.66699 -3.50098 6s-10.167 2 -19.5 2z" />
    <glyph glyph-name="H" unicode="H" horiz-adv-x="293" 
d="M45 483c16 0 23.999 -37.6699 23.999 -113.003v-61c76.667 2 123.334 5 140.001 9c5.33301 2 8 22.667 8 62c0 38 3.33301 62 10 72c6.66699 8 11.667 11 15 9c2 -3.33301 4.5 -51 7.5 -143s6.16699 -139 9.5 -141c7.33301 -16.667 7 -26.667 -1 -30
c-4.66699 -2 -10.334 0.333008 -17.001 7c-2.66699 2 -5.33398 6.83301 -8.00098 14.5s-5 17.5 -7 29.5s-3.66699 23 -5 33s-2.66602 21.833 -3.99902 35.5s-2.33301 22.834 -3 27.501l-55 -5c-37.333 -3.33301 -61.5 -7.16602 -72.5 -11.499s-17.833 -13.166 -20.5 -26.499
c-4.66699 -28.667 -5.16699 -48.834 -1.5 -60.501s13.167 -19.167 28.5 -22.5c-23.333 -24.667 -38.666 -33.667 -45.999 -27c-10 10.667 -13 63.334 -9 158.001c2.66699 88 1.66699 138.333 -3 151c-4.66699 9.33301 -6.5 17 -5.5 23s6.16699 9.33301 15.5 10z" />
    <glyph glyph-name="I" unicode="I" horiz-adv-x="335" 
d="M170 374c4 -17.333 6.00391 -83.999 6.00391 -199.999c84 -2.66699 127 -6.33398 129 -11.001c-2 -6.66699 -62 -13.667 -180 -21c-33.333 -2 -54.333 -2.66699 -63 -2s-13 3.33398 -13 8.00098c0 6.66699 3.33301 10.667 10 12c44 1.33301 69.667 5.66602 77 12.999
c4.66699 5.33301 7 39.5 7 102.5s-2.66699 100.167 -8 111.5c-4 9.33301 -7.83301 14.666 -11.5 15.999s-13.5 0.666016 -29.5 -2.00098c-38.667 -6.66699 -60 -6 -64 2c-2 5.33301 2 9.83301 12 13.5s26.667 7.16699 50 10.5c29.333 3.33301 65.666 5 108.999 5
s67.666 -1.66699 72.999 -5c3.33301 -2 5.16602 -4.83301 5.49902 -8.5s-0.833984 -6.5 -3.50098 -8.5s-5.66699 -2 -9 0c-5.33301 2.66699 -22.333 3.83398 -51 3.50098s-44.667 -2.16602 -48 -5.49902c-4 -4 -3.33301 -15.333 2 -34z" />
    <glyph glyph-name="J" unicode="J" horiz-adv-x="340" 
d="M310 498c0 -2.66699 -22.501 -7.16504 -67.501 -13.498s-67.5 -11.166 -67.5 -14.499c-4.66699 -4.66699 -4 -12.334 2 -23.001c12.667 -24.667 21.167 -64.334 25.5 -119.001s1.83301 -97 -7.5 -127c-6.66699 -22.667 -15 -43.167 -25 -61.5
s-18.333 -29.166 -25 -32.499c-18.667 -7.33301 -40 -4.33301 -64 9c-14 8.66699 -26.167 23.167 -36.5 43.5s-15.166 38.166 -14.499 53.499s6.33398 25 17.001 29c6.66699 0.666992 10.5 0 11.5 -2s0.833008 -7.66699 -0.5 -17c-2 -15.333 1.5 -32.5 10.5 -51.5
s19.833 -31.833 32.5 -38.5c10 -4.66699 16.667 -6.66699 20 -6s8 4.66699 14 12c9.33301 12.667 17.833 32.5 25.5 59.5s12.5 54.5 14.5 82.5c3.33301 27.333 -6.33398 90 -29.001 188h-12.5h-13.5c-4.66699 0 -8.66699 0.333008 -12 1s-5.83301 2.16699 -7.5 4.5
s-2.16699 5.16602 -1.5 8.49902c0 6.66699 2.5 10.667 7.5 12s17.5 2.33301 37.5 3c20 0 46 1.66699 78 5c20 2.66699 39.667 3.5 59 2.5s29 -3.5 29 -7.5z" />
    <glyph glyph-name="K" unicode="K" horiz-adv-x="329" 
d="M31 534c6 10 13.668 8.66797 23.001 -3.99902c4 -3.33301 8.66699 -26 14 -68s9.33301 -80.667 12 -116c43.333 58 72 89.333 86 94c17.333 0.666992 6 -24.333 -34 -75c-18.667 -23.333 -30.667 -40.666 -36 -51.999s-5.33301 -19.5 0 -24.5s17.333 -8.83301 36 -11.5
c107.333 -14.667 163 -26.334 167 -35.001c0.666992 -2 -0.333008 -4.33301 -3 -7c-4.66699 -4.66699 -22 -4.33398 -52 0.999023c-28 5.33301 -62.5 9.83301 -103.5 13.5s-63.5 4.5 -67.5 2.5c-4.66699 -1.33301 -5 -15 -1 -41c3.33301 -25.333 1 -39.666 -7 -42.999
c-6 -2 -10.667 -2 -14 0s-6 8.83301 -8 20.5s-3.16699 27.667 -3.5 48s-0.5 50.166 -0.5 89.499c1.33301 98.667 -0.333984 156.667 -5.00098 174c-4.66699 18.667 -5.66699 30 -3 34z" />
    <glyph glyph-name="L" unicode="L" horiz-adv-x="365" 
d="M80 490c16 -0.666992 23.498 -32.8311 22.498 -96.498s-9.5 -127.167 -25.5 -190.5c-8.66699 -28.667 -11.334 -44.667 -8.00098 -48c2 -3.33301 22 0 60 10c20.667 5.33301 47.667 9.66602 81 12.999s62.5 4.83301 87.5 4.5s37.5 -2.83301 37.5 -7.5
c0 -11.333 -30.667 -18 -92 -20c-42 -1.33301 -82.667 -8 -122 -20c-43.333 -12.667 -69.333 -18.334 -78 -17.001c-9.33301 1.33301 -13.666 8.5 -12.999 21.5s7.33398 41.833 20.001 86.5c12.667 46 19.334 101.667 20.001 167c0.666992 64.667 4 97 10 97z" />
    <glyph glyph-name="M" unicode="M" horiz-adv-x="412" 
d="M382 102c0 -8.66699 -3.33398 -12.999 -10.001 -12.999c-8 0 -14.333 6.33301 -19 19c-7.33301 23.333 -14.333 58.833 -21 106.5s-9 86.834 -7 117.501c-2 -4.66699 -7.33301 -15.5 -16 -32.5l-20.5 -41c-5 -10.333 -11.333 -21.333 -19 -33s-14.167 -19.5 -19.5 -23.5
c-12 -9.33301 -25.667 -14 -41 -14s-29.333 5 -42 15c-10 8 -21.333 23.833 -34 47.5s-19 41.5 -19 53.5c-0.666992 13.333 -5 9 -13 -13c-5.33301 -13.333 -12.666 -35 -21.999 -65c-14.667 -46 -24.334 -74.5 -29.001 -85.5s-9 -16.5 -13 -16.5
c-3.33301 0 -5.5 3.16699 -6.5 9.5s-0.666992 14.333 1 24s4.16699 19.5 7.5 29.5c32 84.667 51 142 57 172c3.33301 17.333 6.5 28.833 9.5 34.5s7.16699 8.5 12.5 8.5c6 0 10.167 -3.16699 12.5 -9.5s4.5 -20.5 6.5 -42.5c6 -66 21 -108.333 45 -127
c12.667 -10 23.167 -14.333 31.5 -13s18.833 8.66602 31.5 21.999c21.333 22.667 55.333 91.667 102 207c3.33301 8.66699 7.5 13.667 12.5 15s8.83301 -1.33398 11.5 -8.00098c2.66699 -5.33301 0.333984 -31.333 -6.99902 -78c-5.33301 -36 -6.83301 -77.667 -4.5 -125
s7.5 -83.333 15.5 -108c4.66699 -12.667 7 -23.667 7 -33z" />
    <glyph glyph-name="N" unicode="N" horiz-adv-x="343" 
d="M38 89c-3.33301 0 -5.66406 1.16895 -6.99707 3.50195s-1.66602 6.5 -0.999023 12.5s2 13.5 4 22.5s5.33301 20.833 10 35.5c10.667 33.333 15.334 65.333 14.001 96c-1.33301 31.333 1 48.666 7 51.999c6.66699 4.66699 17.667 -2.33301 33 -21s31.666 -45 48.999 -79
c15.333 -30.667 33.5 -58.667 54.5 -84s36.5 -38 46.5 -38c12.667 0 23.167 19.5 31.5 58.5s10.5 76.5 6.5 112.5c-0.666992 6 -1.83398 13 -3.50098 21s-2.66699 13.833 -3 17.5s-0.333008 7.5 0 11.5s2.16602 6.66699 5.49902 8s8 2 14 2
c7.33301 -1.33301 11.666 -6 12.999 -14s1.66602 -31 0.999023 -69c0 -56 -4.16699 -95.333 -12.5 -118s-24.833 -47.334 -49.5 -74.001c-30.667 22 -54.167 42.167 -70.5 60.5s-35.166 47.5 -56.499 87.5c-18 34 -30 50.667 -36 50c-4 0 -6.66699 -5 -8 -15
c-2.66699 -22.667 -9.33398 -51.5 -20.001 -86.5s-18 -52.5 -22 -52.5z" />
    <glyph glyph-name="O" unicode="O" horiz-adv-x="300" 
d="M172 435c10 4 19.8262 5.5 29.4932 4.5s15.834 -4.5 18.501 -10.5c5.33301 -10 8.83301 -22.333 10.5 -37s0.833984 -23 -2.49902 -25s-7.66602 1.16699 -12.999 9.5s-6.66602 13.833 -3.99902 16.5c2 3.33301 -0.333008 7.66602 -7 12.999
c-14 12 -40.333 -2.66699 -79 -44c-31.333 -32.667 -52.833 -75.834 -64.5 -129.501s-7.83398 -92.5 11.499 -116.5c11.333 -14 31.833 -18.667 61.5 -14s54.167 16.334 73.5 35.001c23.333 22.667 36.5 53.834 39.5 93.501s-5.83301 65.167 -26.5 76.5
c-7.33301 4 -11.5 7.83301 -12.5 11.5s0.833008 9.16699 5.5 16.5c8.66699 14 19.334 12 32.001 -6c6 -8.66699 11 -20 15 -34c8 -28 11 -55.333 9 -82s-9.33301 -48 -22 -64c-31.333 -40.667 -69.166 -64.334 -113.499 -71.001s-75.166 6.66602 -92.499 39.999
c-7.33301 14 -11 35.833 -11 65.5s3.66699 57.167 11 82.5c9.33301 32.667 27.333 66.334 54 101.001s52.334 57.334 77.001 68.001z" />
    <glyph glyph-name="P" unicode="P" horiz-adv-x="261" 
d="M109 215c36.667 0 63.334 17.666 80.001 52.999c13.333 28 17 56.167 11 84.5s-19.667 46.166 -41 53.499c-23.333 8 -43.666 7 -60.999 -3c-14.667 -8 -23.834 -18.167 -27.501 -30.5s-2.83398 -32.5 2.49902 -60.5c6.66699 -37.333 10 -61.666 10 -72.999
c0.666992 -11.333 2.16699 -18.166 4.5 -20.499s9.5 -3.5 21.5 -3.5zM63 102.999c-6.66699 0 -10.8311 3.00195 -12.498 9.00195s-2.83398 22.333 -3.50098 49c-1.33301 28 -1.66602 50 -0.999023 66s0.5 33.167 -0.5 51.5s-3.5 38.166 -7.5 59.499
c-10 49.333 -10 73.333 0 72c1.33301 0 2.66602 -0.333008 3.99902 -1c4.66699 -4 11 -2 19 6c19.333 16.667 44.5 24.5 75.5 23.5s55.167 -12.5 72.5 -34.5c12.667 -13.333 20 -35.666 22 -66.999s-2.33301 -57.333 -13 -78c-8.66699 -17.333 -21.834 -32.333 -39.501 -45
s-35.167 -20 -52.5 -22c-10.667 -1.33301 -17.667 -3.33301 -21 -6s-5.33301 -7.33398 -6 -14.001c-0.666992 -16.667 -5 -32.334 -13 -47.001s-15.667 -22 -23 -22z" />
    <glyph glyph-name="Q" unicode="Q" horiz-adv-x="350" 
d="M210 265c2 0.666992 7.83398 -4.50293 17.501 -15.5029s19.5 -21.5 29.5 -31.5s16.333 -14 19 -12c13.333 8 20 38 20 90c-0.666992 28 -1.83398 47.667 -3.50098 59s-6.5 28.333 -14.5 51c-5.33301 14.667 -8 23.834 -8 27.501s2.66699 7.5 8 11.5
c6.66699 5.33301 9.16699 12.833 7.5 22.5s-7.16699 16.834 -16.5 21.501c-44.667 22.667 -89 8.33398 -133 -42.999c-30 -34 -52 -71.5 -66 -112.5s-17.667 -78.833 -11 -113.5c4 -22.667 20.833 -38.667 50.5 -48s65.5 -10 107.5 -2c9.33301 2 15.333 4.66699 18 8
s2.66699 8 0 14s-8.66699 14.667 -18 26c-17.333 21.333 -22.333 36 -15 44zM307.001 88.9971c-6.66699 0 -17.666 12 -32.999 36c-14 23.333 -25 33.333 -33 30c-14.667 -6.66699 -37.334 -11.167 -68.001 -13.5s-52.667 -1.5 -66 2.5c-62 18 -86.333 68 -73 150
c4.66699 28 10.667 50.167 18 66.5s22.333 41.5 45 75.5c33.333 51.333 67.333 81.333 102 90c10.667 2.66699 24.5 3.33398 41.5 2.00098s28.833 -4 35.5 -8c25.333 -32.667 38 -73 38 -121c0 -12.667 1 -32.167 3 -58.5s3 -45.833 3 -58.5s-1.83301 -27.667 -5.5 -45
s-9.83398 -32 -18.501 -44l-15 -20l18 -36c14 -28.667 19 -44.334 15 -47.001c-1.33301 -0.666992 -3.66602 -1 -6.99902 -1z" />
    <glyph glyph-name="R" unicode="R" horiz-adv-x="330" 
d="M203 465c-3.33301 7.33301 -14.6689 10.6689 -34.002 10.002c-37.333 -0.666992 -61.666 -13.334 -72.999 -38.001c-5.33301 -11.333 -11.166 -38 -17.499 -80s-7.83301 -64.667 -4.5 -68c2.66699 -2.66699 17.167 7.16602 43.5 29.499s45.5 41.5 57.5 57.5
c11.333 15.333 19.833 31.5 25.5 48.5s6.5 30.5 2.5 40.5zM66.9971 237.003c-1.33301 0 -2 -7.99902 -2 -23.999c0 -18.667 -1.66699 -31 -5 -37s-9.33301 -6.66699 -18 -2c-6.66699 3.33301 -10.5 7.83301 -11.5 13.5s-0.5 19.167 1.5 40.5
c12 131.333 15.667 213.666 11 246.999c-4.66699 28.667 -5.66699 45.667 -3 51c8 12 18.667 6 32 -18c8.66699 -14 14.667 -21.5 18 -22.5s11.333 1.83301 24 8.5c11.333 6.66699 30 10 56 10s43.333 -3 52 -9c9.33301 -7.33301 13.666 -22.833 12.999 -46.5
s-6 -43.5 -16 -59.5c-11.333 -19.333 -54 -63 -128 -131c19.333 -14 54.333 -28 105 -42c68.667 -16.667 103.334 -29.667 104.001 -39c0 -2 -0.666992 -3.66699 -2 -5c-4.66699 -4.66699 -35.5 0 -92.5 14s-94.167 26.333 -111.5 37c-17.333 9.33301 -26.333 14 -27 14z
" />
    <glyph glyph-name="S" unicode="S" horiz-adv-x="312" 
d="M215 476c-19.333 0 -37.002 -2.33691 -53.002 -7.00391s-25.333 -10.334 -28 -17.001c-2.66699 -6 1.33301 -17.667 12 -35s25.667 -36.666 45 -57.999c36.667 -39.333 60.334 -84 71.001 -134c4.66699 -22 4.16699 -42.5 -1.5 -61.5s-16.167 -33.833 -31.5 -44.5
c-14 -9.33301 -35 -15.666 -63 -18.999s-51.667 -2.66602 -71 2.00098c-17.333 5.33301 -32.5 15.166 -45.5 29.499s-19.5 28.833 -19.5 43.5c0 12 3 25 9 39s12.833 25 20.5 33s14.167 10.333 19.5 7c4.66699 -2.66699 2.33398 -13 -6.99902 -31
c-16 -31.333 -18.333 -55.666 -7 -72.999s35.333 -26 72 -26c55.333 0 87.333 16.667 96 50c13.333 54.667 -11.334 116.334 -74.001 185.001c-28 30.667 -44.5 54.834 -49.5 72.501s0.5 33.834 16.5 48.501c5.33301 4.66699 10.333 8.5 15 11.5s10.334 5.16699 17.001 6.5
s12 2.16602 16 2.49902s11.5 0.833008 22.5 1.5s19.5 1.33398 25.5 2.00098c17.333 0.666992 28.833 0 34.5 -2s11.5 -7 17.5 -15c8 -12.667 10.333 -24.667 7 -36c-2 -7.33301 -4.33301 -12.333 -7 -15s-5.66699 -2.33398 -9 0.999023s-6.33301 9.33301 -9 18
c-2.66699 10 -6.16699 16 -10.5 18s-14.5 3 -30.5 3z" />
    <glyph glyph-name="T" unicode="T" horiz-adv-x="407" 
d="M205 152c-8.66699 0 -13.334 7.83301 -14.001 23.5s1.66602 55.834 6.99902 120.501c8.66699 95.333 8.33398 160.333 -0.999023 195s-29.666 49.334 -60.999 44.001c-16 -3.33301 -38.333 -3 -67 1c-16 2 -26.5 4.16699 -31.5 6.5s-7.5 6.16602 -7.5 11.499
c0 6 3.33301 9.5 10 10.5s24.334 0.5 53.001 -1.5c42 -2.66699 64 -2 66 2s35.5 6.66699 100.5 8s100.5 0 106.5 -4c10 -11.333 11.333 -18 4 -20c-5.33301 -2 -28.666 -3.66699 -69.999 -5c-52.667 -1.33301 -80.334 -3.33301 -83.001 -6
c-3.33301 -2.66699 -2.33301 -9.33398 3 -20.001c12 -22 15.667 -88.5 11 -199.5s-13.334 -166.5 -26.001 -166.5z" />
    <glyph glyph-name="U" unicode="U" horiz-adv-x="335" 
d="M46 455c5.33301 0 8.33398 -3.16895 9.00098 -9.50195s0.666992 -30.166 0 -71.499c-0.666992 -54 7.33301 -104.667 24 -152s36 -75.333 58 -84c21.333 -7.33301 48 3.33398 80 32.001c22.667 20.667 38.167 40.5 46.5 59.5s11.166 42.167 8.49902 69.5
c-4 34 -7.33301 56 -10 66c-3.33301 13.333 -0.333008 20 9 20c13.333 -0.666992 23.666 -6 30.999 -16c3.33301 -4 3.66602 -7 0.999023 -9c-5.33301 -2.66699 -8 -23 -8 -61c0 -32.667 -3.33301 -57.167 -10 -73.5s-22 -36.833 -46 -61.5
c-37.333 -38.667 -69.166 -57 -95.499 -55s-50.166 24.667 -71.499 68c-14 28.667 -25.167 67 -33.5 115s-10.833 87.667 -7.5 119c2.66699 29.333 7.66699 44 15 44z" />
    <glyph glyph-name="V" unicode="V" horiz-adv-x="390" 
d="M30 482c0 5.33301 4.33496 8.00195 13.002 8.00195c13.333 0 62.333 -73.333 147 -220c39.333 -69.333 61 -104 65 -104c5.33301 0 13.666 44.667 24.999 134c6.66699 60.667 12.667 97.667 18 111c2.66699 7.33301 12.5 14.666 29.5 21.999s27.833 9 32.5 5
c2 -3.33301 -4.33301 -11.333 -19 -24c-10.667 -9.33301 -17.834 -21 -21.501 -35s-10.167 -55 -19.5 -123c-12.667 -91.333 -23.667 -139 -33 -143c-4 -2 -9.66699 1.66699 -17 11c-20.667 28 -55.5 83.167 -104.5 165.5s-83.167 137.166 -102.5 164.499
c-8.66699 12.667 -13 22 -13 28z" />
    <glyph glyph-name="W" unicode="W" horiz-adv-x="468" 
d="M199 331c-2 25.333 1.66797 37.3271 11.001 35.9941c8.66699 -0.666992 14 -11 16 -31l1 -12c0 -32.667 5.5 -65.334 16.5 -98.001s24.167 -56 39.5 -70c10.667 -9.33301 25.667 -14.666 45 -15.999c13.333 -2 23.166 -2 29.499 0s13.166 6.66699 20.499 14
c30 30 42.333 85 37 165c-2.66699 42.667 -1.33398 64.334 3.99902 65.001c2.66699 -1.33301 6.66699 -4.66602 12 -9.99902c6 -8 8 -38 6 -90c-2.66699 -60.667 -12.167 -104.167 -28.5 -130.5s-42.166 -39.166 -77.499 -38.499c-23.333 0.666992 -43 7.33398 -59 20.001
c-12 9.33301 -24.833 25.5 -38.5 48.5s-20.5 40.167 -20.5 51.5c0 6 -2.33301 9 -7 9s-7 -3.66699 -7 -11s-7.66699 -19 -23 -35s-28.666 -26.333 -39.999 -31c-28 -11.333 -49.667 -10.5 -65 2.5s-26.333 40.167 -33 81.5c-4 26 -6.5 67 -7.5 123s0.5 86 4.5 90
c2 3.33301 6.33301 2.33301 13 -3c6 -5.33301 9 -41 9 -107c-0.666992 -69.333 3.5 -116.666 12.5 -141.999s24.5 -35.333 46.5 -30c21.333 5.33301 40.5 23.333 57.5 54s25.5 62.334 25.5 95.001z" />
    <glyph glyph-name="X" unicode="X" horiz-adv-x="309" 
d="M139 314c-3.33301 0 -14.9961 -17.3311 -34.9961 -51.998s-33 -59.667 -39 -75c-6.66699 -18 -10.167 -28.833 -10.5 -32.5s2.5 -7.83398 8.5 -12.501c10 -7.33301 11.667 -12.666 5 -15.999c-4.66699 -2 -11.334 -1.66699 -20.001 1c-12 4 -18 12 -18 24
c0 9.33301 4.83301 26.166 14.5 50.499s19.5 44.166 29.5 59.499c36.667 55.333 55 85.333 55 90c0 6.66699 -8.33301 26 -25 58s-29 52.333 -37 61c-12 12 -16.667 22 -14 30c6.66699 16 20.667 9 42 -21c11.333 -16 22.666 -36.333 33.999 -61
c10.667 -22.667 17.667 -34.334 21 -35.001c2 0 4.66699 2 8 6c6.66699 8 18 26 34 54c14.667 26 25 39 31 39c3.33301 -1.33301 6 -4.33301 8 -9c4.66699 -12 -12.333 -43.333 -51 -94c-11.333 -14.667 -17.5 -24.5 -18.5 -29.5s1.5 -13.833 7.5 -26.5
c19.333 -47.333 47.333 -95.666 84 -144.999c27.333 -34 32.666 -51.667 15.999 -53h-5c-6.66699 0 -20.834 16.167 -42.501 48.5s-41.5 65.833 -59.5 100.5c-13.333 26.667 -21 40 -23 40z" />
    <glyph glyph-name="Y" unicode="Y" horiz-adv-x="342" 
d="M298 532c10.667 -1.33301 15.499 -10.6641 14.499 -27.9971s-8.5 -73.666 -22.5 -168.999c-10.667 -70.667 -28.834 -132.834 -54.501 -186.501s-50.167 -80.5 -73.5 -80.5c-10.667 0 -22.167 7.16699 -34.5 21.5s-19.833 28.833 -22.5 43.5c-2.66699 16 -1 25 5 27
c3.33301 1.33301 6.33301 -1.66699 9 -9l2 -4c16.667 -54 39 -64.333 67 -31c13.333 16 27 42 41 78c16.667 47.333 27 88.666 31 123.999l-22 -19c-22 -18.667 -50.667 -27 -86 -25s-62.333 13.333 -81 34c-22 24.667 -35.333 57 -40 97s0.666016 78.333 15.999 115
c4 9.33301 9 15.333 15 18s11 1 15 -5c2.66699 -4.66699 0 -14.334 -8 -29.001c-9.33301 -18 -13.666 -45.333 -12.999 -82s5.66699 -63.334 15 -80.001c20.667 -34.667 54.334 -50 101.001 -46c16 1.33301 28 3.83301 36 7.5s17 10.5 27 20.5c23.333 22 35.333 63 36 123
c0.666992 20.667 3.83398 40 9.50098 58s11.5 27 17.5 27z" />
    <glyph glyph-name="Z" unicode="Z" horiz-adv-x="424" 
d="M60 146c0.666992 -1.33301 12.165 -2.16699 34.498 -2.5s49.333 -0.666016 81 -0.999023l94.5 -1c31.333 -0.333008 57.833 -1 79.5 -2s32.5 -2.5 32.5 -4.5c9.33301 -4.66699 13.333 -11 12 -19c-1.33301 -4.66699 -5 -5.66699 -11 -3
c-13.333 5.33301 -39.166 8.5 -77.499 9.5s-77.5 -0.5 -117.5 -4.5c-59.333 -5.33301 -98 -5.66602 -116 -0.999023c-34 8.66699 -47.333 25.667 -40 51c11.333 35.333 58.333 95.666 141 180.999c105.333 109.333 158 175 158 197c0 14 -26.833 24 -80.5 30
s-99.5 4 -137.5 -6c-28 -8 -44.333 -6.66699 -49 4c-2.66699 8 3 14.667 17 20c6 2 12.333 3.33301 19 4c36 2 78.5 1.83301 127.5 -0.5s80.5 -6.5 94.5 -12.5c17.333 -7.33301 28.5 -15.5 33.5 -24.5s3.16699 -22.5 -5.5 -40.5s-23.667 -39.5 -45 -64.5
s-52.666 -59.167 -93.999 -102.5c-57.333 -60.667 -95.333 -102.334 -114 -125.001c-14 -17.333 -24.667 -34.333 -32 -51s-9 -27 -5 -31z" />
    <glyph glyph-name="underscore" unicode="_" horiz-adv-x="460" 
d="M30 -61c0 4 2.33496 6.33398 7.00195 7.00098c7.33301 0.666992 68.666 -4 183.999 -14c60.667 -4.66699 110.667 -6 150 -4c14.667 1.33301 25.5 2 32.5 2s12.833 -0.166992 17.5 -0.5s7.5 -1.33301 8.5 -3s1.16699 -3.83398 0.5 -6.50098
c-4 -18.667 -70.333 -22 -199 -10c-64.667 6.66699 -112.334 10 -143.001 10c-38.667 0 -58 6.33301 -58 19z" />
    <glyph glyph-name="grave" unicode="`" horiz-adv-x="157" 
d="M30 576c0 15.333 5.33301 17.999 16 7.99902c6.66699 -7.33301 13.667 -18 21 -32c12.667 -23.333 26 -46.333 40 -69c18 -31.333 21.667 -47.666 11 -48.999c-6 0 -10 3.16699 -12 9.5s-4.66699 10.5 -8 12.5c-8.66699 8.66699 -22.167 29.167 -40.5 61.5
s-27.5 51.833 -27.5 58.5z" />
    <glyph glyph-name="a" unicode="a" horiz-adv-x="304" 
d="M51 196c0 -39.333 7.16699 -66.498 21.5 -81.498s38.5 -20.167 72.5 -15.5c35.333 5.33301 57 22.666 65 51.999c4 12.667 3.83301 33.667 -0.5 63s-9.16602 44 -14.499 44c-6.66699 0 -11.334 5 -14.001 15c-3.33301 9.33301 -12 18.666 -26 27.999
c-30.667 18.667 -55.667 18.167 -75 -1.5s-29 -54.167 -29 -103.5zM189 296.002c2.66699 -4 8.83301 -7.33301 18.5 -10s15.167 -9 16.5 -19c0 -1.33301 4.33301 -20.166 13 -56.499s14 -62.5 16 -78.5c4 -26 8.66699 -41.667 14 -47s7.33301 -10.666 6 -15.999
s-5.66602 -8 -12.999 -8c-4.66699 0 -9.83398 5.33301 -15.501 16s-9.5 22.334 -11.5 35.001c-1.33301 6.66699 -4.33301 8.66699 -9 6c-3.33301 -1.33301 -10.333 -6 -21 -14c-29.333 -24.667 -62.666 -33.334 -99.999 -26.001c-48.667 8.66699 -73 49.667 -73 123
c0 62.667 17.667 104.667 53 126c14.667 9.33301 34.667 10.166 60 2.49902s40.666 -18.834 45.999 -33.501z" />
    <glyph glyph-name="b" unicode="b" horiz-adv-x="274" 
d="M192 238c-8 5.33301 -19.332 6.83203 -33.999 4.49902s-27.334 -7.83301 -38.001 -16.5c-14.667 -11.333 -26 -32 -34 -62c-8 -30.667 -10.833 -52.667 -8.5 -66s10.833 -23.666 25.5 -30.999c25.333 -12.667 50 -12.167 74 1.5s38 35.167 42 64.5
c2.66699 15.333 0.666992 35.333 -6 60s-13.667 39.667 -21 45zM69.001 186.999c4 0 6.00195 3.99805 6.00195 11.998c0 7.33301 9.33301 20 28 38s33.667 28.333 45 31c25.333 6.66699 47.5 -1.66602 66.5 -24.999s28.833 -53.666 29.5 -90.999
c0 -30 -7.5 -54.833 -22.5 -74.5s-36.167 -32.167 -63.5 -37.5c-19.333 -4 -35.5 -4 -48.5 0s-26.833 13 -41.5 27l-28 27c2 144.667 -0.333008 242.667 -7 294c-4 26.667 -4.66699 45 -2 55c1.33301 2.66699 3.16602 4.16699 5.49902 4.5s4.83301 -0.5 7.5 -2.5
s4.66699 -5 6 -9c3.33301 -0.666992 6.66602 -42.167 9.99902 -124.5s6.33301 -123.833 9 -124.5z" />
    <glyph glyph-name="c" unicode="c" horiz-adv-x="312" 
d="M282 307c0 -8.66699 -2.33398 -13 -7.00098 -13c-6 1.33301 -10.667 8 -14 20c-2 11.333 -11 21.333 -27 30c-10 6 -18 9.33301 -24 10s-16.667 -1 -32 -5c-32 -5.33301 -60.167 -27.666 -84.5 -66.999s-36.5 -82.333 -36.5 -129c0 -47.333 6.5 -80.5 19.5 -99.5
s35.833 -28.5 68.5 -28.5c25.333 0 48 5.5 68 16.5s30 23.5 30 37.5c0 13.333 4.33301 21 13 23c6 1.33301 10.667 -2 14 -10c6 -14.667 0 -31.334 -18 -50.001s-40.333 -31 -67 -37c-18.667 -4 -38.667 -4.33301 -60 -1s-38.333 9.33301 -51 18
c-22.667 14.667 -36.667 50 -42 106c-2 21.333 -2.33301 38.5 -1 51.5s6 31.5 14 55.5c21.333 63.333 53 106 95 128c14 7.33301 31.333 11.833 52 13.5s37.334 -0.5 50.001 -6.5c10 -4.66699 19.167 -13.5 27.5 -26.5s12.5 -25.167 12.5 -36.5z" />
    <glyph glyph-name="d" unicode="d" horiz-adv-x="258" 
d="M56 165c0 -32 2.99805 -51 8.99805 -57c6.66699 -6.66699 18.334 -9.16699 35.001 -7.5s31 6.83398 43 15.501c24 17.333 35.833 45 35.5 83s-12.5 65.667 -36.5 83c-9.33301 6 -15.5 9.16699 -18.5 9.5s-9.5 -1.83398 -19.5 -6.50098
c-13.333 -6.66699 -24.666 -21.5 -33.999 -44.5s-14 -48.167 -14 -75.5zM217.998 103c10 0 12.999 -3.99902 8.99902 -11.999c-2.66699 -6.66699 -8 -11.667 -16 -15c-8 -4 -13.5 -5.33301 -16.5 -4s-6.16699 6.33301 -9.5 15c-1.33301 2.66699 -2.66602 5.66699 -3.99902 9
s-2.16602 5.66602 -2.49902 6.99902s-1 2.66602 -2 3.99902s-1.66699 2 -2 2s-1.33301 -0.333008 -3 -1s-2.83398 -1.33398 -3.50098 -2.00098s-2.66699 -2.16699 -6 -4.5l-8 -5.5c-18.667 -14 -40.5 -20.5 -65.5 -19.5s-40.833 9.16699 -47.5 24.5
c-5.33301 12 -8.83301 29.833 -10.5 53.5s-0.833984 41.5 2.49902 53.5c5.33301 20.667 12.833 40.334 22.5 59.001s18.5 30.667 26.5 36c10.667 7.33301 23.334 10.833 38.001 10.5s27.334 -4.83301 38.001 -13.5c11.333 -9.33301 18.666 -14 21.999 -14
c2 3.33301 3.83301 19.833 5.5 49.5s3.16699 46.834 4.5 51.501c2.66699 13.333 6.66699 19.333 12 18c7.33301 -2 12.333 -12.667 15 -32c4 -30 5.33301 -65.667 4 -107s-5 -70 -11 -86c-6 -17.333 -8 -34.5 -6 -51.5s6.66699 -25.5 14 -25.5z" />
    <glyph glyph-name="e" unicode="e" horiz-adv-x="297" 
d="M178 321c-8.66699 0 -20.166 -6.66699 -34.499 -20s-21.5 -24.333 -21.5 -33c0 -5.33301 2.66699 -8.33301 8 -9s18.666 0 39.999 2c10 2 23.333 3 40 3c14.667 0 22.5 1.5 23.5 4.5s-5.5 13.167 -19.5 30.5c-13.333 14.667 -25.333 22 -36 22zM50.001 223
c-12 0 -18.665 3.66797 -19.998 11.001c-0.666992 5.33301 3.66602 8.66602 12.999 9.99902h2c4 0.666992 8.66699 1.33398 14 2.00098l12 1.5c2.66699 0.333008 5.5 1.33301 8.5 3s5.5 4 7.5 7s3.66699 7.16699 5 12.5c4 12.667 12.833 27 26.5 43s25.167 26 34.5 30
c24.667 10 49.667 0.333008 75 -29c11.333 -12.667 21.5 -28.834 30.5 -48.501s11.5 -31.5 7.5 -35.5c-2 -2 -11.667 -0.333008 -29 5c-14.667 4 -39.834 4.5 -75.501 1.5s-56.5 -7.5 -62.5 -13.5c-5.33301 -5.33301 -8.66602 -20.166 -9.99902 -44.499s0 -42.833 4 -55.5
c8 -24.667 22.167 -42.834 42.5 -54.501s42.5 -14.167 66.5 -7.5c16.667 3.33301 28.5 10.833 35.5 22.5s12.5 28.834 16.5 51.501c7.33301 -20 8.33301 -36.833 3 -50.5s-18 -27.167 -38 -40.5c-18.667 -9.33301 -40.5 -10.833 -65.5 -4.5s-43.167 14.833 -54.5 25.5
c-25.333 25.333 -36 64.666 -32 117.999c1.33301 19.333 1.16602 30.833 -0.500977 34.5s-7.16699 5.5 -16.5 5.5z" />
    <glyph glyph-name="f" unicode="f" horiz-adv-x="284" 
d="M237 399c-8 0 -10.668 4.66602 -8.00098 13.999c2.66699 10 1.5 21.833 -3.5 35.5s-10.5 20.5 -16.5 20.5c-14.667 0 -29.334 -16.333 -44.001 -49s-22 -64.667 -22 -96v-32h30c36 3.33301 54 2.16602 54 -3.50098s-14.333 -9.83398 -43 -12.501l-44 -5
c1.33301 -16.667 3.66602 -42.167 6.99902 -76.5s5.66602 -57.166 6.99902 -68.499c2.66699 -29.333 -0.666016 -44 -9.99902 -44s-15.666 2 -18.999 6c-1.33301 0.666992 -3.66602 29.834 -6.99902 87.501s-5.33301 86.834 -6 87.501
c-1.33301 0.666992 -14.333 -1.33301 -39 -6c-28 -6 -42.333 -5.33301 -43 2c0 2 0.666992 5 2 9c2.66699 6 29.334 12.333 80.001 19c5.33301 95.333 23.333 157 54 185c10 10.667 17.667 17.167 23 19.5s12.333 2.5 21 0.5c16.667 -4.66699 29.667 -19.667 39 -45
c8.66699 -25.333 7 -41 -5 -47c-2 -0.666992 -4.33301 -1 -7 -1z" />
    <glyph glyph-name="g" unicode="g" horiz-adv-x="258" 
d="M188 142c1.33301 2 2.66699 8.16699 4 18.5s2.33301 22.333 3 36s0.833984 27.167 0.500977 40.5s-1.5 24.333 -3.5 33s-4.66699 12.667 -8 12c-15.333 6 -34 3.83301 -56 -6.5s-39.333 -24.833 -52 -43.5c-10 -14.667 -16.667 -36 -20 -64s-1.33301 -46.333 6 -55
c10 -12.667 31.667 -15 65 -7s53.666 20 60.999 36zM224.001 249c0 -28.667 1 -73.9971 3 -135.997s0.833008 -106.5 -3.5 -133.5s-13.833 -48.5 -28.5 -64.5c-10.667 -11.333 -23.834 -18.333 -39.501 -21s-29.167 -0.333984 -40.5 6.99902s-23 20.666 -35 39.999
s-18 34.666 -18 45.999s2 17 6 17c4.66699 -0.666992 9.33398 -9 14.001 -25c4.66699 -18 12.5 -32.333 23.5 -43s23.167 -16 36.5 -16c23.333 0 39.333 9 48 27s13 51 13 99c0 47.333 -1.33301 71 -4 71c-0.666992 0 -9 -5.33301 -25 -16
c-14.667 -11.333 -36.334 -17.833 -65.001 -19.5s-49 2.5 -61 12.5c-7.33301 6.66699 -12.166 13.5 -14.499 20.5s-3.5 20.167 -3.5 39.5c1.33301 72.667 35.333 124 102 154c22 9.33301 42.5 7.5 61.5 -5.5s29.167 -30.833 30.5 -53.5z" />
    <glyph glyph-name="h" unicode="h" horiz-adv-x="245" 
d="M72 306c-6 -46 -8.33008 -102.999 -6.99707 -170.999c8.66699 18 21.334 34.833 38.001 50.5s31.667 23.167 45 22.5c13.333 0 24.166 -8.33301 32.499 -25s15.833 -45.334 22.5 -86.001c4 -24.667 6.83301 -43.834 8.5 -57.501s2.66699 -24.667 3 -33
s-0.333984 -13.666 -2.00098 -15.999s-4.16699 -3.5 -7.5 -3.5c-7.33301 0 -14.333 25.667 -21 77c-6.66699 45.333 -12 75.833 -16 91.5s-9 26.167 -15 31.5c-4 5.33301 -10.833 4.16602 -20.5 -3.50098s-15.5 -11.167 -17.5 -10.5c-4 0 -13.333 -17 -28 -51
s-23.334 -59.667 -26.001 -77c-1.33301 -7.33301 -3.83301 -14 -7.5 -20s-7.5 -9.83301 -11.5 -11.5s-7.66699 -1.16699 -11 1.5c-0.666992 16.667 1.66602 60.834 6.99902 132.501s7.33301 119.167 6 142.5c0 58 1.33301 88 4 90c6.66699 6.66699 14.334 5 23.001 -5
c5.33301 -7.33301 5.66602 -30.333 0.999023 -69z" />
    <glyph glyph-name="i" unicode="i" horiz-adv-x="97" 
d="M47 287c1.33301 2.66699 3.5 4.49707 6.5 5.49707s5.5 1 7.5 0s3 -2.5 3 -4.5c2.66699 -50 3.5 -100 2.5 -150s-3.16699 -76.333 -6.5 -79c-11.333 -9.33301 -18.333 -5.66602 -21 11.001c-2.66699 14.667 -3 48.334 -1 101.001
c3.33301 72.667 6.33301 111.334 9 116.001zM54 405.997c0 -4.66699 -1.66602 -7.83105 -4.99902 -9.49805s-7 -1.33398 -11 0.999023s-6.33301 5.83301 -7 10.5c-2.66699 7.33301 -0.333984 11 6.99902 11c10 -0.666992 15.333 -4.33398 16 -11.001v-2z" />
    <glyph glyph-name="j" unicode="j" horiz-adv-x="233" 
d="M193 279c4.66699 0 7.66699 -8.33301 9 -25s1.33301 -58 0 -124c-1.33301 -70 -3 -114.667 -5 -134s-6.66699 -37.666 -14 -54.999c-8.66699 -22.667 -20.667 -42.5 -36 -59.5s-28.333 -25.5 -39 -25.5c-23.333 0 -42.666 17 -57.999 51
c-13.333 29.333 -19.833 56.333 -19.5 81s7.5 37 21.5 37c4 0 6.83301 -0.833008 8.5 -2.5s2 -4.66699 1 -9s-3.16699 -10.833 -6.5 -19.5c-4 -12 -2.66699 -28.667 4 -50c8.66699 -30.667 21 -49.667 37 -57s30.333 -0.333008 43 21c14.667 24 24.667 52.167 30 84.5
s8.66602 82.166 9.99902 149.499c1.33301 84.667 2.33301 128.667 3 132c1.33301 3.33301 5 5 11 5zM193 441c4 0 6.83203 -2.50098 8.49902 -7.50098s1.5 -10.167 -0.5 -15.5s-5 -8.66602 -9 -9.99902c-4.66699 -1.33301 -8.66699 1.66699 -12 9
s-3.66602 13.333 -0.999023 18c2 4 6.66699 6 14 6z" />
    <glyph glyph-name="k" unicode="k" horiz-adv-x="289" 
d="M70 423c-4.66699 -22.667 -6.99805 -90.333 -6.99805 -203l63 66c48 50 73.667 68 77 54l1 -5c-2 -5.33301 -24 -29.833 -66 -73.5s-63.667 -68.5 -65 -74.5c-4 -7.33301 -6.33301 -12.333 -7 -15s-0.166992 -4.5 1.5 -5.5s5.16699 -2.16699 10.5 -3.5
c9.33301 -2 31.333 -4.33301 66 -7c57.333 -4 93.666 -14.333 108.999 -31c4.66699 -4.66699 6.33398 -7.33398 5.00098 -8.00098c-2 0 -7.33301 1 -16 3c-16.667 3.33301 -49.667 6 -99 8c-38 2.66699 -60.667 3.5 -68 2.5s-12 -5.16699 -14 -12.5
s-6.5 -12.166 -13.5 -14.499s-12.5 -0.166016 -16.5 6.50098c-2.66699 5.33301 -1.66699 62.666 3 171.999c5.33301 109.333 11.666 171.666 18.999 186.999c8 15.333 15.333 21.333 22 18c3.33301 -1.33301 4.66602 -6.33301 3.99902 -15
c-1.33301 -9.33301 -4.33301 -25.666 -9 -48.999z" />
    <glyph glyph-name="l" unicode="l" horiz-adv-x="88" 
d="M45 64c-6.66699 0 -10.668 8.83105 -12.001 26.498s-2.33301 69.5 -3 155.5c-0.666992 120.667 2 181.334 8 182.001c2.66699 0 6.33398 -6 11.001 -18c4 -9.33301 6.66699 -69.666 8 -180.999c0.666992 -80 0.5 -127.5 -0.5 -142.5s-4.83301 -22.5 -11.5 -22.5z" />
    <glyph glyph-name="m" unicode="m" horiz-adv-x="419" 
d="M70 420c4.66699 0 7.33398 -3.66309 8.00098 -10.9961s0 -25.333 -2 -54c-2.66699 -43.333 -6.33398 -80.333 -11.001 -111c-5.33301 -36.667 -5.33301 -53.667 0 -51l2 2c0.666992 0.666992 8 28.667 22 84c10 44 18.667 71.333 26 82s20.333 14.667 39 12
c15.333 -2.66699 29 -11 41 -25s20.333 -31.333 25 -52c8 -36 14 -54 18 -54c2 0 5.33301 4.66699 10 14c3.33301 6.66699 8.33301 14.334 15 23.001s11 15.667 13 21c0 3.33301 8.66699 7 26 11c29.333 9.33301 53.333 -15.334 72 -74.001
c5.33301 -21.333 9.66602 -54 12.999 -98s3.33301 -68.667 0 -74c-7.33301 -12 -13.666 -6 -18.999 18c-3.33301 16 -6 39 -8 69c-6 78 -20.667 123 -44 135c-6.66699 3.33301 -12 4 -16 2s-9.66699 -7.33301 -17 -16c-10 -12.667 -20.667 -33.334 -32 -62.001
s-19 -55.334 -23 -80.001c-2 -12.667 -4.33301 -21.167 -7 -25.5s-6.66699 -6.5 -12 -6.5c-9.33301 0 -13.666 4.66699 -12.999 14c19.333 157.333 2.33301 236 -51 236c-10.667 0 -18.334 -4.83301 -23.001 -14.5s-11.667 -35.167 -21 -76.5
c-23.333 -108 -42 -163.667 -56 -167c-2 -0.666992 -4.33301 -0.333984 -7 0.999023c-4.66699 6.66699 -7.16699 20.5 -7.5 41.5s0.666992 42.667 3 65l8 73c3 26.333 4.83301 45.166 5.5 56.499c2 36.667 4.66699 62 8 76c0.666992 4 2.5 7.66699 5.5 11s6.16699 5 9.5 5z
" />
    <glyph glyph-name="n" unicode="n" horiz-adv-x="246" 
d="M50 244c0.666992 5.33301 0.99707 11.1699 0.99707 17.5029s0.166992 11 0.5 14s0.833008 6 1.5 9s2.33398 5.16699 5.00098 6.5s6 2 10 2c2 0.666992 3.66699 -0.5 5 -3.5s2.5 -7.16699 3.5 -12.5s1.83301 -11.166 2.5 -17.499s1.16699 -13.5 1.5 -21.5s0.5 -15 0.5 -21
s0.166992 -12.333 0.5 -19s0.5 -11.334 0.5 -14.001l15 33c12.667 28 29.167 41.667 49.5 41s37.833 -15.334 52.5 -44.001c10 -18 15.333 -50.333 16 -97c1.33301 -44.667 0.666016 -69.667 -2.00098 -75c-2 -7.33301 -7.33301 -10.333 -16 -9c-4 0 -6 1.66699 -6 5l-2 75
c-2 70.667 -14.667 110.667 -38 120c-9.33301 3.33301 -18.666 -2 -27.999 -16s-21.666 -40.667 -36.999 -80c-10.667 -27.333 -18.667 -45.333 -24 -54s-11.333 -13.334 -18 -14.001c-7.33301 -1.33301 -11.666 -0.833008 -12.999 1.5s-1 8.83301 1 19.5
c12 71.333 18 122.666 18 153.999z" />
    <glyph glyph-name="o" unicode="o" horiz-adv-x="323" 
d="M209 251c0.666992 12 -4.00098 21.8311 -14.001 29.498s-21 11.834 -33 12.501c-12 0 -26.167 -6.33301 -42.5 -19s-30.166 -28.334 -41.499 -47.001c-8.66699 -14.667 -14.334 -27 -17.001 -37s-4 -24.667 -4 -44c0.666992 -83.333 39.667 -116.666 117 -99.999
c24.667 5.33301 47 15.333 67 30s30.333 28.334 31 41.001c0 15.333 -4.66699 36.166 -14 62.499s-16.666 39.5 -21.999 39.5c-18 0.666992 -27 11.334 -27 32.001zM292.999 122.998c0 -31.333 -22.6719 -58.6689 -68.0049 -82.002s-86.666 -28.666 -123.999 -15.999
c-17.333 6.66699 -31.333 15.334 -42 26.001c-11.333 11.333 -19.666 30.333 -24.999 57s-5.66602 51 -0.999023 73c7.33301 30.667 21.333 58.834 42 84.501s42.334 41.5 65.001 47.5c19.333 5.33301 38.5 3.5 57.5 -5.5s31.167 -21.5 36.5 -37.5
c2 -7.33301 8.66699 -17.333 20 -30c8.66699 -8.66699 17.334 -26.334 26.001 -53.001s13 -48 13 -64z" />
    <glyph glyph-name="p" unicode="p" horiz-adv-x="249" 
d="M180 209c-7.33301 6 -25.499 9.83301 -54.499 11.5s-47.833 -0.166016 -56.5 -5.49902c-8.66699 -2.66699 -10.334 -8.5 -5.00098 -17.5s5.66602 -16.833 0.999023 -23.5c-5.33301 -10 -7.66602 -28 -6.99902 -54s4.33398 -45.333 11.001 -58
c6.66699 -13.333 14.667 -20.5 24 -21.5s22.666 3.83301 39.999 14.5c22.667 13.333 40 39.166 52 77.499s10.333 63.833 -5 76.5zM100.001 18c-18 0 -29.3281 3.00098 -33.9951 9.00098c-3.33301 4.66699 -6.33301 -25.333 -9 -90
c-0.666992 -20.667 -1.33398 -37.334 -2.00098 -50.001s-1.66699 -22.667 -3 -30s-2.66602 -12.166 -3.99902 -14.499s-3 -3.5 -5 -3.5c-4.66699 0 -7.5 10 -8.5 30s-2.16699 68.667 -3.5 146c-0.666992 66.667 -0.333984 113.667 0.999023 141
s4.16602 46.666 8.49902 57.999s12.166 20.333 23.499 27c11.333 6 30.333 8 57 6s47.667 -6.66699 63 -14c27.333 -14 38.666 -40.5 33.999 -79.5s-23.334 -73.833 -56.001 -104.5c-13.333 -12.667 -24 -21 -32 -25s-18 -6 -30 -6z" />
    <glyph glyph-name="q" unicode="q" horiz-adv-x="380" 
d="M133 413c10 0 25.166 -6.83496 45.499 -20.502s33.166 -25.834 38.499 -36.501c6.66699 -11.333 10 -21.166 10 -29.499s-3.33301 -12.5 -10 -12.5c-7.33301 0 -11 3.66699 -11 11c0 6.66699 -6.33301 16.167 -19 28.5s-24.667 20.5 -36 24.5
c-16.667 6.66699 -32 5.33398 -46 -3.99902s-24.667 -23.833 -32 -43.5s-12.5 -40.667 -15.5 -63s-2.83301 -43.666 0.5 -63.999s9.33301 -35.166 18 -44.499c8 -8.66699 16.667 -13 26 -13s22.666 4.33301 39.999 13c49.333 24.667 80 72.334 92 143.001
c6 31.333 12.333 48.333 19 51c5.33301 2 8.33301 -0.666992 9 -8c0.666992 -6.66699 0 -22 -2 -46c-4.66699 -59.333 -7.66699 -128 -9 -206s-0.333008 -132.333 3 -163c2.66699 -32.667 5.33398 -49.334 8.00098 -50.001c2 -0.666992 5.33301 7.33301 10 24l9 30
c6.66699 26.667 15.834 50.834 27.501 72.501s20.834 32.5 27.501 32.5c9.33301 0 14 -3.33301 14 -10s-4.33301 -15 -13 -25c-18 -22.667 -38.333 -79.334 -61 -170.001c-6 -24 -14 -35.667 -24 -35c-6 1.33301 -10.333 7 -13 17c-7.33301 34 -12.5 93.5 -15.5 178.5
s-2.5 153.833 1.5 206.5c-48 -54.667 -90.333 -80.334 -127 -77.001c-16.667 0 -31 7.33301 -43 22c-12 14 -19.333 28 -22 42s-3 38.333 -1 73c2 44 11.167 78 27.5 102s40.833 40.667 73.5 50z" />
    <glyph glyph-name="r" unicode="r" horiz-adv-x="238" 
d="M38 328c7.33301 0 12.5 -5.33398 15.5 -16.001s5.83301 -36.334 8.5 -77.001l5 -72l6 60c3.33301 36 9 59.333 17 70s23 15.667 45 15c12.667 0.666992 24.5 -1.5 35.5 -6.5s18.167 -7.83301 21.5 -8.5c8 0 13.167 -3.5 15.5 -10.5s0.166016 -12.167 -6.50098 -15.5
c-8 -2.66699 -16.667 -1.66699 -26 3c-11.333 5.33301 -24 9 -38 11s-23.667 1.66699 -29 -1c-4.66699 -6 -8.66699 -21.667 -12 -47s-6.5 -53.666 -9.5 -84.999s-4.83301 -50 -5.5 -56c-3.33301 -36 -10.333 -55.667 -21 -59c-3.33301 -0.666992 -6.33301 1.33301 -9 6
c-3.33301 10 -6.16602 31.167 -8.49902 63.5s-4.5 67.333 -6.5 105s-3.33301 60.834 -4 69.501c-3.33301 34 -1.33301 51 6 51z" />
    <glyph glyph-name="s" unicode="s" horiz-adv-x="241" 
d="M201 300c-6.66699 0 -9.99902 2.00195 -9.99902 6.00195c0 4.66699 -12.5 14.5 -37.5 29.5s-43.167 23.5 -54.5 25.5c-12.667 3.33301 -21.667 0 -27 -10c-20.667 -40 -1.66699 -83 57 -129c45.333 -35.333 70 -71 74 -107c2.66699 -20 -2 -37 -14 -51
c-6.66699 -8 -13.667 -13.5 -21 -16.5s-19 -5.16699 -35 -6.5c-17.333 -1.33301 -29.5 -1 -36.5 1s-16.167 8 -27.5 18c-12.667 11.333 -22.834 25.5 -30.501 42.5s-9.83398 30.167 -6.50098 39.5c6 15.333 12.667 14.666 20 -2.00098c2 -4.66699 4 -10.334 6 -17.001
c12.667 -48.667 40.667 -68.334 84 -59.001c27.333 6 38 27 32 63c-3.33301 18 -22.666 43.667 -57.999 77c-35.333 32.667 -58 58.667 -68 78c-8.66699 16.667 -12 33.334 -10 50.001s8.66699 31 20 43c10 10.667 21 14.667 33 12c12.667 -2.66699 31 -10 55 -22
s40.667 -21.667 50 -29c13.333 -11.333 18 -21.666 14 -30.999c-2 -2.66699 -5 -4.33398 -9 -5.00098z" />
    <glyph glyph-name="t" unicode="t" horiz-adv-x="264" 
d="M171 485c0 -36 2.99902 -74.333 8.99902 -115l27 5c12.667 2 20.5 2.5 23.5 1.5s3.83301 -4.5 2.5 -10.5c0.666992 -3.33301 -0.166016 -6 -2.49902 -8s-5.83301 -3.5 -10.5 -4.5s-9.16699 -1.83301 -13.5 -2.5s-9.5 -1.16699 -15.5 -1.5s-10.333 -0.5 -13 -0.5
c0 -7.33301 0.666992 -28 2 -62c2.66699 -108.667 0.666992 -163 -6 -163c-8.66699 0 -14 6.33301 -16 19s-2.66699 45.334 -2 98.001v21c0.666992 45.333 -1.33301 70.666 -6 75.999c-4 4 -16.333 3 -37 -3c-3.33301 -1.33301 -6 -2.33301 -8 -3
c-23.333 -7.33301 -41.666 -11 -54.999 -11s-20 3.33301 -20 10s7.66699 11.667 23 15c8.66699 1.33301 24.667 4.5 48 9.5s39.333 8.16699 48 9.5c0 99.333 1.33301 152.666 4 159.999c7.33301 11.333 12.666 7.33301 15.999 -12c1.33301 -7.33301 2 -16.666 2 -27.999z
" />
    <glyph glyph-name="u" unicode="u" horiz-adv-x="268" 
d="M48 300c4.66699 0 7.49805 -3.49805 8.49805 -10.498s0.5 -22.833 -1.5 -47.5c-3.33301 -49.333 -0.833008 -90.666 7.5 -123.999s20.166 -50 35.499 -50c19.333 0 40.666 17.5 63.999 52.5s30.333 66.5 21 94.5c-5.33301 25.333 -4.66602 39.666 2.00098 42.999
c8.66699 5.33301 14.667 1.66602 18 -11.001c2 -9.33301 4.33301 -27 7 -53c4.66699 -38 11 -65.667 19 -83c10.667 -18 11.834 -27.667 3.50098 -29s-16.833 4.66699 -25.5 18c-2 3.33301 -3.66699 6.66602 -5 9.99902l-8 21l-22 -31
c-21.333 -29.333 -43.333 -46.333 -66 -51s-39.667 4.33301 -51 27c-7.33301 16 -13.666 46.5 -18.999 91.5s-6.66602 78.5 -3.99902 100.5c4 21.333 9.33301 32 16 32z" />
    <glyph glyph-name="v" unicode="v" horiz-adv-x="267" 
d="M31 364c2.66699 4 6.66504 5.33105 11.998 3.99805c6.66699 -1.33301 29.667 -69.666 69 -204.999c20.667 -64 34.334 -101.667 41.001 -113c21.333 40.667 38 116.334 50 227.001c4.66699 44 7.66699 67 9 69c8 1.33301 14.833 -0.166992 20.5 -4.5
s6.83398 -10.833 3.50098 -19.5c-4.66699 -23.333 -11 -62 -19 -116c-7.33301 -54 -17.333 -99.167 -30 -135.5s-25 -55.5 -37 -57.5c-8.66699 -1.33301 -16 3.16699 -22 13.5s-13.667 32.5 -23 66.5l-14.5 49.5c-6.33301 21.667 -9.83301 34.167 -10.5 37.5
c-36 118 -52.333 179.333 -49 184z" />
    <glyph glyph-name="w" unicode="w" horiz-adv-x="425" 
d="M30 358c0 32 3.66602 48.001 10.999 48.001c6.66699 0 11 -6.33301 13 -19s4 -43.334 6 -92.001c1.33301 -40 5.66602 -72.167 12.999 -96.5s17.166 -40.166 29.499 -47.499s26.833 -5.66602 43.5 5.00098c25.333 16 41 47.333 47 94c4 26 8.33301 41.333 13 46
c8 8 13.667 4.33301 17 -11c2 -9.33301 2.33301 -20.333 1 -33c-5.33301 -39.333 5.33398 -75.833 32.001 -109.5s54.334 -45.834 83.001 -36.501c30.667 9.33301 39.667 67.666 27 174.999c-2.66699 22 -3.66699 35.333 -3 40s4.33398 7 11.001 7
c6 0 10.167 -4.16699 12.5 -12.5s4.5 -28.833 6.5 -61.5c4 -55.333 2.33301 -96.333 -5 -123s-21.666 -42.667 -42.999 -48c-22.667 -6 -45.334 -3.66699 -68.001 7s-40.667 28 -54 52c-12 18.667 -19.333 28.667 -22 30c-3.33301 0.666992 -11.333 -5.33301 -24 -18l-5 -5
c-40 -40 -73.667 -40.333 -101 -1c-27.333 40 -41 110 -41 210z" />
    <glyph glyph-name="x" unicode="x" horiz-adv-x="256" 
d="M124 265c2.66699 0 9.99805 11.6689 21.998 35.002s22.667 35.333 32 36c4 0 6 -3.66699 6 -11c-0.666992 -6.66699 -15.334 -40.334 -44.001 -101.001l31 -50c21.333 -34 34.833 -56.833 40.5 -68.5s9.83398 -24.167 12.501 -37.5c2 -10 2.33301 -16.167 1 -18.5
s-4.66602 -2.83301 -9.99902 -1.5c-3.33301 -1.33301 -9.5 4.66699 -18.5 18s-17.833 28.333 -26.5 45l-25.5 47c-8.33301 14.667 -13.166 22.334 -14.499 23.001c-2 1.33301 -3.83301 1.83301 -5.5 1.5s-3.83398 -2.33301 -6.50098 -6s-5.66699 -8.5 -9 -14.5
s-7.33301 -13.667 -12 -23c-16.667 -32.667 -23.667 -52.334 -21 -59.001c2 -5.33301 -1.66699 -12.333 -11 -21s-18 -13 -26 -13c-15.333 0 -10.666 22.333 14.001 67c24.667 45.333 43 83.666 55 114.999c-36.667 78.667 -55 122.667 -55 132c6 16 16.667 10 32 -18
l12 -24c16 -35.333 25 -53 27 -53z" />
    <glyph glyph-name="y" unicode="y" horiz-adv-x="307" 
d="M60 320c9.33301 14 17 18.3311 23 12.998c7.33301 -5.33301 5.33301 -20 -6 -44c-10 -24 -16.167 -49.333 -18.5 -76s-0.166016 -45.667 6.50098 -57c12.667 -19.333 31.667 -26.333 57 -21s51.333 22 78 50c28.667 28.667 46.667 68.334 54 119.001
c1.33301 9.33301 5.66602 14 12.999 14c5.33301 0 8.5 -13.333 9.5 -40s0 -57.667 -3 -93s-7.5 -64 -13.5 -86c-10.667 -40.667 -26.5 -78.167 -47.5 -112.5s-41.167 -56.833 -60.5 -67.5c-10 -5.33301 -23.167 -4.5 -39.5 2.5s-31.5 18.5 -45.5 34.5
c-22.667 24 -29 38.667 -19 44c4 2 12.333 -5 25 -21c23.333 -29.333 47 -41 71 -35c8.66699 2.66699 20 15 34 37s26.667 47.333 38 76c7.33301 19.333 15.333 47.333 24 84s11.667 56.334 9 59.001c-2 2 -14 -9.33301 -36 -34c-22 -24 -40.333 -39.667 -55 -47
s-32.667 -10 -54 -8c-23.333 2.66699 -40.5 9.5 -51.5 20.5s-18.167 28.5 -21.5 52.5c-2.66699 19.333 -1 42.833 5 70.5s14 49.5 24 65.5z" />
    <glyph glyph-name="z" unicode="z" horiz-adv-x="310" 
d="M97 350c0 7.33301 2.83496 11.4971 8.50195 12.4971s22.5 1.16699 50.5 0.5c26.667 -1.33301 44.5 -3.16602 53.5 -5.49902s17.167 -7.16602 24.5 -14.499c12 -12 18 -22 18 -30c0 -16 -9.83301 -36.667 -29.5 -62s-66.834 -78.333 -141.501 -159
c-24 -25.333 -26.333 -41.666 -7 -48.999c2 -2.66699 35.667 -6 101 -10s99 -7 101 -9c7.33301 -7.33301 2.66602 -12.333 -14.001 -15c-15.333 -2 -43 -2.33301 -83 -1c-86 2 -134.5 11.667 -145.5 29s9.16699 52.333 60.5 105c52.667 55.333 88.667 96.333 108 123
s25.666 45 18.999 55c-4 6.66699 -16.667 12 -38 16s-40 5 -56 3c-13.333 -2 -21.666 -2.33301 -24.999 -1s-5 5.33301 -5 12z" />
    <glyph glyph-name="uni0093" horiz-adv-x="245" 
d="M189 335c6.66699 0 10.834 -2.16699 12.501 -6.5s2.5 -15.5 2.5 -33.5c1.33301 -33.333 3.66602 -57.333 6.99902 -72c4 -22 4 -33.333 0 -34l-9 3c-8 3.33301 -13.5 10.333 -16.5 21s-5.5 32 -7.5 64c-2 28 -2.5 44.667 -1.5 50s5.16699 8 12.5 8zM60 300
l-0.00195312 -67.0039l27 -2c18.667 -2 27.334 -5.66699 26.001 -11c-2.66699 -8 -18 -12 -46 -12c-17.333 0 -28.166 5.83301 -32.499 17.5s-5.5 36.834 -3.5 75.501c2 36 3 58.667 3 68c12 0.666992 19.167 -0.666016 21.5 -3.99902s3.5 -13.666 3.5 -30.999
c0 -13.333 0.333008 -24.666 1 -33.999z" />
    <glyph glyph-name="uni0094" horiz-adv-x="209" 
d="M149 343c7.33301 12 14.666 8.33301 21.999 -11c8 -20 10.333 -43 7 -69c-3.33301 -25.333 -12 -47 -26 -65c-6 -7.33301 -10 -8 -12 -2c-1.33301 8.66699 1.33398 23.334 8.00098 44.001c8 21.333 9.33301 42.666 4 63.999c-4.66699 20.667 -5.66699 33.667 -3 39z
M42 223c-7.33301 0 -9.33203 5.33301 -5.99902 16c10.667 32.667 11 60.667 1 84c-10 20 -10.333 31 -1 33c8.66699 2 17 -4.66699 25 -20c2 -4.66699 3.66699 -9.66699 5 -15c6 -24.667 6.66699 -47.167 2 -67.5s-13.334 -30.5 -26.001 -30.5z" />
    <glyph glyph-name=".null" horiz-adv-x="0" 
 />
    <glyph glyph-name="nonmarkingreturn" horiz-adv-x="333" 
 />
    </font>
</defs>
</svg>
