<?xml version="1.0" standalone="no"?>
<!DOCTYPE svg PUBLIC "-//W3C//DTD SVG 1.1//EN" "http://www.w3.org/Graphics/SVG/1.1/DTD/svg11.dtd" >
<svg>
<metadata>
Created by FontForge 20090914 at Sat Feb 27 01:00:19 2016
 By www-data
Copyright (c) 2016, root
</metadata>
<defs>
<font id="Bueller" horiz-adv-x="690" >
  <font-face 
    font-family="Bueller"
    font-weight="400"
    font-stretch="normal"
    units-per-em="1000"
    panose-1="2 0 5 3 0 0 0 0 0 0"
    ascent="800"
    descent="-200"
    x-height="482"
    cap-height="595.5"
    bbox="28.3548 -200.002 882 800"
    underline-thickness="50"
    underline-position="-100"
    unicode-range="U+0020-U+0094"
  />
<missing-glyph horiz-adv-x="364" 
d="M33 0v666h265v-666h-265zM66 33h199v600h-199v-600z" />
    <glyph glyph-name=".notdef" horiz-adv-x="364" 
d="M33 0v666h265v-666h-265zM66 33h199v600h-199v-600z" />
    <glyph glyph-name="space" unicode=" " horiz-adv-x="447" 
 />
    <glyph glyph-name="exclam" unicode="!" horiz-adv-x="210" 
d="M135 132c-13.333 14.667 -25.666 17.3311 -36.999 7.99805s-21.333 -29.666 -30 -60.999c-11.333 -45.333 -3 -69.666 25 -72.999c21.333 -3.33301 41 11.667 59 45c4.66699 8.66699 5.16699 22 1.5 40s-9.83398 31.667 -18.501 41zM41 31.9971
c0 14.667 -2.33203 23.0039 -6.99902 25.0039c-5.33301 3.33301 -6 7.66602 -2 12.999s6.16699 12.666 6.5 21.999s-1.5 16.666 -5.5 21.999c-2.66699 3.33301 2.66602 12 15.999 26s27 25 41 33c9.33301 5.33301 16.833 7.16602 22.5 5.49902s14.167 -7.5 25.5 -17.5
c32 -31.333 45.667 -64.333 41 -99c-6 -50.667 -30.333 -82.667 -73 -96c-11.333 -3.33301 -25 3.16699 -41 19.5s-24 31.833 -24 46.5zM68.001 586.001c3.33301 2.66699 9.16895 3.33301 17.502 2s14.166 -4 17.499 -8c4 -1.33301 6.16699 -24.333 6.5 -69
s0.5 -90.167 0.5 -136.5s1.33301 -71.5 4 -75.5c3.33301 -15.333 2.33301 -24.333 -3 -27s-13.333 2 -24 14c-6 6 -9.83301 17.5 -11.5 34.5s-3.5 57.5 -5.5 121.5c-2.66699 94.667 -3.33398 142.667 -2.00098 144z" />
    <glyph glyph-name="quotedbl" unicode="&#x22;" horiz-adv-x="230" 
d="M185 378c10 -10.667 13.332 -19.0029 9.99902 -25.0029c-4 -7.33301 -12.333 -2.66602 -25 14.001c-2 2 -3.66699 4 -5 6c-12 14.667 -19.667 38.334 -23 71.001s0.666992 59 12 79c11.333 23.333 19.333 37.666 24 42.999c2.66699 4 5 5.83301 7 5.5
s5 -3.16602 9 -8.49902c4 -4.66699 6 -8.66699 6 -12s-2 -8 -6 -14c-13.333 -22 -21.166 -50.667 -23.499 -86s2.5 -59.666 14.5 -72.999zM45.999 572.997c2 10.667 7 15.335 15 14.002c12.667 -2.66699 14 -32.667 4 -90c-3.33301 -18.667 -4 -43.834 -2 -75.501
s5.33301 -55.5 10 -71.5c3.33301 -10.667 3 -15.667 -1 -15c-7.33301 1.33301 -16 11.666 -26 30.999c-22 40.667 -22 109.667 0 207z" />
    <glyph glyph-name="dollar" unicode="$" horiz-adv-x="413" 
d="M231 328c-3.33301 0 -5.66406 -41 -6.99707 -123c-0.666992 -56 -0.333984 -90.833 0.999023 -104.5s4.66602 -21.5 9.99902 -23.5c12 -4.66699 29.5 10 52.5 44s34.5 61.667 34.5 83c0 38 -16.667 70 -50 96c-24.667 18.667 -38.334 28 -41.001 28zM185.002 393
c0.666992 -0.666992 1.49902 10.1699 2.49902 32.5029s1.5 43.166 1.5 62.499s-0.333008 30.666 -1 33.999c-1.33301 1.33301 -21.666 -7.33398 -60.999 -26.001c-32 -16 -50.5 -28.333 -55.5 -37s0.5 -18.667 16.5 -30c10 -7.33301 28 -15.833 54 -25.5
s40.333 -13.167 43 -10.5zM202.001 751.004c11.333 0 18.999 -7.49805 22.999 -22.498s6 -42.5 6 -82.5v-69c34.667 1.33301 61.667 -0.166992 81 -4.5s36 -14.5 50 -30.5c6.66699 -6 12.167 -15.333 16.5 -28s5.16602 -21 2.49902 -25c-6.66699 -11.333 -21 -4 -43 22
c-11.333 13.333 -20.166 21.333 -26.499 24s-19.5 4 -39.5 4h-41v-173c35.333 -16 65.333 -40.333 90 -73s36.667 -65 36 -97c0 -26 -10.667 -56 -32 -90s-44.666 -58 -69.999 -72c-5.33301 -3.33301 -8.16602 -6.83301 -8.49902 -10.5s1.5 -11.5 5.5 -23.5
c8 -23.333 15.333 -40.666 22 -51.999c8.66699 -16.667 10.334 -26 5.00098 -28c-12 -4 -29.333 15.667 -52 59c-8.66699 16 -15.834 26.667 -21.501 32s-15.167 9.66602 -28.5 12.999c-38.667 10 -67.334 34.333 -86.001 73c-7.33301 15.333 -15.166 35 -23.499 59
s-12.5 39.333 -12.5 46c0 8.66699 2.66699 9 8 1c4 -6.66699 7 -14.334 9 -23.001c4 -18.667 15.333 -40.834 34 -66.501s34.334 -40.834 47.001 -45.501c9.33301 -3.33301 16.666 -5.5 21.999 -6.5s9.5 -1.16699 12.5 -0.5s4.33301 2.66699 4 6s-1.5 7.66602 -3.5 12.999
c-2.66699 8.66699 -4.33398 29.334 -5.00098 62.001s-0.5 73.667 0.5 123s1.5 78 1.5 86l-120 48l-20 27c-12.667 18.667 -16.667 33.334 -12 44.001c10 28 55.333 56 136 84l28 10l-5 93c-2.66699 46 -3.5 73.167 -2.5 81.5s5.16699 12.5 12.5 12.5z" />
    <glyph glyph-name="percent" unicode="%" horiz-adv-x="694" 
d="M664 296c0 -26 -10.6689 -60.9971 -32.002 -104.997s-44 -77.333 -68 -100c-24 -23.333 -53.333 -39 -88 -47s-63.667 -6 -87 6c-13.333 6.66699 -27.333 20 -42 40c-6.66699 8.66699 -8 13 -4 13c3.33301 0 3.33301 2.66699 0 8c-5.33301 8.66699 -6.5 25 -3.5 49
s8.83301 43.333 17.5 58c11.333 19.333 31.333 42.666 60 69.999s51 44.333 67 51c15.333 6.66699 30 10 44 10s23.667 -3.33301 29 -10c9.33301 -10.667 2 -18.667 -22 -24c-5.33301 -1.33301 -11.333 -2.33301 -18 -3c-20 -2.66699 -37 -11 -51 -25
c-13.333 -14.667 -22 -22 -26 -22c-3.33301 0 -11 -8.66699 -23 -26s-23.333 -35.333 -34 -54c-17.333 -31.333 -17.666 -60.333 -0.999023 -87c11.333 -19.333 30 -29.5 56 -30.5s52.333 7.16699 79 24.5c18.667 12.667 39.834 37 63.501 73s40.5 69.333 50.5 100
c2.66699 5.33301 4 12.666 4 21.999s1 16.333 3 21c3.33301 4.66699 1.83301 17 -4.5 37s-8.83301 31.333 -7.5 34c5.33301 9.33301 13 2.66602 23 -20.001c10 -21.333 15 -42.333 15 -63zM133.998 482.003c0.666992 12.667 1.16504 22.998 1.49805 30.998s0 13.833 -1 17.5
s-2 6.33398 -3 8.00098s-3 1 -6 -2s-5.5 -5.66699 -7.5 -8s-5.66699 -7 -11 -14s-9.66602 -12.5 -12.999 -16.5c-12.667 -18 -20.667 -31.5 -24 -40.5s-5 -21.5 -5 -37.5c0 -42.667 9.33301 -64 28 -64c9.33301 0 17.833 11.833 25.5 35.5s12.834 53.834 15.501 90.501z
M29.9961 433.001c0 18.667 10.834 44.666 32.501 77.999s43.5 57.333 65.5 72c12 7.33301 20 11.333 24 12s9.33301 -2.33301 16 -9c5.33301 -5.33301 8.5 -12.666 9.5 -21.999s-0.5 -16 -4.5 -20c-4 -2.66699 -6 -22.334 -6 -59.001c-1.33301 -72 -13.333 -122 -36 -150
c-10.667 -12.667 -19.334 -19.167 -26.001 -19.5s-16.667 5.83398 -30 18.501c-12 10 -22.5 25 -31.5 45s-13.5 38 -13.5 54zM564.997 622c0 -0.666992 -38.334 -40.001 -115.001 -118.001c-52 -52.667 -92.333 -96.667 -121 -132s-55.667 -74.666 -81 -117.999
c-2 -4.66699 -24.5 -45.667 -67.5 -123s-65.167 -119 -66.5 -125c-8 -20 -15.667 -30 -23 -30c-8.66699 0 -14 6.33301 -16 19s0.333008 24 7 34c4 7.33301 7 14.166 9 20.499s8 16.5 18 30.5c8 11.333 13 18.833 15 22.5s3.83301 7.5 5.5 11.5s4.16699 9.66699 7.5 17
c1.33301 2.66699 14.333 25 39 67l66.5 110.5c19.667 31.667 34.5 53.5 44.5 65.5c20 26.667 61 71.5 123 134.5s99.333 97.833 112 104.5c4 2 9.66699 4 17 6s13.333 3.33301 18 4s7.33398 0.333984 8.00098 -0.999023z" />
    <glyph glyph-name="ampersand" unicode="&#x26;" horiz-adv-x="718" 
d="M326 4c10.667 0 17.5 1.33203 20.5 3.99902s5.5 10 7.5 22c3.33301 18 3.33301 55.667 0 113s-7.66602 97.333 -12.999 120c-4.66699 22 -8.5 34.5 -11.5 37.5s-10.167 2.83301 -21.5 -0.5c-3.33301 -1.33301 -25.833 -8.16602 -67.5 -20.499
s-76.334 -23.333 -104.001 -33s-47.834 -18.167 -60.501 -25.5l44 -54c88.667 -108.667 157.334 -163 206.001 -163zM294 591.999c0 2.66699 3.33105 4.00195 9.99805 4.00195c8.66699 0 15.667 -8.83301 21 -26.5s11.666 -53.167 18.999 -106.5
c10 -69.333 15.333 -104.333 16 -105c2.66699 -2.66699 16.334 -1 41.001 5c108.667 22.667 179.334 34.667 212.001 36c30.667 0.666992 50.834 0.666992 60.501 0s14.5 -3 14.5 -7c0 -4.66699 -6.33301 -8.66699 -19 -12c-10 -2 -43.333 -8.16699 -100 -18.5
s-103.834 -20 -141.501 -29s-56.5 -17.167 -56.5 -24.5s3.66699 -30 11 -68s11.833 -81.833 13.5 -131.5s0.166992 -85.167 -4.5 -106.5s-12.667 -33.666 -24 -36.999c-12.667 -3.33301 -30.667 -1.5 -54 5.5s-45 16.833 -65 29.5
c-23.333 15.333 -66.166 57.166 -128.499 125.499s-92.166 106.166 -89.499 113.499c1.33301 4 12.833 10 34.5 18s44.167 15.833 67.5 23.5s36 12.167 38 13.5c6 3.33301 34.333 12 85 26c28.667 8.66699 47.5 15.167 56.5 19.5s13.167 9.16602 12.5 14.499
c-0.666992 2 -5.83398 41.5 -15.501 118.5s-14.5 116.833 -14.5 119.5z" />
    <glyph glyph-name="quotesingle" unicode="'" horiz-adv-x="133" 
d="M64 672c14.667 27.333 26.334 35.999 35.001 25.999c1.33301 -1.33301 2.66602 -3.33301 3.99902 -6c2.66699 -7.33301 -3.33301 -26 -18 -56c-13.333 -29.333 -20.666 -56.666 -21.999 -81.999c0 -9.33301 -0.333008 -16.5 -1 -21.5s-1.83398 -8.66699 -3.50098 -11
s-3.5 -3 -5.5 -2s-5 2.83301 -9 5.5c-12.667 7.33301 -17 25.333 -13 54s15 59.667 33 93z" />
    <glyph glyph-name="parenleft" unicode="(" horiz-adv-x="360" 
d="M163 573c36 27.333 55.9961 28.6689 59.9961 4.00195c2 -10.667 -5 -19.334 -21 -26.001c-15.333 -7.33301 -29.666 -16.333 -42.999 -27c-11.333 -10 -26.333 -32.5 -45 -67.5s-31 -63.833 -37 -86.5c-11.333 -42 -16.666 -86.667 -15.999 -134
s7.33398 -84.333 20.001 -111c18.667 -42 48.834 -77.667 90.501 -107s83.167 -44.333 124.5 -45c24 -0.666992 35 -3.33398 33 -8.00098c-6 -6 -24.667 -7.66699 -56 -5s-58.333 8.33398 -81 17.001c-29.333 11.333 -58 31.166 -86 59.499s-47.667 57.833 -59 88.5
c-14.667 47.333 -19.667 99.5 -15 156.5s19.167 113.5 43.5 169.5s53.5 96.667 87.5 122z" />
    <glyph glyph-name="parenright" unicode=")" horiz-adv-x="290" 
d="M57 561c-24.667 4 -32 18.668 -22 44.001c6.66699 6.66699 22.667 3.33398 48 -9.99902s49.666 -31 72.999 -53c105.333 -97.333 130.333 -240.333 75 -429c-43.333 -146.667 -78.333 -226.334 -105 -239.001c-4.66699 -2.66699 -9 -2 -13 2c-6 6 -4 17.667 6 35
c24.667 46 51.334 123.667 80.001 233c35.333 133.333 26 242 -28 326c-13.333 20.667 -31 39.667 -53 57s-42.333 28.666 -61 33.999z" />
    <glyph glyph-name="asterisk" unicode="*" horiz-adv-x="316" 
d="M253 518c28 -0.666992 25.332 -5.66895 -8.00098 -15.002c-39.333 -11.333 -59 -17.333 -59 -18c-1.33301 -2.66699 -0.5 -15.667 2.5 -39s6.5 -43 10.5 -59c2 -10 6 -15.333 12 -16c4 0 6 3.33301 6 10c0 7.33301 2.33301 11 7 11c4 0 6.33301 -3.5 7 -10.5
s-0.166016 -14.333 -2.49902 -22s-5.5 -12.167 -9.5 -13.5c-10.667 -4 -19.167 -4.66699 -25.5 -2s-12.833 9.66699 -19.5 21l-4.5 7c-1.66699 2.66699 -3 4.66699 -4 6s-1.83301 2.66602 -2.5 3.99902s-1.33398 2.33301 -2.00098 3s-1 0.666992 -1 0
c-2.66699 -26 -9.33398 -43.333 -20.001 -52c-12.667 -12.667 -20.334 -13.667 -23.001 -3c-2 7.33301 -0.333008 18 5 32c8 23.333 11.333 50.666 10 81.999l-15.5 -15.5l-22 -22l-22.5 -21.5c-8 -7.33301 -15.167 -12.833 -21.5 -16.5s-10.833 -4.83398 -13.5 -3.50098
c-4 1.33301 -6.33301 3.33301 -7 6s0.5 6.83398 3.5 12.501s7.66699 12.334 14 20.001s15.166 17.834 26.499 30.501c20.667 22.667 28 34.334 22 35.001c-1.33301 0 -3 -0.333008 -5 -1c-6.66699 -2 -13.167 -1.66699 -19.5 1s-10.333 6.33398 -12 11.001
s-0.833984 9 2.49902 13c5.33301 5.33301 20 10.333 44 15c18.667 3.33301 29.334 6.16602 32.001 8.49902s3.66699 9.83301 3 22.5c-1.33301 18.667 -4.66602 33.667 -9.99902 45c-5.33301 13.333 -4.33301 23.666 3 30.999c8 8 15.333 9 22 3c2 -2 3.83301 -3 5.5 -3
s3.33398 1 5.00098 3s3.33398 5 5.00098 9s3.83398 10 6.50098 18c4.66699 14.667 8.83398 24.334 12.501 29.001s8.5 6.33398 14.5 5.00098c8.66699 -0.666992 13.167 -5.16699 13.5 -13.5s-3.83398 -28.833 -12.501 -61.5c-7.33301 -30.667 -10 -47 -8 -49
s6.16699 0.166992 12.5 6.5s19.5 21.166 39.5 44.499c6.66699 8 11.667 12.667 15 14s7 0.333008 11 -3c8 -6.66699 10.833 -13.667 8.5 -21s-11.833 -19.666 -28.5 -36.999c-9.33301 -9.33301 -16.5 -17.5 -21.5 -24.5s-6.83301 -10.833 -5.5 -11.5
c3.33301 -3.33301 11.333 -5 24 -5z" />
    <glyph glyph-name="plus" unicode="+" horiz-adv-x="394" 
d="M217 518c0 -16 -2.82715 -38.165 -8.49414 -66.498s-10.5 -45.166 -14.5 -50.499c-2.66699 -3.33301 -3.33398 -6.33301 -2.00098 -9s3.66602 -4.33398 6.99902 -5.00098s7 0 11 2s28 4.16699 72 6.5s68 4.83301 72 7.5c5.33301 2 8.5 2.66699 9.5 2
s-0.166992 -2.66699 -3.5 -6c-7.33301 -7.33301 -17.666 -10.333 -30.999 -9c-12 -1.33301 -17.667 -3.66602 -17 -6.99902c2 -2.66699 2.33301 -4 1 -4c-0.666992 -0.666992 -3 -0.333984 -7 0.999023c-8 0.666992 -12 -0.333008 -12 -3c0 -4.66699 -5 -7 -15 -7
s-27.333 -3.66699 -52 -11c-18.667 -5.33301 -29.834 -9.83301 -33.501 -13.5s-6.83398 -12.834 -9.50098 -27.501c-2.66699 -22.667 -3.33398 -59.334 -2.00098 -110.001c2 -52.667 -0.333008 -79 -7 -79c-3.33301 0 -8 6.66699 -14 20c-7.33301 10.667 -11 72.667 -11 186
c-6 -1.33301 -14.5 -2.83301 -25.5 -4.5s-20.333 -3.5 -28 -5.5s-14.167 -5 -19.5 -9c-11.333 -10.667 -24.333 -10.334 -39 0.999023c-7.33301 5.33301 -10 11.833 -8 19.5s7.33301 12.834 16 15.501c2 0 5.16699 0.5 9.5 1.5s9.66602 2.16699 15.999 3.5l14.5 3
c32.667 5.33301 53.167 11.166 61.5 17.499s14.833 21.5 19.5 45.5c3.33301 12.667 5.5 35.667 6.5 69s2.83301 54.666 5.5 63.999c6 4.66699 11.667 6.33398 17 5.00098s10.166 -6.16602 14.499 -14.499s6.5 -17.833 6.5 -28.5z" />
    <glyph glyph-name="comma" unicode="," horiz-adv-x="148" 
d="M77 117c0 17.333 0.834961 28.6699 2.50195 34.0029s5.16699 8.66602 10.5 9.99902c11.333 2.66699 19.166 -1.33301 23.499 -12s5.5 -28.334 3.5 -53.001c-0.666992 -15.333 -3.33398 -32.5 -8.00098 -51.5s-9 -34 -13 -45s-11 -28.5 -21 -52.5s-16 -39 -18 -45
c-10 -26 -17.667 -38 -23 -36c-8 3.33301 -7 29.666 3 78.999c4.66699 22 10.667 43.667 18 65c14.667 42 22 77.667 22 107z" />
    <glyph glyph-name="hyphen" unicode="-" horiz-adv-x="491" 
d="M35 190c27.333 8 86.501 14.666 177.501 19.999s145.833 9.33301 164.5 12c15.333 -4.66699 18 -9 8 -13c-10 -3.33301 -24.333 -3.66602 -43 -0.999023c-8 1.33301 -13.333 -2 -16 -10c-1.33301 -8.66699 -4.83301 -9.66699 -10.5 -3s-9.83398 7 -12.501 1
c0.666992 -3.33301 -18.833 -7.5 -58.5 -12.5s-80 -9.5 -121 -13.5s-62.5 -6.66699 -64.5 -8c-9.33301 -2 -18 2 -26 12c-6 8.66699 -5.33301 14 2 16zM453.001 227.999c4.66699 0 7.33301 -0.333984 8 -1.00098l-11 -4c-13.333 -4 -25.333 -6 -36 -6l-11 1
c0.666992 0.666992 5.66699 2.33398 15 5.00098c13.333 3.33301 25 5 35 5z" />
    <glyph glyph-name="period" unicode="." horiz-adv-x="108" 
d="M54 -20c-15.333 0 -23.3301 5.33398 -23.9971 16.001c-2.66699 12.667 1.66602 21.667 12.999 27s20.666 2.66602 27.999 -8.00098c7.33301 -8.66699 9.16602 -16.667 5.49902 -24s-11.167 -11 -22.5 -11z" />
    <glyph glyph-name="slash" unicode="/" horiz-adv-x="267" 
d="M203 558c13.333 13.333 23.665 11 30.998 -7c4.66699 -10.667 3 -28.834 -5 -54.501s-33.667 -95.834 -77 -210.501c-23.333 -63.333 -36.333 -101 -39 -113c-5.33301 -26 -13.833 -60 -25.5 -102s-18.834 -64.333 -21.501 -67c-6 -5.33301 -13.167 -7.83301 -21.5 -7.5
s-13.166 3.5 -14.499 9.5c-1.33301 6.66699 7.83398 43.834 27.501 111.501s35.834 117.834 48.501 150.501c45.333 120 71.333 198.333 78 235c6 30 12.333 48.333 19 55z" />
    <glyph glyph-name="zero" unicode="0" horiz-adv-x="445" 
d="M284 570c-21.333 17.333 -33.667 25.666 -37 24.999c-22.667 -2 -48.167 -24.833 -76.5 -68.5s-54.166 -98.834 -77.499 -165.501c-9.33301 -28.667 -15.333 -51.167 -18 -67.5s-4 -41.5 -4 -75.5c-0.666992 -36.667 0 -60.167 2 -70.5s7.33301 -22.166 16 -35.499
c18 -27.333 47.167 -46.833 87.5 -58.5s71.833 -10.167 94.5 4.5c85.333 56.667 120.666 149.667 105.999 279c-12.667 112.667 -43.667 190.334 -93 233.001zM414.999 272c0 -44.667 -0.998047 -73.5039 -2.99805 -86.5039s-7.33301 -27.833 -16 -44.5
c-26 -49.333 -62.667 -84.666 -110 -105.999c-16.667 -8 -29.834 -13 -39.501 -15s-23.5 -2 -41.5 0c-42.667 4.66699 -73.667 14 -93 28c-28.667 21.333 -49.167 43.333 -61.5 66s-19.166 51 -20.499 85c-0.666992 28.667 3 62.834 11 102.501s16.667 66.167 26 79.5
c2.66699 4 6 14 10 30c4 24 19.667 60 47 108s49.666 79.667 66.999 95c7.33301 6.66699 14 10.5 20 11.5s15.333 0.166992 28 -2.5c29.333 -5.33301 52.666 -15.333 69.999 -30s34 -38 50 -70c21.333 -43.333 36 -82.666 44 -117.999s12 -79.666 12 -132.999z" />
    <glyph glyph-name="one" unicode="1" horiz-adv-x="411" 
d="M264 677c1.33301 4 2.5 9.00098 3.5 15.001s1.66699 10.333 2 13s1.5 5.16699 3.5 7.5s5 3.33301 9 3s9.33301 -1.83301 16 -4.5c13.333 -5.33301 12.333 -37 -3 -95c-8.66699 -35.333 -14.667 -84.333 -18 -147c-4 -81.333 1.33301 -150.833 16 -208.5
s37 -96.167 67 -115.5c16.667 -10 23.334 -16.667 20.001 -20c-1.33301 -0.666992 -3 -1.33398 -5 -2.00098c-7.33301 -2.66699 -17.166 -1.83398 -29.499 2.49902s-23.166 10.5 -32.499 18.5c-10.667 9.33301 -22.834 30.5 -36.501 63.5s-23.167 63.833 -28.5 92.5
c-7.33301 50 -10.333 122.667 -9 218l-36 -38c-22.667 -24 -46.834 -42.667 -72.501 -56s-46.834 -18.666 -63.501 -15.999c-30 6.66699 -41.667 18.667 -35 36c2 4.66699 5 7.5 9 8.5s11.333 0.5 22 -1.5c28 -5.33301 57.333 4.66699 88 30s57 61.333 79 108
c18 36.667 29.333 66 34 88z" />
    <glyph glyph-name="two" unicode="2" horiz-adv-x="648" 
d="M363 537c0 22 -5.33008 37.3301 -15.9971 45.9971s-29.334 13 -56.001 13c-40 0 -80.833 -8.66699 -122.5 -26s-73.834 -38.666 -96.501 -63.999c-26.667 -27.333 -40.667 -31.333 -42 -12c-0.666992 15.333 13.166 34.333 41.499 57s61.833 41.834 100.5 57.501
s78 24.834 118 27.501s71.333 -8 94 -32c8.66699 -8.66699 14.167 -25 16.5 -49s0.833008 -44.667 -4.5 -62c-8 -25.333 -32 -67.333 -72 -126s-65 -98 -75 -118c-16.667 -30.667 -25 -53 -25 -67s8 -24.333 24 -31c14 -6 41 -6.5 81 -1.5s82 14.167 126 27.5
c68.667 18.667 123 28.667 163 30l-39 -19c-162.667 -77.333 -276.334 -102.333 -341.001 -75c-24.667 10 -41.167 26.667 -49.5 50s-6.16602 47.333 6.50098 72c4.66699 9.33301 27 43.333 67 102c36.667 52.667 62.667 94 78 124s23 55.333 23 76z" />
    <glyph glyph-name="three" unicode="3" horiz-adv-x="574" 
d="M331 499c-30.667 0 -51.833 -1.1709 -63.5 -3.50391s-28.167 -8.5 -49.5 -18.5c-27.333 -12.667 -45.5 -19.5 -54.5 -20.5s-16.5 3.16699 -22.5 12.5c-6 11.333 -1.33301 23.5 14 36.5s36 22.167 62 27.5c25.333 5.33301 49.833 15.333 73.5 30s42.167 31 55.5 49
c26 36.667 26.667 59.334 2 68.001c-27.333 10.667 -71.333 9.66699 -132 -3s-107.667 -30.667 -141 -54c-10 -7.33301 -19.167 -10.666 -27.5 -9.99902s-13.833 5.33398 -16.5 14.001c-5.33301 13.333 8 27.833 40 43.5s83.333 32.834 154 51.501
c19.333 5.33301 44.833 7.66602 76.5 6.99902s53.167 -4 64.5 -10c30 -15.333 44.167 -38 42.5 -68s-18.5 -60 -50.5 -90c-7.33301 -6.66699 -9.33301 -10.667 -6 -12c2 -0.666992 9.66699 -2 23 -4c2.66699 -0.666992 5 -1 7 -1
c43.333 -5.33301 80.5 -17.666 111.5 -36.999s47.5 -40.333 49.5 -63c1.33301 -20.667 0.333008 -35.5 -3 -44.5s-11.666 -20.5 -24.999 -34.5c-39.333 -40 -99 -73.333 -179 -100s-129.333 -29.667 -148 -9c-14 15.333 -21.333 36.333 -22 63
c0 14.667 3.33301 21.667 10 21h2c6 -1.33301 9.66699 -8.33301 11 -21c2.66699 -20.667 18.167 -31 46.5 -31s67.166 10.333 116.499 31c102.667 43.333 154.667 82 156 116c0 12.667 -7.66699 23.667 -23 33c-34 20.667 -85.333 31 -154 31z" />
    <glyph glyph-name="four" unicode="4" horiz-adv-x="512" 
d="M423 58c-2.66699 12 -5.00293 25.6709 -7.00293 41.0039s-3.5 28.666 -4.5 39.999s-1.83301 27.5 -2.5 48.5s-1 35.667 -1 44v51.5v47c-11.333 -3.33301 -36.5 -9.33301 -75.5 -18s-65.167 -15 -78.5 -19c-20.667 -6 -49.334 -8.33301 -86.001 -7s-62 5.66602 -76 12.999
c-29.333 16 -48.333 45 -57 87s-6 92.667 8 152c9.33301 36.667 16.833 60.167 22.5 70.5s12.834 14.166 21.501 11.499c6.66699 -2.66699 11.5 -9 14.5 -19s2.16699 -17.667 -2.5 -23c-11.333 -13.333 -19.5 -47 -24.5 -101s-3.16699 -89.667 5.5 -107
c22.667 -46.667 102.334 -53.334 239.001 -20.001l90 22c0 61.333 3.83301 128.5 11.5 201.5s15.167 112.5 22.5 118.5c15.333 16 25 13.667 29 -7c2.66699 -15.333 1.33398 -35.666 -3.99902 -60.999c-4.66699 -22 -8.5 -52.333 -11.5 -91s-4.33301 -73 -4 -103
s2.5 -44.667 6.5 -44c6.66699 2 10.667 -1.66699 12 -11c0.666992 -9.33301 -2.33301 -18 -9 -26c-9.33301 -10 -14 -48.833 -14 -116.5s4.66699 -117.834 14 -150.501c16 -60 22.333 -95 19 -105c-1.33301 -4.66699 -7.66602 -7.33398 -18.999 -8.00098
s-18.333 1.33301 -21 6s-8.66699 32.334 -18 83.001z" />
    <glyph glyph-name="five" unicode="5" horiz-adv-x="559" 
d="M494 667c0 4 -7.66699 5.99902 -23 5.99902c-15.333 -0.666992 -49.166 -5.33398 -101.499 -14.001s-80.833 -14.334 -85.5 -17.001c-3.33301 -2.66699 -18.333 -5.33398 -45 -8.00098c-30 -3.33301 -51.833 -10.833 -65.5 -22.5s-32.167 -38.834 -55.5 -81.501
c-4 -8 -9 -17.5 -15 -28.5s-9.66699 -18.167 -11 -21.5s-4 -9 -8 -17s-5.83301 -12.833 -5.5 -14.5s-0.5 -6.5 -2.5 -14.5s-2.33301 -13.667 -1 -17s1.33301 -10.666 0 -21.999c10 -0.666992 20 -0.666992 30 0s17.5 1.5 22.5 2.5s15.333 2.83301 31 5.5
s26.5 4.66699 32.5 6c38 7.33301 81.5 10.166 130.5 8.49902s86.167 -7.16699 111.5 -16.5c40.667 -15.333 68.667 -39.666 84 -72.999s16.333 -71.666 3 -114.999c-10 -33.333 -37.667 -64.833 -83 -94.5s-96.166 -50.667 -152.499 -63s-104.5 -12.166 -144.5 0.500977
c-28.667 9.33301 -49.5 21.5 -62.5 36.5s-21.5 36.5 -25.5 64.5c-1.33301 9.33301 -0.666016 16.166 2.00098 20.499s6 4.83301 10 1.5s7 -9.66602 9 -18.999c2.66699 -11.333 11.167 -23.166 25.5 -35.499s30.833 -21.833 49.5 -28.5
c40.667 -13.333 94.834 -9.5 162.501 11.5s117.167 49.167 148.5 84.5c11.333 13.333 20.166 29.5 26.499 48.5s8.16602 34.833 5.49902 47.5c-14 44.667 -53.667 73.5 -119 86.5s-132 9.5 -200 -10.5c-42 -10.667 -72.5 -15.334 -91.5 -14.001s-32.833 10.666 -41.5 27.999
c0 4.66699 -1.33301 8.33398 -4 11.001c-5.33301 5.33301 -6 21.666 -2 48.999s9.66699 44.666 17 51.999c4 4 14.667 24 32 60c13.333 25.333 21 41.833 23 49.5s0.666992 14.834 -4 21.501c-8.66699 10 -8.33398 18.833 0.999023 26.5s19.333 11.5 30 11.5
c6.66699 0.666992 22 5.83398 46 15.501s43.667 12.834 59 9.50098c21.333 -2 58.666 1.33301 111.999 10c126.667 22 186.334 18 179.001 -12c0 -1.33301 -0.333008 -2.66602 -1 -3.99902c-2.66699 -7.33301 -10.334 -12.333 -23.001 -15c-6 0 -9.33301 1.33301 -10 4z" />
    <glyph glyph-name="six" unicode="6" horiz-adv-x="671" 
d="M604 218c0.666992 14.667 0.831055 26.499 0.498047 35.499s-2.16602 17.833 -5.49902 26.5s-8.66602 12.334 -15.999 11.001s-17.333 -5 -30 -11c-26 -16 -52.167 -44.167 -78.5 -84.5s-44.5 -79.833 -54.5 -118.5c-6 -24 -9.33301 -37.667 -10 -41
s1 -8.66602 5 -15.999c3.33301 -6 20 -0.333008 50 17c46 27.333 80 55.166 102 83.499s34.333 60.833 37 97.5zM293.997 750.999c18 -5.33301 25.5049 -13.834 22.5049 -25.501s-17.167 -31.167 -42.5 -58.5c-54 -58 -99.333 -122.667 -136 -194
s-59.334 -140.666 -68.001 -207.999c-9.33301 -70.667 2.66699 -135 36 -193c22.667 -40 55.5 -67.833 98.5 -83.5s90.167 -16.834 141.5 -3.50098c15.333 4 24.333 7.5 27 10.5s3.66699 10.5 3 22.5c-1.33301 18.667 0.833984 42.5 6.50098 71.5s12.5 52.5 20.5 70.5
c12.667 25.333 32.167 54.333 58.5 87s48.166 54.667 65.499 66c35.333 23.333 62.5 28.166 81.5 14.499s29.5 -45.5 31.5 -95.5c1.33301 -38 -2.33398 -67.333 -11.001 -88c-10 -22 -28.833 -47.333 -56.5 -76s-53.834 -49.667 -78.501 -63
c-30.667 -16.667 -46 -27.667 -46 -33c-0.666992 -3.33301 2.66602 -6 9.99902 -8c9.33301 -2.66699 14 -7.66699 14 -15c0.666992 -5.33301 -2.33301 -8 -9 -8c-8 0 -19.333 3.33301 -34 10c-10.667 4.66699 -19.334 6.83398 -26.001 6.50098
s-18.667 -3.16602 -36 -8.49902c-29.333 -8.66699 -61.666 -12.334 -96.999 -11.001s-64.666 7.33301 -87.999 18c-46 22.667 -80.833 52.834 -104.5 90.501s-38.834 88.5 -45.501 152.5c-6 63.333 9.16699 137.5 45.5 222.5s75.166 154.833 116.499 209.5l28.5 37.5
c15 19.667 28.167 36.167 39.5 49.5s22 24.333 32 33z" />
    <glyph glyph-name="seven" unicode="7" horiz-adv-x="585" 
d="M495 592c-5.33301 3.33301 -26.168 4.33301 -62.501 3s-83.166 -4.5 -140.499 -9.5s-107 -10.833 -149 -17.5c-47.333 -7.33301 -78 -10.333 -92 -9s-21 7.66602 -21 18.999c0 4 2.16699 8.66699 6.5 14s9.16602 9.33301 14.499 12s8.66602 2.66699 9.99902 0
c2.66699 -4 21 -4.83301 55 -2.5s53.333 5.5 58 9.5c2 3.33301 18.333 5.33301 49 6s47 2.33398 49 5.00098c2.66699 3.33301 11 5.83301 25 7.5s53 4.83398 117 9.50098c20.667 0.666992 41.667 2.16699 63 4.5s34.833 3.83301 40.5 4.5s13.5 0.333984 23.5 -0.999023
c19.333 -6.66699 19.666 -29.667 0.999023 -69c-31.333 -64 -58.666 -139 -81.999 -225c-11.333 -43.333 -23.666 -98.833 -36.999 -166.5s-21.333 -115.834 -24 -144.501c-3.33301 -30.667 -6.66602 -49.334 -9.99902 -56.001s-11.333 -8.66699 -24 -6
c-12.667 3.33301 -17.667 10 -15 20c30 192 65 347 105 465c26.667 78.667 40 121 40 127z" />
    <glyph glyph-name="eight" unicode="8" horiz-adv-x="556" 
d="M210 321c-6.66699 0 -18.501 -9 -35.501 -27s-32.167 -38 -45.5 -60c-22.667 -37.333 -39.667 -77 -51 -119s-14.666 -77.333 -9.99902 -106c4 -23.333 10 -38.833 18 -46.5s22.667 -11.167 44 -10.5c32 0.666992 67.167 11.5 105.5 32.5s73.833 48.5 106.5 82.5
c12 12 19.833 21.833 23.5 29.5s6.16699 19.5 7.5 35.5c1.33301 17.333 1 29.666 -1 36.999s-8.33301 18 -19 32c-10 14 -32.833 36.333 -68.5 67s-60.5 48.334 -74.5 53.001zM145.999 423c24.667 -22 40.332 -34.332 46.999 -36.999c11.333 -2.66699 29 4 53 20
c34.667 24 81.834 48 141.501 72s99.167 34.667 118.5 32c31.333 -3.33301 22.666 -16.333 -26.001 -39l-53 -23c-48 -20 -89.833 -39.167 -125.5 -57.5s-53.5 -29.833 -53.5 -34.5c0 -3.33301 9 -11.666 27 -24.999c24 -18 50.5 -42.5 79.5 -73.5
s46.167 -52.833 51.5 -65.5c7.33301 -16.667 10.666 -35.5 9.99902 -56.5s-5 -40.167 -13 -57.5c-9.33301 -20.667 -30.833 -45.834 -64.5 -75.501s-66.167 -52.167 -97.5 -67.5c-23.333 -11.333 -41 -18.5 -53 -21.5s-30.333 -4.5 -55 -4.5c-25.333 0 -41.833 1 -49.5 3
s-15.5 7.66699 -23.5 17c-31.333 36.667 -39 95.167 -23 175.5s49.667 151.166 101 212.499l28 34l-24 19c-42.667 32 -67.834 64.5 -75.501 97.5s3.5 61.167 33.5 84.5c29.333 22.667 67 41 113 55c50.667 14 103.334 13.333 158.001 -2c40 -11.333 59.667 -25.333 59 -42
c-0.666992 -4 -2.66699 -8.33301 -6 -13c-5.33301 -6 -11.166 -8.5 -17.499 -7.5s-16.166 5.83301 -29.499 14.5c-13.333 9.33301 -42.333 14 -87 14c-29.333 -0.666992 -50.333 -2 -63 -4s-28 -7.33301 -46 -16c-44 -20.667 -68.667 -40 -74 -58s7.66699 -41.333 39 -70z
" />
    <glyph glyph-name="nine" unicode="9" horiz-adv-x="466" 
d="M367 708c-29.333 13.333 -46.334 20.666 -51.001 21.999c-8.66699 -1.33301 -26.167 -7.66602 -52.5 -18.999s-47.166 -21.666 -62.499 -30.999c-28 -16.667 -57.5 -40.334 -88.5 -71.001s-47.833 -52.667 -50.5 -66c-5.33301 -32 6.66699 -47.333 36 -46
c40.667 2 93.667 30.333 159 85c56 49.333 92.667 91.333 110 126zM281.999 755c30.667 11.333 58.9961 7.66797 84.9961 -10.999c8.66699 -6.66699 14.5 -10 17.5 -10s7.83301 3.33301 14.5 10c6 6 10.5 9.33301 13.5 10s7.5 -1.33301 13.5 -6
c6.66699 -4.66699 9.83398 -11.167 9.50098 -19.5s-4.16602 -31.833 -11.499 -70.5c-5.33301 -29.333 -10.666 -55.333 -15.999 -78s-9.66602 -43.5 -12.999 -62.5s-7.33301 -46.833 -12 -83.5c-4 -32.667 -5.33301 -93.834 -4 -183.501s4.33301 -143.5 9 -161.5
c12.667 -40.667 12.667 -61.667 0 -63c-10 -0.666992 -19.667 8.66602 -29 27.999c-2.66699 6.66699 -5 13.667 -7 21c-4.66699 18 -7 71.333 -7 160s2.33301 155.334 7 200.001c1.33301 17.333 6.83301 56.333 16.5 117s14.834 98.334 15.501 113.001
c-1.33301 1.33301 -19.333 -16 -54 -52c-66 -70 -127.5 -116.333 -184.5 -139s-93.5 -15.334 -109.5 21.999c-18 44.667 2.66699 93 62 145c59.333 52.667 120.666 90.667 183.999 114z" />
    <glyph glyph-name="colon" unicode=":" horiz-adv-x="152" 
d="M80 78c5.33301 11.333 13 15.667 23 13c21.333 -5.33301 26 -17.666 14 -36.999c-7.33301 -14.667 -17 -18.334 -29 -11.001c-11.333 8 -14 19.667 -8 35zM39 339.001c-0.666992 7.33301 1.66602 14.333 6.99902 21s11.333 10 18 10c5.33301 0 10.833 -2.83301 16.5 -8.5
s8.5 -11.5 8.5 -17.5c0 -7.33301 -8.66699 -19 -26 -35c-6 -6 -10.667 -10.5 -14 -13.5s-6.16602 -4.83301 -8.49902 -5.5s-4 -0.5 -5 0.5s-2.16699 3.16699 -3.5 6.5c-2.66699 7.33301 -2 14.833 2 22.5s5.66699 14.167 5 19.5z" />
    <glyph glyph-name="semicolon" unicode=";" horiz-adv-x="211" 
d="M40 -151c-25.333 0 -6.33203 48.332 57.001 144.999c23.333 36 36.333 62.333 39 79c4.66699 22 8.33398 36 11.001 42c7.33301 17.333 16.666 19 27.999 5c13.333 -16 7.66602 -48.333 -17.001 -97c-13.333 -25.333 -35.333 -60.666 -66 -105.999s-48 -68 -52 -68z
M117.001 401.999c8 11.333 15.667 14.3359 23 9.00293c8.66699 -7.33301 13.667 -13.833 15 -19.5s0 -15.834 -4 -30.501c-3.33301 -12 -7.33301 -20.333 -12 -25s-9.16699 -5 -13.5 -1s-8.16602 11.667 -11.499 23c-4 11.333 -5.83301 19.666 -5.5 24.999
s3.16602 11.666 8.49902 18.999z" />
    <glyph glyph-name="equal" unicode="=" horiz-adv-x="567" 
d="M372 256c1.33301 -2 9 -3.66992 23 -5.00293s21.333 -3.66602 22 -6.99902c0 -4 -4.5 -7.66699 -13.5 -11s-15.5 -3.66602 -19.5 -0.999023c-14 8 -60.333 13 -139 15c-88.667 2 -136 8.33301 -142 19c-2 4.66699 -2 12.667 0 24c2 6.66699 3.83301 11.167 5.5 13.5
s3.66699 3 6 2s5.5 -4.16699 9.5 -9.5c5.33301 -6 43.333 -13 114 -21c68.667 -7.33301 107.667 -11.666 117 -12.999s15 -3.33301 17 -6zM537 472.997c0 -5.33301 -28.001 -8.00098 -84.001 -8.00098c-83.333 2.66699 -213 -11.333 -389 -42
c-10.667 -2.66699 -18.5 -3.5 -23.5 -2.5s-8 2.5 -9 4.5s-1.5 6.66699 -1.5 14c0 14 6 23.667 18 29c14.667 6.66699 22 8.33398 22 5.00098c0 -1.33301 -0.666992 -4 -2 -8c-3.33301 -6.66699 -3.66602 -10 -0.999023 -10c8.66699 1.33301 41.5 6 98.5 14
s91.5 12.667 103.5 14c33.333 4 71.333 6 114 6s79 -1.5 109 -4.5s45 -6.83301 45 -11.5z" />
    <glyph glyph-name="greater" unicode="&#x3e;" horiz-adv-x="581" 
d="M79 42c0 7.33301 11.333 16.665 34 27.998c20.667 10.667 54.167 29 100.5 55s79.166 44 98.499 54c71.333 38 123.333 74.333 156 109c24.667 24.667 39 47.167 43 67.5s-2.66699 36.166 -20 47.499c-7.33301 5.33301 -28.333 9.83301 -63 13.5
s-101.667 8.16699 -201 13.5c-102.667 6.66699 -164.334 14 -185.001 22c-8 2 -11.833 9 -11.5 21s5.5 16.667 15.5 14h2c39.333 -14 128.333 -23.667 267 -29c84 -3.33301 137.833 -7.16602 161.5 -11.499s43.5 -13.833 59.5 -28.5c9.33301 -9.33301 14.5 -23.5 15.5 -42.5
s-2.83301 -37.167 -11.5 -54.5c-11.333 -21.333 -33.666 -47.166 -66.999 -77.499s-66 -54.166 -98 -71.499l-152.5 -82c-35.667 -18.667 -65.667 -33.5 -90 -44.5s-38.666 -15.667 -42.999 -14s-7.83301 5.16699 -10.5 10.5z" />
    <glyph glyph-name="question" unicode="?" horiz-adv-x="541" 
d="M456 15c17.333 6 27.501 9.00098 30.501 9.00098s8.16699 -4 15.5 -12c8.66699 -8.66699 11.667 -17.667 9 -27c-3.33301 -8 -12.833 -16.333 -28.5 -25s-32.167 -14.334 -49.5 -17.001c-10 -2 -16.833 -2 -20.5 0s-7.16699 8 -10.5 18c-2 7.33301 -3 12.5 -3 15.5
s0.833008 5.66699 2.5 8s5.5 5.5 11.5 9.5c15.333 9.33301 29.666 16.333 42.999 21zM325.001 575.001c-64.667 0 -122.999 -12.002 -174.999 -36.002c-19.333 -9.33301 -37.5 -21.333 -54.5 -36s-25.5 -25.667 -25.5 -33c0 -4.66699 -2.33301 -7.66699 -7 -9
c-3.33301 -1.33301 -4.33301 -8.16602 -3 -20.499l4.5 -41c1.66699 -15 1.83398 -22.5 0.500977 -22.5c-2.66699 -4.66699 -7.66699 0 -15 14c-14.667 31.333 -21 59.333 -19 84c0.666992 10 3.33398 16.667 8.00098 20c32 50.667 97.333 88.334 196 113.001
c27.333 6.66699 59.166 8.66699 95.499 6s63.833 -8.66699 82.5 -18c37.333 -18 56.666 -53.667 57.999 -107c0 -15.333 -1.66699 -26.166 -5 -32.499s-13 -16.5 -29 -30.5c-18.667 -16.667 -36.667 -31.334 -54 -44.001c-26 -18 -39 -51 -39 -99
c-0.666992 -33.333 5.66602 -59.666 18.999 -78.999s36 -35.333 68 -48c28 -11.333 41 -20 39 -26c-1.33301 -5.33301 -13.333 -7 -36 -5c-78 6 -119 56 -123 150c-2 38.667 2.33301 68.834 13 90.501s32.667 45.167 66 70.5c24.667 18.667 40.167 33.5 46.5 44.5
s7.5 25.167 3.5 42.5c-4 11.333 -14 22.666 -30 33.999c-12 7.33301 -22.833 12.166 -32.5 14.499s-27.167 3.5 -52.5 3.5z" />
    <glyph glyph-name="at" unicode="@" horiz-adv-x="872" 
d="M446 418c0.666992 5.33301 -0.5 8.66797 -3.5 10.001s-10.167 2 -21.5 2c-16.667 0.666992 -32.667 -3.5 -48 -12.5s-34.666 -25.5 -57.999 -49.5c-50.667 -52 -76.667 -109 -78 -171c0 -49.333 11 -77.333 33 -84c15.333 -4.66699 31.666 -5.83398 48.999 -3.50098
s32 8.16602 44 17.499c19.333 14.667 31.833 29 37.5 43s9.5 40 11.5 78c0 12.667 0.833008 25.334 2.5 38.001s4 25.834 7 39.501s5.5 24.5 7.5 32.5s5.16699 19.167 9.5 33.5s6.83301 23.166 7.5 26.499zM274 -5.99805c6.66699 -0.666992 14.167 -3.6709 22.5 -9.00391
s17.833 -7.66602 28.5 -6.99902c91.333 0 138.333 -2 141 -6l-9 -1c-27.333 -1.33301 -41 -4.66602 -41 -9.99902c0 -6 -20.333 -7 -61 -3c-34.667 2.66699 -74.167 10.834 -118.5 24.501s-75.166 27.167 -92.499 40.5c-15.333 11.333 -31.333 27.333 -48 48
s-25.667 35.334 -27 44.001c0 4 -4.16699 13.5 -12.5 28.5s-11.833 24.5 -10.5 28.5c2.66699 4.66699 0.333984 13.667 -6.99902 27c-6.66699 14 -9.33398 52.333 -8.00098 115c2 58.667 4 95 6 109c5.33301 26.667 30 80.667 74 162
c8.66699 16.667 29.167 40.834 61.5 72.501s60.833 55.5 85.5 71.5c30 20.667 52.833 34.5 68.5 41.5s37.167 13.5 64.5 19.5c39.333 8.66699 85.166 8.83398 137.499 0.500977s95.5 -22.166 129.5 -41.499c52 -30.667 97.5 -87.334 136.5 -170.001
s54.5 -156.334 46.5 -221.001c-4 -31.333 -11.833 -63.166 -23.5 -95.499s-27.167 -63.5 -46.5 -93.5s-42.166 -55.333 -68.499 -76s-56.166 -35.167 -89.499 -43.5s-70 -6.83301 -110 4.5c-11.333 4 -26.333 14.667 -45 32s-28 29.333 -28 36
c0 7.33301 -3.33301 9.33301 -10 6l-25 -18c-30.667 -24 -60.5 -36 -89.5 -36s-54.5 12.333 -76.5 37c-10.667 11.333 -17.834 23.666 -21.501 36.999s-5.16699 32 -4.5 56c2.66699 65.333 34.667 129.666 96 192.999c30.667 31.333 58.5 51.833 83.5 61.5
s53.833 10.167 86.5 1.5c10.667 -2.66699 17.667 -4 21 -4c4 -0.666992 10.333 -12.167 19 -34.5s13 -38.5 13 -48.5c0 -6 -4.66699 -16 -14 -30s-14 -24.333 -14 -31c0 -8.66699 -7.33301 -34.334 -22 -77.001c-10.667 -32 -16.5 -51.667 -17.5 -59s1.5 -19 7.5 -35
c13.333 -36 43.666 -54.333 90.999 -55c54 -0.666992 100 16 138 50s69.333 86.667 94 158c16 46.667 21.5 91.834 16.5 135.501s-21.833 95.5 -50.5 155.5c-25.333 53.333 -56.166 92.833 -92.499 118.5s-87.166 43.834 -152.499 54.501
c-18 2.66699 -44.667 1.66699 -80 -3s-63 -11 -83 -19c-19.333 -8 -42.166 -21.167 -68.499 -39.5s-48.5 -36.5 -66.5 -54.5c-85.333 -82 -134.833 -179.167 -148.5 -291.5s12.166 -207.5 77.499 -285.5c13.333 -13.333 36.166 -28.333 68.499 -45
s55.166 -25.334 68.499 -26.001z" />
    <glyph glyph-name="A" unicode="A" horiz-adv-x="587" 
d="M334 525c-4.66699 0 -17.667 -29.332 -39 -87.999c-7.33301 -20.667 -17.666 -46.334 -30.999 -77.001l-42.5 -95.5c-15 -33 -24.833 -55.167 -29.5 -66.5c1.33301 -3.33301 8.16602 -4 20.499 -2s37.833 7.66699 76.5 17l60 14.5c21.333 5 36.333 8.83301 45 11.5
c2.66699 2.66699 -3.5 44.667 -18.5 126s-25.833 131 -32.5 149c-2.66699 7.33301 -5.66699 11 -9 11zM555 266.001c-7.33301 -7.33301 -14.002 -13.168 -20.002 -17.501s-10.833 -7.16602 -14.5 -8.49902l-20 -7.5l-24.5 -9.5c-16 -7.33301 -24.667 -13.666 -26 -18.999
c-2.66699 -7.33301 3.66602 -35 18.999 -83c0.666992 -2 1.33398 -3.66699 2.00098 -5c10.667 -33.333 19.334 -54.833 26.001 -64.5s15 -12.834 25 -9.50098c6 1.33301 10.5 5.83301 13.5 13.5s7.16699 11.834 12.5 12.501c8 0 10.667 -8.66699 8 -26
c-3.33301 -16 -7.83301 -27.5 -13.5 -34.5s-14.167 -10.5 -25.5 -10.5c-20.667 0 -40.834 16.667 -60.501 50s-34.5 76 -44.5 128c-2 12.667 -6.33301 19 -13 19c-3.33301 0 -32.333 -7 -87 -21c-80 -22 -124 -25.333 -132 -10c-4 6.66699 -18.333 -7.33301 -43 -42l-15 -22
c-34.667 -50.667 -55 -77 -61 -79c-5.33301 -2 -11.833 -0.333008 -19.5 5s-11.5 11.333 -11.5 18c0 5.33301 6.66699 15.333 20 30c29.333 30.667 63.833 81.167 103.5 151.5s72.834 140.5 99.501 210.5c40.667 105.333 64.334 162 71.001 170
c5.33301 5.33301 9.33301 8.16602 12 8.49902s6.66699 -2.16699 12 -7.5c18 -16.667 39.667 -91.667 65 -225l27 -131c64 8.66699 102.333 14 115 16z" />
    <glyph glyph-name="B" unicode="B" horiz-adv-x="537" 
d="M172 124c4.66699 -2 10.334 -4.83594 17.001 -8.50293s12.167 -6.5 16.5 -8.5s11.333 -3.83301 21 -5.5s21.5 -2.5 35.5 -2.5c26 0 51.833 5.33301 77.5 16s47.5 24.667 65.5 42s32.833 35.833 44.5 55.5s17.334 39.5 17.001 59.5s-7.16602 37 -20.499 51
c-9.33301 10.667 -17.333 17 -24 19s-21.334 2.66699 -44.001 2c-26 0 -47.667 -3.16699 -65 -9.5s-37.333 -18.5 -60 -36.5c-12.667 -10.667 -23.667 -15.667 -33 -15s-14 6.66699 -14 18c0 8 9.33301 21.5 28 40.5s31.667 28.5 39 28.5c12 0 33.833 13.5 65.5 40.5
s52.167 49.167 61.5 66.5c11.333 22 11.833 41.833 1.5 59.5s-29.833 30.167 -58.5 37.5c-14.667 4 -34.834 6.33301 -60.501 7s-45.167 -0.666016 -58.5 -3.99902c-60.667 -13.333 -89.334 -24.666 -86.001 -33.999c2 -5.33301 3.66699 -38.666 5 -99.999
c0.666992 -45.333 3 -101 7 -167s7.66699 -109 11 -129c1.33301 -15.333 5 -23 11 -23zM375 388.997c0 -2.66699 8.33105 -3.99902 24.998 -3.99902c26.667 0 50.334 -10.167 71.001 -30.5s32.667 -45.166 36 -74.499c4.66699 -48 -17.833 -96.833 -67.5 -146.5
s-100.5 -74.834 -152.5 -75.501c-56.667 0 -93.334 13.333 -110.001 40l-14 22l2 -45c1.33301 -31.333 -2 -47.333 -10 -48c-3.33301 0 -8 2.33301 -14 7c-4.66699 4 -8.5 16.167 -11.5 36.5s-6.5 60.5 -10.5 120.5c-12 171.333 -18.333 277.666 -19 318.999
c0 10 -2 15 -6 15c-4.66699 0 -13.667 -5.66699 -27 -17c-9.33301 -8 -16.666 -13 -21.999 -15s-9.16602 -1.5 -11.499 1.5s-3.5 9.16699 -3.5 18.5c0 15.333 7.66699 28 23 38c30.667 22 68.167 39.833 112.5 53.5s90.5 18.667 138.5 15s85.667 -19.167 113 -46.5
c18.667 -18 29.667 -33 33 -45c6.66699 -27.333 -8 -61 -44 -101c-20.667 -23.333 -31 -36 -31 -38z" />
    <glyph glyph-name="C" unicode="C" horiz-adv-x="533" 
d="M464 469c-15.333 0 -27.335 13.002 -36.002 39.002c-13.333 39.333 -43.666 53.666 -90.999 42.999c-50 -12 -99.667 -37.833 -149 -77.5s-82.666 -80.834 -99.999 -123.501c-21.333 -54.667 -21 -98.334 1 -131.001c30.667 -47.333 135.334 -69 314.001 -65
c66 2.66699 99.333 2 100 -2c0 -1.33301 -8 -5.33301 -24 -12c-10.667 -4 -18.667 -7.33301 -24 -10c-34.667 -15.333 -90.834 -21 -168.501 -17s-134.834 15.667 -171.501 35c-16.667 8.66699 -32.667 22.5 -48 41.5s-25.666 37.833 -30.999 56.5
c-6.66699 22.667 -7 48.334 -1 77.001c4.66699 24 10 41.833 16 53.5s18.667 29.5 38 53.5c20 24 35 40.833 45 50.5s28.333 24.167 55 43.5c63.333 46 111 72.333 143 79c29.333 6 57 -0.666992 83 -20c20 -14.667 36.667 -39.667 50 -75c10 -26 9.66699 -39 -1 -39z" />
    <glyph glyph-name="D" unicode="D" horiz-adv-x="715" 
d="M170 654c18.667 4.66699 53.835 5.83691 105.502 3.50391s91.167 -6.83301 118.5 -13.5c63.333 -15.333 120.833 -41.666 172.5 -78.999s87.5 -78.333 107.5 -123c20.667 -46 13.667 -98.333 -21 -157s-89 -110.334 -163 -155.001
c-58.667 -35.333 -108.667 -54.666 -150 -57.999c-25.333 -3.33301 -44.333 0 -57 10c-12.667 9.33301 -18.334 16.666 -17.001 21.999c1.33301 4.66699 18.666 7.66699 51.999 9c60 -0.666992 133.667 34 221 104c56 45.333 89.5 91.666 100.5 138.999
s-1.16699 89.666 -36.5 126.999c-23.333 24.667 -55.166 48 -95.499 70s-79.833 37.333 -118.5 46c-22.667 5.33301 -63.5 8.66602 -122.5 9.99902s-91.833 -0.333984 -98.5 -5.00098s-7.33398 -13.667 -2.00098 -27c6 -16.667 9.66699 -95 11 -235
c1.33301 -142 4.66602 -220.333 9.99902 -235c5.33301 -13.333 5.66602 -22.333 0.999023 -27s-12.667 -3.33398 -24 3.99902s-18.5 26.333 -21.5 57s-4.16699 96.667 -3.5 198c0.666992 152.667 -5 232.667 -17 240c-3.33301 2.66699 -10.666 1.5 -21.999 -3.5
s-22 -11.5 -32 -19.5c-6.66699 -6 -14 -6 -22 0c-20 16 -20.333 31 -1 45c9.33301 6.66699 28.833 16.334 58.5 29.001s51.834 20.667 66.501 24z" />
    <glyph glyph-name="E" unicode="E" horiz-adv-x="618" 
d="M451 306c0 -6.66699 -2.33398 -10.833 -7.00098 -12.5s-20 -3.16699 -46 -4.5c-95.333 -6 -164 -15.667 -206 -29c-24.667 -7.33301 -40.667 -8 -48 -2c-25.333 20.667 -10.333 37.667 45 51c10 2.66699 21 5 33 7c44 7.33301 87.333 10.333 130 9
c46.667 -2 74.834 -4 84.501 -6s14.5 -6.33301 14.5 -13zM79.999 48.001c-2.66699 2 -9.16699 4.33691 -19.5 7.00391s-17.5 7 -21.5 13c-6 5.33301 -9 14.666 -9 27.999s3.66699 46.666 11 99.999c4.66699 39.333 12.667 95.666 24 168.999s19 126.333 23 159
c0.666992 10 0.166992 16.167 -1.5 18.5s-6.16699 3.5 -13.5 3.5c-11.333 0 -19.333 6.33301 -24 19c-4.66699 12 -6.5 19 -5.5 21s8.16699 4.66699 21.5 8c15.333 4 24 12 26 24c1.33301 10.667 4.66602 17.667 9.99902 21c3.33301 2.66699 6.33301 4.5 9 5.5
s5.33398 0.833008 8.00098 -0.5s5.16699 -3 7.5 -5s4.66602 -4.83301 6.99902 -8.5l6 -9.5c1.66699 -2.66699 3.5 -5.83398 5.5 -9.50098s3.66699 -6.5 5 -8.5h96c51.333 0.666992 86.333 -0.333008 105 -3s39.667 -9 63 -19c8.66699 -4 17.334 -9.33301 26.001 -16
s15.167 -13 19.5 -19s5.16602 -10 2.49902 -12c-1.33301 -1.33301 -23.666 2.66699 -66.999 12c-43.333 10 -92.333 14.667 -147 14h-16c-50 -0.666992 -79.333 -4 -88 -10s-14.667 -22.333 -18 -49c-0.666992 -2 -1 -4.66699 -1 -8
c-0.666992 -6 -1.33398 -10.667 -2.00098 -14l-11 -76c-5.33301 -36.667 -8.66602 -60.334 -9.99902 -71.001c-22 -152 -28.333 -230 -19 -234c5.33301 -2 48.166 -1.66699 128.499 1s122.5 5 126.5 7c4 2.66699 46.333 4.33398 127 5.00098s122 -0.333008 124 -3
c0 -2 -7.33301 -4.16699 -22 -6.5s-30.667 -4.5 -48 -6.5l-25 -3c-25.333 -2.66699 -61.166 -6.16699 -107.499 -10.5s-87.5 -8.5 -123.5 -12.5s-71.333 -9 -106 -15c-48.667 -8.66699 -74 -10.667 -76 -6z" />
    <glyph glyph-name="F" unicode="F" horiz-adv-x="602" 
d="M113 636c5.33301 5.33301 13.1719 8.50195 23.5049 9.50195s35.166 0.5 74.499 -1.5c150.667 -8.66699 250 -35 298 -79c19.333 -18 21.666 -27.667 6.99902 -29c-8.66699 -1.33301 -22.667 2 -42 10c-12.667 4.66699 -26.5 9 -41.5 13s-27.833 7.66699 -38.5 11
c-24.667 7.33301 -65.167 14 -121.5 20s-86.166 6.66699 -89.499 2c-4.66699 -8 -11.667 -40.833 -21 -98.5s-14.666 -103.167 -15.999 -136.5c34 -10 83.333 -9 148 3c11.333 2.66699 52.833 4.66699 124.5 6s115.167 1 130.5 -1
c7.33301 -1.33301 13.166 -2.83301 17.499 -4.5s6.16602 -3.5 5.49902 -5.5c-1.33301 -3.33301 -5.83301 -4.33301 -13.5 -3s-12.5 0.666016 -14.5 -2.00098c-1.33301 -4 -11 -6 -29 -6c-42.667 -1.33301 -123.334 -12.333 -242.001 -33c-56 -10 -96 -10 -120 0
c-2 0.666992 -3.83301 0.666992 -5.5 0s-3.33398 -3 -5.00098 -7s-3.16699 -9.16699 -4.5 -15.5s-3 -14.833 -5 -25.5c-6 -36.667 -18.333 -84.5 -37 -143.5s-31.334 -89.833 -38.001 -92.5c-6.66699 -2 -14 0.666992 -22 8c-4.66699 6 -6.33398 13.167 -5.00098 21.5
s8 31.166 20 68.499c32.667 100.667 51.667 186.667 57 258c3.33301 41.333 9.33301 94.333 18 159c2.66699 18 3.66699 30.167 3 36.5s-4.66699 14.5 -12 24.5c-7.33301 9.33301 -11.166 15.833 -11.499 19.5s2.16699 8.16699 7.5 13.5z" />
    <glyph glyph-name="G" unicode="G" horiz-adv-x="678" 
d="M634 -10c0 -3.33301 -1.99805 -5.33301 -5.99805 -6s-9.33301 -0.166992 -16 1.5s-13.667 4.5 -21 8.5c-25.333 13.333 -43.5 37.5 -54.5 72.5s-16.167 85.5 -15.5 151.5v90c-58.667 -14.667 -97.334 -26.667 -116.001 -36c-5.33301 -4 -37.5 -14.5 -96.5 -31.5
s-92.833 -25.5 -101.5 -25.5c-10.667 0 -17.667 5 -21 15c-2.66699 8.66699 -1.33398 15.5 3.99902 20.5s14 7.5 26 7.5c12.667 0 48.834 9 108.501 27s106.5 34.333 140.5 49c46.667 19.333 71.667 28.666 75 27.999c0.666992 0 3 -2 7 -6
c5.33301 -5.33301 6.66602 -39 3.99902 -101c-4 -93.333 4.66699 -161.666 26 -204.999c6 -12.667 12 -21.5 18 -26.5s16 -9.83301 30 -14.5c14.667 -5.33301 21.667 -9 21 -11c-8 -1.33301 -12 -4 -12 -8zM373.002 499c0 6 -6.3291 15.332 -18.9961 27.999
c-34.667 36.667 -90.334 17 -167.001 -59c-24 -22.667 -37.333 -34 -40 -34c-4 0 -6 -2.66699 -6 -8c0 -4.66699 -8 -17 -24 -37c-27.333 -33.333 -45.833 -70 -55.5 -110s-7.83398 -72.667 5.49902 -98c7.33301 -15.333 21.5 -31.333 42.5 -48s41.833 -28.334 62.5 -35.001
c22 -7.33301 62.167 -11.5 120.5 -12.5s94.166 1.83301 107.499 8.5c10.667 6.66699 15.667 8 15 4c0 -2.66699 -2.33301 -9 -7 -19c-11.333 -24 -58 -35.333 -140 -34c-58 0.666992 -107.5 12.667 -148.5 36s-68.167 54.666 -81.5 93.999
c-6.66699 20.667 -9 46.834 -7 78.501s7.33301 58.5 16 80.5c13.333 31.333 41.666 71.5 84.999 120.5s82.333 84.833 117 107.5c42.667 27.333 76.667 32.333 102 15c10 -7.33301 19.667 -20.166 29 -38.499s12.666 -30.833 9.99902 -37.5
c-3.33301 -9.33301 -7.66602 -12.666 -12.999 -9.99902c-2.66699 1.33301 -4 4 -4 8z" />
    <glyph glyph-name="H" unicode="H" horiz-adv-x="681" 
d="M356 265c0 -2.66699 -2.66797 -4.67285 -8.00098 -6.00586c-72 -5.33301 -119.167 -7.66602 -141.5 -6.99902s-37.833 4.33398 -46.5 11.001c-12 9.33301 -16 19 -12 29c2.66699 7.33301 6 11.5 10 12.5s14.333 0.166992 31 -2.5c29.333 -4.66699 71 -6.16699 125 -4.5
s83.667 5.16699 89 10.5c6 6 6.33301 22 1 48c-4 20.667 -5.5 61.5 -4.5 122.5s3.83301 94.833 8.5 101.5c4 6.66699 9.33301 9.33398 16 8.00098s12 -5.66602 16 -12.999c5.33301 -8.66699 5 -22 -1 -40c-4 -14 -5.16699 -49 -3.5 -105s4.83398 -92 9.50098 -108
c2 -7.33301 5 -11.666 9 -12.999s12.333 -1 25 1c29.333 4 66 6.33301 110 7c44 2 64.667 2.33301 62 1c-0.666992 -0.666992 -1.66699 -1 -3 -1c-36.667 -8 -69.334 -12.333 -98.001 -13c-40 -1.33301 -66 -5.66602 -78 -12.999c-12.667 -6.66699 -16 -10.667 -10 -12
c7.33301 0 7.66602 -2 0.999023 -6c-6.66699 -5.33301 -7.33398 -22.666 -2.00098 -51.999c7.33301 -36.667 15 -67 23 -91c13.333 -42.667 15 -65 5 -67c-2 -0.666992 -4 -0.333984 -6 0.999023c-13.333 8.66699 -29.666 50.667 -48.999 126l-19 78
c-3.33301 0 -10.166 0.166992 -20.499 0.5s-19.166 0.333008 -26.499 0s-11.333 -1.5 -12 -3.5zM30.999 592.994c2 9.33301 5.66699 14.6709 11 16.0039s11.333 -1.33398 18 -8.00098c7.33301 -9.33301 12 -32.166 14 -68.499s2.66699 -107.166 2 -212.499
c-0.666992 -138.667 2 -212.334 8 -221.001c6.66699 -8.66699 8 -17.334 4 -26.001c-9.33301 -16.667 -20.333 -13 -33 11c-5.33301 9.33301 -8.5 26.666 -9.5 51.999s-1.83301 91 -2.5 197c0 151.333 -2.66699 229.666 -8 234.999c-4.66699 5.33301 -6 13.666 -4 24.999z
" />
    <glyph glyph-name="I" unicode="I" horiz-adv-x="655" 
d="M500 557c-83.333 0 -129.334 -2.66504 -138.001 -7.99805c-12 -9.33301 -23.5 -34.333 -34.5 -75s-19.333 -85.334 -25 -134.001s-7.16699 -97.834 -4.5 -147.501s10.667 -86.5 24 -110.5c3.33301 -2.66699 31 -3.33398 83 -2.00098c44 1.33301 65.667 0.333008 65 -3
c0 -0.666992 -1 -1.66699 -3 -3c-5.33301 -5.33301 -26.5 -11.166 -63.5 -17.499s-78.833 -12.833 -125.5 -19.5s-77.667 -11.667 -93 -15c-103.333 -22.667 -155 -20.334 -155 6.99902c0 5.33301 2 8.83301 6 10.5s13.667 2.83398 29 3.50098c18 0 90 9 216 27
c-14 48 -20.833 104 -20.5 168s6.83301 127 19.5 189c4 17.333 8.16699 37.166 12.5 59.499s7.83301 39.166 10.5 50.499c-50.667 -4.66699 -86.667 -9.66699 -108 -15c-67.333 -18.667 -107 -32.667 -119 -42c-5.33301 -4.66699 -12.666 -1.66699 -21.999 9
c-9.33301 12 -11.5 21.167 -6.5 27.5s18.5 11.5 40.5 15.5c18 2.66699 38 7.83398 60 15.501s42.667 12.834 62 15.501c12 2 34.333 6.33301 67 13s56 11 70 13c34.667 5.33301 77.5 7.5 128.5 6.5s87.167 -4.5 108.5 -10.5c45.333 -12.667 52 -21 20 -25
c-20 -2 -54.667 -3 -104 -3z" />
    <glyph glyph-name="J" unicode="J" 
d="M501 608c0 -2.66699 -11.998 -3.33008 -35.998 -1.99707c-20.667 2 -28.667 2 -24 0c1.33301 -0.666992 3.66602 -1.33398 6.99902 -2.00098c13.333 -4.66699 16 -7.66699 8 -9c-2.66699 0 -7 -0.333008 -13 -1l-23 -2c-12.667 -2 -19 -2.33301 -19 -1l8 3
c7.33301 2.66699 11.333 4.66699 12 6c1.33301 2 -2.33398 2.66699 -11.001 2h-7c-8.66699 0.666992 -14.334 0.166992 -17.001 -1.5s-3.33398 -4.16699 -2.00098 -7.5s0.166016 -6.16602 -3.50098 -8.49902s-10.5 -4.16602 -20.5 -5.49902
c-24.667 -3.33301 -32 -11 -22 -23c13.333 -31.333 22.5 -60.333 27.5 -87s6.83301 -64.334 5.5 -113.001c0 -179.333 -30.667 -290.333 -92 -333c-12 -8.66699 -22.667 -14.167 -32 -16.5s-25.666 -3.83301 -48.999 -4.5c-22 -0.666992 -38.5 0.166016 -49.5 2.49902
s-24.167 7.5 -39.5 15.5c-25.333 14 -44.666 30.333 -57.999 49c-18 24.667 -24.667 37 -20 37c2.66699 0 9.33398 -5.33301 20.001 -16c14 -14 34.333 -26 61 -36s52 -15 76 -15c34 0 59.833 7.83301 77.5 23.5s32.5 43.5 44.5 83.5c22.667 73.333 32 153.666 28 240.999
c-1.33301 36 -3.5 60.5 -6.5 73.5s-9.83301 30.5 -20.5 52.5c-8.66699 18.667 -15.5 31 -20.5 37s-9.83301 8.33301 -14.5 7l-41 -10l-59.5 -15c-17.667 -4.66699 -31.834 -9.33398 -42.501 -14.001c-18 -6.66699 -30.167 -10.334 -36.5 -11.001s-11.5 1.33301 -15.5 6
c-4.66699 4.66699 -6.66699 8 -6 10s3.66699 5.33301 9 10c7.33301 6 34.833 16.5 82.5 31.5s87.5 25.5 119.5 31.5c14.667 2.66699 32.334 7 53.001 13s40.667 10 60 12l120.5 12.5c73.667 7.66699 120.5 11.167 140.5 10.5c-10 -3.33301 -16.833 -5.66602 -20.5 -6.99902
s-9.5 -2.83301 -17.5 -4.5s-13.667 -2.66699 -17 -3s-13 -1.66602 -29 -3.99902l-45 -6.5c-20 -2.66699 -30 -6.33398 -30 -11.001z" />
    <glyph glyph-name="K" unicode="K" 
d="M74 286c3.33301 0 16.0049 9.66992 38.0049 29.0029c35.333 28.667 137 81.667 305 159c56 26 99.833 53.667 131.5 83s45.167 54.666 40.5 75.999c-2 10.667 -1.5 16.667 1.5 18s9.16699 -2.33398 18.5 -11.001c13.333 -12 14.333 -31.667 3 -59
c-18.667 -45.333 -84.667 -95 -198 -149l-52 -25.5c-24.667 -12.333 -41.334 -20.5 -50.001 -24.5c-40 -19.333 -62.667 -31.333 -68 -36s-5 -13.334 1 -26.001c17.333 -33.333 53.333 -61.666 108 -84.999c45.333 -17.333 100.5 -36.333 165.5 -57
s112.167 -32.667 141.5 -36c-30.667 -6 -58.834 -8.33301 -84.501 -7s-56.834 7.66602 -93.501 18.999c-14.667 5.33301 -30.167 9.33301 -46.5 12s-28.833 5.66699 -37.5 9c-4 2.66699 -13.833 6.16699 -29.5 10.5s-25.5 8.83301 -29.5 13.5
c-7.33301 7.33301 -12.333 9.33301 -15 6c-6 -6 -26 6.66699 -60 38s-53.667 55.333 -59 72c-3.33301 10 -29 -3.33301 -77 -40c-20.667 -15.333 -37.334 -26.333 -50.001 -33c-6.66699 -2 -10.834 -8.33301 -12.501 -19s-1.83398 -31 -0.500977 -61
c0.666992 -19.333 -2.66602 -30.333 -9.99902 -33c-10.667 -4 -18 5 -22 27c-6.66699 35.333 -4.33398 90 6.99902 164c12.667 86 16 140 10 162c-1.33301 6.66699 2 12.334 10 17.001c16.667 10.667 26.334 1 29.001 -29c2 -22.667 0 -52.334 -6 -89.001
c-3.33301 -18 -6 -38.333 -8 -61s-2.33301 -34 -1 -34z" />
    <glyph glyph-name="L" unicode="L" horiz-adv-x="544" 
d="M68 584c0 3.33301 2.49902 5.16504 7.49902 5.49805s10.5 -1 16.5 -4s10 -6.5 12 -10.5c4 -8 4.16699 -34.167 0.5 -78.5s-9.5 -89.833 -17.5 -136.5c-30.667 -165.333 -33 -272.666 -7 -321.999c6 -12 17.333 -23.333 34 -34s32.667 -17 48 -19
c16 -1.33301 44 1.33398 84 8.00098c62.667 10.667 119.334 18 170.001 22s81.667 4 93 0c6.66699 -2.66699 5.66699 -6.33398 -3 -11.001l-12 -6c-22.667 -11.333 -100 -27.666 -232 -48.999c-39.333 -6.66699 -76.333 -6.66699 -111 0s-61.667 18.667 -81 36
c-46 41.333 -52.667 165 -20 371c13.333 76.667 19.333 152.667 18 228z" />
    <glyph glyph-name="M" unicode="M" horiz-adv-x="686" 
d="M61 38c0 5.33301 -3.33301 8.00195 -10 8.00195c-7.33301 0 -12.666 6.33301 -15.999 19c-5.33301 20 -6.83301 61.833 -4.5 125.5s7.5 123.5 15.5 179.5c10.667 72 15 115.333 13 130c-1.33301 16 0 27.667 4 35c4 8 9.5 11.667 16.5 11s12.833 -5.33398 17.5 -14.001
c7.33301 -16 4 -69 -10 -159c-18 -118.667 -23.667 -209.334 -17 -272.001c3.33301 -32 2.66602 -52 -2.00098 -60s-7 -9 -7 -3zM318 215.002c12.667 0 27.8359 5.17188 45.5029 15.5049s33.5 23.5 47.5 39.5s31.5 46.667 52.5 92s36.5 86.333 46.5 123
c9.33301 32.667 15.666 52.167 18.999 58.5s9 9.16602 17 8.49902c6.66699 -0.666992 12.167 -3.66699 16.5 -9s9.16602 -16 14.499 -32c6 -17.333 9.66699 -37.333 11 -60s1.66602 -71.667 0.999023 -147c-0.666992 -108.667 2.83301 -182.334 10.5 -221.001
s22.167 -58 43.5 -58c7.33301 0 11.666 -0.833008 12.999 -2.5s0.333008 -5.16699 -3 -10.5c-10 -18.667 -24.333 -24 -43 -16s-33.667 26.333 -45 55c-6 14.667 -9.83301 33.667 -11.5 57s-3.16699 71 -4.5 143c0 19.333 -0.333008 44 -1 74
c-1.33301 76.667 -2.33301 115 -3 115s-1.33398 -1.33301 -2.00098 -4c-0.666992 -0.666992 -1 -1.33398 -1 -2.00098c-0.666992 -1.33301 -6.83398 -16 -18.501 -44s-17.834 -44.333 -18.501 -49c0 -7.33301 -11.5 -28 -34.5 -62s-40.167 -55.333 -51.5 -64
c-52.667 -40.667 -96 -53.334 -130 -38.001c-13.333 6.66699 -28.166 19.5 -44.499 38.5s-28.833 37.833 -37.5 56.5c-17.333 38 -34.666 97.667 -51.999 179s-22.333 126.666 -15 135.999c4.66699 5.33301 10.167 8 16.5 8s11.833 -2.66699 16.5 -8
c4.66699 -14.667 9.83398 -43 15.501 -85s11.834 -74 18.501 -96c31.333 -127.333 68.333 -191 111 -191z" />
    <glyph glyph-name="N" unicode="N" horiz-adv-x="493" 
d="M355 661c6.66699 -4.66699 12.335 -8.8291 17.002 -12.4961s8.66699 -8 12 -13l7.5 -11c1.66699 -2.33301 4.5 -7.5 8.5 -15.5s7.33301 -14.333 10 -19c8.66699 -13.333 14.667 -24.666 18 -33.999s10.666 -36 21.999 -80c14 -53.333 17.167 -108.5 9.5 -165.5
s-24.5 -104.833 -50.5 -143.5c-17.333 -25.333 -32.5 -42.833 -45.5 -52.5s-28.167 -14.167 -45.5 -13.5c-32 0 -65.167 13.667 -99.5 41s-64.166 63.666 -89.499 108.999c-18 32.667 -28.333 49 -31 49c-1.33301 1.33301 -3 -13.334 -5 -44.001
c0 -12.667 -0.666992 -34.334 -2 -65.001c-3.33301 -87.333 -6.33301 -131 -9 -131c-4 -2.66699 -10.667 -3 -20 -1s-14 4.66699 -14 8l-2 181c-1.33301 118.667 -4.33301 181 -9 187c-4.66699 7.33301 -7 25.666 -7 54.999c0.666992 20.667 1.66699 33.667 3 39
s5.33301 8.33301 12 9c10.667 1.33301 18.834 -2.83398 24.501 -12.501s11.167 -28.834 16.5 -57.501s18.166 -67.167 38.499 -115.5s38.833 -84.833 55.5 -109.5c52 -74.667 100.667 -106.334 146 -95.001c12 2.66699 27.167 19.834 45.5 51.501s30.166 60.167 35.499 85.5
c8 43.333 9.5 91.5 4.5 144.5s-15.5 98.167 -31.5 135.5c-8.66699 20.667 -17.167 35.334 -25.5 44.001s-19.5 14.667 -33.5 18c-8.66699 2 -14.334 5.33301 -17.001 10s-2 9.16699 2 13.5s10.667 7.5 20 9.5c13.333 2 23 2.33301 29 1z" />
    <glyph glyph-name="O" unicode="O" horiz-adv-x="634" 
d="M263 490c-6.66699 1.33301 -21.166 -5.17188 -43.499 -19.5049s-34.833 -21.833 -37.5 -22.5c-5.33301 0 -17.833 -13 -37.5 -39s-34.5 -49.333 -44.5 -70c-9.33301 -20 -16.333 -43.333 -21 -70s-5 -47.667 -1 -63s14 -30.666 30 -45.999s33.333 -26.333 52 -33
c22 -7.33301 55 -11 99 -11s80 3.66699 108 11c45.333 12 86.333 31.833 123 59.5s58 54.834 64 81.501c9.33301 41.333 1.16602 86.5 -24.501 135.5s-62.834 90.833 -111.501 125.5c-30 21.333 -58.5 34.666 -85.5 39.999s-57.167 4 -90.5 -4c-50 -12 -68.667 -11 -56 3
c3.33301 3.33301 8.33301 7.33301 15 12c14 9.33301 25 16.166 33 20.499s19.333 8 34 11s31 3.5 49 1.5c32.667 -2.66699 65.667 -13.667 99 -33s62.5 -43.166 87.5 -71.499s47 -59.333 66 -93s29.833 -66.667 32.5 -99s-1.33301 -62.166 -12 -89.499
c-16.667 -34 -50 -65.5 -100 -94.5s-104.667 -48.5 -164 -58.5c-43.333 -7.33301 -88 -6.66602 -134 2.00098s-81.333 23 -106 43c-43.333 34.667 -61.833 84.5 -55.5 149.5s35.5 125.833 87.5 182.5c38.667 42.667 82.334 71.334 131.001 86.001
c18.667 5.33301 32 6.33301 40 3s12 -11.666 12 -24.999c0 -16.667 -12.667 -25 -38 -25z" />
    <glyph glyph-name="P" unicode="P" horiz-adv-x="607" 
d="M177 -200l-42.001 -0.00195312c0.666992 40.667 2.33398 84.834 5.00098 132.501s5.33398 86.334 8.00098 116.001s6.83398 73.167 12.501 130.5l11.5 117c8.66699 118.667 16.667 190 24 214c2 5.33301 7.66699 7.83301 17 7.5s16.333 -3.5 21 -9.5
c5.33301 -7.33301 6 -24.333 2 -51c-4.66699 -28.667 -11.834 -95 -21.501 -199s-15.834 -167.333 -18.501 -190c-4.66699 -38.667 -11 -128 -19 -268zM331.999 271.998c16 0 40.332 13.333 72.999 40c154 122 164.333 213.333 31 274
c-19.333 8.66699 -35.166 14 -47.499 16s-36.5 3.33301 -72.5 4c-52.667 0 -91.5 -4.66699 -116.5 -14s-53.833 -30 -86.5 -62c-32 -32 -53.667 -46.667 -65 -44c-16.667 4.66699 -21.334 13.334 -14.001 26.001c6.66699 10 20.334 25.333 41.001 46
c26 24.667 48.333 42.5 67 53.5s41.334 19.833 68.001 26.5c14.667 4 52.334 5.33301 113.001 4c52.667 -1.33301 93 -6.83301 121 -16.5s55.667 -27.5 83 -53.5c21.333 -20.667 35.666 -40.334 42.999 -59.001s8.66602 -39.667 3.99902 -63
c-5.33301 -28 -24.666 -60.667 -57.999 -98s-68.333 -67 -105 -89s-62.334 -27.667 -77.001 -17c-12 10 -15.333 17.667 -10 23z" />
    <glyph glyph-name="Q" unicode="Q" horiz-adv-x="756" 
d="M531 75c9.33301 0 25.1621 11.3359 47.4951 34.0029s37.833 43.667 46.5 63c28.667 56.667 32.334 126.834 11.001 210.501s-58.666 139.834 -111.999 168.501c-34.667 14.667 -55.334 13 -62.001 -5c-3.33301 -8.66699 -8.16602 -13.334 -14.499 -14.001
s-17.5 3 -33.5 11s-36.833 7 -62.5 -3s-47.167 -21.333 -64.5 -34c-41.333 -36.667 -79.166 -76.834 -113.499 -120.501s-59.833 -83.834 -76.5 -120.501c-19.333 -43.333 -27.166 -84.833 -23.499 -124.5s18.5 -70.834 44.5 -93.501c31.333 -28 79.333 -43.833 144 -47.5
s124.667 6.16602 180 29.499l39 15l-34 19.5l-43 24c-15.333 8.33301 -25.666 13.833 -30.999 16.5c-13.333 6.66699 -21.833 14.334 -25.5 23.001s-1.16699 16.667 7.5 24c5.33301 4.66699 16 3.66699 32 -3s44 -21.334 84 -44.001c35.333 -19.333 55.333 -29 60 -29z
M584.996 46.0029c4.66699 -2.66699 17.332 -8.66406 37.999 -17.9971s36.667 -18 48 -26c24 -14.667 40.333 -21.334 49 -20.001c4 0.666992 6.16699 0.666992 6.5 0s-1.16699 -2.66699 -4.5 -6c-8 -4 -18 -5.16699 -30 -3.5s-26.833 4.5 -44.5 8.5s-27.834 6 -30.501 6
c-2.66699 -0.666992 -8.16699 0.666016 -16.5 3.99902s-17 7 -26 11s-18 7.66699 -27 11s-16.5 4.83301 -22.5 4.5s-9.33301 -2.83301 -10 -7.5c-0.666992 -2.66699 -2 -4 -4 -4c-2.66699 2.66699 -15 -1.33301 -37 -12c-36.667 -17.333 -80.834 -28.833 -132.501 -34.5
s-97.167 -3.83398 -136.5 5.49902c-65.333 16 -111.5 40.667 -138.5 74s-39.167 80 -36.5 140c1.33301 34.667 10 69.167 26 103.5s43 76.833 81 127.5c84.667 112 163.334 174 236.001 186c25.333 4 52.833 5.83301 82.5 5.5s52.167 -2.83301 67.5 -7.5
c34.667 -10.667 66.334 -37.167 95.001 -79.5s49.334 -91.833 62.001 -148.5s14.334 -109.667 5.00098 -159c-10.667 -49.333 -34.334 -92.333 -71.001 -129c-19.333 -18 -29 -28.667 -29 -32z" />
    <glyph glyph-name="R" unicode="R" horiz-adv-x="890" 
d="M528 462c-3.33301 0.666992 -12.6689 -6.16602 -28.002 -20.499s-24.333 -21.5 -27 -21.5c-12.667 -7.33301 -31.167 -22.666 -55.5 -45.999s-41.166 -38.666 -50.499 -45.999c-22.667 -20 -43.5 -40 -62.5 -60s-28.5 -32.667 -28.5 -38c0 -12 53 -22.667 159 -32
c123.333 -11.333 211.833 -21.5 265.5 -30.5s94.834 -20.833 123.501 -35.5c12.667 -6.66699 22.334 -14.334 29.001 -23.001s8 -15.334 4 -20.001c-2 -2 -19 2 -51 12c-44 14.667 -85.833 25 -125.5 31s-116.834 14 -231.501 24c-90 9.33301 -143.667 16.5 -161 21.5
s-37.666 20.5 -60.999 46.5v-119c-2 -82.667 -4.66699 -129.334 -8 -140.001c-4 -13.333 -14.333 -16.666 -31 -9.99902c-2.66699 0.666992 -5.33398 1.66699 -8.00098 3c-1.33301 1.33301 0 10 4 26c3.33301 8.66699 7 83.5 11 224.5s7.33301 216.167 10 225.5
c18 87.333 29.667 134.666 35 141.999c3.33301 3.33301 8.33301 4.66602 15 3.99902c11.333 -1.33301 17 -8.83301 17 -22.5s-6.33301 -47.834 -19 -102.501c-5.33301 -26 -10.166 -54.333 -14.499 -85s-6.83301 -55.167 -7.5 -73.5s0.333008 -28.833 3 -31.5
c2.66699 0 11.334 7.33301 26.001 22c14.667 16 42.667 41.167 84 75.5s78.666 63.833 111.999 88.5c40 28.667 73.667 57.334 101 86.001s44 52.334 50 71.001c4.66699 14 6.66699 23.333 6 28s-4.33398 10.667 -11.001 18c-17.333 18 -53.333 32.167 -108 42.5
s-111.334 13.5 -170.001 9.5c-54 -4 -98.667 -11.833 -134 -23.5s-68.333 -29.167 -99 -52.5c-15.333 -12 -29.333 -18 -42 -18s-19 6.33301 -19 19c0 14 24 33.5 72 58.5s91.333 40.833 130 47.5c30.667 4.66699 83.334 5.66699 158.001 3s124 -7.33398 148 -14.001
c102.667 -27.333 134.667 -79.666 96 -156.999c-7.33301 -15.333 -25 -37 -53 -65s-45.667 -42 -53 -42z" />
    <glyph glyph-name="S" unicode="S" horiz-adv-x="524" 
d="M389 574c0 -8 -4.3291 -12.499 -12.9961 -13.499s-16 2.16699 -22 9.5c-9.33301 8.66699 -26.666 13.5 -51.999 14.5s-49.333 -0.333008 -72 -4s-43.334 -7.83398 -62.001 -12.501c-20 -4 -41 -11.167 -63 -21.5s-33 -18.166 -33 -23.499c0 -6 15.667 -18.167 47 -36.5
s56.666 -29.833 75.999 -34.5c14 -3.33301 48 -18.333 102 -45c67.333 -33.333 119.666 -77.833 156.999 -133.5s48.666 -106.167 33.999 -151.5c-6 -17.333 -22 -39 -48 -65s-52.333 -46.333 -79 -61c-30 -16.667 -65 -31.334 -105 -44.001
c-44.667 -14 -80.334 -19.667 -107.001 -17s-50.667 13.667 -72 33c-20 17.333 -31.833 37.333 -35.5 60s-0.833984 48 8.49902 76c1.33301 9.33301 4.33301 9.66602 9 0.999023c4 -8 6 -17.333 6 -28c0 -40.667 17.167 -69.5 51.5 -86.5s77.166 -18.167 128.499 -3.5
c26 8 40 14 42 18c0.666992 2.66699 5.83398 4.5 15.501 5.5s14.834 3.16699 15.501 6.5c0 3.33301 13.333 11.666 40 24.999c44.667 22.667 74.834 49.334 90.501 80.001s15.834 62.667 0.500977 96c-7.33301 16 -21.666 36.5 -42.999 61.5s-39 42.167 -53 51.5
c-43.333 30 -104.333 59.667 -183 89c-43.333 16.667 -74.5 30.834 -93.5 42.501s-32.167 24.834 -39.5 39.501c-11.333 22.667 -9.33301 40.667 6 54c7.33301 6.66699 30.166 17 68.499 31s58.833 19.667 61.5 17c7.33301 -0.666992 18 2 32 8s24.667 9.66699 32 11
c23.333 5.33301 37.666 7.66602 42.999 6.99902c2.66699 -0.666992 13 -2.66699 31 -6c21.333 -4 39.666 -10.833 54.999 -20.5s23 -19.5 23 -29.5z" />
    <glyph glyph-name="T" unicode="T" horiz-adv-x="912" 
d="M882 592c0 -12 -27.6641 -12 -82.9971 0c-39.333 7.33301 -98.333 13.666 -177 18.999s-146.667 7.33301 -204 6c-6 -27.333 -11.333 -56.5 -16 -87.5s-8.16699 -56.167 -10.5 -75.5s-5.33301 -48.166 -9 -86.499s-6.16699 -65.5 -7.5 -81.5
c-2 -10.667 -4.83301 -49.5 -8.5 -116.5s-7.83398 -106.5 -12.501 -118.5c-3.33301 -4 -9 -0.666992 -17 10c-7.33301 11.333 -11 36 -11 74c1.33301 46.667 8 127.834 20 243.501s23 195.167 33 238.5c-56.667 2 -143.334 -10.667 -260.001 -38
c-47.333 -12 -74 -15.333 -80 -10c-7.33301 6 -10.333 13.167 -9 21.5s6.66602 13.5 15.999 15.5c143.333 31.333 236 48 278 50c38.667 3.33301 60.667 8 66 14c5.33301 6.66699 11.166 10 17.499 10s11.5 -3.33301 15.5 -10c4 -8 47 -14 129 -18
c102.667 -6 183.334 -14.333 242.001 -25s88 -22.334 88 -35.001z" />
    <glyph glyph-name="U" unicode="U" horiz-adv-x="559" 
d="M396 663c0 12 7.66992 13.9893 23.0029 5.98926c4.66699 -2 9.33398 -5 14.001 -9c31.333 -25.333 57.333 -79.666 78 -162.999s24.667 -151.666 12 -204.999c-4.66699 -20.667 -17 -51.667 -37 -93s-38 -74.333 -54 -99c-30.667 -43.333 -68.5 -73.166 -113.5 -89.499
s-89.833 -16.166 -134.5 0.500977c-50 18 -87.333 51.667 -112 101c-16 30.667 -27 60 -33 88s-9 63.333 -9 106c1.33301 18 1.33301 30.5 0 37.5s-0.833008 18.833 1.5 35.5s3.5 27.834 3.5 33.501s1.83301 16.167 5.5 31.5s5.83398 25.333 6.50098 30s3 14.334 7 29.001
s6.66699 24 8 28s4.16602 13.333 8.49902 28s7.16602 24 8.49902 28c5.33301 20 12.666 30 21.999 30c6 0 10.167 -1 12.5 -3s3.5 -6.16699 3.5 -12.5s-1.33301 -14.333 -4 -24s-7 -23.5 -13 -41.5c-21.333 -61.333 -34.666 -122 -39.999 -182s-2.33301 -111.667 9 -155
c17.333 -67.333 41.666 -111.666 72.999 -132.999s81.666 -29.333 150.999 -24c16 3.33301 34 11.833 54 25.5s34.667 27.834 44 42.501c17.333 24.667 29 41.667 35 51s13.5 23.833 22.5 43.5s17.5 42.5 25.5 68.5c25.333 78 27.333 155 6 231
c-8.66699 30.667 -20.334 60.834 -35.001 90.501s-26.667 46.834 -36 51.501c-8.66699 4.66699 -13 10.334 -13 17.001z" />
    <glyph glyph-name="V" unicode="V" horiz-adv-x="671" 
d="M612 659c-2.66699 0 -15.999 -11.999 -39.999 -35.999c-23.333 -24 -43.666 -54.333 -60.999 -91s-36.666 -89.667 -57.999 -159c-34 -111.333 -64 -192.333 -90 -243c-16 -32 -34.833 -63.667 -56.5 -95s-38.167 -51 -49.5 -59
c-10 -6.66699 -17.167 -10.334 -21.5 -11.001s-11.5 1.66602 -21.5 6.99902c-12.667 6.66699 -27.5 19.834 -44.5 39.501s-30.5 39.5 -40.5 59.5c-22.667 46 -45 110.333 -67 193s-32.667 143.334 -32 182.001v55c12 -28.667 23.667 -66.334 35 -113.001
c48 -194 93 -314.333 135 -361c9.33301 -10.667 17.333 -16 24 -16c7.33301 0 22.666 16.333 45.999 49s43.666 67 60.999 103c20 40 45 105.667 75 197c32.667 102 59.167 172.833 79.5 212.5s46.166 71.167 77.499 94.5c20 14 34.667 22.333 44 25s18.666 1 27.999 -5
c12.667 -4 7.33398 -12.333 -15.999 -25c-4 -2 -6.33301 -3 -7 -3z" />
    <glyph glyph-name="W" unicode="W" horiz-adv-x="847" 
d="M798 800c10 0 15.6709 -2.00195 17.0039 -6.00195c2.66699 -6 1.33398 -43 -3.99902 -111c-12 -160.667 -44.667 -307 -98 -439c-17.333 -42 -39.666 -85.833 -66.999 -131.5s-49 -74.834 -65 -87.501c-18.667 -14.667 -39.5 -17.667 -62.5 -9s-45.5 27.667 -67.5 57
c-36.667 46.667 -59.334 99 -68.001 157c-2 12 -5 49.833 -9 113.5s-6.33301 106.167 -7 127.5c0 22 -2.66699 33 -8 33c-3.33301 0 -6 -5 -8 -15c-74 -228 -128 -369.667 -162 -425c-12.667 -22 -22.834 -35.333 -30.501 -40s-15 -2.33398 -22 6.99902s-15.5 28 -25.5 56
c-6.66699 18 -13.667 46.167 -21 84.5s-15 82.166 -23 131.499s-14.667 86 -20 110c-6.66699 30 -11.667 67.833 -15 113.5s-2.66602 68.834 2.00098 69.501c12 0 22.5 -18.667 31.5 -56s22.833 -118.666 41.5 -243.999l9.5 -64.5c2.33301 -16.333 5 -31.166 8 -44.499
l6.5 -29.5c1.33301 -6.33301 4.16602 -17.333 8.49902 -33s7.83301 -28.834 10.5 -39.501l15.5 29.5l14 28l11 23c2.33301 5 6 13.5 11 25.5l10.5 25.5c2 5 6 15.833 12 32.5l13 36l17 47.5l20 55.5c44 125.333 73.333 194 88 206c5.33301 4 10.666 4.83301 15.999 2.5
s10.166 -8.16602 14.499 -17.499s7.5 -20.333 9.5 -33c3.33301 -17.333 7 -65.333 11 -144c4 -98.667 11 -170.5 21 -215.5s27.333 -80.167 52 -105.5c15.333 -16 28.166 -24.667 38.499 -26s22.166 4.33398 35.499 17.001c18 16.667 41.833 52.334 71.5 107.001
s51.5 102 65.5 142c42 117.333 69 277 81 479h20z" />
    <glyph glyph-name="X" unicode="X" horiz-adv-x="651" 
d="M573 416c5.33301 59.333 6.33301 119.669 3 181.002c-18.667 -42.667 -51.667 -101.834 -99 -177.501s-90.333 -139.834 -129 -192.501c-14.667 -19.333 -23 -31.833 -25 -37.5s-0.666992 -12.834 4 -21.501c6.66699 -11.333 18.667 -25.333 36 -42
c19.333 -17.333 37.166 -24.666 53.499 -21.999s36.166 16.334 59.499 41.001c28.667 31.333 50.334 67.666 65.001 108.999s25.334 95.333 32.001 162zM586 709.003c0.666992 2 2.67676 2.66992 6.00977 2.00293s7.66602 -2 12.999 -4c8.66699 -4 13.667 -8.16699 15 -12.5
s0.666016 -14.833 -2.00098 -31.5c-4 -34 -8.66699 -85.667 -14 -155c-10 -150 -32 -262 -66 -336c-12.667 -26.667 -29.834 -51.834 -51.501 -75.501s-38.834 -35.5 -51.501 -35.5c-21.333 0 -38.833 3.33301 -52.5 10s-30.5 20 -50.5 40l-41 40
c-38.667 -42.667 -83 -97 -133 -163s-80.667 -110 -92 -132c-1.33301 -2.66699 -3 -5.66699 -5 -9s-3.33301 -5.5 -4 -6.5s-2.16699 -2.5 -4.5 -4.5s-4.33301 -2.5 -6 -1.5s-4.83398 1.16699 -9.50098 0.5c-4 0 -6.33301 4 -7 12s0.666016 17.667 3.99902 29
s8 21.666 14 30.999c11.333 18 32.666 48.667 63.999 92s49.666 67.666 54.999 72.999c13.333 13.333 40.333 46 81 98c14.667 18.667 21 31.334 19 38.001c-30 88 -48.333 152.667 -55 194c-8.66699 46.667 -17.334 88 -26.001 124
c-6.66699 25.333 -9.66699 42.166 -9 50.499s5.66699 12.5 15 12.5c11.333 0 19.666 -7.16699 24.999 -21.5s12.333 -48.5 21 -102.5c12 -74.667 28.667 -146.667 50 -216c4.66699 -14 12 -14.667 22 -2c2.66699 3.33301 6 8 10 14c46.667 66 80.667 116.667 102 152
s65 112.333 131 231c22 39.333 33 61 33 65z" />
    <glyph glyph-name="Y" unicode="Y" horiz-adv-x="647" 
d="M362 258c-6.66699 0 -14.667 -21.6699 -24 -65.0029c-36 -150.667 -58.667 -250.334 -68 -299.001c-3.33301 -20 -7.33301 -29.667 -12 -29c-4 0.666992 -7.33301 8.66699 -10 24c-6.66699 32 3 109 29 231c11.333 58 17 90.667 17 98c-0.666992 6.66699 -1.5 10 -2.5 10
s-2.83301 -2.66699 -5.5 -8c-4 -8 -14.333 -12 -31 -12c-10 0 -18.5 2 -25.5 6s-16.5 12.333 -28.5 25c-18 18 -39.333 50.333 -64 97s-44.667 91.667 -60 135c-13.333 38 -25 76.833 -35 116.5s-13.667 61.5 -11 65.5c3.33301 6 9.5 7.83301 18.5 5.5
s15.167 -7.16602 18.5 -14.499c4.66699 -10.667 10.667 -33.667 18 -69c11.333 -50 31.166 -107.333 59.499 -172s53.833 -110.667 76.5 -138c13.333 -15.333 27.333 -24 42 -26c10.667 -1.33301 18.5 0.666992 23.5 6s10.5 17 16.5 35c1.33301 6 6 8.83301 14 8.5
s12.667 2.83398 14 9.50098c15.333 24.667 41.333 63.834 78 117.501l77 113.5c44.667 66 73.667 105.5 87 118.5s25.333 14.167 36 3.5c6 -6 8.33301 -11.5 7 -16.5s-7.66602 -13.833 -18.999 -26.5c-5.33301 -5.33301 -59 -78.666 -161 -219.999
c-8 -9.33301 -20 -28 -36 -56s-25 -46.333 -27 -55c-2 -12.667 -6 -19 -12 -19z" />
    <glyph glyph-name="Z" unicode="Z" horiz-adv-x="720" 
d="M452 430c0 -50 -70.3301 -128.003 -210.997 -234.003c-79.333 -60 -121.666 -99.667 -126.999 -119c-2 -9.33301 2.33301 -17 13 -23c11.333 -6 40.5 -12.167 87.5 -18.5s94.5 -10.833 142.5 -13.5c139.333 -7.33301 236.666 -20.666 291.999 -39.999
c27.333 -9.33301 41 -15.333 41 -18c0 -2 -3 -4 -9 -6c-12.667 -5.33301 -85.334 -4 -218.001 4s-224 16.333 -274 25c-46.667 8 -77.167 17 -91.5 27s-24.166 28.667 -29.499 56c-2.66699 12.667 -2.33398 21.834 0.999023 27.501s14 17.5 32 35.5
c14.667 15.333 42.334 37.5 83.001 66.5s65.667 47.833 75 56.5c3.33301 2.66699 11.666 10 24.999 22s23.333 20.667 30 26c19.333 15.333 40.166 37.333 62.499 66s33.5 47.334 33.5 56.001c0 7.33301 -6.33301 17.333 -19 30s-26.667 22.667 -42 30
c-46.667 22.667 -118.334 34 -215.001 34c-60 0 -92.667 3.33301 -98 10c-7.33301 8.66699 -8.16602 16 -2.49902 22s16.5 9.33301 32.5 10c56 4 114.667 1.83301 176 -6.5s107.666 -20.166 138.999 -35.499c20.667 -10.667 37.667 -24.334 51 -41.001s20 -33 20 -49z" />
    <glyph glyph-name="a" unicode="a" horiz-adv-x="429" 
d="M216 438c-10 0 -27.165 -12.668 -51.498 -38.001s-44.5 -51.666 -60.5 -78.999c-22 -38 -36.833 -72.833 -44.5 -104.5s-5.83398 -52.167 5.49902 -61.5c7.33301 -6 16.166 -6.16699 26.499 -0.5s25.5 18.5 45.5 38.5c50.667 52.667 81 125.667 91 219
c1.33301 11.333 1.33301 18.5 0 21.5s-5.33301 4.5 -12 4.5zM283.002 366.999c-2.66699 0 -6.33105 3.83301 -10.998 11.5s-8.66699 11.167 -12 10.5c-3.33301 -2 -5 -8.83301 -5 -20.5s2 -26.834 6 -45.501s9 -34.334 15 -47.001
c11.333 -27.333 23.833 -46.166 37.5 -56.499s37.167 -18.833 70.5 -25.5c16.667 -4 20.334 -8.66699 11.001 -14c-4.66699 -2.66699 -12 -4.66699 -22 -6c-44.667 -6 -85.667 22.667 -123 86c-8.66699 14.667 -14.334 22 -17.001 22
c-3.33301 0 -11.666 -13.333 -24.999 -40c-12.667 -24.667 -31 -50 -55 -76s-43 -40.667 -57 -44c-26 -6.66699 -44.833 1 -56.5 23s-12.834 51.667 -3.50098 89c10.667 45.333 34.667 93.333 72 144s71 81.334 101 92.001c16 6 28.167 9 36.5 9s13.666 -1.33301 15.999 -4
s5.16602 -9 8.49902 -19s6.33301 -17.667 9 -23c3.33301 -8 6 -17.333 8 -28s2.66699 -19.667 2 -27s-2.66699 -11 -6 -11z" />
    <glyph glyph-name="b" unicode="b" horiz-adv-x="418" 
d="M193 434c0 -2.66699 2.99902 -1.66504 8.99902 3.00195c5.33301 5.33301 27.666 7.33301 66.999 6c28 -0.666992 45.667 -2.16699 53 -4.5s17.333 -9.5 30 -21.5c40 -40 46.667 -89.667 20 -149c-6.66699 -14 -13.167 -25 -19.5 -33s-25.166 -29 -56.499 -63
c-40.667 -44 -82.5 -73.833 -125.5 -89.5s-73.833 -12.834 -92.5 8.49902c-12 13.333 -12.667 20.333 -2 21c7.33301 0 14 -2 20 -6c14 -14 43 -8.66699 87 16c25.333 15.333 56.5 41.666 93.5 78.999s59.5 65.333 67.5 84s11.833 37 11.5 55s-4.83301 32.333 -13.5 43
c-12 15.333 -30.667 24.333 -56 27s-51.166 -0.166016 -77.499 -8.49902s-51.5 -21.833 -75.5 -40.5s-40.667 -39.334 -50 -62.001c-7.33301 -16.667 -11 -48.334 -11 -95.001c0 -51.333 -4.33301 -77 -13 -77c-4 0 -8.33301 3.66699 -13 11
c-6.66699 8.66699 -9.66699 34.334 -9 77.001c0.666992 6 0 47.333 -2 124s-3.33301 143.667 -4 201s1.33301 93.333 6 108c6 7.33301 12.333 8 19 2c6.66699 -5.33301 8.33398 -25 5.00098 -59c-3.33301 -31.333 -5 -79 -5 -143s1.66699 -97.333 5 -100
c2.66699 -2.66699 11 4 25 20c6 7.33301 17.667 17.166 35 29.499s33.666 22.333 48.999 30s23 9.83398 23 6.50098z" />
    <glyph glyph-name="c" unicode="c" horiz-adv-x="505" 
d="M314 647c0 14 -5.99609 25.3252 -17.9961 33.9922s-26.333 12 -43 10c-38 -4 -79 -26 -123 -66c-24 -21.333 -40.833 -42.5 -50.5 -63.5s-14.5 -46.833 -14.5 -77.5c0 -16 1.33301 -27.833 4 -35.5s8.33398 -16.167 17.001 -25.5c20 -22.667 50.5 -38.167 91.5 -46.5
s85.167 -8.16602 132.5 0.500977c75.333 14.667 121.333 26.334 138 35.001c18 10 27 12.333 27 7c-0.666992 -6.66699 -9.33398 -16 -26.001 -28c-8 -5.33301 -14 -8.33301 -18 -9c-4.66699 0 -8.33398 -2.66699 -11.001 -8s-7 -7.66602 -13 -6.99902c-10 0 -16 -2 -18 -6
c-4.66699 -7.33301 -27.5 -14.166 -68.5 -20.499s-77.833 -8.83301 -110.5 -7.5c-42 2 -74.5 8.33301 -97.5 19s-42.833 28.667 -59.5 54c-10 14.667 -16.333 26.667 -19 36s-4 24.333 -4 45c0 28.667 7.66699 59.334 23 92.001c13.333 26.667 34.166 52.834 62.499 78.501
s57.166 44.167 86.499 55.5c46 18.667 80 20.334 102 5.00098c14 -9.33301 23.5 -25.166 28.5 -47.499s1.83301 -35.5 -9.5 -39.5c-2.66699 -0.666992 -4.83398 0.5 -6.50098 3.5s-2.5 7.16699 -2.5 12.5z" />
    <glyph glyph-name="d" unicode="d" horiz-adv-x="456" 
d="M237 530c-12 5.33301 -21.001 7.66602 -27.001 6.99902s-15.667 -4.33398 -29 -11.001c-30 -15.333 -56.333 -41.666 -79 -78.999s-33.667 -72.666 -33 -105.999c0.666992 -24.667 5.5 -43.5 14.5 -56.5s24.167 -22.833 45.5 -29.5
c22 -6.66699 54.833 -8.33398 98.5 -5.00098s76.5 9.66602 98.5 18.999c-4 48.667 -9 87.834 -15 117.501s-16.333 57.834 -31 84.501c-15.333 32 -29.666 51.667 -42.999 59zM425.999 291c0 -7.33301 -20.667 -19.5 -62 -36.5s-79 -28.833 -113 -35.5
c-62.667 -14 -116.667 -9.16699 -162 14.5s-64.666 61.167 -57.999 112.5c2 14 4 25.5 6 34.5s4 15.667 6 20l10 21c4.66699 9.66699 8.66699 18.834 12 27.501c11.333 22.667 30 46.667 56 72s47.667 40.666 65 45.999c42.667 13.333 77.334 -1.66699 104.001 -45l22 -38
c-2.66699 37.333 -0.333984 86.833 6.99902 148.5s15.333 100.5 24 116.5c4.66699 5.33301 8 8 10 8s6.33301 -3.33301 13 -10c5.33301 -4.66699 7.83301 -10.667 7.5 -18s-3.16602 -23 -8.49902 -47c-8.66699 -38 -11.334 -108.333 -8.00098 -211
c2.66699 -104 5.66699 -161.333 9 -172c2 -6.66699 4.66699 -10.5 8 -11.5s9.66602 -0.166992 18.999 2.5c22 6 33 6.33301 33 1z" />
    <glyph glyph-name="e" unicode="e" horiz-adv-x="594" 
d="M108 389c5.33301 0 25.3359 9.5 60.0029 28.5s60 34.5 76 46.5c35.333 26 59.666 54.667 72.999 86s11.333 55.666 -6 72.999c-8.66699 8.66699 -19.834 13 -33.501 13s-27.167 -4.33301 -40.5 -13c-34 -21.333 -63.333 -50.666 -88 -87.999s-38.667 -73.333 -42 -108
c-2.66699 -25.333 -2.33398 -38 0.999023 -38zM177.003 382c-5.33301 0 -8.00195 -2.33008 -8.00195 -6.99707c0 -4 -8.33301 -7.33301 -25 -10c-30 -6 -32 -26.333 -6 -61c22 -30 44 -49.833 66 -59.5s57.667 -15.167 107 -16.5c32 -1.33301 57.833 -0.833008 77.5 1.5
s47.5 7.5 83.5 15.5c62.667 14.667 93.667 19.167 93 13.5s-32.667 -18.167 -96 -37.5c-34 -10.667 -59.167 -17 -75.5 -19s-48.5 -3.33301 -96.5 -4c-46.667 0 -79 4.33301 -97 13c-49.333 21.333 -83.333 52.333 -102 93c-6.66699 14.667 -12.167 24 -16.5 28
s-9.83301 5.33301 -16.5 4c-8.66699 -2.66699 -17.667 0.666016 -27 9.99902c-7.33301 8 -9.66602 14.667 -6.99902 20s9.33398 8 20.001 8c8 0 13 2.5 15 7.5s3.66699 18.833 5 41.5c2.66699 32.667 11.334 62.667 26.001 90c13.333 25.333 33.5 53.5 60.5 84.5
s49.5 51.167 67.5 60.5c16 8 34.667 12.667 56 14c20 0 38.333 -7.66699 55 -23c12 -10.667 19.333 -19.334 22 -26.001s3.66699 -19.334 3 -38.001c0 -45.333 -19.667 -86.333 -59 -123c-14.667 -14.667 -37.334 -31.667 -68.001 -51s-49.667 -29 -57 -29z" />
    <glyph glyph-name="f" unicode="f" horiz-adv-x="623" 
d="M291 282c64.667 0 97.0039 -2.00195 97.0039 -6.00195c0 -0.666992 -1 -2 -3 -4c-6.66699 -8 -36.667 -14.333 -90 -19c-52 -4.66699 -81.333 -8.66699 -88 -12c-5.33301 -3.33301 -3 -21.333 7 -54c10 -32 17 -68 21 -108c2.66699 -27.333 3.5 -43.833 2.5 -49.5
s-4.83301 -9.5 -11.5 -11.5c-10.667 -2.66699 -17.5 -0.333984 -20.5 6.99902s-4.83301 24.666 -5.5 51.999c-1.33301 30 -7.33301 65 -18 105c-6.66699 24 -12 39.5 -16 46.5s-9 10.833 -15 11.5c-80.667 0.666992 -121 13.667 -121 39c0 8 3.66699 12.167 11 12.5
s29.333 -1.83398 66 -6.50098l41 -5c-5.33301 28 -14.666 58 -27.999 90c-13.333 32.667 -19.833 65.667 -19.5 99s7.16602 61.666 20.499 84.999c10 16.667 26.833 35.5 50.5 56.5s43.834 34.833 60.501 41.5c31.333 12.667 49 19.667 53 21c25.333 10 61 14 107 12
s80.333 -8.66699 103 -20c21.333 -11.333 43.166 -28.166 65.499 -50.499s33.166 -38.833 32.499 -49.5c0 -6 -0.666992 -9.33301 -2 -10c-0.666992 -0.666992 -1.33398 0 -2.00098 2c-3.33301 8.66699 -21 22.834 -53 42.501s-57 31.834 -75 36.501
c-67.333 16.667 -132.833 12.334 -196.5 -12.999s-103.834 -62.666 -120.501 -111.999c-7.33301 -21.333 -9.83301 -41.166 -7.5 -59.499s11.166 -51.5 26.499 -99.5l22 -70h106z" />
    <glyph glyph-name="g" unicode="g" horiz-adv-x="510" 
d="M407 460c-25.333 28 -61.668 34.3311 -109.001 18.998c-32.667 -11.333 -64.167 -32.333 -94.5 -63s-45.833 -58 -46.5 -82c-0.666992 -18.667 0 -32 2 -40s7 -16.667 15 -26c40.667 -46 87 -55.667 139 -29c24 12.667 46.833 36.334 68.5 71.001s35.5 70 41.5 106
c2.66699 14.667 -2.66602 29.334 -15.999 44.001zM238.998 487.998c4 0 10.333 3.83301 19 11.5s16.667 10.834 24 9.50098c6.66699 -0.666992 12.834 1.16602 18.501 5.49902s9.5 6.5 11.5 6.5c0.666992 -0.666992 4.33398 -0.833984 11.001 -0.500977
s13 1.16602 19 2.49902c16.667 3.33301 34.667 0 54 -10c14 -7.33301 22.833 -11.166 26.5 -11.499s7.5 2.83398 11.5 9.50098c14.667 24 27 14.667 37 -28c6.66699 -30 9.5 -91.833 8.5 -185.5s-5.16699 -156.5 -12.5 -188.5c-22 -93.333 -61.667 -164.333 -119 -213
c-22 -19.333 -40.667 -32 -56 -38s-38.666 -10.333 -69.999 -13c-26.667 -2 -44.834 -2 -54.501 0s-25.167 8.66699 -46.5 20c-26 14 -47.667 29 -65 45s-26 29.333 -26 40c0 7.33301 3.33301 7.66602 10 0.999023c2.66699 -2.66699 6.66699 -7 12 -13
c15.333 -16.667 27 -25 35 -25c9.33301 0 14 -2 14 -6c0 -3.33301 13.333 -9.33301 40 -18c24 -7.33301 50 -10.166 78 -8.49902s52 7.83398 72 18.501c26 13.333 51 35.333 75 66s42.333 64.667 55 102c10 30.667 17.667 78.167 23 142.5s5.66602 118.166 0.999023 161.499
c-9.33301 -34.667 -27.666 -68.667 -54.999 -102c-22.667 -28 -44.834 -47.333 -66.501 -58s-47.5 -14.667 -77.5 -12c-52 4 -88.333 24.167 -109 60.5s-19.334 77.5 3.99902 123.5c9.33301 18 26 40 50 66s40 39 48 39z" />
    <glyph glyph-name="h" unicode="h" horiz-adv-x="616" 
d="M49 800c10.667 0 16.668 -2.99902 18.001 -8.99902c-2 -58.667 -1 -143.834 3 -255.501s9.33301 -177.167 16 -196.5c2 -4 4.33301 -1.66699 7 7l3 11c27.333 115.333 62.333 185.666 105 210.999c24 14.667 46.333 9.33398 67 -15.999
c17.333 -21.333 34 -62.666 50 -123.999c27.333 -103.333 54 -171.5 80 -204.5s69 -53.5 129 -61.5c32 -4.66699 51 -8.33398 57 -11.001c4.66699 -4.66699 1.33398 -8.33398 -9.99902 -11.001c-28 -6 -61.333 -5.33301 -100 2c-10.667 2 -19 4.66699 -25 8
c-37.333 18.667 -68.166 47.167 -92.499 85.5s-45.5 91.833 -63.5 160.5c-20.667 80 -40.334 125.667 -59.001 137c-5.33301 2.66699 -10.5 2.5 -15.5 -0.5s-14.167 -11.5 -27.5 -25.5c-32 -36 -53.667 -93.333 -65 -172c-2 -12.667 -4.33301 -24.667 -7 -36
s-4.66699 -24.666 -6 -39.999c-6.66699 -101.333 -12.334 -155.666 -17.001 -162.999c-2.66699 -3.33301 -6.33398 -4.66602 -11.001 -3.99902c-6.66699 0.666992 -11 5.5 -13 14.5s-4 33.5 -6 73.5c-2 43.333 -8.33301 115.166 -19 215.499s-16 167.833 -16 202.5v151
c0.666992 25.333 1.66699 40.166 3 44.499s6.33301 6.5 15 6.5z" />
    <glyph glyph-name="i" unicode="i" horiz-adv-x="155" 
d="M49 472c5.33301 14 14.3359 12.332 27.0029 -5.00098c10.667 -14.667 18.334 -33.667 23.001 -57c13.333 -65.333 21.666 -134 24.999 -206s-0.333984 -109.333 -11.001 -112c-5.33301 -1.33301 -9.5 -0.5 -12.5 2.5s-5.83301 10.167 -8.5 21.5s-4.83398 26 -6.50098 44
s-3.5 43.333 -5.5 76c-4.66699 82 -11.334 140 -20.001 174c-9.33301 32.667 -13 53.334 -11 62.001zM35.0029 645.999c7.33301 7.33301 21.001 3.00098 41.001 -12.999c19.333 -13.333 21.333 -22 6 -26c-16.667 -4.66699 -32.334 -2.66699 -47.001 6
c-3.33301 2 -5 7.16699 -5 15.5s1.66699 14.166 5 17.499z" />
    <glyph glyph-name="j" unicode="j" horiz-adv-x="334" 
d="M30 -115l28 -9c18.667 -6.66699 37.167 -12.834 55.5 -18.501s28.5 -8.16699 30.5 -7.5c9.33301 0 23.333 8.83301 42 26.5s33.334 36.5 44.001 56.5c26.667 49.333 41.667 124.333 45 225c4.66699 114 -3 202.333 -23 265c-8.66699 25.333 -9.66699 40 -3 44
c5.33301 3.33301 10.666 2.33301 15.999 -3s10.5 -14.333 15.5 -27s9.5 -28.667 13.5 -48c7.33301 -33.333 10.5 -103 9.5 -209s-5.16699 -169 -12.5 -189c-10 -27.333 -22.333 -54.333 -37 -81s-27.667 -45.667 -39 -57c-20.667 -20.667 -46 -30.167 -76 -28.5
s-58 13.834 -84 36.501zM214 569c0 -4 1.83301 -6.66797 5.5 -8.00098s7.66699 -1.16602 12 0.500977s7.16602 4.5 8.49902 8.5c0.666992 2 -0.166016 3.66699 -2.49902 5s-5.5 2.33301 -9.5 3c-9.33301 1.33301 -14 -1.66699 -14 -9zM278 578.999
c0 -18.667 -9.83301 -36.5 -29.5 -53.5s-38.167 -23.167 -55.5 -18.5c-8 2 -15.833 10 -23.5 24s-10.167 25.333 -7.5 34c0.666992 11.333 10 23.833 28 37.5s34.667 22.5 50 26.5c5.33301 0.666992 13 -5.5 23 -18.5s15 -23.5 15 -31.5z" />
    <glyph glyph-name="k" unicode="k" horiz-adv-x="457" 
d="M70 325c6 0 31.168 6.16504 75.501 18.498s70.166 20.166 77.499 23.499c12.667 6.66699 32 19.834 58 39.501s44 34.834 54 45.501c32 33.333 53.333 66 64 98c12.667 38 21.334 45.333 26.001 22c0.666992 -3.33301 1 -6.66602 1 -9.99902c4 -42.667 -23 -93 -81 -151
c-36.667 -35.333 -64 -58.333 -82 -69l29 -20c29.333 -20 56 -51.167 80 -93.5s39.333 -85.166 46 -128.499c2 -13.333 2.66699 -21.666 2 -24.999s-3.66699 -5 -9 -5c-8 0 -12 2.33301 -12 7s-10.667 31.334 -32 80.001c-22 49.333 -44 85 -66 107
c-26 26 -51 39.667 -75 41s-60 -8.66699 -108 -30l-52 -23c-0.666992 -42.667 2.66602 -89 9.99902 -139c4.66699 -40.667 5.66699 -61.334 3 -62.001c-6.66699 -4.66699 -12.834 -4 -18.501 2s-9.83398 15.667 -12.501 29c-5.33301 29.333 -10.166 73.166 -14.499 131.499
s-5.16602 93.166 -2.49902 104.499c4.66699 15.333 7 39 7 71c0 24.667 3 64.167 9 118.5s11.333 86.5 16 96.5c2 5.33301 4.16699 8.83301 6.5 10.5s5 1.5 8 -0.5s7.16699 -6 12.5 -12c8 -8.66699 9.66699 -19 5 -31c-4 -11.333 -8.83301 -37.833 -14.5 -79.5
s-9.5 -78.5 -11.5 -110.5s-1.66699 -50.667 1 -56z" />
    <glyph glyph-name="l" unicode="l" horiz-adv-x="157" 
d="M120 133c6 0 8.00195 -4.66406 6.00195 -13.9971c-1.33301 -6 -2.5 -9.83301 -3.5 -11.5s-2.83301 -2.33398 -5.5 -2.00098s-8 2.16602 -16 5.49902c-9.33301 4 -17.833 15.167 -25.5 33.5s-15.834 48.833 -24.501 91.5c-6 27.333 -11.667 95.5 -17 204.5
s-5.66602 164.5 -0.999023 166.5c1.33301 1.33301 2 3.66602 2 6.99902s-0.333008 6.16602 -1 8.49902s-0.333984 4.33301 0.999023 6s4.33301 1.5 9 -0.5c8 -1.33301 15.167 -6.16602 21.5 -14.499s8.16602 -14.833 5.49902 -19.5c-4.66699 -7.33301 -6 -58.833 -4 -154.5
s5.66699 -156.5 11 -182.5c17.333 -82.667 31.333 -124 42 -124z" />
    <glyph glyph-name="m" unicode="m" horiz-adv-x="747" 
d="M401 175c0 -7.33301 -17.6709 -32.6709 -53.0039 -76.0039s-58.333 -67.666 -69 -72.999c-17.333 -9.33301 -27.333 -2.33301 -30 21c-2 24.667 3.66699 79.334 17 164.001c10.667 65.333 16.834 110 18.501 134s0.166992 48.667 -4.5 74
c-5.33301 31.333 -11.5 49.666 -18.5 54.999s-20.5 2.33301 -40.5 -9c-26 -15.333 -52.167 -41.166 -78.5 -77.499s-39.5 -64.833 -39.5 -85.5c0 -14.667 -4.66699 -41.167 -14 -79.5s-15 -64.5 -17 -78.5c-6 -33.333 -10.667 -51.666 -14 -54.999
c-2 -2 -11.333 -4.33301 -28 -7c4.66699 103.333 9 214.666 13 333.999c0 39.333 6.66699 57.333 20 54c3.33301 -0.666992 6.66602 -2.33398 9.99902 -5.00098c4 -1.33301 6.16699 -11.166 6.5 -29.499s-0.5 -43 -2.5 -74s-3 -46.833 -3 -47.5l14 36
c8.66699 21.333 25.167 47 49.5 77s45.5 51.333 63.5 64c51.333 34.667 85.666 23 102.999 -35c16 -53.333 14.333 -137.333 -5 -252c-6.66699 -39.333 -11 -70.166 -13 -92.499s-1.66699 -33.833 1 -34.5c4.66699 0.666992 18.834 17.334 42.501 50.001
s41.834 60.334 54.501 83.001c22 39.333 50.333 86.333 85 141s61 93.334 79 116.001c38.667 48 57.334 56 56.001 24c-0.666992 -14 -5.33398 -35.667 -14.001 -65c-19.333 -64.667 -29.166 -115.667 -29.499 -153s9.16699 -74 28.5 -110
c13.333 -24.667 25.333 -42.334 36 -53.001s27.334 -21.334 50.001 -32.001l42 -19c-30.667 -4 -54.5 -2.83301 -71.5 3.5s-36.833 21.833 -59.5 46.5c-29.333 33.333 -47.666 71 -54.999 113s-4.66602 95.333 8.00098 160l4 24c-26 -32 -48.333 -62.333 -67 -91
c-14.667 -22.667 -30.834 -50.5 -48.501 -83.5s-26.5 -51.833 -26.5 -56.5z" />
    <glyph glyph-name="n" unicode="n" horiz-adv-x="553" 
d="M487 62c-8 0 -22.9971 7.33105 -44.9971 21.998c-20.667 13.333 -36.167 30.666 -46.5 51.999s-18.833 52.666 -25.5 93.999c-14 92 -27 151.667 -39 179c-8.66699 20 -18.334 33.333 -29.001 40c-24 8 -53 0.833008 -87 -21.5s-59 -50.5 -75 -84.5
c-26 -52.667 -49 -126 -69 -220c-8.66699 -43.333 -17.667 -64.666 -27 -63.999c-2 0 -4.33301 1 -7 3c-4.66699 4 -6.66699 74.333 -6 211c2 126 5.33301 195 10 207c3.33301 6.66699 9.66602 6.33398 18.999 -0.999023c7.33301 -6.66699 9.33301 -48 6 -124
c-2.66699 -76.667 -2.33398 -115 0.999023 -115c4.66699 5.33301 13.5 27 26.5 65s21.167 59.333 24.5 64c14.667 29.333 35.667 55 63 77s54.333 35.667 81 41c32 5.33301 56.333 0.333008 73 -15c26 -24 45.667 -84.333 59 -181c8 -54.667 15.5 -93.667 22.5 -117
s16.5 -41.666 28.5 -54.999c11.333 -12 16.333 -19.667 15 -23c-0.666992 -2 -0.5 -3.16699 0.5 -3.5s2.5 0.166992 4.5 1.5c2 4.66699 14.667 -0.666016 38 -15.999c20 -13.333 26 -21 18 -23c-5.33301 -4 -11.5 -3.66699 -18.5 1s-12.167 6.66699 -15.5 6z" />
    <glyph glyph-name="o" unicode="o" horiz-adv-x="544" 
d="M110 396c-4.66699 0 -7.00098 -2.33203 -7.00098 -6.99902c0 -12.667 6.66699 -10 20 8c2 3.33301 4.33301 6.66602 7 9.99902c10.667 17.333 15 27 13 29c-0.666992 0.666992 -2.16699 -0.333008 -4.5 -3s-4.83301 -6.16699 -7.5 -10.5l-8 -12.5
c-2.66699 -4 -5.16699 -7.5 -7.5 -10.5s-4.16602 -4.16699 -5.49902 -3.5zM348.999 529.001c-14 6 -22.666 9.66797 -25.999 11.001c-5.33301 2 -16 0.666992 -32 -4s-29.333 -10.334 -40 -17.001c-24.667 -14.667 -54.5 -43.834 -89.5 -87.501s-62.167 -85.5 -81.5 -125.5
c-12.667 -27.333 -20.334 -46.666 -23.001 -57.999s-3.33398 -27 -2.00098 -47c2.66699 -52.667 23 -88.667 61 -108s90.333 -20.333 157 -3c48 12 86 28.333 114 49s51.667 48.667 71 84c10.667 20 16.834 40 18.501 60s0.5 37.5 -3.5 52.5s-10.667 34.167 -20 57.5
c-9.33301 24 -26 51.167 -50 81.5s-42 48.5 -54 54.5zM30 209.002c0 38.667 6 70.333 18 95c19.333 40.667 45.5 82.834 78.5 126.501s63.833 76.834 92.5 99.501c15.333 12.667 21.333 20 18 22c-0.666992 0 -2 0.333008 -4 1c-8 1.33301 -8 4.66602 0 9.99902
c2 1.33301 4.66699 3 8 5c24 12 52.333 13.333 85 4c34.667 -9.33301 78 -52.666 130 -129.999c60 -88 73.333 -163.667 40 -227c-18.667 -35.333 -41.334 -63.5 -68.001 -84.5s-65.334 -40.5 -116.001 -58.5c-29.333 -10.667 -51.166 -17.334 -65.499 -20.001
s-32.5 -3.33398 -54.5 -2.00098c-67.333 4 -114.333 27.667 -141 71c-9.33301 15.333 -15.166 28 -17.499 38s-3.5 26.667 -3.5 50z" />
    <glyph glyph-name="p" unicode="p" horiz-adv-x="555" 
d="M162 538c9.33301 0 15.3301 -2.00098 17.9971 -6.00098c0.666992 0.666992 1.33398 -4.83301 2.00098 -16.5l2.5 -46c1 -19 1.83301 -40 2.5 -63s1.5 -46 2.5 -69s1.83301 -44 2.5 -63s1.33398 -34.5 2.00098 -46.5s1 -17.667 1 -17c3.33301 -5.33301 5 -68.5 5 -189.5
s-1.66699 -182.167 -5 -183.5c-9.33301 -3.33301 -15.666 1.33398 -18.999 14.001c-4 17.333 -7 79.333 -9 186c-2.66699 145.333 -7.66699 285.333 -15 420c-2.66699 48.667 -2 74.667 2 78c1.33301 1.33301 4 2 8 2zM524.997 454.999
c0 -15.333 -4.83105 -36.1709 -14.498 -62.5039s-17.167 -39.5 -22.5 -39.5c-4 0 -6 -3.33301 -6 -10c0 -8 -27.333 -35 -82 -81c-21.333 -17.333 -45.333 -30.666 -72 -39.999s-47 -11.333 -61 -6c-12.667 4.66699 -15.334 9.33398 -8.00098 14.001
c3.33301 2 8.66602 3 15.999 3c22.667 0 56.667 18.833 102 56.5s76.333 73.167 93 106.5c21.333 42 23 81.667 5 119c-17.333 36.667 -57.666 65.334 -120.999 86.001c-22.667 7.33301 -39.334 11.666 -50.001 12.999s-26 0.333008 -46 -3c-36.667 -4 -73.5 -19 -110.5 -45
s-64.833 -54.333 -83.5 -85c0 -8 -7.33301 -8 -22 0c-10 5.33301 -13.667 12 -11 20s14 23.333 34 46c18.667 20.667 37 36.834 55 48.501s43 23.167 75 34.5c42.667 15.333 91.167 17.166 145.5 5.49902s98.5 -33.167 132.5 -64.5
c12.667 -11.333 24.5 -29.166 35.5 -53.499s16.5 -45.166 16.5 -62.499z" />
    <glyph glyph-name="q" unicode="q" horiz-adv-x="472" 
d="M439 -136c-20 0 -31.666 24.668 -34.999 74.001c-2 25.333 -4.83301 52.166 -8.5 80.499s-6.66699 56.333 -9 84s-3.83301 63.834 -4.5 108.501c0 44.667 -1.16699 79.667 -3.5 105s-4.83301 42.5 -7.5 51.5s-8 22.833 -16 41.5s-15 36 -21 52
c-8 21.333 -20.167 39.5 -36.5 54.5s-31.833 22.5 -46.5 22.5c-17.333 0 -36.666 -6 -57.999 -18s-41 -28 -59 -48c-52 -58 -76 -113.833 -72 -167.5s35.333 -90.5 94 -110.5c23.333 -8 60.666 -12 111.999 -12c50.667 0 76 -1.66699 76 -5
c0 -5.33301 -18.333 -10.333 -55 -15s-65 -5.66699 -85 -3c-26.667 3.33301 -42 4.66602 -46 3.99902c-4.66699 -1.33301 -16.667 3.5 -36 14.5s-34.666 22.167 -45.999 33.5c-30 28.667 -45.333 65.334 -46 110.001c-0.666992 54.667 24.666 109.667 75.999 165
c41.333 45.333 79 72.333 113 81c32 7.33301 61.5 0.666016 88.5 -20.001s46.167 -51.334 57.5 -92.001c4 -14 7.5 -22.5 10.5 -25.5s7.83301 -3.5 14.5 -1.5c10.667 2 18 0.333008 22 -5c3.33301 -14.667 6.33301 -79.167 9 -193.5s5 -177.166 7 -188.499
c5.33301 -32.667 9.16602 -63 11.499 -91s3.5 -49.333 3.5 -64s-1.33301 -22 -4 -22z" />
    <glyph glyph-name="r" unicode="r" horiz-adv-x="517" 
d="M353 530c20.667 4 46.6689 6.16602 78.002 6.49902s49.666 -1.16699 54.999 -4.5c2 -1.33301 0.333008 -3.33301 -5 -6c-7.33301 -2.66699 -18 -5.33398 -32 -8.00098c-86.667 -17.333 -157 -42.5 -211 -75.5s-92 -79.167 -114 -138.5
c-6.66699 -20 -14.5 -60.667 -23.5 -122s-14.167 -111 -15.5 -149c-0.666992 -4.66699 -5.83398 -6.5 -15.501 -5.5s-15.834 3.83301 -18.501 8.5c-3.33301 8.66699 -5.16602 56 -5.49902 142s-1.83301 133.667 -4.5 143c-4 22.667 -7.33301 62.334 -10 119.001
c-2.66699 50.667 -0.333984 77.667 6.99902 81c11.333 4.66699 19.5 1.16699 24.5 -10.5s7.83301 -34.167 8.5 -67.5c0.666992 -53.333 3.66699 -103.333 9 -150c38.667 76 69 123.333 91 142c19.333 17.333 48.833 36.333 88.5 57s70.834 33.334 93.501 38.001z" />
    <glyph glyph-name="s" unicode="s" horiz-adv-x="454" 
d="M239 492c22 6 47.667 5.5 77 -1.5s54.5 -17.167 75.5 -30.5s31.833 -26.333 32.5 -39c0 -15.333 -11.333 -14.666 -34 2.00098c-18 11.333 -37 21.333 -57 30c-18.667 8 -32.167 12.167 -40.5 12.5s-27.166 -2.5 -56.499 -8.5c-28.667 -6 -60 -15.167 -94 -27.5
s-51 -20.833 -51 -25.5c0 -10 27.333 -23.667 82 -41c76 -24 137.5 -55.333 184.5 -94s68.5 -75.667 64.5 -111c-4.66699 -42 -34 -77.167 -88 -105.5s-108 -37.166 -162 -26.499c-36 7.33301 -66.833 18.5 -92.5 33.5s-41.5 30.833 -47.5 47.5
c-3.33301 8 -3.16602 11.833 0.500977 11.5s8.16699 -4.83301 13.5 -13.5c6.66699 -10 26.334 -19.667 59.001 -29s63.334 -14 92.001 -14c37.333 0 72.166 6.5 104.499 19.5s55.166 29.167 68.499 48.5c8.66699 13.333 12.5 29.166 11.5 47.499
s-6.83301 34.166 -17.5 47.499c-14 16.667 -37.833 34.667 -71.5 54s-67.834 34.666 -102.501 45.999c-83.333 26.667 -130 50.334 -140 71.001c-4 8 -5.5 13.5 -4.5 16.5s5.16699 7.5 12.5 13.5c10.667 8 34.167 19 70.5 33s63.166 22.667 80.499 26c18 2.66699 28 5 30 7z
" />
    <glyph glyph-name="t" unicode="t" horiz-adv-x="491" 
d="M454 402c-68 -10.667 -129.666 -17.332 -184.999 -19.999c-17.333 0 -30 -8.16699 -38 -24.5s-18 -55.5 -30 -117.5c-17.333 -93.333 -26.333 -143.666 -27 -150.999c-3.33301 -19.333 -7.16602 -31.333 -11.499 -36s-10.5 -3.33398 -18.5 3.99902
c-4.66699 4 -5.83398 15.167 -3.50098 33.5s9.83301 59.5 22.5 123.5c19.333 96.667 29 147 29 151c-2 2 -8.66699 2.66699 -20 2s-26 -2.5 -44 -5.5s-33.333 -6.16699 -46 -9.5c-13.333 -3.33301 -22.5 -5 -27.5 -5s-9.83301 2.33301 -14.5 7
c-13.333 13.333 -11.333 23 6 29c12.667 5.33301 37.667 10.666 75 15.999c44 6.66699 70 12.167 78 16.5s14 16.5 18 36.5c2.66699 17.333 9.16699 44.166 19.5 80.499s17.166 56.5 20.499 60.5c5.33301 5.33301 11.333 5.33301 18 0c5.33301 -4 7.33301 -10.667 6 -20
s-8.33301 -36.666 -21 -81.999c-12 -42 -16.333 -64.667 -13 -68c0 -2 17.667 -4 53 -6l106.5 -6c35.667 -2 53.5 -3.66699 53.5 -5c1.33301 -1.33301 0.333008 -2.33301 -3 -3z" />
    <glyph glyph-name="u" unicode="u" horiz-adv-x="726" 
d="M630 126c4 0 8.66699 -3.33105 14 -9.99805c4.66699 -6 16 -11 34 -15c11.333 -2.66699 17.333 -5 18 -7c0 -1.33301 -1 -2.66602 -3 -3.99902c-6.66699 -3.33301 -23 -1.33301 -49 6s-49.667 16.666 -71 27.999c-35.333 18.667 -68.833 47.5 -100.5 86.5
s-47.5 70.833 -47.5 95.5c0 14.667 -6.66699 16 -20 4c-6.66699 -6.66699 -13.667 -15.334 -21 -26.001c-16.667 -24 -40.667 -52.667 -72 -86s-50 -50 -56 -50s-7.66699 -2.66699 -5 -8c2.66699 -2.66699 1 -4.66699 -5 -6l-17 -6
c2.66699 -2.66699 -1.5 -7.66699 -12.5 -15s-24.167 -14.5 -39.5 -21.5s-27.333 -11.167 -36 -12.5c-15.333 -2 -30.666 0.333008 -45.999 7s-28.333 16.667 -39 30c-18.667 25.333 -27.167 65.333 -25.5 120s13.167 112.334 34.5 173.001c18 50 30.667 75 38 75
c3.33301 0 6.66602 -2.33301 9.99902 -7c6.66699 -8 6.66699 -19.333 0 -34c-22 -52.667 -36.167 -92.5 -42.5 -119.5s-9.83301 -58.833 -10.5 -95.5c-0.666992 -33.333 -0.166992 -54.5 1.5 -63.5s6.5 -17.833 14.5 -26.5c32 -32.667 84 -21.334 156 33.999
c42 32.667 82.833 75 122.5 127s66.5 98.333 80.5 139c14 42 23.833 69.5 29.5 82.5s13.167 25.5 22.5 37.5c8 10.667 13.167 16.667 15.5 18s5.16602 -0.666992 8.49902 -6c4.66699 -8.66699 5.16699 -21 1.5 -37s-14.167 -44 -31.5 -84
c-23.333 -54 -32.833 -99.333 -28.5 -136s22.833 -72 55.5 -106c12.667 -12.667 34.334 -29.334 65.001 -50.001s49.667 -31 57 -31z" />
    <glyph glyph-name="v" unicode="v" horiz-adv-x="526" 
d="M496 582l-20 -48.502c-8.66699 -21 -15 -37 -19 -48s-8.83301 -28.5 -14.5 -52.5s-10.5 -51.667 -14.5 -83c-14 -96 -31.333 -167 -52 -213c-3.33301 -6.66699 -9 -19.167 -17 -37.5s-15 -33.166 -21 -44.499s-13.667 -23.333 -23 -36
c-14 -19.333 -27.5 -30.833 -40.5 -34.5s-27.5 -0.166992 -43.5 10.5c-14 8.66699 -31.167 29.834 -51.5 63.501s-39.166 71.5 -56.499 113.5c-23.333 57.333 -37.333 94 -42 110c-14 47.333 -28.667 86.666 -44 117.999c-5.33301 10.667 -7.5 20.834 -6.5 30.501
s4.83301 14.5 11.5 14.5c10 0 31 -48.667 63 -146c42 -126 80.667 -210.667 116 -254c10.667 -13.333 21.667 -21.5 33 -24.5s20.333 -0.166992 27 8.5c16.667 20.667 37.167 62 61.5 124s39.833 112.333 46.5 151c15.333 86 28.166 148 38.499 186s21.5 64 33.5 78
c14 16 24.667 22.333 32 19c2 -1.33301 3 -3 3 -5z" />
    <glyph glyph-name="w" unicode="w" horiz-adv-x="685" 
d="M614 396c-4 0 -6.00488 -2.99902 -6.00488 -8.99902c0 -8.66699 -11.833 -34 -35.5 -76s-46.5 -78 -68.5 -108c-23.333 -32.667 -46.166 -59.5 -68.499 -80.5s-38.166 -31.5 -47.499 -31.5c-37.333 0 -69.333 56.667 -96 170c-8.66699 38.667 -14.334 58 -17.001 58
c-1.33301 0 -3.66602 -4 -6.99902 -12c-6 -14.667 -15.167 -36 -27.5 -64s-22.666 -52.667 -30.999 -74s-13.833 -38 -16.5 -50c-12.667 -61.333 -27.667 -92 -45 -92c-18 0 -35.833 32.667 -53.5 98s-29.834 145 -36.501 239c-2.66699 42 -5.33398 62 -8.00098 60
c-1.33301 -0.666992 -2 -7.33398 -2 -20.001c0 -14 -2 -21.333 -6 -22s-7.66699 6.33301 -11 21v2c-2 12 -0.333008 27 5 45s11.666 29.333 18.999 34c11.333 6.66699 19.333 -1.33301 24 -24c2.66699 -12.667 5 -32.334 7 -59.001
c4.66699 -74 12.334 -142.167 23.001 -204.5s20.667 -98.166 30 -107.499c2 -2 5.33301 2.66699 10 14c7.33301 18.667 15.333 46.334 24 83.001c4.66699 20 14.5 43.167 29.5 69.5s26.167 51.166 33.5 74.499c42 108 69 122.667 81 44c1.33301 -8 2.33301 -17.333 3 -28
c2.66699 -30.667 12.334 -82.667 29.001 -156c2 -8.66699 8.33301 -21.5 19 -38.5s17.667 -25.5 21 -25.5c5.33301 0 19.833 13.167 43.5 39.5s45.167 53.833 64.5 82.5c84 122 132 199 144 231c6.66699 16.667 11.334 25.667 14.001 27
c2.66699 2 0.333984 -9.33301 -6.99902 -34c-15.333 -50.667 -26.666 -76 -33.999 -76z" />
    <glyph glyph-name="x" unicode="x" horiz-adv-x="419" 
d="M389 499c2 -4.66699 -20.001 -42.833 -66.001 -114.5l-120 -180.5c32.667 -46.667 54.334 -74.334 65.001 -83.001c8.66699 -3.33301 15.167 -8 19.5 -14s5.16602 -11 2.49902 -15c-4.66699 -8 -13.667 -7.66699 -27 1s-28.333 23.667 -45 45l-30 40
c-9.33301 -7.33301 -26.666 -33.833 -51.999 -79.5s-41 -69.5 -47 -71.5c-12 0 -8 23.333 12 70c10 24.667 22 48.334 36 71.001c18 27.333 25.333 45.666 22 54.999c-5.33301 14 -25.833 49.5 -61.5 106.5s-54.834 84.833 -57.501 83.5c-1.33301 -1.33301 -3 0.666992 -5 6
c-1.33301 4 -2.66602 8.66699 -3.99902 14c-2 11.333 -1 19.833 3 25.5s10 6.83398 18 3.50098c2.66699 -1.33301 7.66699 -7.83301 15 -19.5s14.666 -24 21.999 -37l22 -39c7.33301 -13 11.333 -20.167 12 -21.5s8.33398 -15.666 23.001 -42.999
c12 -22.667 21.167 -37.667 27.5 -45s11.833 -9.66602 16.5 -6.99902c8 4.66699 31.667 38.167 71 100.5s64.333 105.5 75 129.5c7.33301 15.333 13.333 26.666 18 33.999c4.66699 5.33301 11.667 6.16602 21 2.49902s14 -9.5 14 -17.5z" />
    <glyph glyph-name="y" unicode="y" horiz-adv-x="363" 
d="M193 176c6.66699 0 11.333 -2.83008 14 -8.49707s1.66699 -10.834 -3 -15.501s-13.667 -3.66699 -27 3c-30.667 15.333 -58 46.666 -82 93.999s-40 101 -48 161c-5.33301 40 -10 64.667 -14 74c-8 15.333 -5.66699 23.666 7 24.999s21.667 -2.66699 27 -12
c5.33301 -10 9.33301 -31.333 12 -64c9.33301 -103.333 36.666 -180.333 81.999 -231c14.667 -17.333 25.334 -26 32.001 -26zM183.999 -199.997c-6.66699 0 -10.998 1.33398 -12.998 4.00098s-3 8 -3 16c0 31.333 13.333 104.666 40 219.999
c27.333 119.333 49.333 241.333 66 366c9.33301 80 16.666 125.667 21.999 137c7.33301 17.333 16 21.666 26 12.999c10 -11.333 13 -28.333 9 -51c-30 -203.333 -67 -404.666 -111 -603.999c-8.66699 -48 -14.834 -76.833 -18.501 -86.5s-9.5 -14.5 -17.5 -14.5z" />
    <glyph glyph-name="z" unicode="z" horiz-adv-x="479" 
d="M125 104c0 -12 57.9932 -14.6631 173.993 -7.99609c76.667 4 121.334 4.66699 134.001 2c10 -2 15 -3.33301 15 -4l-22 -5c-108 -18 -187 -28.333 -237 -31c-26 -2 -43.833 -2.33301 -53.5 -1s-19.5 5.33301 -29.5 12c-16 10 -24 20.333 -24 31
c0 15.333 46.333 66.333 139 153c32.667 30 59.834 57.833 81.501 83.5s35.834 46.5 42.501 62.5s6.33398 27 -0.999023 33c-15.333 9.33301 -48.666 14 -99.999 14s-94.666 -4.33301 -129.999 -13s-57.666 -13.334 -66.999 -14.001s-14.666 1.66602 -15.999 6.99902
c-2.66699 7.33301 -0.333984 14.666 6.99902 21.999c6 5.33301 24 12.166 54 20.499s55 12.833 75 13.5c136 8 209.667 -6 221 -42c6 -20 0.166992 -44 -17.5 -72s-51.167 -66 -100.5 -114c-96.667 -92 -145 -142 -145 -150z" />
    <glyph glyph-name="uni0093" horiz-adv-x="261" 
d="M201 386c5.33301 6.66699 11.168 9.83203 17.501 9.49902s10.5 -4.16602 12.5 -11.499c1.33301 -9.33301 -3.33398 -29.333 -14.001 -60c-9.33301 -26.667 -14.5 -46.667 -15.5 -60s2.16699 -24.666 9.5 -33.999c8 -10.667 11.167 -17.5 9.5 -20.5
s-7.83398 -2.16699 -18.501 2.5c-24 9.33301 -36.333 28.333 -37 57c0 13.333 4.33301 34.166 13 62.499s16.334 46.5 23.001 54.5zM30.002 288.998c0 17.333 7.33301 41.1689 22 71.502s30.667 54.5 48 72.5c10.667 11.333 17.834 17.333 21.501 18s8.5 -2.33301 14.5 -9
c5.33301 -6.66699 6.5 -13.834 3.5 -21.501s-8.83301 -12.834 -17.5 -15.501c-11.333 -3.33301 -24 -17.5 -38 -42.5s-22 -48.167 -24 -69.5c-2 -17.333 -2.33301 -28.333 -1 -33s6 -7.33398 14 -8.00098c11.333 -1.33301 17.666 -5.66602 18.999 -12.999
c0.666992 -4.66699 -0.5 -7.5 -3.5 -8.5s-8.83301 -0.833008 -17.5 0.5c-15.333 2 -26 7.33301 -32 16s-9 22.667 -9 42z" />
    <glyph glyph-name="uni0094" horiz-adv-x="333" 
d="M227 443c2.66699 7.33301 8.83203 10.4971 18.499 9.49707s17.834 -5.5 24.501 -13.5c14.667 -16.667 24.834 -47.5 30.501 -92.5s2.5 -69.833 -9.5 -74.5c-7.33301 -3.33301 -12.333 -3.66602 -15 -0.999023c-2 0.666992 -5.83301 20.334 -11.5 59.001
s-9.16699 58.334 -10.5 59.001c-6.66699 5.33301 -13.334 14.5 -20.001 27.5s-9 21.833 -7 26.5zM30.998 444.997c2 8 7.33496 12.499 16.002 13.499s23.667 -0.833008 45 -5.5c59.333 -14 76.666 -60.667 51.999 -140c-8.66699 -30 -17.334 -44.667 -26.001 -44
c-4.66699 0.666992 -9 3.33398 -13 8.00098c-5.33301 5.33301 -4.33301 22.333 3 51c8 31.333 10.667 52.333 8 63s-12.667 18 -30 22c-24.667 4.66699 -40.5 9.16699 -47.5 13.5s-9.5 10.5 -7.5 18.5z" />
    <glyph glyph-name=".null" horiz-adv-x="0" 
 />
    <glyph glyph-name="nonmarkingreturn" horiz-adv-x="333" 
 />
    </font>
</defs>
</svg>
