<?xml version="1.0" standalone="no"?>
<!DOCTYPE svg PUBLIC "-//W3C//DTD SVG 1.1//EN" "http://www.w3.org/Graphics/SVG/1.1/DTD/svg11.dtd" >
<svg>
<metadata>
Created by FontForge 20090914 at Sat Feb 27 01:00:32 2016
 By www-data
Copyright (c) 2016, root
</metadata>
<defs>
<font id="Dylan" horiz-adv-x="425" >
  <font-face 
    font-family="Dylan"
    font-weight="400"
    font-stretch="normal"
    units-per-em="1000"
    panose-1="2 0 5 3 0 0 0 0 0 0"
    ascent="800"
    descent="-200"
    x-height="347.499"
    cap-height="544.001"
    bbox="28.9382 -200 829.068 800"
    underline-thickness="50"
    underline-position="-100"
    unicode-range="U+0020-U+0094"
  />
<missing-glyph horiz-adv-x="364" 
d="M33 0v666h265v-666h-265zM66 33h199v600h-199v-600z" />
    <glyph glyph-name=".notdef" horiz-adv-x="364" 
d="M33 0v666h265v-666h-265zM66 33h199v600h-199v-600z" />
    <glyph glyph-name="space" unicode=" " horiz-adv-x="340" 
 />
    <glyph glyph-name="exclam" unicode="!" horiz-adv-x="181" 
d="M58 12c3.33301 6 7.66992 9.66699 13.0029 11s15.333 1.66602 30 0.999023c25.333 -1.33301 37.333 -5 36 -11c-0.666992 -2 -0.333984 -3.83301 0.999023 -5.5s3.33301 -2.16699 6 -1.5s4.66699 -0.833008 6 -4.5s1.66602 -9.16699 0.999023 -16.5
c-1.33301 -35.333 -13.666 -60.666 -36.999 -75.999c-20.667 -13.333 -37.334 -10.333 -50.001 9c-2.66699 4 -5 8.33301 -7 13c-4.66699 11.333 -6.83398 25.5 -6.50098 42.5s2.83301 29.833 7.5 38.5zM63.0039 800c16.667 0 26.833 -1.00098 30.5 -3.00098
s6.5 -8.66699 8.5 -20c3.33301 -12.667 7 -47.667 11 -105s8 -121.5 12 -192.5s7 -119.167 9 -144.5c3.33301 -38 3.33301 -61.333 0 -70s-14.333 -11.667 -33 -9c-18 2.66699 -28.333 6.33398 -31 11.001c-4 6.66699 -10.5 92.5 -19.5 257.5s-15.167 251.5 -18.5 259.5
c-2 7.33301 -1.5 11.833 1.5 13.5s12.833 2.5 29.5 2.5z" />
    <glyph glyph-name="quotedbl" unicode="&#x22;" horiz-adv-x="277" 
d="M178 608c34 16.667 55.0029 1.66895 63.0029 -44.998c3.33301 -20.667 5.16602 -64.334 5.49902 -131.001s-1.16699 -112.667 -4.5 -138c-3.33301 -23.333 -9 -38.333 -17 -45s-17.333 -3.66699 -28 9c-6.66699 7.33301 -10 10.666 -10 9.99902s0.333008 -1.66699 1 -3
c2.66699 -5.33301 3 -7.66602 1 -6.99902c-0.666992 0 -2.66699 1.66699 -6 5c-6.66699 5.33301 -10.334 35.666 -11.001 90.999c-2 74 -4 128.667 -6 164c-2 40 -2.33301 64 -1 72s5.66602 14 12.999 18zM121.003 296.002c-4 -2 -6.83301 -0.833008 -8.5 3.5
s-4.16699 6.16602 -7.5 5.49902h-7c-15.333 -0.666992 -24.666 2 -27.999 8c-4.66699 8 -9.66699 40.667 -15 98c-0.666992 8 -1.33398 14.333 -2.00098 19c-2 23.333 -5.66699 49.333 -11 78c-7.33301 42.667 -11.333 69.667 -12 81s1.33301 19.333 6 24
c6 7.33301 15.5 10.833 28.5 10.5s22.833 -4.16602 29.5 -11.499c11.333 -12.667 21 -67 29 -163s7.33301 -147 -2 -153z" />
    <glyph glyph-name="dollar" unicode="$" horiz-adv-x="469" 
d="M190 189c1.33301 -2.66699 -0.168945 15.667 -4.50195 55s-9.66602 82 -15.999 128s-11.5 75.333 -15.5 88c-3.33301 2 -7.66602 -2.33301 -12.999 -13c-15.333 -32.667 -24.666 -76.667 -27.999 -132c-2.66699 -46.667 2.66602 -76.667 15.999 -90
c7.33301 -9.33301 18.5 -18.5 33.5 -27.5s24.167 -11.833 27.5 -8.5zM251.998 539.001c-11.333 0 -17.001 -7.16895 -17.001 -21.502s5.66699 -64.166 17 -149.499c2.66699 -18 5.83398 -41 9.50098 -69l8.5 -65l4 -31c0.666992 -5.33301 1.5 -10.166 2.5 -14.499
s2.16699 -7.5 3.5 -9.5s2.33301 -3 3 -3c3.33301 2.66699 3.33301 18.667 0 48c-4 37.333 -8 137.333 -12 300c-0.666992 10 -7 15 -19 15zM355.997 171.999c0 -7.33301 6.00586 -13.3291 18.0059 -17.9961c28 -10 46.667 -29.333 56 -58
c5.33301 -14.667 8.33301 -35.334 9 -62.001s-1.66602 -48 -6.99902 -64c-2.66699 -11.333 -12.334 -26 -29.001 -44s-28.667 -27 -36 -27c-4.66699 0 -5.33398 -13 -2.00098 -39c2 -16.667 2.33301 -27.667 1 -33s-4.66602 -9 -9.99902 -11
c-5.33301 -2.66699 -9.83301 -1.16699 -13.5 4.5s-8.16699 5.5 -13.5 -0.5c-7.33301 -6 -13.333 -1.66699 -18 13c-7.33301 21.333 -31 35.333 -71 42c-15.333 2.66699 -35 12.667 -59 30c-30.667 22.667 -42.667 36 -36 40
c1.33301 0.666992 4.66602 0.333984 9.99902 -0.999023c4.66699 -1.33301 7.33398 -2 8.00098 -2c1.33301 0 -0.333984 1.66699 -5.00098 5l-2 2c-6 4.66699 -9.5 15.167 -10.5 31.5s1.16699 28.5 6.5 36.5c5.33301 5.33301 14 8 26 8c13.333 0 21.666 -6.33301 24.999 -19
c4 -18.667 12.333 -28.667 25 -30c3.33301 2 3 16.667 -1 44c-2 14 -4.33301 20.333 -7 19c-4 0 -6 6.66699 -6 20s-2.5 22.666 -7.5 27.999s-15.5 10.333 -31.5 15c-31.333 8 -65.333 27.667 -102 59c-36 32 -49.333 93.667 -40 185c8.66699 86 40 157.667 94 215
c7.33301 7.33301 11.666 14.5 12.999 21.5s1.33301 20.833 0 41.5c-2.66699 36.667 -5.33398 60.667 -8.00098 72c-3.33301 18 -2 30.333 4 37c4 4 4.66699 7.66699 2 11c-0.666992 1.33301 0.666016 2.66602 3.99902 3.99902c1.33301 0.666992 3 1.66699 5 3
c9.33301 4 16 6 20 6s11 -2 21 -6c3.33301 -0.666992 6.5 -2.5 9.5 -5.5s5.5 -7.33301 7.5 -13s3.83301 -11.167 5.5 -16.5s3.33398 -12.166 5.00098 -20.499s2.83398 -15 3.50098 -20l2.5 -19c1 -7.66699 1.5 -12.5 1.5 -14.5
c-0.666992 -7.33301 -0.333984 -13 0.999023 -17s3.5 -6.83301 6.5 -8.5s6.16699 -2.66699 9.5 -3s7.83301 -0.666016 13.5 -0.999023s10.5 -0.833008 14.5 -1.5c0.666992 4.66699 1.16699 12 1.5 22s0.833008 18.833 1.5 26.5s1.5 15.667 2.5 24s2.66699 15.166 5 20.499
s5.16602 8.33301 8.49902 9c9.33301 6.66699 17.666 9.16699 24.999 7.5s10.333 -6.83398 9 -15.501v-4c-0.666992 -3.33301 -0.833984 -5 -0.500977 -5s1.5 1.33301 3.5 4l1 1c8 11.333 13.667 7 17 -13l4 -44c2.66699 -38.667 8.33398 -61.667 17.001 -69
c10.667 -8.66699 16 -18.334 16 -29.001s-5 -20 -15 -28l-19 -14c7.33301 -180.667 11 -291.334 11 -332.001z" />
    <glyph glyph-name="percent" unicode="%" horiz-adv-x="665" 
d="M452 -93c0 -4.66699 4.00293 -8.33496 12.0029 -11.002c3.33301 -1.33301 5.66602 -1.66602 6.99902 -0.999023s1.66602 2.33398 0.999023 5.00098c-2.66699 8 -7.66699 12 -15 12c-2.66699 -1.33301 -4.33398 -3 -5.00098 -5zM497.003 -101.001
c24.667 0 43.667 25.168 57 75.501s14.333 101.166 3 152.499c-6 28 -11.667 42.667 -17 44c-4.66699 1.33301 -12.334 -9 -23.001 -31c-18 -39.333 -31.333 -77.833 -40 -115.5s-11.167 -68 -7.5 -91s12.834 -34.5 27.501 -34.5zM456.003 208
c-4.66699 0 -8.00391 2.49902 -10.0039 7.49902s-2 9.83301 0 14.5s5.33301 7 10 7c6.66699 0 10 -3.66699 10 -11c0 -12 3.33301 -14.333 10 -7c4.66699 5.33301 9.33398 13.333 14.001 24c5.33301 12.667 12.833 25.334 22.5 38.001s17.167 23.667 22.5 33
c6 10 13.833 19.167 23.5 27.5s20.834 14 33.501 17s24.334 -1.83301 35.001 -14.5c6 -8 8.33301 -15 7 -21s-7 -15 -17 -27c-20 -22.667 -30.667 -38 -32 -46s3.66699 -26.667 15 -56c14 -36.667 21.333 -78 22 -124c2.66699 -107.333 -26.333 -176 -87 -206
c-25.333 -12.667 -46.666 -15.667 -63.999 -9c-7.33301 4 -10 9 -8 15c4 8.66699 2.66699 9.66699 -4 3c-9.33301 -9.33301 -15.333 -12.333 -18 -9c-1.33301 1.33301 -1 3.33301 1 6c2 4 0 5 -6 3c-7.33301 -2.66699 -14 1.66602 -20 12.999s-10.167 27.333 -12.5 48
s-2.5 42.334 -0.5 65.001c3.33301 24.667 12 61.167 26 109.5s24.333 75.833 31 82.5c3.33301 3.33301 5.33301 6.33301 6 9s0.166992 4.66699 -1.5 6s-4.5 2 -8.5 2zM443.999 607.999c15.333 14 32.002 12.6689 50.002 -3.99805s20.667 -33 8 -49
c-4 -5.33301 -11 -21 -21 -47c-60 -155.333 -103 -258.666 -129 -309.999c-86 -172.667 -133.333 -273 -142 -301c-1.33301 -6.66699 -8 -13.334 -20 -20.001l-12 -5c0.666992 0.666992 3 3.66699 7 9c5.33301 6 6.66602 9 3.99902 9
c-0.666992 0 -1.33398 -0.333008 -2.00098 -1c-5.33301 -3.33301 -13 -2.33301 -23 3c-6 2.66699 -10.167 3.5 -12.5 2.5s-5.16602 -4.83301 -8.49902 -11.5c-2 -6 -4 -9 -6 -9c-0.666992 -0.666992 -1 0.666016 -1 3.99902c-0.666992 6 3.16602 21.667 11.499 47
s15.5 43.666 21.5 54.999c130 265.333 211.667 453 245 563c13.333 38 23.333 59.667 30 65zM133.001 272.001c12.667 0 28.333 9.49902 47 28.499s34.334 41.5 47.001 67.5c14.667 28.667 22.834 58.334 24.501 89.001s-3.16602 55.667 -14.499 75
c-10.667 18 -20.834 26.667 -30.501 26s-21.834 -11 -36.501 -31c-26 -34.667 -45.5 -71.5 -58.5 -110.5s-16.833 -72.5 -11.5 -100.5c3.33301 -18 7.16602 -29.833 11.499 -35.5s11.5 -8.5 21.5 -8.5zM265 596c7.33301 0 17 -11.335 29 -34.002s20.333 -45.334 25 -68.001
c12 -59.333 -6.33301 -124 -55 -194c-39.333 -56.667 -83 -87 -131 -91c-17.333 -1.33301 -34.166 1.83398 -50.499 9.50098s-22.833 15.5 -19.5 23.5c2 5.33301 2 8 0 8c-0.666992 0 -1.66699 -0.333008 -3 -1c-4.66699 -3.33301 -11.334 3 -20.001 19
c-8.66699 14.667 -11.667 44.667 -9 90c2.66699 46 8 74.667 16 86c7.33301 12 11 22.333 11 31c0 7.33301 11.167 28.5 33.5 63.5s39.833 58.167 52.5 69.5c8.66699 8.66699 21 17.334 37 26.001c24 12.667 47 15.334 69 8.00098c14 -6 18 -14.333 12 -25
c-9.33301 -14 -8.33301 -21 3 -21z" />
    <glyph glyph-name="ampersand" unicode="&#x26;" horiz-adv-x="603" 
d="M176 223c-14.667 -3.33301 -33.3311 -21.665 -55.998 -54.998s-30.334 -61.333 -23.001 -84c1.33301 -6 2.5 -12 3.5 -18s1.66699 -10.333 2 -13s1.33301 -5.83398 3 -9.50098s3.83398 -7.5 6.50098 -11.5c4 -4 8.66699 -9.83301 14 -17.5
s9.66602 -12.334 12.999 -14.001s10.166 -3.5 20.499 -5.5s25.166 -3 44.499 -3c30 -1.33301 62 0.833984 96 6.50098s54.667 12.167 62 19.5c1.33301 1.33301 -0.666992 4.66602 -6 9.99902s-13 11.333 -23 18c-22 14 -47.667 36.833 -77 68.5s-48.666 57.5 -57.999 77.5
c-10 20.667 -17.333 31 -22 31zM381.003 385.001c26.667 0 42.668 1.66699 48.001 5c12.667 8.66699 26 48 40 118c5.33301 26.667 7.5 62.334 6.5 107.001s-4.83301 70.667 -11.5 78c-4.66699 5.33301 -22.834 7.66602 -54.501 6.99902s-51.5 -4 -59.5 -10
c-6 -4 -21.333 -21.333 -46 -52c-38.667 -47.333 -56 -93 -52 -137c6.66699 -84.667 11.667 -129 15 -133c2.66699 -1.33301 6.33398 -1.33301 11.001 0c37.333 11.333 71.666 17 102.999 17zM501.004 741.001c0 -6.66699 2.99707 -11.333 8.99707 -14
c16 -6 25.5 -45.167 28.5 -117.5s-2.16699 -134.166 -15.5 -185.499c-6.66699 -26.667 -16 -50.5 -28 -71.5s-22.333 -31.833 -31 -32.5c-48.667 -2.66699 -89.667 -5.66699 -123 -9c-18.667 -2 -48 -13 -88 -33c2.66699 -32 8.83398 -56.5 18.501 -73.5
s29.834 -41.167 60.501 -72.5c12 -12 29 -25.667 51 -41s35.667 -23 41 -23c13.333 0 30.333 23 51 69s34.334 92 41.001 138c9.33301 66.667 21.666 97 36.999 91c4 -2 8.5 -8.66699 13.5 -20s7.16699 -20 6.5 -26c0.666992 -43.333 -6.5 -92.5 -21.5 -147.5
s-32.167 -97.5 -51.5 -127.5c-7.33301 -10.667 -10.166 -19.167 -8.49902 -25.5s8.83398 -14.5 21.501 -24.5c9.33301 -7.33301 19 -21.333 29 -42s15 -36.334 15 -47.001c0 -9.33301 -4.66699 -16.333 -14 -21c-6 -3.33301 -11.833 -4 -17.5 -2s-15.167 8.33301 -28.5 19
c-20.667 17.333 -31 29 -31 35s-5.66699 14 -17 24c-7.33301 7.33301 -13 11.333 -17 12s-9.66699 -1.33301 -17 -6c-31.333 -20.667 -77 -34 -137 -40s-105.667 -2 -137 12c-30.667 13.333 -55.834 35.333 -75.501 66s-31.167 64.667 -34.5 102c-1.33301 18 -1 32 1 42
s6.66699 22.333 14 37c12.667 33.333 56.334 79 131.001 137v128c-1.33301 61.333 -1.33301 99.5 0 114.5s6 30.833 14 47.5c12 24 20.667 35.333 26 34c2.66699 -0.666992 4.33398 -0.166992 5.00098 1.5s0.666992 3.83398 0 6.50098c-2.66699 6 7.66602 23 30.999 51
c23.333 28.667 38 45.667 44 51s15.667 9.66602 29 12.999c13.333 2 29.666 3.83301 48.999 5.5s40 2 62 1s36 -4.83301 42 -11.5c14.667 -10 22 -18 22 -24z" />
    <glyph glyph-name="quotesingle" unicode="'" horiz-adv-x="150" 
d="M37 589c23.333 13.333 46.002 3.00195 68.002 -30.998c7.33301 -11.333 12.166 -37.833 14.499 -79.5s1.16602 -78.834 -3.50098 -111.501c-2 -14 -4.66699 -35.833 -8 -65.5s-6.33301 -50.5 -9 -62.5c-4 -4 -12.167 -1.83301 -24.5 6.5s-21.166 17.5 -26.499 27.5
c-8.66699 16 -11.334 52 -8.00098 108c2 56.667 0.333008 104.334 -5 143.001c-4 25.333 -5.83301 41.666 -5.5 48.999s2.83301 12.666 7.5 15.999z" />
    <glyph glyph-name="parenleft" unicode="(" horiz-adv-x="244" 
d="M151 657c16 12 32.001 10.001 48.001 -5.99902c10.667 -10 15.667 -21 15 -33s-7 -29.333 -19 -52c-24 -46.667 -42 -108.334 -54 -185.001c-6.66699 -44.667 -13 -75.667 -19 -93c-2.66699 -12.667 -3.5 -25.167 -2.5 -37.5s-0.166992 -29.166 -3.5 -50.499
c-8 -63.333 -11.667 -125.833 -11 -187.5s5.33398 -96.834 14.001 -105.501c2 -1.33301 9.33301 2.66699 22 12c18 14 30.5 18.167 37.5 12.5s7.16699 -20.167 0.5 -43.5c-6 -21.333 -13.333 -35.666 -22 -42.999s-21 -9.66602 -37 -6.99902
c-15.333 2.66699 -30.833 11.5 -46.5 26.5s-26 29.667 -31 44s-3.83301 25.5 3.5 33.5c7.33301 5.33301 6.66602 6.66602 -2.00098 3.99902c-6 -2 -9.66699 1.66699 -11 11c-1.33301 7.33301 -2.33301 25 -3 53c-0.666992 31.333 2 84.5 8 159.5s13.333 144.167 22 207.5
c8.66699 60.667 22.167 119.667 40.5 177s35.166 91.666 50.499 102.999z" />
    <glyph glyph-name="parenright" unicode=")" horiz-adv-x="283" 
d="M96 701c5.33301 0 18.9971 -9.83203 40.9971 -29.499s33 -31.834 33 -36.501s5 -12 15 -22c19.333 -20.667 36 -64.834 50 -132.501s19.667 -129.167 17 -184.5c-6.66699 -106 -15.334 -162.333 -26.001 -169c-4 -2 -5 -5.33301 -3 -10
c4 -6.66699 -4.33301 -34.667 -25 -84c-11.333 -27.333 -18.666 -40 -21.999 -38c-5.33301 2 -6.33301 1 -3 -3c3.33301 -5.33301 0.5 -15 -8.5 -29s-22.167 -29 -39.5 -45c-15.333 -14.667 -28.166 -22.5 -38.499 -23.5s-24.166 4.16699 -41.499 15.5
c-22.667 14 -18.334 33.333 12.999 58c18.667 16 30.334 28.667 35.001 38c15.333 34.667 27 51.334 35 50.001c2 -0.666992 3.33301 0 4 2c0 2 -0.666992 4.33301 -2 7c-2.66699 8 -1.66699 16.667 3 26c15.333 30.667 26.833 72.5 34.5 125.5s10.167 105.5 7.5 157.5
c-7.33301 124 -35.666 209.333 -84.999 256c-26 24 -30.667 44 -14 60c7.33301 7.33301 14 11 20 11z" />
    <glyph glyph-name="asterisk" unicode="*" horiz-adv-x="400" 
d="M205 652c28 0 40.666 -19.332 37.999 -57.999l-2 -36c18 -3.33301 37.333 -10 58 -20s27.334 -18.333 20.001 -25c-0.666992 -1.33301 0.666016 -3.16602 3.99902 -5.49902s8 -4.5 14 -6.5c36.667 -14.667 42.667 -31.334 18 -50.001c-6.66699 -6 -12 -9.83301 -16 -11.5
s-8 -2.16699 -12 -1.5s-10.333 0.333984 -19 -0.999023c-18.667 -6 -18.667 -31.667 0 -77c9.33301 -20.667 13.333 -41 12 -61c-0.666992 -11.333 -1.83398 -18.666 -3.50098 -21.999s-5.5 -5 -11.5 -5c-13.333 0 -24.5 5 -33.5 15s-16.833 27 -23.5 51
c-9.33301 32.667 -16.666 48 -21.999 46c-2 -0.666992 -3 -6 -3 -16c0 -7.33301 -1 -11.833 -3 -13.5s-6.66699 -2.16699 -14 -1.5c-11.333 1.33301 -17 -0.333984 -17 -5.00098c-0.666992 -3.33301 3 -5.33301 11 -6c4.66699 0 7.16699 -0.333008 7.5 -1
s-0.833984 -2.66699 -3.50098 -6c-6 -6 -16.667 -2.33301 -32 11c-13.333 11.333 -22.666 23.166 -27.999 35.499s-4.33301 20.5 3 24.5c10 6 10.333 9.33301 1 10l-25 -5c-27.333 -11.333 -50.333 -0.333008 -69 33c-5.33301 11.333 -10.666 18 -15.999 20
c-7.33301 3.33301 -9.5 9.5 -6.5 18.5s9.5 16.167 19.5 21.5c7.33301 2.66699 20 5.16699 38 7.5s31.667 6.16602 41 11.499c11.333 5.33301 17.5 9.33301 18.5 12s-1.16699 9 -6.5 19s-7.5 17 -6.5 21s6.16699 10.333 15.5 19c14.667 14.667 24 27.667 28 39
c6 12.667 14.667 19 26 19z" />
    <glyph glyph-name="plus" unicode="+" horiz-adv-x="483" 
d="M313 363l64.999 0.00195312c28 0 46.333 -0.666992 55 -2s14.334 -4.66602 17.001 -9.99902c3.33301 -6.66699 3.66602 -15.334 0.999023 -26.001s-7 -17.667 -13 -21c-4.66699 -2.66699 -43.667 -9 -117 -19l-2 -104c-2 -120.667 -4.33301 -196.667 -7 -228
s-8 -47 -16 -47s-8.66699 4.66699 -2 14c1.33301 2 3 4 5 6c4.66699 5.33301 5 7 1 5l-8 -5c-6.66699 -4 -11.667 -5.66699 -15 -5s-7.66602 3.66699 -12.999 9c-10 13.333 -15.833 35 -17.5 65s-1.33398 66.667 0.999023 110s2.83301 76.333 1.5 99l-3 91
c-60 -2.66699 -120 -20.334 -180 -53.001l-19 18c-11.333 11.333 -17.166 19.5 -17.499 24.5s4.5 13.833 14.5 26.5c23.333 29.333 69.333 46 138 50l59 4l-4 29c-5.33301 43.333 -8 72.333 -8 87s2 24.667 6 30c10 15.333 27 18.666 51 9.99902
c18.667 -7.33301 27.667 -40.333 27 -99v-59z" />
    <glyph glyph-name="comma" unicode="," horiz-adv-x="162" 
d="M74 146c12.667 14.667 28.3301 14.332 46.9971 -1.00098c9.33301 -7.33301 12.833 -36.666 10.5 -87.999s-9.16602 -89.666 -20.499 -114.999c-10.667 -24 -20.167 -38.333 -28.5 -43s-19.166 -1.66699 -32.499 9l-20 17c14.667 32 24.334 77.333 29.001 136
c2.66699 49.333 7.66699 77.666 15 84.999z" />
    <glyph glyph-name="hyphen" unicode="-" horiz-adv-x="338" 
d="M200 289c5.33301 -0.666992 16.501 0.832031 33.501 4.49902s31.667 4.66699 44 3s20.5 -8.16699 24.5 -19.5c7.33301 -15.333 7.83301 -26.833 1.5 -34.5s-21.833 -13.5 -46.5 -17.5c-12.667 -1.33301 -33.334 -5.66602 -62.001 -12.999
c-36.667 -8.66699 -62.5 -13.667 -77.5 -15s-29.5 0 -43.5 4c-19.333 5.33301 -32.666 16 -39.999 32s-5.33301 29.667 6 41c2 6.66699 16 8 42 4s43 -4.33301 51 -1c7.33301 2 17.833 2.83301 31.5 2.5s21.167 1.5 22.5 5.5c3.33301 4.66699 7.66602 6 12.999 4z" />
    <glyph glyph-name="period" unicode="." horiz-adv-x="186" 
d="M150 54c-5.33301 -7.33301 -12.3311 -12.834 -20.998 -16.501s-16.334 -9.16699 -23.001 -16.5c-10.667 -10.667 -22 -15.667 -34 -15s-22.667 7.33398 -32 20.001c-6 8 -9.33301 14.5 -10 19.5s1 13.167 5 24.5c1.33301 11.333 11.333 25.833 30 43.5
s33.667 28.167 45 31.5c15.333 0.666992 28.166 -11 38.499 -35s10.833 -42.667 1.5 -56z" />
    <glyph glyph-name="slash" unicode="/" horiz-adv-x="335" 
d="M293 685c0 -7.33301 3.00684 -11.667 9.00684 -13c5.33301 -2 2.66602 -20.667 -8.00098 -56c-10.667 -31.333 -29.334 -98.666 -56.001 -201.999s-48.334 -172.666 -65.001 -207.999c-4 -5.33301 -6.66699 -13.166 -8 -23.499s-4 -18.833 -8 -25.5
c-32.667 -72.667 -51.667 -128.334 -57 -167.001c-3.33301 -17.333 -8.33301 -31 -15 -41s-14.334 -14.667 -23.001 -14l-6 2c0.666992 0.666992 1.66699 1 3 1c5.33301 2.66699 6.66602 7.16699 3.99902 13.5s-7 8.5 -13 6.5c-6 -3.33301 -11.333 1.66699 -16 15
c-6 18 -6.66699 29 -2 33c0.666992 0.666992 1.66699 0.666992 3 0c2.66699 -2 4 -1.66699 4 1c0.666992 1.33301 0.333984 3.33301 -0.999023 6c-4.66699 5.33301 2.16602 33 20.499 83s34.166 88.667 47.499 116c2.66699 4.66699 11.5 32.667 26.5 84
s24.167 79.666 27.5 84.999c2 2 5.16699 15 9.5 39s8.16602 37 11.499 39c4.66699 2 7 11.333 7 28s6.83301 51 20.5 103s24.167 84.333 31.5 97c3.33301 5.33301 13 7.66602 29 6.99902s24 -3.66699 24 -9z" />
    <glyph glyph-name="zero" unicode="0" horiz-adv-x="571" 
d="M352 496c-18.667 9.33301 -30.8379 15.165 -36.5049 17.498s-9.66699 3.5 -12 3.5s-6.33301 -1 -12 -3s-13.5 -3.33301 -23.5 -4c-22.667 0.666992 -45 -8.16602 -67 -26.499s-40.167 -41.333 -54.5 -69s-26.666 -57.834 -36.999 -90.501s-15.166 -63.167 -14.499 -91.5
s5.33398 -51.833 14.001 -70.5c28.667 -51.333 70.5 -76.166 125.5 -74.499s110.167 29.834 165.5 84.501c28.667 28.667 46 44 52 46c2.66699 1.33301 4.33398 2.33301 5.00098 3l-3 1c-2 0.666992 -3.16699 2 -3.5 4s0.333984 5.16699 2.00098 9.5
s4.16699 9.83301 7.5 16.5c10.667 19.333 16 43.333 16 72c-0.666992 18.667 -2.66699 33 -6 43s-11 24.667 -23 44c-17.333 28 -29 42.667 -35 44c-5.33301 0 -9.33301 3 -12 9c-2.66699 7.33301 -18.667 18 -48 32zM511.996 219.999
c2 -6 0.668945 -10.001 -3.99805 -12.001s-7 -5 -7 -9c0 -6 -17.333 -28.333 -52 -67c-34.667 -36 -68 -62.333 -100 -79c-22 -11.333 -38.833 -18.166 -50.5 -20.499s-31.834 -3.5 -60.501 -3.5s-48.334 1 -59.001 3s-23 7.33301 -37 16
c-22 12.667 -39.333 26.167 -52 40.5s-24.667 33.833 -36 58.5c-12.667 27.333 -20.334 58 -23.001 92s0.333008 65 9 93c6 20.667 20.333 54 43 100s38 73.333 46 82c13.333 12.667 33 27.834 59 45.501s45 28.5 57 32.5c20 7.33301 34.167 10.333 42.5 9
s19.5 -7.66602 33.5 -18.999c16 -14.667 34.667 -25.667 56 -33c16.667 -5.33301 34.667 -17.5 54 -36.5s27 -31.833 23 -38.5c-2 -4.66699 -1 -5.33398 3 -2.00098c4.66699 3.33301 15 -5 31 -25s27 -38.333 33 -55c16 -42.667 22.333 -75.334 19 -98.001
c-2 -12 -4.66699 -23.5 -8 -34.5s-6.66602 -19.5 -9.99902 -25.5s-6 -8.33301 -8 -7s-3 1 -3 -1c0 -1.33301 0.333008 -3.33301 1 -6z" />
    <glyph glyph-name="one" unicode="1" horiz-adv-x="550" 
d="M374 79c0 -4 1.00195 -4.6709 3.00195 -2.00391l2 3c3.33301 4 13.666 4.83301 30.999 2.5l58 -8c21.333 -3 32.666 -3.5 33.999 -1.5c8 2 13.333 -3 16 -15c2.66699 -10.667 1.5 -21 -3.5 -31s-11.5 -15.333 -19.5 -16c-6.66699 0 -16 -1.33301 -28 -4
c-10 -0.666992 -13.667 1.33301 -11 6c1.33301 2.66699 1.83301 4 1.5 4s-2.16602 -0.666992 -5.49902 -2c-6 -3.33301 -52.667 -5.66602 -140 -6.99902c-57.333 -1.33301 -95.333 -1.5 -114 -0.5s-34.334 4.5 -47.001 10.5c-20.667 9.33301 -33 18.333 -37 27
c-8 14.667 -9.66699 21.667 -5 21c0.666992 0 2 -0.666992 4 -2c4 -1.33301 6.33301 -0.666016 7 2.00098c-0.666992 5.33301 -3.33398 9 -8.00098 11c-6.66699 1.33301 -8 4 -4 8c2 3.33301 8.33301 2.33301 19 -3c3.33301 -2 8.16602 -3.5 14.499 -4.5s14 -1.33301 23 -1
s16.833 0.833008 23.5 1.5s15.334 1.66699 26.001 3s17.334 2 20.001 2c-9.33301 154 -18 259.333 -26 316c-2.66699 20 -7.33398 33.333 -14.001 40c-1.33301 0.666992 -2 0.666992 -2 0l-1 -3c0 -6 -4.66699 -13.667 -14 -23
c-13.333 -13.333 -29.666 -38.666 -48.999 -75.999s-30.666 -65 -33.999 -83c-2.66699 -15.333 -9.66699 -24.666 -21 -27.999c-12 -2.66699 -22 0.333008 -30 9s-12.333 21 -13 37c-0.666992 28.667 2 44 8 46c1.33301 0 2.66602 -1 3.99902 -3
c2.66699 -4 4.33398 -2.66699 5.00098 4c0.666992 2.66699 1 5.33398 1 8.00098c0.666992 13.333 12.5 38.833 35.5 76.5s34.5 57.167 34.5 58.5c38 55.333 61.667 87.333 71 96c11.333 8.66699 25.666 6.33398 42.999 -6.99902c29.333 -23.333 48.333 -114 57 -272
c4 -72 8 -123 12 -153c2 -14.667 4.5 -23.334 7.5 -26.001s13.167 -5.33398 30.5 -8.00098c23.333 -4 35 -8.33301 35 -13z" />
    <glyph glyph-name="two" unicode="2" 
d="M392 25c4 -1.33301 2.33691 -5.99805 -4.99609 -13.998c-10 -11.333 -25.667 -24 -47 -38s-34.666 -20.333 -39.999 -19c-2.66699 0.666992 -4.33398 0.5 -5.00098 -0.5s-0.666992 -2.5 0 -4.5c0.666992 -1.33301 -0.5 -3.16602 -3.5 -5.49902
s-7.66699 -4.83301 -14 -7.5s-13.333 -5.33398 -21 -8.00098s-16.167 -5 -25.5 -7s-18.333 -3.66699 -27 -5c-18.667 -3.33301 -38.334 0.666992 -59.001 12c-32.667 16.667 -52.334 38.167 -59.001 64.5s-1.33398 61.833 15.999 106.5c6 17.333 19.167 46.166 39.5 86.499
s37.833 77.666 52.5 111.999s21.667 59.833 21 76.5v25c-53.333 0 -83 -2.33301 -89 -7c-4.66699 -4.66699 -16.667 -7.66699 -36 -9c-17.333 -0.666992 -31.5 3.16602 -42.5 11.499s-17 17.666 -18 27.999s3 20.5 12 30.5s22.167 16 39.5 18c68 8 116.667 4.66699 146 -10
c24.667 -12 40.667 -24.667 48 -38s10.333 -35.666 9 -66.999c-1.33301 -28 -5.33301 -50.667 -12 -68s-29.334 -65.333 -68.001 -144c-27.333 -55.333 -42.833 -93.333 -46.5 -114s2.5 -34 18.5 -40c22.667 -8.66699 68 5.33301 136 42c50 26.667 74.667 28.334 74 5.00098
l-1 -6c0 -4 2.33301 -6 7 -6z" />
    <glyph glyph-name="three" unicode="3" horiz-adv-x="414" 
d="M372 208c0 -18 -1.49902 -31.499 -4.49902 -40.499s-9.83301 -21.5 -20.5 -37.5c-18.667 -28 -33.334 -46.333 -44.001 -55c-12 -10.667 -34.833 -23.834 -68.5 -39.501s-62.5 -26.167 -86.5 -31.5c-25.333 -6.66699 -40.666 -6 -45.999 2c-4 6 -9.33301 8.33301 -16 7
c-2.66699 -1.33301 -5.66699 1.33398 -9 8.00098c-6.66699 20 -8 38 -4 54c2 5.33301 5.5 8.83301 10.5 10.5s15.167 2.16699 30.5 1.5c16 -0.666992 29.5 0.833008 40.5 4.5s28.167 12.167 51.5 25.5c35.333 20.667 59 38 71 52s17.333 30.333 16 49
c0 14 -4.83301 25 -14.5 33s-20.167 13.167 -31.5 15.5s-26 4.16602 -44 5.49902c-40.667 0.666992 -65.334 14.667 -74.001 42c-3.33301 9.33301 -2 16.833 4 22.5s30.667 24.834 74 57.501c58.667 44.667 88 72 88 82c-1.33301 5.33301 -11.333 7.66602 -30 6.99902
s-42.334 -3.33398 -71.001 -8.00098s-55 -9.33398 -79 -14.001s-42.333 -8.66699 -55 -12l-16 18c-16.667 17.333 -18 35 -4 53c8 10 68.333 21 181 33c31.333 2.66699 50.833 3.83398 58.5 3.50098s22.5 -2.5 44.5 -6.5c34 -6.66699 54 -23 60 -49
c6.66699 -29.333 -16.666 -69.666 -69.999 -120.999l-44 -43l32 -19c25.333 -15.333 43.333 -31.5 54 -48.5s16 -37.5 16 -61.5z" />
    <glyph glyph-name="four" unicode="4" horiz-adv-x="407" 
d="M290 -43c0 -8.66699 -2.00098 -9.66309 -6.00098 -2.99609c-6 10 -5 60.667 3 152c8 92 8.66699 141.333 2 148c-4 4 -34.667 -1.66699 -92 -17c-74.667 -19.333 -117.334 -28.333 -128.001 -27c-7.33301 1.33301 -15 5.66602 -23 12.999
c-9.33301 8.66699 -14.5 17.167 -15.5 25.5s-0.5 33.833 1.5 76.5c4 74 12.5 135.333 25.5 184s28.167 77 45.5 85c12.667 6 25 4.66699 37 -4s18.833 -19.834 20.5 -33.501s-2.16602 -26.5 -11.499 -38.5c-7.33301 -4.66699 -15.833 -40.334 -25.5 -107.001
s-11.167 -102 -4.5 -106c16.667 0 47.334 5.66699 92.001 17s67.667 17 69 17c-0.666992 9.33301 -1.33398 25.166 -2.00098 47.499s-1.66699 42 -3 59s-3 30.833 -5 41.5c-2.66699 14.667 -3.5 24.667 -2.5 30s4.83301 12 11.5 20c10 12 21.333 16.333 34 13
c15.333 -4 26.166 -13.667 32.499 -29s12.833 -46.666 19.5 -93.999c7.33301 -52.667 11.333 -90 12 -112s-1 -57.667 -5 -107c-0.666992 -8 -2.66699 -37.833 -6 -89.5s-6.83301 -91.834 -10.5 -120.501s-8.5 -48 -14.5 -58c-4.66699 -3.33301 -10.167 -5 -16.5 -5
s-12.166 1.66699 -17.499 5s-7.33301 7 -6 11c3.33301 6.66699 2 11.334 -4 14.001c-3.33301 1.33301 -5.66602 -0.333984 -6.99902 -5.00098v-3z" />
    <glyph glyph-name="five" unicode="5" horiz-adv-x="479" 
d="M424 549c0.666992 -8 3.66699 -9.66699 9 -5c6 6 7.33301 11 4 15c-1.33301 1.33301 -3.33301 2 -6 2c-4.66699 0 -7 -4 -7 -12zM100 -56c0 7.33301 -3.66992 11 -11.0029 11c-3.33301 0 -5.33301 -0.666992 -6 -2s-0.666992 -2.83301 0 -4.5
s0.833984 -3.33398 0.500977 -5.00098s-1.83301 -2.5 -4.5 -2.5c-5.33301 0 -14.833 7 -28.5 21s-20.5 23.667 -20.5 29c0 9.33301 3.83301 17.5 11.5 24.5s15.334 10.333 23.001 10s13.5 -4.16602 17.5 -11.499c4.66699 -12.667 28 -13 70 -1s77.333 29.333 106 52
c18.667 15.333 34.667 33 48 53s20 37 20 51c0 28 -14.667 58.667 -44 92c-12 12.667 -21.333 20.667 -28 24s-19.667 5.66602 -39 6.99902c-29.333 2 -44 0.333008 -44 -5c0 -10.667 -8.33301 -11 -25 -1l-17 12c-10.667 9.33301 -17 16.5 -19 21.5s-2 15.833 0 32.5
c2 18.667 7.5 46.5 16.5 83.5s14.5 62.833 16.5 77.5c4 21.333 9 34.5 15 39.5s24.333 11.833 55 20.5l42 11.5c20.667 5.66699 35 9.5 43 11.5c79.333 22.667 128.666 15.334 147.999 -21.999c5.33301 -11.333 3.5 -21 -5.5 -29s-24.5 -13.333 -46.5 -16
c-23.333 -3.33301 -55.166 -9.83301 -95.499 -19.5s-62.833 -16.5 -67.5 -20.5c-6.66699 -6 -16 -37.667 -28 -95c-2 -10.667 -1.83301 -17.167 0.5 -19.5s11.5 -4.83301 27.5 -7.5c28.667 -4 57 -17.833 85 -41.5s50.667 -53.167 68 -88.5c10 -20 15.333 -45.167 16 -75.5
s-3.66602 -53.5 -12.999 -69.5c-34.667 -62.667 -102.667 -112 -204 -148c-19.333 -6.66699 -38 -10 -56 -10s-27 3.33301 -27 10z" />
    <glyph glyph-name="six" unicode="6" horiz-adv-x="445" 
d="M324 160c-10 6.66699 -37.665 4.99805 -82.998 -5.00195c-20.667 -5.33301 -35.834 -7.16602 -45.501 -5.49902s-19 1.33398 -28 -0.999023s-19.167 -8.83301 -30.5 -19.5l-26 -24l6.5 -13.5l6.5 -13.5c1.33301 -2.66699 3.5 -6.16699 6.5 -10.5s6 -7.66602 9 -9.99902
s6.83301 -4.66602 11.5 -6.99902s10 -3.83301 16 -4.5c14 -4 24.5 -5.83301 31.5 -5.5s17.167 3.16602 30.5 8.49902c40.667 15.333 71 41.666 91 78.999c9.33301 17.333 10.666 28 3.99902 32zM155.002 618.998c6.66699 7.33301 16.5 11.166 29.5 11.499
s22.5 -3.16699 28.5 -10.5c6 -9.33301 10 -21.333 12 -36c2.66699 -17.333 -2.66602 -34.666 -15.999 -51.999c-7.33301 -8 -16.333 -27.167 -27 -57.5s-17 -47.5 -19 -51.5c-6.66699 -20 -16.167 -53.5 -28.5 -100.5s-20.5 -81.833 -24.5 -104.5
c1.33301 -1.33301 12.333 1.66699 33 9c22 8 61.333 11.833 118 11.5s93.667 -4.83301 111 -13.5c26.667 -12.667 41 -29.5 43 -50.5s-8.33301 -48.5 -31 -82.5c-14.667 -23.333 -33.5 -44.5 -56.5 -63.5s-45.833 -32.833 -68.5 -41.5
c-28.667 -11.333 -69.334 -11.333 -122.001 0c-13.333 2.66699 -29.333 14 -48 34s-34 41.333 -46 64c-19.333 36.667 -16 113 10 229c52 183.333 86 285 102 305z" />
    <glyph glyph-name="seven" unicode="7" horiz-adv-x="523" 
d="M375 464c0 4 -42.5029 5.49805 -127.503 4.49805s-136.167 -3.5 -153.5 -7.5c-19.333 -4.66699 -34.833 -3.66699 -46.5 3s-17.5 17.667 -17.5 33c0 12.667 4.66699 21.667 14 27s29 10 59 14c23.333 2.66699 79.333 3.83398 168 3.50098
s139.334 -2.16602 152.001 -5.49902c11.333 -2.66699 21.166 -11.667 29.499 -27s11.5 -29.666 9.5 -42.999c0.666992 -4.66699 -7.5 -33.167 -24.5 -85.5s-25.5 -80.5 -25.5 -84.5c2.66699 -2.66699 13 -5.33398 31 -8.00098c23.333 -2.66699 39 -13 47 -31
c6.66699 -16.667 2.33398 -28 -12.999 -34c-2.66699 -0.666992 -5.66699 -1.33398 -9 -2.00098c-4.66699 -1.33301 -20.5 0 -47.5 4s-40.833 3 -41.5 -3c-10.667 -10.667 -37.667 -70.667 -81 -180c-6.66699 -16 -13 -26.167 -19 -30.5s-14.667 -3.83301 -26 1.5
c-13.333 6 -21.666 13 -24.999 21s-3.16602 19.333 0.500977 34s12.5 39.334 26.5 74.001c24 60 35 91 33 93c-1.33301 1.33301 -18 -0.333984 -50 -5.00098c-27.333 -4 -47.666 -4.16699 -60.999 -0.5s-22.333 11.834 -27 24.501c-7.33301 20.667 -3.83301 34.667 10.5 42
s48.166 12.333 101.499 15l60 2c7.33301 14 17.5 39.667 30.5 77s20.5 62 22.5 74z" />
    <glyph glyph-name="eight" unicode="8" horiz-adv-x="482" 
d="M341 258c-5.33301 0 -17.002 -15 -35.002 -45s-30.333 -55 -37 -75c-6.66699 -20.667 -9.5 -40 -8.5 -58s5.5 -28.333 13.5 -31c4.66699 -2 17.334 4.5 38.001 19.5s37.334 29.833 50.001 44.5c16 18.667 23.833 40.5 23.5 65.5s-8.83301 46.167 -25.5 63.5
c-10.667 10.667 -17 16 -19 16zM147.998 444c-12.667 -1.33301 -20.5 -3.66699 -23.5 -7s-2.33301 -6.66602 2 -9.99902s11.5 -7.66602 21.5 -12.999c17.333 -9.33301 48 -22.5 92 -39.5s66.667 -24.833 68 -23.5c5.33301 5.33301 12.666 19.166 21.999 41.499
s13.333 35.166 12 38.499s-4.66602 6.33301 -9.99902 9s-12.333 4.66699 -21 6s-17.667 2.5 -27 3.5s-19.5 1.66699 -30.5 2s-20.5 0.5 -28.5 0.5s-16.167 -0.166992 -24.5 -0.5s-13.5 -0.5 -15.5 -0.5c-12.667 -2 -25 -4.33301 -37 -7zM416.998 419.999
c0 -10 -5.83594 -28.166 -17.5029 -54.499s-20.834 -41.5 -27.501 -45.5c-4.66699 -3.33301 3 -14.666 23 -33.999c26.667 -26 44.334 -54.5 53.001 -85.5s6.33398 -59.167 -6.99902 -84.5c-7.33301 -14.667 -23.666 -34.5 -48.999 -59.5s-45.666 -41.5 -60.999 -49.5
c-16.667 -8.66699 -30.5 -13.5 -41.5 -14.5s-24.5 2.16699 -40.5 9.5c-14.667 6.66699 -27.167 17.5 -37.5 32.5s-13.166 26.167 -8.49902 33.5c2 4.66699 1.33301 7 -2 7c-3.33301 2 -5 8.5 -5 19.5s1.66699 24.667 5 41s7.33301 28.166 12 35.499
c4.66699 8.66699 9.5 19.167 14.5 31.5s13.167 27.166 24.5 44.499c16 28 23 43.333 21 46c-5.33301 8 -40 24.333 -104 49c-24 9.33301 -50.667 23.333 -80 42s-46.666 32.667 -51.999 42c-4.66699 9.33301 -7 18.333 -7 27c0 13.333 15.167 27.666 45.5 42.999
s65.5 26.333 105.5 33c68 10.667 125.333 11 172 1c23.333 -5.33301 40.166 -12.166 50.499 -20.499s12.166 -16.5 5.49902 -24.5c-4 -5.33301 -3.33301 -16 2 -32s7.33301 -27 6 -33z" />
    <glyph glyph-name="nine" unicode="9" horiz-adv-x="450" 
d="M210 311c2 0 6.33398 2.99707 13.001 8.99707s11.667 8.66699 15 8c2.66699 0 12.5 5.33301 29.5 16s29.5 19.334 37.5 26.001c6 4 7.33301 18.667 4 44c-2.66699 12.667 -0.166992 38.334 7.5 77.001s9.16699 64 4.5 76c-4 14.667 -12.333 31.5 -25 50.5
s-23.334 30.833 -32.001 35.5c-6.66699 4 -15.334 6 -26.001 6s-25.5 -9.16699 -44.5 -27.5s-33.5 -37.5 -43.5 -57.5c-11.333 -24 -22 -54.167 -32 -90.5s-15 -63.166 -15 -80.499c0 -18 2.66699 -38 8 -60s11.333 -36.667 18 -44s13.667 -11.166 21 -11.499
s18 3.16699 32 10.5c3.33301 1.33301 7.33301 3.16602 12 5.49902l11 5.5c2.66699 1.33301 4.33398 2 5.00098 2zM305.001 303.997c-5.33301 2 -9.16895 -0.329102 -11.502 -6.99609s-4.16602 -10.334 -5.49902 -11.001c-3.33301 0 -14.333 -8 -33 -24
c-26 -24.667 -53 -39 -81 -43s-52.833 0.833008 -74.5 14.5s-39.167 35.667 -52.5 66s-19 65.166 -17 104.499c0 25.333 2 47.166 6 65.499s12.667 46.5 26 84.5c10.667 31.333 26.834 62.5 48.501 93.5s37.5 46.5 47.5 46.5c2.66699 0 9 5 19 15
c9.33301 10.667 27.666 15.167 54.999 13.5s49.333 -8.83398 66 -21.501c12 -9.33301 24 -22.333 36 -39s18.333 -29.667 19 -39c0.666992 -7.33301 6.16699 -24.833 16.5 -52.5s17.5 -43.834 21.5 -48.501c2.66699 -2.66699 4.83398 -19.5 6.50098 -50.5
s3.16699 -48.167 4.5 -51.5c4 -14.667 7.83301 -51.5 11.5 -110.5s5.5 -116.5 5.5 -172.5c0.666992 -61.333 0.5 -98.666 -0.5 -111.999s-4.83301 -23.333 -11.5 -30c-10 -10 -20.667 -13 -32 -9c-10 2 -17 4.33301 -21 7s-7.66699 9.66699 -11 21s-5.5 24.5 -6.5 39.5
s-2.5 40.167 -4.5 75.5c-3.33301 72 -6.5 118.833 -9.5 140.5s-8.83301 33.167 -17.5 34.5z" />
    <glyph glyph-name="colon" unicode=":" horiz-adv-x="211" 
d="M35 63c0 7.33301 6.33008 18.166 18.9971 32.499s27.334 26.5 44.001 36.5c10.667 7.33301 23.334 10 38.001 8s26.334 -8 35.001 -18c10 -11.333 12.833 -25.166 8.5 -41.499s-14.5 -31.833 -30.5 -46.5c-11.333 -10.667 -20.333 -17.167 -27 -19.5
s-17 -2.83301 -31 -1.5c-17.333 2 -31 7.5 -41 16.5s-15 20.167 -15 33.5zM145.997 370c-4.66699 0 -11.334 -10.334 -20.001 -31.001c-9.33301 -20.667 -17.333 -33.5 -24 -38.5s-15.334 -4.83301 -26.001 0.5c-15.333 7.33301 -26.166 15.333 -32.499 24
s-10.5 20.334 -12.5 35.001c-3.33301 19.333 -1.16602 36.5 6.50098 51.5s19.167 25.833 34.5 32.5c42.667 19.333 72.667 13.333 90 -18c4 -7.33301 4 -18.5 0 -33.5s-9.33301 -22.5 -16 -22.5z" />
    <glyph glyph-name="semicolon" unicode=";" horiz-adv-x="306" 
d="M141 -200c-71.333 0 -108.336 2.00098 -111.003 6.00098c0 8 2.83301 17.167 8.5 27.5s10.834 15.5 15.501 15.5c14 0 29.333 28.333 46 85c10.667 34 17.334 84.333 20.001 151c2 64.667 6.66699 101.667 14 111c6.66699 7.33301 12.167 11.166 16.5 11.499
s12.166 -2.16699 23.499 -7.5c12.667 -5.33301 20.334 -14.833 23.001 -28.5s3.66699 -45.834 3 -96.501c-1.33301 -95.333 -12 -164.666 -32 -207.999c-4 -8 -9.16699 -20.167 -15.5 -36.5s-10.166 -26.5 -11.499 -30.5zM275.997 482.001
c0 -16 -12.501 -38.833 -37.501 -68.5s-46.5 -47.167 -64.5 -52.5c-8.66699 -2.66699 -21.167 0.833008 -37.5 10.5s-28.166 21.167 -35.499 34.5c-14.667 24.667 -4 54 32 88c13.333 12.667 23.5 21 30.5 25s15.5 5.66699 25.5 5c9.33301 -0.666992 17 -0.166992 23 1.5
s10 3.16699 12 4.5s5.5 1 10.5 -1s11.833 -7 20.5 -15c14 -12 21 -22.667 21 -32z" />
    <glyph glyph-name="equal" unicode="=" horiz-adv-x="703" 
d="M340 182c-80 0 -128.331 0.664062 -144.998 1.99707s-28.667 5.33301 -36 12c-8.66699 8 -13.834 17.333 -15.501 28s1.16602 19.334 8.49902 26.001c6 6.66699 52 8.33398 138 5.00098c80 -3.33301 127 -5 141 -5c44.667 -1.33301 86.167 -5.66602 124.5 -12.999
s60.5 -15.333 66.5 -24c2 -3.33301 9 -5.66602 21 -6.99902c10 -0.666992 18 -4.5 24 -11.5s7.66699 -14.833 5 -23.5c-1.33301 -5.33301 -4 -8.33301 -8 -9s-8.5 -0.166992 -13.5 1.5s-10.333 3 -16 4s-11.167 0.833008 -16.5 -0.5c-13.333 0 -23 4 -29 12
c-6.66699 8 -12 9 -16 3c-4.66699 -6.66699 -17 -8.33398 -37 -5.00098c-18.667 3.33301 -84 5 -196 5zM623.002 368.997c-70.667 -10.667 -172.336 -16 -305.003 -16c-90.667 0 -154.667 2.5 -192 7.5s-63.666 14.5 -78.999 28.5c-9.33301 9.33301 -14.833 19.5 -16.5 30.5
s1.16602 20.167 8.49902 27.5c8.66699 9.33301 50.334 5.33301 125.001 -12c34 -7.33301 84.667 -11.666 152 -12.999s136 1 206 7c40 3.33301 63.833 4.5 71.5 3.5s14.834 -5.5 21.501 -13.5c6.66699 -8.66699 10.834 -18.834 12.501 -30.501s0.166992 -18.167 -4.5 -19.5z
" />
    <glyph glyph-name="greater" unicode="&#x3e;" horiz-adv-x="502" 
d="M339 308c0 4.66699 -6.3291 9.33301 -18.9961 14c-73.333 28 -115.333 43 -126 45c-6 0.666992 -26.167 5.33398 -60.5 14.001s-54.5 13.334 -60.5 14.001c-18.667 4 -31.667 15 -39 33s-5.33301 32.667 6 44c12.667 12.667 34.667 13.334 66 2.00098
c1.33301 0 5 -1 11 -3s13.333 -4.16699 22 -6.5l24 -6.5c59.333 -16 117.166 -36 173.499 -60s94.166 -44.667 113.499 -62c18 -17.333 25.167 -32.5 21.5 -45.5s-18.5 -27.167 -44.5 -42.5c-92.667 -56 -193.334 -109.667 -302.001 -161
c-1.33301 1.33301 -3.83301 3.16602 -7.5 5.49902s-6.33398 4.16602 -8.00098 5.49902s-4 3.33301 -7 6s-5.16699 5.16699 -6.5 7.5l-4.5 8c-1.66699 3 -2.83398 6.16699 -3.50098 9.5s-1 7 -1 11c-1.33301 12.667 -0.166016 21.167 3.50098 25.5s15.167 10.833 34.5 19.5
l27.5 11c11.667 4.66699 18.667 7.5 21 8.5l14.5 6.5c7.33301 3.33301 14 6.66602 20 9.99902l24 14c23.333 12 47 26.333 71 43s36 26.667 36 30z" />
    <glyph glyph-name="question" unicode="?" horiz-adv-x="447" 
d="M307 -74c12.667 6 23.667 7.50195 33 4.50195s23 -12.833 41 -29.5c19.333 -18.667 30.833 -33.834 34.5 -45.501s-0.833008 -21.834 -13.5 -30.501c-8 -5.33301 -20 -8.83301 -36 -10.5s-30.667 -0.5 -44 3.5c-10 2.66699 -19.667 13.667 -29 33
c-16 38 -11.333 63 14 75zM274 -2.99805c-8 0 -12.3379 1.99902 -13.0049 5.99902c-2 3.33301 -18.167 13 -48.5 29l-47.499 25c-48.667 28.667 -80 50.334 -94 65.001c-26 27.333 -35.667 50.666 -29 69.999c14.667 42.667 35.667 79 63 109
c44 49.333 85.5 102.166 124.5 158.499s55.833 87.166 50.5 92.499c-1.33301 2.66699 -19 -0.333008 -53 -9c-27.333 -6.66699 -51.666 -16.834 -72.999 -30.501s-34.666 -27.5 -39.999 -41.5c-4 -10 -10 -18.5 -18 -25.5s-16 -10.833 -24 -11.5
c-7.33301 0 -16.166 6.66699 -26.499 20s-15.5 25 -15.5 35c0 14.667 14.667 35 44 61s58.333 44.333 87 55c6.66699 2.66699 14.667 5.66699 24 9s15.666 5.5 18.999 6.5l13.5 4c5.66699 1.66699 11.167 2.66699 16.5 3s11.666 0.666016 18.999 0.999023
s17 0.833008 29 1.5c20 0.666992 33.5 -0.166016 40.5 -2.49902s15.5 -8.5 25.5 -18.5c9.33301 -10 15 -17.833 17 -23.5s2 -15.167 0 -28.5c-2 -18 -5.83301 -33 -11.5 -45s-19.5 -34.667 -41.5 -68c-38 -57.333 -75.667 -109.666 -113 -156.999
s-59.666 -71.333 -66.999 -72c-4.66699 0 -6.33398 -10.333 -5.00098 -31c1.33301 -16 4.5 -26.5 9.5 -31.5s20.833 -15.167 47.5 -30.5c70 -37.333 106.333 -56.666 109 -57.999c22.667 -11.333 38.334 -20.666 47.001 -27.999s15.667 -17 21 -29c12 -24 15.667 -36 11 -36
c-1.33301 0 -3 0.666992 -5 2c-5.33301 2.66699 -9.66602 1.33398 -12.999 -3.99902c-3.33301 -6 -10.666 -7.5 -21.999 -4.5s-22 9.16699 -32 18.5c-9.33301 9.33301 -18 14 -26 14z" />
    <glyph glyph-name="at" unicode="@" horiz-adv-x="860" 
d="M573 277c-5.33301 10 -22.334 28.332 -51.001 54.999l4 -46c6.66699 -54 14.667 -79 24 -75c7.33301 4.66699 13.833 15.334 19.5 32.001s6.83398 28 3.50098 34zM315.999 24.999c24.667 0 60.1709 17.5 106.504 52.5s66.833 59.167 61.5 72.5
c-10.667 23.333 -18.5 43.666 -23.5 60.999s-9.83301 37.833 -14.5 61.5s-8.66699 42.834 -12 57.501c-8.66699 31.333 -5 53.333 11 66c19.333 15.333 50.166 12 92.499 -10s72.833 -50.667 91.5 -86c10 -20 12.167 -41 6.5 -63s-20.5 -50.667 -44.5 -86
c-12.667 -19.333 -9.33398 -41 9.99902 -65c23.333 -29.333 50.666 -26.333 81.999 9c22.667 26 43.334 66 62.001 120c8.66699 24.667 11.834 52.167 9.50098 82.5s-9.16602 57.166 -20.499 80.499c-0.666992 2 -2.16699 5.66699 -4.5 11s-5.5 13 -9.5 23l-10 25
c-12.667 31.333 -27.334 58.5 -44.001 81.5s-31 36.167 -43 39.5c-13.333 3.33301 -22 6.66602 -26 9.99902c-14 10 -45.667 14.833 -95 14.5s-88 -5.16602 -116 -14.499c-68 -24 -121.333 -57.333 -160 -100s-72.667 -105 -102 -187
c-18.667 -55.333 -26.5 -104.833 -23.5 -148.5s17.167 -92.167 42.5 -145.5c24 -50.667 47.5 -85.5 70.5 -104.5s59.167 -33.5 108.5 -43.5c54 -11.333 123.333 -7.66602 208 11.001s131.667 40.667 141 66c6 16 15.167 24.833 27.5 26.5s26.166 -4.16602 41.499 -17.499
c12 -11.333 17 -22.666 15 -33.999c-0.666992 -4 -2.66699 -6 -6 -6s-7 -5.66699 -11 -17c-2 -6.66699 -3.66699 -10 -5 -10c-1.33301 1.33301 -3.33301 6.66602 -6 15.999c-3.33301 12 -5.33301 15 -6 9c0.666992 -5.33301 -1.5 -9.33301 -6.5 -12
s-7.83301 -5.33398 -8.5 -8.00098c0 -2 0.833008 -3.16699 2.5 -3.5s3.33398 -0.166016 5.00098 0.500977s3.16699 0.666992 4.5 0s2 -2.33398 2 -5.00098c0 -5.33301 -7 -13.166 -21 -23.499s-28.667 -18.166 -44 -23.499c-17.333 -5.33301 -168.666 -8 -453.999 -8
c-38.667 26 -67.5 50.5 -86.5 73.5s-38.833 61.167 -59.5 114.5c-12.667 30.667 -20 53 -22 67s-3 45 -3 93c0 43.333 2.16699 80.666 6.5 111.999s9.5 47 15.5 47c3.33301 0 6.66602 9 9.99902 27c5.33301 30.667 18.833 64.5 40.5 101.5s45.5 66.833 71.5 89.5
c8.66699 7.33301 16 14 22 20s10.167 10 12.5 12s5.83301 4.66699 10.5 8s12 7.66602 22 12.999c23.333 14 39.5 23 48.5 27s30.167 12 63.5 24c32 11.333 55 17.833 69 19.5s40.667 1.83398 80 0.500977c52.667 -2 94.667 -8.5 126 -19.5s57.666 -28.833 78.999 -53.5
c19.333 -22 35.333 -45.833 48 -71.5s33 -75.834 61 -150.501c28 -73.333 11 -166.333 -51 -279c-20.667 -40.667 -53.667 -64 -99 -70s-85.333 7 -120 39l-29 24c-20 -20.667 -47.667 -42 -83 -64s-63.333 -35 -84 -39c-20 -2.66699 -40.667 1 -62 11
s-38.666 24.667 -51.999 44c-9.33301 14 -15 26.333 -17 37s-3.33301 35 -4 73c-0.666992 19.333 -0.333984 38.666 0.999023 57.999s2.83301 34.333 4.5 45s4.5 25.667 8.5 45l8 39c1.33301 12 6.66602 25.333 15.999 40c30.667 56 67.667 80.667 111 74
c24.667 -4 41 -12.833 49 -26.5s5.66699 -28.5 -7 -44.5c-5.33301 -6.66699 -9 -10 -11 -10s-6.33301 4 -13 12c-8.66699 10 -17.834 13.833 -27.501 11.5s-19.5 -10.666 -29.5 -24.999s-19 -33.833 -27 -58.5c-8.66699 -25.333 -14.667 -65 -18 -119s-2 -92 4 -114
c4 -14.667 7.66699 -23.667 11 -27s10.333 -5 21 -5z" />
    <glyph glyph-name="A" unicode="A" horiz-adv-x="523" 
d="M293 455c-2.66699 0 -14 -33 -34 -99c-16 -54.667 -25.667 -85.667 -29 -93c-2 -6.66699 1 -10.334 9 -11.001c7.33301 -0.666992 22.333 0 45 2c40 2.66699 62.333 5.83398 67 9.50098s3 15.167 -5 34.5c-2.66699 6 -11.167 32 -25.5 78s-23.5 72.333 -27.5 79zM438 269
c0 -7.33301 2.00098 -11.002 6.00098 -11.002s7.33301 -10 10 -30c2.66699 -25.333 10 -57.666 22 -96.999c10.667 -40 16.5 -69.667 17.5 -89s-2.83301 -34.333 -11.5 -45c-6 -7.33301 -10.333 -11.166 -13 -11.499s-6.66699 2.16699 -12 7.5
c-8.66699 8.66699 -14.334 12.334 -17.001 11.001c-8.66699 -1.33301 -14.667 1.66699 -18 9s-7 26.333 -11 57c-4 32.667 -10.333 62.834 -19 90.501s-16 41.834 -22 42.501c-4 0.666992 -29.5 -2 -76.5 -8s-75.5 -10 -85.5 -12c-9.33301 -2 -15.333 -8.16699 -18 -18.5
s-6 -17.833 -10 -22.5c-2.66699 -4 -15.834 -31 -39.501 -81s-39.167 -78 -46.5 -84c-8 -8 -13.333 -12.333 -16 -13s-6 1.66602 -10 6.99902c-2 3.33301 -4.16699 5.66602 -6.5 6.99902s-4.16602 1.66602 -5.49902 0.999023s-2.83301 -0.166992 -4.5 1.5
s-3.16699 4.5 -4.5 8.5c-2.66699 10 -6.66699 13.667 -12 11c-4 -2.66699 -5.66699 -3 -5 -1c0.666992 4 13.334 30.333 38.001 79c23.333 47.333 36.666 71.666 39.999 72.999c5.33301 2 7.33301 7.66699 6 17s-5 17 -11 23c-16 16 -10.333 29.667 17 41
c28 10.667 46.333 49.667 55 117c4 36.667 6.83301 60 8.5 70s5 20.833 10 32.5s10.167 25.834 15.5 42.501c10.667 31.333 18.667 50.333 24 57c4 6 8.83301 9.66699 14.5 11s16.167 1.33301 31.5 0c24.667 -1.33301 40.667 -4.33301 48 -9c16 -8 36.333 -52.333 61 -133
c6 -20 14.833 -45.833 26.5 -77.5s19.5 -56.167 23.5 -73.5z" />
    <glyph glyph-name="B" unicode="B" horiz-adv-x="556" 
d="M345 448c0 16 -6.83203 38.501 -20.499 67.501s-27.167 49.167 -40.5 60.5c-33.333 29.333 -62 16.333 -86 -39c-13.333 -32 -27 -100.5 -41 -205.5s-21 -194.167 -21 -267.5l32.5 -16c17.667 -8.66699 30.667 -14.834 39 -18.501s20 -7.33398 35 -11.001
s28.833 -5.5 41.5 -5.5c23.333 -1.33301 39.5 -1 48.5 1s22.833 8.66699 41.5 20c22.667 13.333 39 28.833 49 46.5s16.333 41.834 19 72.501c2 18.667 2.16699 30.5 0.5 35.5s-7.5 11.167 -17.5 18.5c-30 21.333 -74 38.333 -132 51c-52.667 10 -81.334 23.667 -86.001 41
c-2.66699 10.667 -1 19.167 5 25.5s18 12.5 36 18.5c21.333 8.66699 44 23.667 68 45s33.667 41.333 29 60zM127.001 -21.999c0 -10 -3.67188 -19.834 -11.0049 -29.501s-14.666 -14.5 -21.999 -14.5c-5.33301 0 -13.5 2.83301 -24.5 8.5s-18.167 10.834 -21.5 15.501
c-2.66699 3.33301 -2.66699 52.666 0 147.999c2.66699 94 0.333984 175 -6.99902 243c-12.667 126 -12.667 195.333 0 208c6.66699 7.33301 16.167 9.83301 28.5 7.5s22.5 -8.5 30.5 -18.5c6 -6 9.66699 -8.66699 11 -8s5 6 11 16c8 12.667 12 22.334 12 29.001
s7.16699 17.667 21.5 33s28.5 27 42.5 35c17.333 9.33301 37.833 13.333 61.5 12s44.834 -8.33301 63.501 -21c22 -14.667 44.5 -42.167 67.5 -82.5s37.5 -76.166 43.5 -107.499c3.33301 -16.667 -1.16699 -37.667 -13.5 -63s-24.5 -42.333 -36.5 -51
c-7.33301 -4.66699 -12.333 -9.16699 -15 -13.5s-2.66699 -8.33301 0 -12s7.33398 -6.5 14.001 -8.5c58.667 -18.667 103.334 -50.334 134.001 -95.001c11.333 -16.667 12.833 -44.167 4.5 -82.5s-23.166 -71.5 -44.499 -99.5
c-34.667 -46.667 -84.834 -74.167 -150.501 -82.5s-122.5 5.16699 -170.5 40.5c-11.333 8.66699 -19 12.5 -23 11.5s-6 -7.16699 -6 -18.5z" />
    <glyph glyph-name="C" unicode="C" horiz-adv-x="607" 
d="M341 511c-40 0 -92.667 -47.665 -158 -142.998c-39.333 -57.333 -61.666 -109.333 -66.999 -156c-4.66699 -36.667 -1 -67.167 11 -91.5s33.667 -45.833 65 -64.5c14 -8.66699 26.167 -13.667 36.5 -15s32.166 -1.33301 65.499 0c32 1.33301 54.5 3.66602 67.5 6.99902
s31.167 10.666 54.5 21.999c59.333 29.333 96 53.333 110 72c7.33301 10.667 18 11 32 1c4.66699 -4.66699 7.66699 -5 9 -1c0.666992 1.33301 2 0.333008 4 -3c7.33301 -16 8.66602 -27 3.99902 -33c-5.33301 -10 -21.666 -25.167 -48.999 -45.5s-54 -36.833 -80 -49.5
c-138.667 -70.667 -255 -65 -349 17c-34 30 -55.167 69.167 -63.5 117.5s-2.16602 97.833 18.501 148.5c12.667 33.333 22.667 53 30 59c6 5.33301 9.66699 11 11 17c2.66699 10.667 16.167 32.834 40.5 66.501s47.166 61.5 68.499 83.5c39.333 40.667 76.333 66 111 76
c12 3.33301 26.333 3.66602 43 0.999023s28.667 -7.33398 36 -14.001c14.667 -13.333 16 -28.666 4 -45.999s-30.333 -26 -55 -26z" />
    <glyph glyph-name="D" unicode="D" horiz-adv-x="467" 
d="M194 32c3.33301 0 21.167 14.6689 53.5 44.002s48.5 45.333 48.5 48c0 4 6.66699 16.333 20 37c22 30 34.167 67.167 36.5 111.5s-2.5 86.166 -14.5 125.499s-27.667 75.333 -47 108c-14 20 -24.333 30.667 -31 32c-10 2 -23.833 -9.66699 -41.5 -35
s-30.5 -52.333 -38.5 -81c-14 -48.667 -24.5 -109 -31.5 -181s-7.16699 -120.667 -0.5 -146c2.66699 -12.667 9.5 -26.334 20.5 -41.001s19.5 -22 25.5 -22zM251.001 617.002c30.667 0 51.001 -4.66602 61.001 -13.999c2 -2.66699 2.33301 -5 1 -7s-1.5 -3.33301 -0.5 -4
s2.83301 -0.666992 5.5 0c11.333 4 24.166 -5.33301 38.499 -28s31.5 -61.334 51.5 -116.001c13.333 -34.667 21.666 -59.834 24.999 -75.501s4.66602 -35.5 3.99902 -59.5c-0.666992 -28 -4.33398 -57.5 -11.001 -88.5s-12.667 -47.5 -18 -49.5
c-4.66699 -1.33301 -7 -6.33301 -7 -15c0 -7.33301 -12 -27.666 -36 -60.999s-42.333 -55 -55 -65c-34 -26.667 -59.167 -44.167 -75.5 -52.5s-33.166 -12.5 -50.499 -12.5c-35.333 0 -59.666 11 -72.999 33c-4 6.66699 -9.66699 6.33398 -17 -0.999023
c-6.66699 -6.66699 -17 -7.33398 -31 -2.00098c-27.333 8.66699 -37.666 26 -30.999 52c3.33301 15.333 9.5 60.333 18.5 135s14.5 129 16.5 163c8.66699 142.667 17 219.334 25 230.001c4 5.33301 12 9.16602 24 11.499s19.333 1.5 22 -2.5c8 -12.667 26.667 -9 56 11
c18 12 37 18 57 18z" />
    <glyph glyph-name="E" unicode="E" horiz-adv-x="490" 
d="M140 589c0 -16 2.49805 -25.1689 7.49805 -27.502s17.5 -0.166016 37.5 6.50098c54.667 18.667 107 28 157 28c12.667 0 20.834 -1 24.501 -3s5.83398 -6.33301 6.50098 -13v-1c0.666992 -5.33301 1.16699 -8.16602 1.5 -8.49902s1.16602 1.83398 2.49902 6.50098
c2.66699 7.33301 6.33398 11.333 11.001 12c3.33301 0.666992 5 -1.66602 5 -6.99902s3.66699 -7.33301 11 -6c8 1.33301 18.333 -2.66699 31 -12c16.667 -11.333 25 -23.666 25 -36.999s-6.5 -22.166 -19.5 -26.499s-29.167 -2.83301 -48.5 4.5
c-28 13.333 -70 13.666 -126 0.999023c-56 -13.333 -84 -28.333 -84 -45c0 -8.66699 -2 -13 -6 -13s-7.16699 -5 -9.5 -15s-2.5 -19.333 -0.5 -28c0 -8 3.83301 -12.167 11.5 -12.5s16.834 1.16699 27.501 4.5s17 5 19 5c7.33301 1.33301 15 3.66602 23 6.99902
c11.333 4.66699 28.166 5.16699 50.499 1.5s37.833 -9.5 46.5 -17.5c14 -13.333 18.333 -31.666 13 -54.999s-19 -47 -41 -71c-17.333 -18.667 -28.666 -26.167 -33.999 -22.5s-6 19.5 -2 47.5c2.66699 25.333 2.66699 38.666 0 39.999c-4 2 -21.167 -3.33301 -51.5 -16
s-46.5 -21.334 -48.5 -26.001c0 -5.33301 1.66699 -37.166 5 -95.499s3 -91.833 -1 -100.5c-4.66699 -34.667 -6.33398 -52.667 -5.00098 -54c2 -0.666992 21.5 4.33301 58.5 15s56.167 16 57.5 16c48.667 10.667 89 17.667 121 21c10 1.33301 18.333 -1.83398 25 -9.50098
s8.66699 -15.834 6 -24.501c-2.66699 -6 -17.167 -15.333 -43.5 -28s-54.5 -23.667 -84.5 -33c-19.333 -6 -38.166 -13.167 -56.499 -21.5s-35.833 -14.833 -52.5 -19.5c-26.667 -7.33301 -47 -13.666 -61 -18.999c-20 -6.66699 -36.5 -7.5 -49.5 -2.5
s-27.5 17.167 -43.5 36.5c-30 35.333 -33.667 65.333 -11 90c3.33301 5.33301 6.16602 10.666 8.49902 15.999s4.83301 10 7.5 14s8 8.66699 16 14l22 17l-2 85c-1.33301 54.667 -7 87.667 -17 99c-6 6 -9.16699 11.667 -9.5 17s1.5 13 5.5 23c5.33301 13.333 7 23 5 29
c-2 4 -6 39.667 -12 107c-5.33301 67.333 -5.33301 106.333 0 117c7.33301 12.667 21 17.5 41 14.5s30 -11.167 30 -24.5z" />
    <glyph glyph-name="F" unicode="F" horiz-adv-x="476" 
d="M400 564c1.33301 3.33301 4.66504 1.33594 9.99805 -5.99707c3.33301 -3.33301 5.66602 -5 6.99902 -5c12 2 18 -0.333008 18 -7c0 -3.33301 -5 -3.66602 -15 -0.999023c-4 1.33301 -5.66699 1.33301 -5 0c0.666992 -2 2.66699 -4.66699 6 -8c8 -8 14.333 -11 19 -9
c3.33301 1.33301 5.33301 1.33301 6 0s0.333984 -3.66602 -0.999023 -6.99902c-7.33301 -20 -47.333 -31.333 -120 -34c-74.667 -3.33301 -130 -10.666 -166 -21.999c-6.66699 -2 -10.667 -11.5 -12 -28.5s0 -36.833 4 -59.5c2 -10 4.33301 -16 7 -18s8 -2 16 0
c12 2.66699 35.833 5.33398 71.5 8.00098s62.5 3.66699 80.5 3c34 0 54.333 -4.66699 61 -14c4 -6 6 -7.33301 6 -4c0 4 3.66699 3 11 -3c8 -5.33301 11.167 -14 9.5 -26s-6.66699 -20.833 -15 -26.5s-17.5 -5.5 -27.5 0.5c-9.33301 5.33301 -22 8.66602 -38 9.99902
c-10 0 -40.167 -4.5 -90.5 -13.5s-76.5 -14.5 -78.5 -16.5l-6 -58c-8 -95.333 -17 -146.333 -27 -153c-4.66699 -3.33301 -4.66699 -5 0 -5c7.33301 0 7 -7 -1 -21c-4.66699 -9.33301 -10 -15 -16 -17c-4.66699 -2 -6.66699 -1.66699 -6 1c0 1.33301 1.33301 4.33301 4 9
c3.33301 6.66699 4.66602 10.167 3.99902 10.5s-4.66699 -1.5 -12 -5.5c-9.33301 -6 -15.666 -5.66699 -18.999 1c-1.33301 4 -2.5 6 -3.5 6s-2.83301 -2 -5.5 -6c-5.33301 -8.66699 -10 -5.33398 -14 9.99902c-4 16.667 -4 33 0 49c5.33301 20 9.66602 53.667 12.999 101
c2.66699 34 3.33398 54.833 2.00098 62.5s-5.66602 14.5 -12.999 20.5c-10 7.33301 -15 13.5 -15 18.5s4.66699 12.167 14 21.5c7.33301 7.33301 11.5 15.166 12.5 23.499s0.5 28.166 -1.5 59.499c-3.33301 43.333 -6.66602 70.833 -9.99902 82.5s-10.666 19.5 -21.999 23.5
c-6 3.33301 -9.33301 5.66602 -10 6.99902c4.66699 1.33301 6.33398 5.66602 5.00098 12.999c-2.66699 8 0.333008 17 9 27c7.33301 10 14.666 15.167 21.999 15.5s18.666 -4.16699 33.999 -13.5c10.667 -6.66699 20.167 -10.334 28.5 -11.001s25.833 0.333008 52.5 3
c32 4 78 6 138 6c52.667 -1.33301 79 0.666992 79 6z" />
    <glyph glyph-name="G" unicode="G" horiz-adv-x="587" 
d="M327 554c-10.667 0 -39.8271 -30.1699 -87.4941 -90.5029s-71.5 -97.166 -71.5 -110.499c0 -7.33301 -4 -16 -12 -26c-8.66699 -11.333 -18.334 -39.333 -29.001 -84s-14.334 -73.667 -11.001 -87c8.66699 -42 25.5 -67.333 50.5 -76s60.833 -2 107.5 20
c21.333 10 44.5 23.333 69.5 40l53.5 35c27.333 16.667 48 31.334 62 44.001c13.333 11.333 17.5 21.666 12.5 30.999s-20.833 20.333 -47.5 33c-28 13.333 -57.667 20.333 -89 21c-22.667 0 -37.167 -1.16699 -43.5 -3.5s-14.166 -8.83301 -23.499 -19.5
c-17.333 -20 -32.833 -29.167 -46.5 -27.5s-20.5 13.834 -20.5 36.501c0 12.667 2.66699 22.5 8 29.5s20.333 19.833 45 38.5c19.333 14.667 49.666 21.334 90.999 20.001s79.333 -10.666 114 -27.999c40 -19.333 68 -40.5 84 -63.5s18.333 -45.5 7 -67.5
c-12.667 -26 -41.334 -54 -86.001 -84c-90.667 -59.333 -139.667 -89 -147 -89c-5.33301 0 -8 -1.33301 -8 -4c0 -4.66699 -10 -10.667 -30 -18c-38.667 -15.333 -71.334 -23.333 -98.001 -24s-51.334 6 -74.001 20c-28 17.333 -47 34 -57 50s-16.333 41 -19 75
c-3.33301 28 4.66699 78.333 24 151c9.33301 34 38.833 90 88.5 168s80.834 117.333 93.501 118c6 0 9.33301 1.66699 10 5c1.33301 4 9.66602 12 24.999 24c26 21.333 49.333 20.666 70 -2.00098c5.33301 -5.33301 8.16602 -10 8.49902 -14s-1.5 -10.667 -5.5 -20
c-6.66699 -14 -12.667 -21 -18 -21z" />
    <glyph glyph-name="H" unicode="H" horiz-adv-x="524" 
d="M368 329c0 -22 -42.668 -37.667 -128.001 -47c-27.333 -2.66699 -43.166 -6.83398 -47.499 -12.501s-8.16602 -28.5 -11.499 -68.5c-3.33301 -35.333 -1.33301 -56.666 6 -63.999c7.33301 -2.66699 8.83301 -9.66699 4.5 -21s-5.5 -19.333 -3.5 -24
c2 -8.66699 0.666992 -20 -4 -34c-5.33301 -18.667 -16.5 -31.334 -33.5 -38.001s-32.833 -4.66699 -47.5 6c-8.66699 6.66699 -8.33398 69 0.999023 187l5 57c-23.333 -6.66699 -43.333 -6.66699 -60 0c-8.66699 4 -12 9.33301 -10 16c2 7.33301 1.66699 11 -1 11l-2 -1
c-4 -2 -6 -1 -6 3c0 5.33301 6 11.833 18 19.5s25.333 13.5 40 17.5c13.333 3.33301 21 6.83301 23 10.5s3.33301 14.834 4 33.501c1.33301 38 3.66602 66.333 6.99902 85c6.66699 40.667 21.667 65.334 45 74.001c15.333 6 30.333 3 45 -9
c4.66699 -4 7.33398 -12.667 8.00098 -26s-1.33301 -21.333 -6 -24c-4.66699 -4.66699 -9.5 -22.834 -14.5 -54.501s-6.83301 -55.5 -5.5 -71.5l78 4c40 2 66 1.16699 78 -2.5s18 -12.5 18 -26.5zM402.999 592c13.333 15.333 30.0029 14.3311 50.0029 -3.00195
c20 -18 33 -125.333 39 -322c2.66699 -83.333 2.16699 -132.666 -1.5 -147.999s-17.167 -24 -40.5 -26c-16 -0.666992 -26.667 3.66602 -32 12.999c-2.66699 7.33301 -5.33398 39.333 -8.00098 96s-4.83398 114.834 -6.50098 174.501s-2.83398 92.834 -3.50098 99.501
c-4.66699 68 -3.66699 106.667 3 116z" />
    <glyph glyph-name="I" unicode="I" horiz-adv-x="577" 
d="M547 166c0 -6 -10.499 -12.4971 -31.499 -19.4971s-41.833 -11.167 -62.5 -12.5c-15.333 -0.666992 -39.666 -3 -72.999 -7c-12 -0.666992 -27.167 -5.33398 -45.5 -14.001s-37.166 -11 -56.499 -7c-12.667 3.33301 -35.167 1.5 -67.5 -5.5s-53.833 -8.5 -64.5 -4.5
c-12 4 -19.167 9 -21.5 15s-1.83301 16.333 1.5 31c3.33301 11.333 10.333 19.333 21 24s35.667 10.667 75 18c10.667 2 17.167 4.83301 19.5 8.5s3.5 13.167 3.5 28.5c0 33.333 -5.66699 91.333 -17 174c-0.666992 9.33301 -4.33398 23 -11.001 41
c-4 10.667 -11.667 16.334 -23 17.001s-46 -2.33301 -104 -9c-21.333 -2.66699 -36.166 -2.33398 -44.499 0.999023s-13.5 10.666 -15.5 21.999c-2.66699 16 8 29.5 32 40.5s54.667 16.833 92 17.5c30.667 0 52 3.33301 64 10c12.667 6.66699 55.167 9.66699 127.5 9
s112.166 -4.33398 119.499 -11.001c7.33301 -5.33301 11.166 -12.333 11.499 -21s-2.83398 -15.667 -9.50098 -21c-8.66699 -5.33301 -58 -14 -148 -26c0 -12.667 0.666992 -38.667 2 -78s3 -79.833 5 -121.5s3 -64.834 3 -69.501c0.666992 -2 27.167 -2.16699 79.5 -0.5
s82.833 3.83398 91.5 6.50098c12.667 3.33301 23.667 -1 33 -13c9.33301 -11.333 14 -19 14 -23z" />
    <glyph glyph-name="J" unicode="J" horiz-adv-x="535" 
d="M505 578c0 -14.667 -5.99609 -24.8301 -17.9961 -30.4971s-33.333 -8.5 -64 -8.5c-7.33301 0 -16.5 0.333008 -27.5 1s-18 0.833984 -21 0.500977s-6.83301 -1.16602 -11.5 -2.49902s-7.16699 -4.33301 -7.5 -9s-0.5 -10.334 -0.5 -17.001s1 -16.334 3 -29.001
c2.66699 -22.667 2.5 -60.667 -0.5 -114s-7.5 -97 -13.5 -131c-10 -52 -32.667 -96 -68 -132c-20.667 -20.667 -38.834 -34.5 -54.501 -41.5s-36.834 -10.5 -63.501 -10.5c-30 0 -54.333 6 -73 18c-21.333 14 -35.833 28.833 -43.5 44.5s-11.5 39.167 -11.5 70.5
c0 24.667 1.5 42 4.5 52s11.167 25.667 24.5 47c20 30.667 34.333 46.667 43 48c10 1.33301 16.167 -2.33398 18.5 -11.001s-0.166992 -18.334 -7.5 -29.001c-8.66699 -12 -13.667 -32.333 -15 -61s1.66699 -51.334 9 -68.001c10 -22.667 27.667 -35.5 53 -38.5
s46.666 5.16699 63.999 24.5c13.333 16 22.5 30 27.5 42s10.833 33.667 17.5 65c8.66699 39.333 11.667 88.666 9 147.999c-4 62.667 -7.66699 98.334 -11 107.001c-3.33301 9.33301 -8 14.833 -14 16.5s-21.667 2.5 -47 2.5c-64 0 -102 11.333 -114 34
c-5.33301 10 -3.33301 21 6 33c6.66699 8.66699 12.167 13.834 16.5 15.501s12.166 1.16699 23.499 -1.5c20.667 -4.66699 47 -6.33398 79 -5.00098c159.333 2.66699 248.333 2 267 -2c12.667 -2.66699 19.667 -8.66699 21 -18v-10z" />
    <glyph glyph-name="K" unicode="K" horiz-adv-x="545" 
d="M128 468l0.00292969 -19.002c0 -44.667 3 -69.667 9 -75s27.667 -2.33301 65 9c2 0 3.66699 0.333008 5 1s3 1.16699 5 1.5s3.66699 0.833008 5 1.5c31.333 9.33301 56.833 18.666 76.5 27.999s46.5 24.666 80.5 45.999c56 33.333 94.333 54.666 115 63.999
c1.33301 -1.33301 4.33301 -4.66602 9 -9.99902s8.66699 -10.166 12 -14.499s5 -7.5 5 -9.5c0 -4 -13.167 -17.167 -39.5 -39.5s-49.5 -40.5 -69.5 -54.5c-52 -34.667 -101.333 -58.667 -148 -72c-28.667 -8.66699 -44.334 -14.334 -47.001 -17.001
c-3.33301 -2.66699 -1.83301 -9 4.5 -19s15.666 -21.167 27.999 -33.5s24.5 -22.5 36.5 -30.5c24.667 -16.667 52.334 -31.667 83.001 -45c18.667 -8.66699 31 -15.5 37 -20.5s9 -10.833 9 -17.5c0 -21.333 -13 -32.333 -39 -33
c-16.667 -1.33301 -46.834 9.83398 -90.501 33.501s-79.167 48.167 -106.5 73.5c-30 29.333 -46 43 -48 41s-4.33301 -21.667 -7 -59c-6.66699 -81.333 -12.334 -126.333 -17.001 -135c-2.66699 -6.66699 -10.334 -11.667 -23.001 -15c-2 0 -3.66699 -0.333008 -5 -1
c-14.667 -4.66699 -26 -4 -34 2c-5.33301 4 -8.16602 11.5 -8.49902 22.5s1.5 39.167 5.5 84.5c5.33301 54 8 127.833 8 221.5s-2.33301 148.834 -7 165.501c-6 18.667 -4.5 33.334 4.5 44.001s23.5 15.334 43.5 14.001c18.667 -1.33301 30.5 -9.83301 35.5 -25.5
s7.5 -51.5 7.5 -107.5z" />
    <glyph glyph-name="L" unicode="L" horiz-adv-x="508" 
d="M239 116c0 -3.33301 -30.668 -9.00098 -92.001 -17.001c-12.667 -2 -29.167 2.33301 -49.5 13s-31.166 20.667 -32.499 30c-2 16.667 -3.5 51 -4.5 103s-3 99.667 -6 143s-7.83301 71.666 -14.5 84.999c-4 7.33301 -7 29 -9 65c-2.66699 38.667 0 61.334 8 68.001
c14.667 15.333 31.667 15 51 -1c11.333 -9.33301 22.666 -50 33.999 -122s18 -145.333 20 -220c0.666992 -22 1.33398 -39 2.00098 -51s1.83398 -21.667 3.50098 -29s3.5 -11.666 5.5 -12.999s5 -1.33301 9 0c11.333 4.66699 104.666 16.667 279.999 36
c18 3.33301 28.667 1 32 -7c4.66699 -12.667 2.5 -23.5 -6.5 -32.5s-26.167 -16.5 -51.5 -22.5c-54 -14 -106 -21.667 -156 -23c-15.333 -1.33301 -23 -3 -23 -5z" />
    <glyph glyph-name="M" unicode="M" horiz-adv-x="644" 
d="M217 205c1.33301 23.333 -1.33594 56.3369 -8.00293 99.0039s-13.834 80.167 -21.501 112.5s-12.834 49.833 -15.501 52.5c-3.33301 0 -6.33301 -8.66699 -9 -26c0 -0.666992 -4.33301 -27.834 -13 -81.501s-12.667 -86.834 -12 -99.501
c1.33301 -18.667 -0.166992 -54.5 -4.5 -107.5s-8.16602 -82.5 -11.499 -88.5c-5.33301 -8.66699 -18.333 -11.667 -39 -9c-22 2.66699 -34 5 -36 7c-3.33301 0.666992 -4.5 25 -3.5 73s4.16699 88.667 9.5 122c3.33301 9.33301 4 29.833 2 61.5s-4 57.334 -6 77.001
s-5.33301 46.334 -10 80.001s-7.66699 57.5 -9 71.5c1.33301 0.666992 4.5 3.16699 9.5 7.5s8.16699 6.83301 9.5 7.5l11.5 5.5c6.33301 3 10.833 4 13.5 3s8 -1.5 16 -1.5c18 -2.66699 33.667 1 47 11c24 17.333 46 20.166 66 8.49902s36.667 -36.834 50 -75.501
c4.66699 -13.333 11.167 -41.833 19.5 -85.5s12.5 -70.834 12.5 -81.501c0.666992 -33.333 9.66699 -24.333 27 27c6 18 15.333 47.667 28 89c11.333 38.667 17.666 58 18.999 58c2 4.66699 5.83301 16.167 11.5 34.5s12.5 32.166 20.5 41.499c10 13.333 24 20 42 20
s33.333 -6.66699 46 -20c24.667 -27.333 47.667 -76.333 69 -147c6.66699 -26.667 13 -45.667 19 -57c12.667 -25.333 28 -102.333 46 -231c0.666992 -6.66699 0.833984 -15.334 0.500977 -26.001s-2.33301 -20.667 -6 -30s-8.16699 -13 -13.5 -11
c-9.33301 0 -15 -2.33301 -17 -7c-5.33301 -6 -12.166 -8.5 -20.499 -7.5s-15.666 5.33301 -21.999 13s-7.5 15.167 -3.5 22.5c7.33301 13.333 6 46.833 -4 100.5s-25.333 112.167 -46 175.5c-27.333 83.333 -45.666 125 -54.999 125c-4 0 -8.33301 -11 -13 -33
c-10 -46 -19.167 -84.167 -27.5 -114.5s-15.166 -52.833 -20.499 -67.5l-29 -77c-4 -13.333 -13.167 -29.166 -27.5 -47.499s-26.166 -28.833 -35.499 -31.5c-13.333 -4.66699 -25.666 -5.33398 -36.999 -2.00098c-8.66699 2 -13.834 5.83301 -15.501 11.5
s-2.83398 21.834 -3.50098 48.501z" />
    <glyph glyph-name="N" unicode="N" horiz-adv-x="611" 
d="M231 522c0 -4 8 -22 24 -54c10 -19.333 25.5 -57.333 46.5 -114s34.5 -98 40.5 -124c2 -6 5 -6 9 0c9.33301 14.667 17.333 49.667 24 105c2.66699 24 8 49.5 16 76.5s15.667 46.5 23 58.5c16 26 38.667 45.333 68 58s49.666 12.334 60.999 -0.999023
c16 -21.333 27.333 -108.166 34 -260.499s6.66699 -241.833 0 -268.5c-1.33301 -4.66699 -9.5 -8.16699 -24.5 -10.5s-23.5 -4.5 -25.5 -6.5c0 -3.33301 -2 -4 -6 -2c-2.66699 -0.666992 -4.66699 17.333 -6 54s-2.16602 73.667 -2.49902 111s-1.16602 56.333 -2.49902 57
c-0.666992 6.66699 -1.83398 20.334 -3.50098 41.001s-3.33398 42.834 -5.00098 66.501s-3.5 47.167 -5.5 70.5s-4 42.5 -6 57.5s-4 22.5 -6 22.5c-9.33301 1.33301 -20 -10.667 -32 -36s-18 -41.666 -18 -48.999c3.33301 -2.66699 4 -22 2 -58s-5 -61.333 -9 -76
c-2 -8.66699 -9 -27.5 -21 -56.5s-18.667 -45.5 -20 -49.5c0 -4.66699 -6.33301 -13.334 -19 -26.001c-12 -12.667 -27 -19 -45 -19c-13.333 0 -21.666 1.5 -24.999 4.5s-7.66602 13.5 -12.999 31.5c-4 13.333 -7.16699 30.166 -9.5 50.499s-6.5 37.5 -12.5 51.5
c-5.33301 11.333 -20.5 48.666 -45.5 111.999s-46.167 109 -63.5 137c-4 0 -6.66699 -18 -8 -54c-0.666992 -58.667 -10.667 -162.334 -30 -311.001c-5.33301 -38 -21.333 -57 -48 -57c-11.333 0 -19.666 1.66699 -24.999 5s-8.83301 11.166 -10.5 23.499
s-1.5 28.166 0.5 47.499s6.33301 46.666 13 81.999c8.66699 45.333 15.667 113 21 203c1.33301 12.667 -1.33398 36.334 -8.00098 71.001c-6 31.333 -8.66699 49.333 -8 54s5.66699 11.667 15 21c5.33301 6 11.833 9.83301 19.5 11.5s15.167 1.83398 22.5 0.500977
s16 -0.666016 26 2.00098c5.33301 2 15.666 4 30.999 6c6.66699 0.666992 19.5 -7.33301 38.5 -24s28.5 -28.334 28.5 -35.001z" />
    <glyph glyph-name="O" unicode="O" horiz-adv-x="608" 
d="M365 501c-42.667 20.667 -75.3301 21.667 -97.9971 3c-29.333 -24.667 -51.666 -49.334 -66.999 -74.001s-34.333 -66.667 -57 -126c-16.667 -43.333 -26.5 -75.333 -29.5 -96s-1.5 -41.334 4.5 -62.001c8 -26.667 19.667 -44.667 35 -54s40 -14 74 -14
c23.333 0.666992 40.666 2.33398 51.999 5.00098s26.666 9.33398 45.999 20.001c28 14.667 61 40.334 99 77.001c25.333 24 41.666 41.667 48.999 53s14.666 28.666 21.999 51.999c8 25.333 12 41.5 12 48.5s-3 19.5 -9 37.5c-7.33301 22 -24.333 45.833 -51 71.5
s-54 45.167 -82 58.5zM30.0039 146c0 18 3.16797 42.998 9.50098 74.998s11.5 49.667 15.5 53c4 2.66699 8.5 11.334 13.5 26.001s6.83301 24.667 5.5 30c-1.33301 2 1.5 10.333 8.5 25s10.167 22.667 9.5 24s2.16602 7.66602 8.49902 18.999l25 43l29.5 48
c11.333 18 28.833 37.167 52.5 57.5s44.167 34.166 61.5 41.499c14 6 32.167 7.66699 54.5 5s36.833 -8.33398 43.5 -17.001s20.334 -17 41.001 -25c27.333 -11.333 53.833 -26.833 79.5 -46.5s48 -44.834 67 -75.501s26.5 -61.667 22.5 -93
c-3.33301 -25.333 -10 -51.666 -20 -78.999s-21 -48.333 -33 -63c-24 -29.333 -43.833 -51.666 -59.5 -66.999s-36.167 -32.666 -61.5 -51.999c-80 -60 -156.333 -82.667 -229 -68c-40.667 8.66699 -74.834 26.334 -102.501 53.001s-41.5 55.334 -41.5 86.001z" />
    <glyph glyph-name="P" unicode="P" horiz-adv-x="463" 
d="M266 328c9.33301 0 22.3311 9.50488 38.998 28.5049s27.334 36.167 32.001 51.5c3.33301 11.333 4.33301 20.166 3 26.499s-5.33301 15.833 -12 28.5c-8.66699 15.333 -23 30.666 -43 45.999s-35.333 23 -46 23c-8.66699 0 -19.334 -7.33301 -32.001 -22s-24 -33 -34 -55
c-13.333 -28.667 -21 -49.167 -23 -61.5s-3.33301 -42.5 -4 -90.5c0.666992 -39.333 -1.66602 -89.333 -6.99902 -150s-8.33301 -99.334 -9 -116.001c-1.33301 -32.667 -6 -54.834 -14 -66.501s-22.667 -17.167 -44 -16.5c-18.667 1.33301 -28.667 3 -30 5
c-1.33301 0 -2.5 41.333 -3.5 124l-3 248c-1 82.667 -2.5 123.334 -4.5 122.001c-3.33301 10.667 0.666992 21.834 12 33.501s24.666 18.167 39.999 19.5c16 0.666992 34.667 11.667 56 33c23.333 24 54 42.667 92 56c8 4 21.667 3.5 41 -1.5s39.333 -13.5 60 -25.5
c20 -12 41 -29.833 63 -53.5s33.333 -40.834 34 -51.501c2 -10 3.33301 -21 4 -33c6 -56 -29.667 -110 -107 -162c-36 -23.333 -71.667 -29 -107 -17c-17.333 6 -30.333 22.667 -39 50c-3.33301 15.333 3.33398 29.666 20.001 42.999s31.334 12.666 44.001 -2.00098
c6 -9.33301 13.333 -14 22 -14z" />
    <glyph glyph-name="Q" unicode="Q" horiz-adv-x="618" 
d="M181 270c0 6 -2.00098 9.00098 -6.00098 9.00098c-3.33301 0 -0.333008 5.66699 9 17c20 22 35.667 23 47 3c4.66699 -8.66699 4.83398 -18.5 0.500977 -29.5s-11.5 -17.833 -21.5 -20.5c-6.66699 -2 -13.167 -0.833008 -19.5 3.5s-9.5 10.166 -9.5 17.499z
M251.999 487.001c-9.33301 -7.33301 -17.0039 -12.332 -23.0039 -14.999s-12.167 -3 -18.5 -1s-12.166 7.33301 -17.499 16c-4 7.33301 -7 11.666 -9 12.999s-4.66699 0 -8 -4c-13.333 -17.333 -29.666 -53 -48.999 -107c-16 -46.667 -20.333 -96.834 -13 -150.501
s25 -99.5 53 -137.5c14.667 -20.667 26 -31.667 34 -33c6 0 9 -2 9 -6c0 -5.33301 9.5 -11.666 28.5 -18.999s35.833 -11 50.5 -11c20 0 38.667 4.16699 56 12.5s25.333 20.5 24 36.5c0.666992 26.667 16 43 46 49c10 2 18.167 6.16699 24.5 12.5s14.833 18.833 25.5 37.5
c38 66.667 51.333 120.667 40 162c-8 29.333 -34.667 62 -80 98s-85.666 56.667 -120.999 62c-12.667 2 -22.167 2 -28.5 0s-14.166 -7 -23.499 -15zM371.995 589.002c0 -21.333 18.999 -41.9971 56.999 -61.9971c13.333 -6.66699 34 -21.5 62 -44.5s47.333 -40.5 58 -52.5
c11.333 -13.333 21.166 -33.666 29.499 -60.999s11.5 -50 9.5 -68c-2.66699 -21.333 -8 -43.833 -16 -67.5s-15.333 -38.167 -22 -43.5c-5.33301 -4.66699 -7.33301 -8.33398 -6 -11.001c2 -0.666992 0.333008 -6.33398 -5 -17.001s-11.166 -20.667 -17.499 -30
s-10.166 -12.666 -11.499 -9.99902c-2.66699 1.33301 -4.33398 0 -5.00098 -4c-2 -10 -3.66699 -15 -5 -15c-4.66699 0 -10 -9.33301 -16 -28c-4 -12.667 -5.33301 -22.5 -4 -29.5s7.33301 -20.5 18 -40.5c12.667 -26 22 -48 28 -66c10.667 -26 7.33398 -45 -9.99902 -57
c-15.333 -10 -32.166 -8 -50.499 6s-34.833 38.333 -49.5 73c-7.33301 16 -14.5 25 -21.5 27s-19.5 -1.33301 -37.5 -10c-20 -10 -51.667 -15.333 -95 -16c-20.667 0 -30 2 -28 6c1.33301 2.66699 1.5 4.33398 0.5 5.00098s-3.16699 0.333984 -6.5 -0.999023
c-6.66699 -2.66699 -24.834 4.66602 -54.501 21.999s-50.167 32.333 -61.5 45c-25.333 28 -42.666 51 -51.999 69c-16 22.667 -25.5 72.334 -28.5 149.001s2.83301 131 17.5 163l17 36l14.5 30.5l10 20.5c3.66699 7.33301 6.66699 12.666 9 15.999s4.5 5.66602 6.5 6.99902
c5.33301 3.33301 11.333 12.666 18 27.999c4 9.33301 10.5 17.666 19.5 24.999s21.167 15.166 36.5 23.499l30 16.5c10.667 6.66699 28.167 12.5 52.5 17.5s44.166 6.83301 59.499 5.5c10.667 -3.33301 21.667 -11.5 33 -24.5s17 -23.833 17 -32.5z" />
    <glyph glyph-name="R" unicode="R" horiz-adv-x="536" 
d="M393 293c-2.66699 -1.33301 -4.83887 -2.33398 -6.50586 -3.00098s-3.33398 -1.5 -5.00098 -2.5s-2.83398 -2.16699 -3.50098 -3.5s-1.16699 -2.66602 -1.5 -3.99902s-0.166016 -3 0.500977 -5s1.16699 -4 1.5 -6s1.33301 -4.83301 3 -8.5l4.5 -10
c1.33301 -3 3 -7.33301 5 -13s4 -10.834 6 -15.501l19 -43c6 -13.333 10 -22.5 12 -27.5l9 -23.5c4 -10.667 9.33301 -26.667 16 -48c8.66699 -27.333 13.5 -45.5 14.5 -54.5s-1.16699 -15.833 -6.5 -20.5c-7.33301 -7.33301 -17.666 -11.666 -30.999 -12.999
c-9.33301 -0.666992 -16 0.666016 -20 3.99902s-9.33301 12 -16 26c-10 22.667 -15 34.334 -15 35.001c0 3.33301 -12 29.333 -36 78s-38.333 76.334 -43 83.001c-7.33301 9.33301 -23.666 14.333 -48.999 15c-21.333 0.666992 -37.333 4.5 -48 11.5
s-19.667 20.167 -27 39.5c-6.66699 16.667 -8.83398 30 -6.50098 40s8.83301 14.667 19.5 14c16.667 -1.33301 27 -3.33301 31 -6c4.66699 -2 7.66699 -2.16699 9 -0.5s2 5.16699 2 10.5c0 16 13.333 25.667 40 29s43 -2.66699 49 -18c8.66699 -22.667 38.667 -3 90 59
c36 43.333 23.333 97 -38 161c-35.333 37.333 -65.166 56.5 -89.499 57.5s-50.833 -15.167 -79.5 -48.5c-19.333 -22.667 -37 -102.667 -53 -240c-2 -31.333 -4.5 -62.333 -7.5 -93s-5.16699 -54.667 -6.5 -72c-6.66699 -82.667 -16.334 -130.334 -29.001 -143.001
c-7.33301 -7.33301 -20 -11.5 -38 -12.5s-29.667 1.83301 -35 8.5c-5.33301 6 -4 26 4 60c14 60.667 23.5 132.834 28.5 216.501s2.83301 137.834 -6.5 162.501c-12.667 34 -4 54.667 26 62c14.667 4 29 19.333 43 46c19.333 35.333 38.333 61.666 57 78.999
s43.334 31 74.001 41c23.333 6 50.333 1.5 81 -13.5s57.834 -34 81.501 -57s42.834 -46 57.501 -69s19.667 -38.833 15 -47.5c-2 -2.66699 -2.5 -4.16699 -1.5 -4.5s2.83301 0.5 5.5 2.5c4 2 6.33301 -0.333008 7 -7c0.666992 -6 0.333984 -17.333 -0.999023 -34
c-3.33301 -31.333 -12.666 -59.333 -27.999 -84c-10 -16.667 -25.167 -35.834 -45.5 -57.501s-33.166 -32.5 -38.499 -32.5z" />
    <glyph glyph-name="S" unicode="S" horiz-adv-x="467" 
d="M164 11c-4.66699 -1.33301 -10.833 2.66895 -18.5 12.002s-12 18.5 -13 27.5s4.16699 15.5 15.5 19.5c10.667 2.66699 22 1.5 34 -3.5s16.667 -10.833 14 -17.5c-2.66699 -6 -1.66699 -9.33301 3 -10c5.33301 -0.666992 8.66602 1.66602 9.99902 6.99902
s18.333 8.66602 51 9.99902c24 0.666992 48.167 5.5 72.5 14.5s36.5 17.167 36.5 24.5c0 9.33301 -16.833 29 -50.5 59s-72.5 59.333 -116.5 88c-113.333 74 -170.666 137.667 -171.999 191c-0.666992 15.333 10.833 33.666 34.5 54.999s53.834 40.666 90.501 57.999
c60.667 29.333 101.667 46 123 50c11.333 3.33301 37 4.33301 77 3c23.333 -1.33301 38.833 -3 46.5 -5s14.834 -7 21.501 -15c15.333 -17.333 16.666 -32.666 3.99902 -45.999s-31.667 -16.333 -57 -9c-57.333 17.333 -126.666 3.33301 -207.999 -42
c-18 -10 -29.833 -17.667 -35.5 -23s-8.83398 -12.666 -9.50098 -21.999c-1.33301 -13.333 7 -32 25 -56s41.333 -46.667 70 -68c13.333 -9.33301 27.833 -20.833 43.5 -34.5s28.167 -23.5 37.5 -29.5c11.333 -4.66699 34.666 -23.667 69.999 -57s56.333 -56.333 63 -69
c6.66699 -14 10.167 -23 10.5 -27s-2.16699 -10.667 -7.5 -20c-19.333 -31.333 -50 -54 -92 -68c-21.333 -6.66699 -50.666 -10.5 -87.999 -11.5s-59 1.5 -65 7.5c-4.66699 4.66699 -11.334 7 -20.001 7z" />
    <glyph glyph-name="T" unicode="T" horiz-adv-x="610" 
d="M580 595c0 -8 -3.33301 -13.166 -10 -15.499s-32.667 -7.16602 -78 -14.499c-49.333 -8 -99.333 -19 -150 -33c-13.333 -3.33301 -21.5 -6.33301 -24.5 -9s-3.5 -7.33398 -1.5 -14.001c6.66699 -15.333 12.667 -54.5 18 -117.5s5 -99.167 -1 -108.5
c-2.66699 -7.33301 -5.5 -36.166 -8.5 -86.499s-5.5 -78.833 -7.5 -85.5c-4 -6 -14.167 -9.16699 -30.5 -9.5s-25.5 2.16699 -27.5 7.5c-2.66699 8.66699 -2.33398 52 0.999023 130c2 54 2.33301 91.833 1 113.5s-5.33301 48.834 -12 81.501
c-9.33301 48 -15.333 73.333 -18 76c-2 2 -29 0 -81 -6c-85.333 -8.66699 -125.333 -1.66699 -120 21c2 6.66699 8 14.667 18 24c7.33301 7.33301 16.333 12.166 27 14.499s32 4.16602 64 5.49902c48.667 2.66699 79.334 8 92.001 16c12 8.66699 26.333 11 43 7
c12 -2.66699 51.5 1.16602 118.5 11.499s102.5 15.5 106.5 15.5c54 4 81 -4 81 -24z" />
    <glyph glyph-name="U" unicode="U" 
d="M177 124c8.66699 0 29.3359 8.99707 62.0029 26.9971c7.33301 4 11 6.66699 11 8c-4.66699 0 -1.33398 7 9.99902 21c24.667 27.333 44.5 78.333 59.5 153s14.833 139.334 -0.5 194.001c-6 22.667 3.33301 34 28 34c11.333 0 18.666 -1.83301 21.999 -5.5
s8 -14.167 14 -31.5c11.333 -32.667 15.166 -76.334 11.499 -131.001s-13.5 -103.667 -29.5 -147c-41.333 -114 -107.333 -175 -198 -183c-18.667 -2 -31 -2 -37 0s-15.667 10 -29 24c-12.667 14 -21.167 26.667 -25.5 38s-10.166 38.333 -17.499 81
c-13.333 77.333 -21.666 139.833 -24.999 187.5s-3.33301 108.167 0 181.5c0.666992 12.667 8.66699 22.667 24 30c26.667 12.667 43 13.834 49 3.50098s7.33301 -40.5 4 -90.5c-4 -47.333 -2.33301 -103.666 5 -168.999c9.33301 -81.333 18.666 -139.166 27.999 -173.499
s20.666 -51.5 33.999 -51.5z" />
    <glyph glyph-name="V" unicode="V" horiz-adv-x="582" 
d="M255 96c-4.66699 0 -13.998 14.333 -27.998 43s-21 48 -21 58c0 7.33301 -2 12 -6 14c-4 2.66699 -13.333 23.334 -28 62.001c-16 41.333 -50.667 113.333 -104 216c-25.333 48 -38 77.333 -38 88c0 8 5.16699 16.5 15.5 25.5s20.166 13.833 29.499 14.5
c7.33301 0 15.833 -3.66699 25.5 -11s14.5 -14.333 14.5 -21c0 -5.33301 6.66699 -22 20 -50c16 -34 34.167 -74.667 54.5 -122s30.5 -73 30.5 -77c2 -6 10.167 -22.167 24.5 -48.5s22.5 -43.833 24.5 -52.5c6.66699 -18 11 -27 13 -27c2.66699 0 10.667 15 24 45
s20 47.667 20 53c28 77.333 63.667 150.333 107 219c5.33301 10.667 22.666 31.334 51.999 62.001c22 22 36.5 35.167 43.5 39.5s14.167 3.83301 21.5 -1.5c9.33301 -6.66699 -8.66699 -43.667 -54 -111c-39.333 -58.667 -70.333 -122.334 -93 -191.001
c-24 -74 -46.333 -132.333 -67 -175c-7.33301 -15.333 -13.833 -25.833 -19.5 -31.5s-14.167 -9.83398 -25.5 -12.501c-16 -5.33301 -28 -8 -36 -8z" />
    <glyph glyph-name="W" unicode="W" horiz-adv-x="835" 
d="M778 551c-4.66699 -8 -8.16699 -19.9971 -10.5 -35.9971s-5.83301 -30.333 -10.5 -43c-44.667 -151.333 -68.667 -231 -72 -239c-14.667 -48 -40.167 -87 -76.5 -117s-69.166 -39.333 -98.499 -28c-18 7.33301 -32.667 20 -44 38s-24 48.667 -38 92
c-18 54.667 -28.333 82 -31 82c-4.66699 0 -11.667 -19.333 -21 -58c-11.333 -41.333 -26.833 -81.833 -46.5 -121.5s-33.834 -59.5 -42.501 -59.5c-6.66699 0 -10 -2.33301 -10 -7c0 -4 -10.333 -9 -31 -15c-20.667 -5.33301 -36.334 -4.33301 -47.001 3
c-11.333 8 -23.166 21.5 -35.499 40.5s-20.166 35.167 -23.499 48.5c-7.33301 35.333 -21.333 92.166 -42 170.499s-35.334 129.5 -44.001 153.5c-6.66699 18 -12.334 41.5 -17.001 70.5s-7 53 -7 72s2 30.167 6 33.5c31.333 0 62.333 -45.333 93 -136
c14.667 -42.667 29 -105.334 43 -188.001c9.33301 -57.333 17.666 -98.333 24.999 -123c4 -13.333 9.5 -27 16.5 -41s13.833 -25.167 20.5 -33.5s11.667 -11.5 15 -9.5c11.333 6.66699 27.833 45 49.5 115s34.834 128 39.501 174c6.66699 54.667 22.667 85 48 91
c10 2.66699 21.333 1.83398 34 -2.49902s20 -9.83301 22 -16.5c2.66699 -10.667 12.334 -40.834 29.001 -90.501s27.334 -86.834 32.001 -111.501s11.667 -47.5 21 -68.5s17.666 -33.167 24.999 -36.5c10.667 -4 22.667 4.33301 36 25s30.333 57.334 51 110.001
c3.33301 9.33301 19 56.333 47 141c22 70 38 116.5 48 139.5s20.333 38.167 31 45.5c7.33301 4.66699 11 10.5 11 17.5s3 13.5 9 19.5c5.33301 6.66699 8.83301 10 10.5 10s3.83398 -2.66699 6.50098 -8c8 -20.667 6 -37 -6 -49c-6 -4.66699 -9.33301 -13.834 -10 -27.501
s-2.33398 -22.5 -5.00098 -26.5z" />
    <glyph glyph-name="X" unicode="X" horiz-adv-x="627" 
d="M118 565c0 10 5.66602 19.833 16.999 29.5s23.666 14.5 36.999 14.5c5.33301 0.666992 14.166 -5 26.499 -17s18.5 -20.667 18.5 -26c0 -6.66699 9.5 -25 28.5 -55s37.5 -55.667 55.5 -77c25.333 -29.333 43 -52.333 53 -69c0.666992 -0.666992 19.667 17.666 57 54.999
c28.667 30 55.334 53.833 80.001 71.5s43 26.5 55 26.5c9.33301 0 20.166 -2.66699 32.499 -8s18.5 -10 18.5 -14c0 -6 -5 -13.833 -15 -23.5s-20.333 -16.5 -31 -20.5c-12 -5.33301 -40.167 -28.5 -84.5 -69.5s-66.5 -64.5 -66.5 -70.5
c-1.33301 -2.66699 10.334 -22.334 35.001 -59.001s36.334 -56 35.001 -58c0 -1.33301 3.5 -6.33301 10.5 -15s9.5 -16 7.5 -22c-3.33301 -4.66699 -2.33301 -9.66699 3 -15c2.66699 -3.33301 4 -3 4 1c0 1.33301 -0.333008 3.33301 -1 6c-3.33301 9.33301 -2 10.333 4 3
c0.666992 -0.666992 1.66699 -2 3 -4c18 -21.333 31.667 -42.333 41 -63c6.66699 -13.333 10.334 -22.5 11.001 -27.5s-1 -10.167 -5 -15.5c-6.66699 -7.33301 -15.334 -10 -26.001 -8c-8.66699 0.666992 -12.667 -0.333008 -12 -3c2.66699 -4.66699 2 -7 -2 -7
s-11.333 8 -22 24s-16 27.333 -16 34c1.33301 4.66699 -5.33398 15.834 -20.001 33.501s-22 27.5 -22 29.5c0 5.33301 -4.33301 11.666 -13 18.999s-19.667 22.666 -33 45.999c-13.333 20.667 -24.333 32.5 -33 35.5s-19.334 -1.16699 -32.001 -12.5
c-10.667 -8.66699 -26.334 -22.667 -47.001 -42c-22 -20 -58.5 -47.833 -109.5 -83.5s-81.167 -54.834 -90.5 -57.501c-12.667 -2.66699 -23 -1.66699 -31 3c-6 2.66699 -9.16699 5.5 -9.5 8.5s2.16699 9.5 7.5 19.5s17.333 22.833 36 38.5s33.667 25.834 45 30.501
c12.667 4.66699 46.334 30.834 101.001 78.501s82 74.834 82 81.501c0 4.66699 -9.66699 19 -29 43c-47.333 56 -73.666 89.333 -78.999 100c-1.33301 4 -5.66602 8.83301 -12.999 14.5s-11.666 10.834 -12.999 15.501c0 3.33301 -8.33301 16.333 -25 39
s-24.667 36.667 -24 42z" />
    <glyph glyph-name="Y" unicode="Y" horiz-adv-x="460" 
d="M131 525c4.66699 -5.33301 8.16504 -10.8311 10.498 -16.498s6.5 -11.167 12.5 -16.5c2 -2 7.83301 -8.33301 17.5 -19l23.5 -26c40.667 -43.333 69 -67.333 85 -72c6.66699 -2 11.167 -1.83301 13.5 0.5s4.5 9.16602 6.5 20.499c4 22 11 49.333 21 82s18.333 56 25 70
c16 32 38.333 41 67 27c8 -3.33301 13.5 -9.5 16.5 -18.5s1.16699 -15.5 -5.5 -19.5c-4.66699 -3.33301 -12.334 -21.166 -23.001 -53.499s-21 -68.833 -31 -109.5c-18.667 -82 -42.667 -158.333 -72 -229c-8.66699 -20.667 -19.667 -44.834 -33 -72.501
s-25.166 -51.167 -35.499 -70.5s-16.166 -28.333 -17.499 -27c-2.66699 1.33301 -9 -0.333984 -19 -5.00098c-10 -6 -18.667 -5 -26 3c-7.33301 7.33301 -10.666 15 -9.99902 23s6 18.667 16 32c11.333 15.333 25.333 44.5 42 87.5s30.667 82.5 42 118.5
s15.333 53.667 12 53c-0.666992 6 -0.5 10.5 0.5 13.5s0.333008 5.33301 -2 7s-4.83301 2.66699 -7.5 3s-7.66699 0.5 -15 0.5c-11.333 0.666992 -21.166 3.33398 -29.499 8.00098s-20.833 15 -37.5 31c-22.667 21.333 -47.167 48.5 -73.5 81.5s-44.5 59.167 -54.5 78.5
c-8.66699 18.667 -14.667 37 -18 55c-2 13.333 -2.33301 22.166 -1 26.499s5.66602 7.83301 12.999 10.5c24 8.66699 44.333 -3 61 -35c12 -22.667 20.667 -36.667 26 -42z" />
    <glyph glyph-name="Z" unicode="Z" horiz-adv-x="555" 
d="M457 135c0 6.66699 -4.66699 6.33301 -14 -1l-8 -8c-4 -4.66699 -6 -7.33398 -6 -8.00098c0 -1.33301 4.33301 0.333984 13 5.00098c10 4.66699 15 8.66699 15 12zM358 464.999c0 -17.333 -7.99902 -39.0029 -23.999 -65.0029s-51.667 -74.667 -107 -146
c-46.667 -60.667 -75.167 -99 -85.5 -115s-17.166 -30.667 -20.499 -44l-4 -22c82 -0.666992 176 23 282 71c12 6.66699 23.667 11.334 35 14.001s21.666 6.33398 30.999 11.001c33.333 16.667 53 20.334 59 11.001c2.66699 -6.66699 -3.33301 -16.667 -18 -30
c-16 -14 -50.667 -33.667 -104 -59s-99.666 -44 -138.999 -56c-54 -17.333 -102.667 -23.666 -146 -18.999s-71.333 18.334 -84 41.001c-5.33301 9.33301 -2 26.333 10 51s22.667 43 32 55c4.66699 4.66699 22.667 26.834 54 66.501s52.666 66.167 63.999 79.5
c19.333 21.333 41.333 55.333 66 102c16 32.667 17.667 54 5 64c-6.66699 5.33301 -31.167 9.33301 -73.5 12s-70.833 2 -85.5 -2c-16.667 -4.66699 -32.667 -4.83398 -48 -0.500977s-23 11.166 -23 20.499s6 20 18 32c8.66699 8.66699 18 13.5 28 14.5
s38.667 0.833008 86 -0.5c49.333 -0.666992 84.666 -3.83398 105.999 -9.50098s43.333 -16.5 66 -32.5c8.66699 -6 14.167 -11.833 16.5 -17.5s3.5 -14.5 3.5 -26.5z" />
    <glyph glyph-name="underscore" unicode="_" horiz-adv-x="410" 
d="M263 -32c42 2.66699 69.832 2.16797 83.499 -1.49902s23.5 -13.5 29.5 -29.5c6 -15.333 4.33301 -25 -5 -29c-11.333 -5.33301 -57.333 -9.66602 -138 -12.999c-74.667 -2.66699 -124.167 -1.83398 -148.5 2.49902s-40.166 15.166 -47.499 32.499
c-4.66699 9.33301 -7 16.5 -7 21.5s2.5 9 7.5 12s14 4.5 27 4.5s30.167 -0.333008 51.5 -1c60 -1.33301 109 -1 147 1z" />
    <glyph glyph-name="grave" unicode="`" horiz-adv-x="216" 
d="M33 614c7.33301 8 14.667 11 22 9c4 -0.666992 4.66699 -3 2 -7c-3.33301 -5.33301 -0.333008 -6.33301 9 -3c8.66699 3.33301 19 -3 31 -19l24 -29.5c12.667 -15.667 21.667 -27.167 27 -34.5c19.333 -24 31.333 -42.667 36 -56s3 -23.666 -5 -30.999
c-7.33301 -8 -20 -8.5 -38 -1.5s-28.333 14.167 -31 21.5c-5.33301 10.667 -16.333 26.667 -33 48c-18 23.333 -31.167 44.666 -39.5 63.999s-9.83301 32.333 -4.5 39z" />
    <glyph glyph-name="a" unicode="a" horiz-adv-x="363" 
d="M309 -17c-15.333 0 -27.8369 7.33105 -37.5039 21.998s-20.167 42 -31.5 82l-15 51c-15.333 -25.333 -34 -49.333 -56 -72s-41.667 -34 -59 -34c-16 0 -31.833 6.5 -47.5 19.5s-25.5 27.833 -29.5 44.5c-1.33301 4.66699 -2.33301 9.5 -3 14.5s-0.666992 10.5 0 16.5
s1.5 11.833 2.5 17.5s2.83301 11.834 5.5 18.501s4.83398 12.334 6.50098 17.001s4 10.5 7 17.5l6.5 15.5c1.33301 3.33301 3.5 8 6.5 14s4.83301 9.33301 5.5 10c42 66 74.333 109 97 129c16 14.667 30.333 24.334 43 29.001s23.334 4.16699 32.001 -1.5
s14.667 -15.834 18 -30.501c2 -10 0.333008 -18.667 -5 -26s-13.333 -11.666 -24 -12.999c-20 -6.66699 -46.167 -35.834 -78.5 -87.501s-49.166 -95.167 -50.499 -130.5l30 33c27.333 28 51.333 75.333 72 142c2.66699 10.667 12.334 15 29.001 13
s30.334 -9.33301 41.001 -22c9.33301 -11.333 15.5 -22.833 18.5 -34.5s7.83301 -41.167 14.5 -88.5c4.66699 -36 11 -67.333 19 -94c13.333 -48 7.66602 -72 -17.001 -72z" />
    <glyph glyph-name="b" unicode="b" horiz-adv-x="423" 
d="M142 127c8 -6 22.666 -11.8311 43.999 -17.498s43.5 -7.83398 66.5 -6.50098s38.167 8 45.5 20c19.333 20 29 48.333 29 85s-9.66699 60 -29 70s-41.5 10.5 -66.5 1.5s-43.833 -24.833 -56.5 -47.5c-11.333 -18.667 -20.666 -39.834 -27.999 -63.501s-9 -37.5 -5 -41.5z
M60.999 492.002c5.33301 5.33301 14.332 6.82715 26.999 4.49414s22.334 -7.16602 29.001 -14.499c6 -6.66699 9.83301 -15.834 11.5 -27.501s2.16699 -34.167 1.5 -67.5c0 -53.333 3.33301 -80.333 10 -81c4 0.666992 9 4.33398 15 11.001c10 12.667 32 21.834 66 27.501
s59 4.83398 75 -2.49902c10.667 -5.33301 18 -8.33301 22 -9c9.33301 -2.66699 22.5 -15.667 39.5 -39s27.167 -41.666 30.5 -54.999c10 -45.333 5.66699 -88.166 -13 -128.499s-45.667 -64.833 -81 -73.5c-14 -3.33301 -37.167 -2.16602 -69.5 3.50098
s-57.166 12.834 -74.499 21.501c-20 9.33301 -31 13 -33 11s-5 -13.167 -9 -33.5s-7.66699 -31.5 -11 -33.5c-5.33301 -6.66699 -13.833 -9.33398 -25.5 -8.00098s-21.5 6 -29.5 14c-14.667 14.667 -15.334 50.667 -2.00098 108c4 16.667 9 67 15 151s8 139.667 6 167
c-3.33301 30.667 -3.33301 48.667 0 54z" />
    <glyph glyph-name="c" unicode="c" 
d="M313 434c0 -27.333 -18.667 -38.0039 -56 -32.0039c-12.667 2 -22 1.66699 -28 -1s-16.333 -11.334 -31 -26.001c-43.333 -43.333 -71 -94.666 -83 -153.999s-4 -104.666 24 -135.999c10 -11.333 25.167 -18.166 45.5 -20.499s39.166 0.166992 56.499 7.5
c30.667 13.333 52.167 23.5 64.5 30.5s28.166 18.833 47.499 35.5c7.33301 6 15.333 8 24 6s14.334 -6.66699 17.001 -14c6.66699 -20.667 -13 -48.667 -59 -84c-77.333 -60.667 -155.666 -65 -234.999 -13c-25.333 16.667 -44.333 41.334 -57 74.001
s-16.334 67.334 -11.001 104.001c5.33301 39.333 26.333 89.5 63 150.5s64.334 92.167 83.001 93.5c5.33301 0 8 2 8 6s6.66699 8.33301 20 13c26 10.667 50.333 11.667 73 3s34 -23 34 -43z" />
    <glyph glyph-name="d" unicode="d" horiz-adv-x="502" 
d="M211 335c4 0 12.6611 3.6709 25.9941 11.0039c12.667 6.66699 29.834 11 51.501 13s35.5 0.666992 41.5 -4c4.66699 -4 8.33398 -0.666992 11.001 10c0.666992 2.66699 1.33398 6 2.00098 10c5.33301 27.333 13 56.166 23 86.499s19 50.833 27 61.5s15.333 17 22 19
s19.667 1.33301 39 -2c4 -0.666992 8.66699 -6.33398 14 -17.001s4.66602 -18 -2.00098 -22c-7.33301 -5.33301 -15.166 -18.5 -23.499 -39.5s-14.5 -43.5 -18.5 -67.5c-5.33301 -36.667 -7.33301 -115.334 -6 -236.001c0.666992 -23.333 -1.5 -39.333 -6.5 -48
s-13.167 -11.667 -24.5 -9c-18 5.33301 -29.5 13 -34.5 23s-10.167 36.333 -15.5 79c-7.33301 56.667 -12.333 86.667 -15 90c-4 7.33301 -16.667 9.16602 -38 5.49902s-35.666 -9.83398 -42.999 -18.501c-6 -5.33301 -16.333 -13.666 -31 -24.999
c-43.333 -32 -73 -65.667 -89 -101c-8 -17.333 -11.167 -29 -9.5 -35s9.5 -10.333 23.5 -13c10.667 -2 29 0.666992 55 8s43.667 15 53 23c6 5.33301 15.333 6.83301 28 4.5s19 -6.83301 19 -13.5c-0.666992 -7.33301 -7.66699 -17 -21 -29s-28.666 -22.333 -45.999 -31
c-22 -11.333 -48.167 -17.5 -78.5 -18.5s-53.5 3.83301 -69.5 14.5c-25.333 16 -40 32.833 -44 50.5s1.33301 40.167 16 67.5c12.667 22 28.667 43.667 48 65s31.666 31 36.999 29c2.66699 -1.33301 4.5 -1.5 5.5 -0.5s1.16699 2.83301 0.5 5.5
c-1.33301 4 8.83398 14 30.501 30s35.834 24 42.501 24z" />
    <glyph glyph-name="e" unicode="e" horiz-adv-x="423" 
d="M299 353c-9.33301 6 -15.6689 8.99902 -19.002 8.99902s-11.666 -3.33301 -24.999 -10c-15.333 -7.33301 -32.166 -22 -50.499 -44s-25.166 -35.667 -20.499 -41c4.66699 -4 19.167 -6.5 43.5 -7.5s42.166 0.5 53.499 4.5c15.333 4.66699 26.333 12.334 33 23.001
c6 9.33301 7.5 21 4.5 35s-9.5 24.333 -19.5 31zM82.9971 262.999c0 5.33301 14.3369 27 43.0039 65s45 57 49 57c4 2 11.333 6.5 22 13.5s20.667 12.5 30 16.5c29.333 12 54 12.333 74 1l13 -6.5c6 -3 9.83301 -5 11.5 -6l8.5 -5c4 -2.33301 6.66699 -4.33301 8 -6
s3.66602 -4.33398 6.99902 -8.00098s6.33301 -7.5 9 -11.5l10 -15c30 -48 31.333 -88.333 4 -121c-8.66699 -11.333 -14.834 -17.666 -18.501 -18.999s-8.5 0.333984 -14.5 5.00098c-4 3.33301 -6.66699 5.33301 -8 6c-2 1.33301 -2 0.666016 0 -2.00098
c1.33301 -1.33301 3 -3.33301 5 -6c4 -5.33301 5.66699 -9 5 -11s-4.66699 -4.66699 -12 -8c-35.333 -12.667 -72.666 -15 -111.999 -7c-26.667 5.33301 -45 8 -55 8s-17.333 -1.83301 -22 -5.5s-9.66699 -11.834 -15 -24.501c-8.66699 -22 -14.667 -42.333 -18 -61
c-2 -13.333 -2.33301 -22.166 -1 -26.499s6.33301 -8.16602 15 -11.499c21.333 -10 72.333 8.33301 153 55c52.667 29.333 79 36.666 79 21.999c0 -4.66699 -1.66699 -11 -5 -19c-6.66699 -15.333 -18.834 -31 -36.501 -47s-37.5 -29.333 -59.5 -40
c-8.66699 -4 -17.334 -9.66699 -26.001 -17c-8 -7.33301 -26.167 -13 -54.5 -17s-50.5 -4 -66.5 0c-15.333 4 -29.833 12 -43.5 24s-23.167 25 -28.5 39c-5.33301 12.667 -3.83301 36.667 4.5 72s19.166 64.333 32.499 87c8.66699 14.667 13 24.667 13 30z" />
    <glyph glyph-name="f" unicode="f" horiz-adv-x="381" 
d="M302 568c10.667 0 14.3291 -4.00391 10.9961 -12.0039c-2 -5.33301 -2.66699 -8.33301 -2 -9s3.33398 1 8.00098 5s8.5 5.5 11.5 4.5s7.16699 -5.5 12.5 -13.5c10 -15.333 10.5 -27 1.5 -35s-22.833 -8.33301 -41.5 -1
c-6.66699 2.66699 -20.334 -3.66602 -41.001 -18.999s-32 -27.666 -34 -36.999c-0.666992 -7.33301 -4.66699 -15.333 -12 -24c-5.33301 -6.66699 -10 -38.334 -14 -95.001h39c46.667 0 70 -12 70 -36c0 -8.66699 -4.83301 -15.167 -14.5 -19.5s-31.834 -9.5 -66.501 -15.5
c-8 -1.33301 -14.167 -2.83301 -18.5 -4.5s-7.83301 -3.16699 -10.5 -4.5s-4.5 -4.33301 -5.5 -9l-2.5 -12c-0.666992 -3.33301 -1 -9.83301 -1 -19.5s-0.333008 -18.167 -1 -25.5c0 -26 1 -42.333 3 -49s8 -13.667 18 -21c14 -11.333 22.667 -26.666 26 -45.999
c4.66699 -30.667 -4.33301 -48.667 -27 -54c-8 -2.66699 -20.167 3.33301 -36.5 18s-30.166 31.667 -41.499 51c-16 26.667 -32 60.667 -48 102c-15.333 38.667 -28.666 63.667 -39.999 75c-10 8.66699 -15.167 15.834 -15.5 21.501s4.16699 12.167 13.5 19.5
c7.33301 6 13 19.333 17 40c2.66699 15.333 9.33398 34.833 20.001 58.5s20.334 39.5 29.001 47.5c2.66699 2 8 11.5 16 28.5s15.333 25.833 22 26.5c4 0 15.833 6.83301 35.5 20.5s31.834 23.834 36.501 30.501c0.666992 1.33301 9 6.33301 25 15
c17.333 9.33301 34.333 13.333 51 12c7.33301 -0.666992 8 -3 2 -7c-4 -3.33301 -5.83301 -5.33301 -5.5 -6s3.83301 -1 10.5 -1z" />
    <glyph glyph-name="g" unicode="g" horiz-adv-x="474" 
d="M107 -140c9.33301 -3.33301 9.33301 2.33301 0 17c-3.33301 4.66699 -5.33301 7 -6 7s-1 -2.66699 -1 -8c0 -8 2.33301 -13.333 7 -16zM342 356.999c-2.66699 4 -17.499 5.66699 -44.499 5s-47.167 -3 -60.5 -7c-66 -22.667 -108 -60.667 -126 -114
c-6.66699 -20 -8.16699 -33.5 -4.5 -40.5s13.834 -10.833 30.501 -11.5c33.333 -1.33301 72.166 12.5 116.499 41.5s71.5 58.167 81.5 87.5c7.33301 21.333 9.66602 34.333 6.99902 39zM332.001 -6.00098c0 -4 -2.66699 -3.33105 -8 2.00195s-10.666 8 -15.999 8
c-3.33301 0 -1 -3.33301 7 -10c6 -5.33301 9 -9.83301 9 -13.5s-4 -15.834 -12 -36.501c-4.66699 -14 -9.16699 -26.167 -13.5 -36.5s-9.66602 -20.5 -15.999 -30.5s-11 -17.167 -14 -21.5s-9.5 -12.833 -19.5 -25.5s-16.667 -21.334 -20 -26.001h-137
c-16.667 28 -26.334 43 -29.001 45c-5.33301 4 -9.5 16.5 -12.5 37.5s-2.83301 34.833 0.5 41.5c14.667 26.667 33.667 15.667 57 -33c15.333 -32 26.166 -49.667 32.499 -53s18.166 3.33398 35.499 20.001c29.333 29.333 53 72 71 128c6.66699 18.667 15.5 50.5 26.5 95.5
s16.5 70.833 16.5 77.5c0 0.666992 -1.66699 0.5 -5 -0.5s-8 -2.83301 -14 -5.5s-12 -5.66699 -18 -9c-21.333 -11.333 -50.166 -18.833 -86.499 -22.5s-64.5 1.83301 -84.5 16.5c-34.667 23.333 -52.167 52.666 -52.5 87.999s16.5 71.666 50.5 108.999
c41.333 45.333 87 74.333 137 87c54.667 12.667 98 9.33398 130 -9.99902c20 -11.333 35.333 -15.666 46 -12.999c10 2.66699 21.333 -3.33301 34 -18c11.333 -14 16.833 -25.833 16.5 -35.5s-6.83301 -26.834 -19.5 -51.501c-21.333 -38.667 -52 -140 -92 -304z" />
    <glyph glyph-name="h" unicode="h" horiz-adv-x="418" 
d="M154 286c6 0 8.99902 2.00488 8.99902 6.00488c0 8.66699 14.167 16 42.5 22s50.166 6.33301 65.499 1c11.333 -4.66699 21.666 -11.5 30.999 -20.5s15.666 -18.167 18.999 -27.5c4 -10 8.66699 -14 14 -12c8.66699 3.33301 18.667 -14.334 30 -53.001
s18.5 -76.834 21.5 -114.501s1.16699 -63.5 -5.5 -77.5c-11.333 -11.333 -21.666 -16.666 -30.999 -15.999c-2.66699 0 -4 1 -4 3c0 4.66699 -4.66699 7 -14 7c-18 0 -27.333 23.667 -28 71c-0.666992 28 -4.66699 60 -12 96s-14.333 59.667 -21 71
c-6.66699 10 -15.5 15 -26.5 15s-21.167 -5 -30.5 -15c-10 -11.333 -24.667 -36.333 -44 -75s-32.333 -69.334 -39 -92.001c-7.33301 -24 -13 -40 -17 -48s-9.66699 -14.333 -17 -19c-7.33301 -5.33301 -19.666 -3.5 -36.999 5.5s-27 18.5 -29 28.5
c-0.666992 6.66699 0 10 2 10c0.666992 0 1.33398 -0.333008 2.00098 -1c2 -0.666992 3.16699 0.166016 3.5 2.49902s0.166016 5.5 -0.500977 9.5c-2.66699 12 -1 30.333 5 55c11.333 56.667 19.833 126 25.5 208s4.83398 124.333 -2.49902 127c-3.33301 2 -5 5.33301 -5 10
s2 10 6 16s8.66699 11 14 15c20 14 41.333 12 64 -6l19 -16c0 -4.66699 -1 -14.834 -3 -30.501s-3.83301 -31.834 -5.5 -48.501l-5 -50.5c-1.66699 -17 -2.16699 -30.833 -1.5 -41.5s2.33398 -15.667 5.00098 -15z" />
    <glyph glyph-name="i" unicode="i" horiz-adv-x="182" 
d="M84 561c6 -2 10.3301 -8.33398 12.9971 -19.001s5 -17 7 -19c2.66699 -2 6.33398 -14 11.001 -36s8.33398 -34 11.001 -36c3.33301 -4.66699 9 -34.5 17 -89.5s10.667 -84.5 8 -88.5c-2 -4.66699 -4.33301 -34.334 -7 -89.001c-3.33301 -56.667 -8.66602 -89 -15.999 -97
c-6.66699 -7.33301 -15 -11.166 -25 -11.499s-19.667 2.83398 -29 9.50098c-6 4.66699 -9.5 11.167 -10.5 19.5s-0.166992 28.166 2.5 59.499c10 108.667 4 200.334 -18 275.001c-14 50 -19.667 81.667 -17 95c2 10 3.83301 15.333 5.5 16s4.83398 -2 9.50098 -8
c5.33301 -6 8.16602 -9 8.49902 -9s-0.5 3 -2.5 9c-2 10 0.5 17.5 7.5 22.5s15.167 3.83301 24.5 -3.5zM65.9971 793.999c2 2 6.83203 3.5 14.499 4.5s14.667 1.16699 21 0.5s9.5 -2 9.5 -4c-1.33301 -10 -0.666016 -14.667 2.00098 -14c1.33301 0 3 1.33301 5 4
c3.33301 5.33301 9 0 17 -16l4 -8c7.33301 -16.667 10.5 -28.834 9.5 -36.501s-7.16699 -15.5 -18.5 -23.5c-6 -4.66699 -15.167 -3.66699 -27.5 3s-21.5 15.334 -27.5 26.001c-6 10 -10 22.333 -12 37s-1 23.667 3 27z" />
    <glyph glyph-name="j" unicode="j" horiz-adv-x="292" 
d="M186 514c0 -8 3.3291 -10.3311 9.99609 -6.99805c7.33301 2.66699 13.333 -1 18 -11c4 -6.66699 9.83301 -25.334 17.5 -56.001s12.167 -53 13.5 -67c1.33301 -10 3.66602 -17.333 6.99902 -22c5.33301 -8 8.5 -35.833 9.5 -83.5s-0.5 -85.167 -4.5 -112.5
c-5.33301 -33.333 -13.666 -65.833 -24.999 -97.5s-23.333 -55.5 -36 -71.5c-13.333 -18 -27.166 -26.333 -41.499 -25s-31.833 13 -52.5 35c-21.333 21.333 -40.666 53.333 -57.999 96c-6 12.667 -10.167 30.667 -12.5 54s-1.5 37 2.5 41
c5.33301 5.33301 10.833 7.83301 16.5 7.5s8.5 -3.16602 8.5 -8.49902c0 -6.66699 12.5 -30.834 37.5 -72.501s39.833 -63.167 44.5 -64.5c2.66699 -0.666992 5.83398 2 9.50098 8s7.33398 14.667 11.001 26s7 24.166 10 38.499s5.66699 29.833 8 46.5
s3.83301 32.334 4.5 47.001c2 49.333 6 75.666 12 78.999c5.33301 4 3.66602 6 -5.00098 6c-6.66699 -1.33301 -10.667 2 -12 10s-1.33301 16.667 0 26s0.333008 16 -3 20c-6.66699 16 -13.167 43.5 -19.5 82.5s-8.16602 62.167 -5.49902 69.5
c4.66699 11.333 12.667 17 24 17c7.33301 0 11 -3.66699 11 -11zM136.996 706.002c0 7.33301 -2.33105 9.33105 -6.99805 5.99805c-2 -0.666992 -4.16699 1 -6.5 5s-4.16602 9.66699 -5.49902 17c-2 11.333 -2.33301 19.333 -1 24s5.66602 9.66699 12.999 15
c12.667 10 19 13.667 19 11c0 -1.33301 -1 -3.66602 -3 -6.99902l-1 -5c0.666992 0.666992 2.66699 2.33398 6 5.00098c11.333 10.667 24.666 9 39.999 -5c19.333 -18 18.666 -37.667 -2.00098 -59c-6 -6.66699 -13.167 -11.667 -21.5 -15s-15.5 -4.33301 -21.5 -3
s-9 5 -9 11z" />
    <glyph glyph-name="k" unicode="k" horiz-adv-x="571" 
d="M488 399c0 6.66699 -3 8.66699 -9 6c-3.33301 -2 -6 -5.66699 -8 -11s-3.33301 -9 -4 -11s-0.5 -3.5 0.5 -4.5s3.16699 -1.5 6.5 -1.5s4.33301 2.5 3 7.5s-0.333008 7.5 3 7.5c5.33301 0 8 2.33301 8 7zM157 235c0 -7.33301 -4.50098 -11.666 -13.501 -12.999
s-15.5 1.33398 -19.5 8.00098c-6 10.667 -11 6 -15 -14c-1.33301 -8.66699 -3.33301 -24 -6 -46c-4 -32.667 -7.33301 -50.334 -10 -53.001c-8.66699 -16 -2.66699 -20.333 18 -13c6 2 13.333 5 22 9c20.667 10 39.167 15.5 55.5 16.5s41.5 -2.16699 75.5 -9.5
c33.333 -7.33301 52.333 -8.66602 57 -3.99902c7.33301 7.33301 18 9.66602 32 6.99902s27.333 -10.334 40 -23.001c23.333 -24.667 29 -37.667 17 -39c-4.66699 0 -6.33398 -3 -5.00098 -9c2 -10.667 -21.333 -14 -70 -10c-24 2.66699 -47.333 6.66699 -70 12
c-38 9.33301 -64.5 12.333 -79.5 9s-31.5 -15 -49.5 -35c-18 -20.667 -29.333 -31 -34 -31c-5.33301 0 -8.66602 -2.66699 -9.99902 -8s-10.666 -3 -27.999 7c-17.333 10.667 -27.333 23.334 -30 38.001c-2 17.333 -2.66699 33.666 -2 48.999l3 69
c1.33301 30.667 2 54.334 2 71.001c0 7.33301 8.83301 63.833 26.5 169.5s25.5 163.167 23.5 172.5c0.666992 16 8.5 25.667 23.5 29s27.833 -3 38.5 -19c8.66699 -12.667 12.834 -27.5 12.501 -44.5s-5.5 -52.833 -15.5 -107.5
c-12.667 -66.667 -17.334 -101.334 -14.001 -104.001c1.33301 -0.666992 5.66602 1.33301 12.999 6c6.66699 4 25.834 12 57.501 24s55.167 20 70.5 24c12 7.33301 38.833 15.666 80.5 24.999s66.834 13.333 75.501 12c6 -2 8 -1 6 3c-2 3.33301 0.333008 5.66602 7 6.99902
c8.66699 1.33301 27.334 1.33301 56.001 0c21.333 -1.33301 34.166 -3 38.499 -5s5.16602 -7.33301 2.49902 -16c-3.33301 -15.333 -52.333 -36.666 -147 -63.999c-86 -24.667 -146.667 -44.667 -182 -60s-53 -28.666 -53 -39.999z" />
    <glyph glyph-name="l" unicode="l" horiz-adv-x="183" 
d="M126 568c0 -4.66699 2.66699 -7.00098 8 -7.00098c3.33301 -0.666992 5 -9.66699 5 -27s-1.83301 -42.333 -5.5 -75s-8.5 -70.334 -14.5 -113.001c-9.33301 -63.333 -13.333 -111.666 -12 -144.999c0.666992 -20.667 2 -33.334 4 -38.001s6.66699 -7.66699 14 -9
c19.333 -3.33301 28.666 -18.5 27.999 -45.5s-10.667 -44.167 -30 -51.5c-9.33301 -3.33301 -15.166 -4.33301 -17.499 -3s-5 3.83301 -8 7.5s-6.5 5.83398 -10.5 6.50098c-8 0 -21.667 20 -41 60c-17.333 35.333 -20.333 103.333 -9 204c8.66699 71.333 13.667 117 15 137
l7 61c2.66699 31.333 6.66699 49.333 12 54c2.66699 2.66699 9.66699 5.66699 21 9l6 2c4 0.666992 9.66699 -2.66602 17 -9.99902s11 -13 11 -17z" />
    <glyph glyph-name="m" unicode="m" horiz-adv-x="694" 
d="M568 323c6 0 9 1.66699 9 5c1.33301 4.66699 -0.666992 8 -6 10c-4 2 -7 0.333008 -9 -5c-2 -6.66699 0 -10 6 -10zM472 216c0.666992 -4 -1.49902 -6.66309 -6.49902 -7.99609s-7.5 -3.66602 -7.5 -6.99902c0 -5.33301 -8.66699 -17.333 -26 -36
c-12 -12.667 -20.833 -20.334 -26.5 -23.001s-13.5 -3 -23.5 -1c-14.667 3.33301 -25.667 10.666 -33 21.999c-12.667 19.333 -5.66699 66.333 21 141c21.333 64.667 27.666 99.667 18.999 105c-4.66699 2 -19 -4.66699 -43 -20c-18 -12 -42.167 -36.333 -72.5 -73
s-51.5 -67.667 -63.5 -93c-13.333 -25.333 -33.666 -58.333 -60.999 -99s-47 -64.167 -59 -70.5s-27.333 -0.833008 -46 16.5c-10 8.66699 -14.833 17.834 -14.5 27.501s6.83301 34.834 19.5 75.501c28 91.333 47.333 163.666 58 216.999c4 23.333 9.66699 39.333 17 48
s17.333 11 30 7c12 -2 19.5 -4 22.5 -6s6.5 -9 10.5 -21c4.66699 -16.667 2 -40.667 -8 -72c-10.667 -32 -15.334 -50.667 -14.001 -56c0.666992 -2 4.83398 1.16699 12.501 9.5s17.834 20.166 30.501 35.499c60 75.333 97 113 111 113c8 0 19.333 5.66699 34 17
c15.333 11.333 31.5 17.333 48.5 18s30.833 -4.33301 41.5 -15c20.667 -22.667 28.667 -55.667 24 -99l-4 -44l28 21c24 18 42.5 28.667 55.5 32s32.833 3.33301 59.5 0c7.33301 -0.666992 11.333 -1.66699 12 -3c0.666992 -0.666992 -0.333008 -2 -3 -4
c-6.66699 -4 -4.33398 -7.33301 6.99902 -10c12 -3.33301 22 -14 30 -32c11.333 -26 14.666 -71.833 9.99902 -137.5s-14.334 -102.834 -29.001 -111.501c-7.33301 -5.33301 -18.333 -2.33301 -33 9c-9.33301 6.66699 -15.166 12.167 -17.499 16.5s-2.5 10.166 -0.5 17.499
c8.66699 36 13 75.667 13 119s-4.66699 66.666 -14 69.999c-6.66699 2.66699 -18.167 -1.33301 -34.5 -12s-29.5 -22.667 -39.5 -36c-4 -6.66699 -10.167 -14.667 -18.5 -24s-13.833 -17.333 -16.5 -24z" />
    <glyph glyph-name="n" unicode="n" horiz-adv-x="395" 
d="M279 335c-4.66699 0.666992 -11.3311 -2.66797 -19.998 -10.001s-14.334 -11 -17.001 -11c-3.33301 0 -19 -28 -47 -84c-47.333 -95.333 -82.333 -148 -105 -158c-14 -6 -28 -0.666992 -42 16l-18 21l21 73c12 42.667 18.833 82.167 20.5 118.5
s-1.83301 63.166 -10.5 80.499c-6.66699 12.667 -10.167 21.834 -10.5 27.501s2.16699 11.167 7.5 16.5c14.667 14.667 31.5 12.667 50.5 -6s31.167 -44.334 36.5 -77.001c4 -18.667 7.66699 -28 11 -28c4 0 6 2.33301 6 7s12.667 19.667 38 45
c40 40.667 75.667 53.334 107 38.001c10.667 -5.33301 22.167 -15.833 34.5 -31.5s17.166 -25.834 14.499 -30.501c-2.66699 -4 -1.33398 -7.33301 3.99902 -10c5.33301 -3.33301 6 -33.333 2 -90c-1.33301 -18.667 -2.5 -44 -3.5 -76s-1.5 -48.333 -1.5 -49
c-0.666992 -29.333 -4.5 -47.166 -11.5 -53.499s-18.833 -2.83301 -35.5 10.5c-9.33301 7.33301 -15.166 19.333 -17.499 36s-3.5 58.334 -3.5 125.001s-3.33301 100 -10 100z" />
    <glyph glyph-name="o" unicode="o" horiz-adv-x="325" 
d="M193 364c2.66699 4.66699 2.99902 6.99805 0.999023 6.99805c-6 0 -13.333 -6 -22 -18c-47.333 -73.333 -72 -146.666 -74 -219.999c-0.666992 -21.333 -0.166992 -35.5 1.5 -42.5s5.16699 -12.167 10.5 -15.5c7.33301 -4 14.833 -3.83301 22.5 0.5s21.5 15.5 41.5 33.5
c18.667 17.333 34.667 46.5 48 87.5s19.666 80.167 18.999 117.5c0 14.667 -0.833008 23.5 -2.5 26.5s-6.16699 4.16699 -13.5 3.5c-9.33301 -0.666992 -17.666 1.33301 -24.999 6s-9.66602 9.33398 -6.99902 14.001zM199.999 454.998
c10.667 0 23.6689 -4.99902 39.002 -14.999s27.666 -21.333 36.999 -34c8.66699 -12.667 14.167 -23.5 16.5 -32.5s3.16602 -24.5 2.49902 -46.5c-0.666992 -30 -4.66699 -63.5 -12 -100.5s-15.666 -64.167 -24.999 -81.5c-8.66699 -14 -13 -25 -13 -33
c0 -6 -1.66699 -9 -5 -9s-10 -7 -20 -21c-9.33301 -14.667 -25.333 -29 -48 -43s-41.667 -21 -57 -21c-17.333 0 -33.333 5.66699 -48 17s-24.667 25.666 -30 42.999c-10 32.667 -9.33301 79 2 139s29.333 112.333 54 157c10 18 18.667 30.833 26 38.5
s18.666 15.5 33.999 23.5c23.333 12.667 39 19 47 19z" />
    <glyph glyph-name="p" unicode="p" horiz-adv-x="416" 
d="M203 311c-1.33301 -8 -12.668 -32.999 -34.001 -74.999c16.667 -9.33301 31.334 -12.666 44.001 -9.99902s26.334 14 41.001 34c18 23.333 29.667 41.166 35 53.499s9 30.5 11 54.5c2 25.333 0.833008 39.666 -3.5 42.999s-14.5 -1.66699 -30.5 -15
c-8.66699 -7.33301 -21.334 -22.333 -38.001 -45s-25 -36 -25 -40zM385.998 378.001c0 -14.667 -5.16895 -37.167 -15.502 -67.5s-20.166 -51.5 -29.499 -63.5c-15.333 -19.333 -33.833 -39 -55.5 -59s-36.5 -31 -44.5 -33c-19.333 -4.66699 -45 -2 -77 8
c-6.66699 2 -11.167 0.833008 -13.5 -3.5s-5.5 -16.5 -9.5 -36.5c-4.66699 -29.333 -11.334 -82 -20.001 -158c-5.33301 -50 -9.66602 -82 -12.999 -96s-8.33301 -23 -15 -27c-7.33301 -6.66699 -18.166 -6.33398 -32.499 0.999023s-24.166 14 -29.499 20
c-2.66699 6 -0.666992 41.667 6 107c14 126.667 16.667 225.334 8 296.001c-2.66699 22.667 -3.33398 36.667 -2.00098 42s6.33301 11 15 17c8.66699 5.33301 15 8 19 8s10.667 -3.33301 20 -10c12 -9.33301 22.333 -11 31 -5c8 6.66699 12 10.667 12 12
c8 17.333 23.833 42 47.5 74s44.167 52 61.5 60c31.333 14 62 11.833 92 -6.5s45 -44.833 45 -79.5z" />
    <glyph glyph-name="q" unicode="q" horiz-adv-x="493" 
d="M127 243c-0.666992 -4.66699 -4.50488 -14.1719 -11.5049 -28.5049s-10.167 -27.5 -9.5 -39.5c0 -16 4.16699 -28.5 12.5 -37.5s19.5 -13.5 33.5 -13.5c19.333 0 42.333 5 69 15s49.334 22 68.001 36l39 31c1.33301 12.667 2.33301 31.5 3 56.5s1.5 45.833 2.5 62.5
s2.83301 34.334 5.5 53.001s7.16699 33.834 13.5 45.501s14.5 19.834 24.5 24.501c7.33301 2.66699 16.833 1 28.5 -5s21.834 -14.333 30.501 -25c11.333 -13.333 19.166 -40.166 23.499 -80.499s1.83301 -61.833 -7.5 -64.5c-5.33301 -1.33301 -8 -6.33301 -8 -15
c0 -9.33301 -4.66699 -22.333 -14 -39c-7.33301 -12 -11.833 -24.667 -13.5 -38s-2.16699 -42.333 -1.5 -87c2 -74 6.66699 -126 14 -156c0 -4 5.66699 -8.66699 17 -14c10.667 -5.33301 16.334 -14 17.001 -26s-4 -23 -14 -33c-7.33301 -7.33301 -13 -11 -17 -11
s-12.667 3 -26 9c-21.333 9.33301 -36.666 26.166 -45.999 50.499s-15.333 64.5 -18 120.5c-3.33301 51.333 -6.66602 77.666 -9.99902 78.999s-21 -5.66699 -53 -21c-26.667 -12.667 -55.5 -21.167 -86.5 -25.5s-56.167 -3.16602 -75.5 3.50098
c-38.667 12.667 -64.667 35 -78 67s-12.333 69.333 3 112c22 59.333 51.667 107.166 89 143.499s72.333 51.5 105 45.5c14.667 -3.33301 26.334 -10.166 35.001 -20.499s12 -21.833 10 -34.5c-0.666992 -6.66699 -2.83398 -11 -6.50098 -13s-10.5 -3.33301 -20.5 -4
c-18 -0.666992 -29.667 -2 -35 -4s-13.666 -8 -24.999 -18c-12.667 -11.333 -27 -29.166 -43 -53.499s-24 -40.166 -24 -47.499z" />
    <glyph glyph-name="r" unicode="r" horiz-adv-x="364" 
d="M299 377c-17.333 -4 -38.501 -11.998 -63.501 -23.998s-39.833 -24.667 -44.5 -38c0.666992 -3.33301 -1.33301 -5.83301 -6 -7.5s-7 -3.5 -7 -5.5c1.33301 -4 -5.33398 -21 -20.001 -51c-18.667 -39.333 -35.667 -86 -51 -140c-4.66699 -20 -11 -31.333 -19 -34
c-7.33301 -2.66699 -17.666 -0.833984 -30.999 5.49902s-21.666 13.5 -24.999 21.5c-3.33301 12 -2.5 52.833 2.5 122.5s10.167 111.834 15.5 126.501c6 16.667 17.333 26 34 28s26.667 -5.33301 30 -22c0 -8.66699 3.66699 -11.667 11 -9
c6.66699 1.33301 11 5.66602 13 12.999c3.33301 9.33301 15 21 35 35s36.667 22 50 24c56.667 8 91 5 103 -9c10.667 -8 11.167 -15.833 1.5 -23.5s-19.167 -11.834 -28.5 -12.501z" />
    <glyph glyph-name="s" unicode="s" horiz-adv-x="348" 
d="M100 311c0 -10 2.66602 -18.834 7.99902 -26.501s17.333 -19.5 36 -35.5c30.667 -26.667 55.334 -46.667 74.001 -60c30.667 -22 50.5 -44.5 59.5 -67.5s5.83301 -43.167 -9.5 -60.5c-6.66699 -7.33301 -13.5 -11.5 -20.5 -12.5s-23.833 -0.5 -50.5 1.5
c-78.667 7.33301 -125 19 -139 35c-4 4.66699 -5.83301 11.834 -5.5 21.501s2.5 16.5 6.5 20.5c1.33301 2.66699 26.333 2 75 -2s73.334 -5 74.001 -3c0.666992 0.666992 -0.5 2.66699 -3.5 6s-7.5 7.66602 -13.5 12.999s-13 11 -21 17c-28.667 20.667 -58.667 46 -90 76
c-20.667 19.333 -33.5 33 -38.5 41s-8.16699 20.333 -9.5 37c-2.66699 23.333 -2.33398 41 0.999023 53s11 24.667 23 38c11.333 13.333 22.833 23.166 34.5 29.499s32.834 14.833 63.501 25.5c25.333 8.66699 52.333 14 81 16s50 0 64 -6c8 -3.33301 13.167 -7 15.5 -11
s3.5 -11.333 3.5 -22c0.666992 -25.333 -7.33301 -42.166 -24 -50.499s-31.334 -4.5 -44.001 11.5c-2.66699 6.66699 -7.66699 9.66699 -15 9s-25 -5.66699 -53 -15c-54.667 -17.333 -82 -43.666 -82 -78.999z" />
    <glyph glyph-name="t" unicode="t" horiz-adv-x="408" 
d="M378 317c0 -5.33301 -5.99707 -10.166 -17.9971 -14.499s-23.333 -5.5 -34 -3.5c-11.333 1.33301 -28.333 0.333008 -51 -3c-17.333 -2 -27.833 -4.16699 -31.5 -6.5s-6.5 -8.83301 -8.5 -19.5c-5.33301 -34.667 -22 -71.167 -50 -109.5s-52 -57.5 -72 -57.5
c-15.333 0 -25.333 3.33301 -30 10c-3.33301 4.66699 -5 9.16699 -5 13.5s1.5 8 4.5 11s6.5 3.83301 10.5 2.5c5.33301 -2 15.5 7.66699 30.5 29s23.833 39.333 26.5 54c2 10.667 6.66699 22.667 14 36c9.33301 18 11.333 29 6 33s-25 5.66699 -59 5
c-32.667 -0.666992 -55 1.33301 -67 6s-16.333 12.667 -13 24c5.33301 20.667 37.666 32.667 96.999 36l64 4c5.33301 36 7.66602 79.333 6.99902 130c-1.33301 45.333 0.333984 72 5.00098 80c5.33301 9.33301 14.666 13.333 27.999 12s23.666 -7.33301 30.999 -18
c8.66699 -12.667 11.334 -47.334 8.00098 -104.001c-0.666992 -46 -2.66699 -78 -6 -96c-0.666992 -2 0.166016 -4 2.49902 -6s6.5 -4.16699 12.5 -6.5s14 -4.5 24 -6.5c49.333 -11.333 74 -23 74 -35z" />
    <glyph glyph-name="u" unicode="u" horiz-adv-x="480" 
d="M441 381c2 -2 1 -3.33789 -3 -4.00488h-2c-4 -0.666992 -6.33301 -1.16699 -7 -1.5s-0.333984 -1.16602 0.999023 -2.49902c2.66699 -1.33301 3.16699 -3.66602 1.5 -6.99902s-3.66699 -7 -6 -11s-3.16602 -6 -2.49902 -6c2.66699 0 1.66699 -7.5 -3 -22.5
s-19.667 -57.833 -45 -128.5c-26 -70.667 -41.333 -121.334 -46 -152.001c-4 -26.667 -10.333 -51 -19 -73c-5.33301 -14.667 -10.166 -24.5 -14.499 -29.5s-10.166 -7.83301 -17.499 -8.5c-12.667 -1.33301 -19 0.333984 -19 5.00098c0 5.33301 -3.33301 8 -10 8
c-6 0 -12 7 -18 21c-4 9.33301 -5.33301 18.166 -4 26.499s6 25.166 14 50.499c12 38.667 18 60.334 18 65.001s-12.333 -1.66602 -37 -18.999c-34 -22 -61.333 -32.167 -82 -30.5s-45 15.834 -73 42.501l-37 35v75c0 41.333 3 72.5 9 93.5s18.333 44.5 37 70.5
c14 20.667 21 33.334 21 38.001c0 6.66699 6.16699 11.167 18.5 13.5s22.166 0.833008 29.499 -4.5c14.667 -9.33301 22 -24.333 22 -45c0 -6 -8.33301 -19.667 -25 -41c-23.333 -30.667 -38.5 -69.5 -45.5 -116.5s-1.83301 -75.833 15.5 -86.5
c23.333 -14.667 62 3.66602 116 54.999c32.667 30.667 49.667 43.667 51 39s4.66602 -7 9.99902 -7c4.66699 0 4.33398 2.66699 -0.999023 8s-3.33301 14.333 6 27c13.333 18.667 27.666 55 42.999 109c5.33301 16.667 9.5 30.5 12.5 41.5s4.66699 18.167 5 21.5
s1 6.83301 2 10.5s2.5 7.33398 4.5 11.001l11 20.5c7.33301 10 14.333 15.833 21 17.5s16.667 -0.166016 30 -5.49902c12 -4.66699 20 -14 24 -28s3.33301 -29 -2 -45c-6 -16.667 -7.33301 -26.667 -4 -30z" />
    <glyph glyph-name="v" unicode="v" horiz-adv-x="424" 
d="M351 532c16 0 27.834 -4.83203 35.501 -14.499s9.83398 -22.5 6.50098 -38.5c-13.333 -68 -30.833 -137 -52.5 -207s-40.5 -118.333 -56.5 -145c-14 -24 -27 -39.5 -39 -46.5s-27.667 -8.83301 -47 -5.5c-22.667 5.33301 -37 10.333 -43 15c-16 12 -34 55 -54 129
c-10 38 -22.5 79.833 -37.5 125.5s-25.167 73.5 -30.5 83.5c-4.66699 8.66699 -4.16699 18.667 1.5 30s13.5 18.333 23.5 21c12 2.66699 23.833 1.5 35.5 -3.5s19.5 -12.167 23.5 -21.5c16.667 -41.333 45.667 -136 87 -284c2.66699 -3.33301 15.667 21 39 73
c10.667 23.333 16 37.666 16 42.999c0.666992 6 7 28.167 19 66.5s18.667 60.833 20 67.5c1.33301 8 4.66602 17.5 9.99902 28.5s8.33301 17.5 9 19.5c-0.666992 1.33301 1.66602 13 6.99902 35c2.66699 12.667 5.5 20.667 8.5 24s9.16699 5 18.5 5z" />
    <glyph glyph-name="w" unicode="w" horiz-adv-x="564" 
d="M507 477c0 4.66699 4.32812 6.33398 12.9951 5.00098c9.33301 -2 13.833 -10.167 13.5 -24.5s-5.16602 -30.833 -14.499 -49.5c-12.667 -24 -23.667 -53 -33 -87c-32.667 -115.333 -58.5 -191.5 -77.5 -228.5s-40.167 -53.5 -63.5 -49.5c-40 4 -69.333 35.333 -88 94
c-3.33301 14 -7.33301 21.333 -12 22c-3.33301 0 -5 -4 -5 -12c0 -9.33301 -5 -21.333 -15 -36s-19.333 -24.334 -28 -29.001c-12 -6.66699 -28.333 -7.66699 -49 -3s-37 12.667 -49 24c-11.333 11.333 -22.666 29.5 -33.999 54.5s-15.666 41.167 -12.999 48.5
c2.66699 6 2 9 -2 9c-8.66699 0 -15 43 -19 129c-1.33301 32 -1.33301 51.833 0 59.5s5.66602 14.167 12.999 19.5c16 11.333 35.333 12 58 2c23.333 -10 29.333 -33 18 -69c-6 -17.333 -6 -46.333 0 -87c6 -41.333 11 -63 15 -65s6 -9 6 -21
c1.33301 -26.667 8.33301 -20 21 20l6 21l8 23c4 8.66699 8.33301 26.167 13 52.5s8.66699 44.5 12 54.5c4.66699 16.667 8.83398 27 12.501 31s12.167 7 25.5 9c18.667 2.66699 31.667 2.66699 39 0c12.667 -4.66699 22.334 -32 29.001 -82
c6.66699 -58.667 16.334 -109.667 29.001 -153c2 -5.33301 6.66699 -0.666016 14 14.001c7.33301 15.333 15 35.333 23 60c6 18.667 13.5 39 22.5 61s17.833 45.667 26.5 71c18 48.667 31 79.667 39 93s17.667 18.666 29 15.999c11.333 -1.33301 17 -0.333008 17 3z" />
    <glyph glyph-name="x" unicode="x" horiz-adv-x="439" 
d="M278 187c-2.66699 0 -4.34082 -3.50684 -5.00781 -10.5068s-0.5 -14.167 0.5 -21.5s2.83301 -11.666 5.5 -12.999c2.66699 -2.66699 6.83398 -11.667 12.501 -27s10.834 -24.666 15.501 -27.999c12 -12.667 20.333 -22.667 25 -30s8.33398 -17.666 11.001 -30.999
c1.33301 -5.33301 2.16602 -9.66602 2.49902 -12.999s0.333008 -6 0 -8s-0.833008 -3.33301 -1.5 -4s-2 -0.666992 -4 0c-6.66699 2.66699 -10.667 -0.333008 -12 -9c-2.66699 -8.66699 -9.33398 -12.667 -20.001 -12s-19.334 5.33398 -26.001 14.001l-4.5 7.5
c-1 1.66699 -1.33301 3.33398 -1 5.00098s1.33301 2.83398 3 3.50098s4.5 1.66699 8.5 3c6 1.33301 9.33301 2.33301 10 3l-14 2h-1c-9.33301 0.666992 -16.5 4 -21.5 10s-13.833 21.667 -26.5 47c-16 33.333 -26 50.333 -30 51c-2.66699 0 -5.66699 -1.66699 -9 -5
c-5.33301 -4.66699 -11.666 -8.16699 -18.999 -10.5s-13.666 -6.83301 -18.999 -13.5c-47.333 -37.333 -80.666 -49.333 -99.999 -36c-16.667 6.66699 -25.667 13 -27 19c-2.66699 6.66699 3.83301 18.167 19.5 34.5s32.5 29.166 50.5 38.499c22 10 39.667 21 53 33
c12 10 17.833 20.5 17.5 31.5s-6.83301 30.167 -19.5 57.5c-7.33301 16.667 -11.5 31.667 -12.5 45s1.83301 21.333 8.5 24c9.33301 4 19.333 5.16699 30 3.5s19.334 -5.16699 26.001 -10.5c10.667 -10 22.334 -39 35.001 -87l34 29c40.667 34.667 72.667 49.334 96 44.001
c6.66699 -1.33301 13.834 -5.16602 21.501 -11.499s13 -12.5 16 -18.5s2.83301 -10.667 -0.5 -14c-4.66699 -4 -6.66699 -7.66699 -6 -11c1.33301 -3.33301 -0.666992 -6.5 -6 -9.5s-17.666 -8.83301 -36.999 -17.5c-8.66699 -2.66699 -23.167 -11.834 -43.5 -27.501
s-32.166 -24.5 -35.499 -26.5z" />
    <glyph glyph-name="y" unicode="y" horiz-adv-x="380" 
d="M59 462c6 0 19.001 -6.8291 39.001 -20.4961s35 -25.834 45 -36.501c12.667 -13.333 26.667 -33.833 42 -61.5s23 -46.167 23 -55.5c0 -28 13 -16 39 36c15.333 32 29.666 54.667 42.999 68c8 6.66699 13.667 10.5 17 11.5s10.333 -0.5 21 -4.5
c13.333 -6 20.666 -11.667 21.999 -17c2 -22.667 -5.33301 -46.334 -22 -71.001c-10 -14.667 -30.167 -52.834 -60.5 -114.501s-45.5 -95.167 -45.5 -100.5c0 -4.66699 -2 -7 -6 -7c-1.33301 0.666992 -3.66602 -2.33301 -6.99902 -9
c-3.33301 -5.33301 -9 -16.666 -17 -33.999c-19.333 -38.667 -31 -58 -35 -58c-2 1.33301 -3.33301 1.66602 -4 0.999023s0 -2.33398 2 -5.00098c2.66699 -4 0.333984 -14.667 -6.99902 -32s-14 -28.333 -20 -33c-4.66699 -2 -6.33398 -5.66699 -5.00098 -11
c0 -2.66699 -4.5 -4 -13.5 -4s-17.833 1.66699 -26.5 5c-7.33301 2.66699 -8 16.5 -2 41.5s16.333 53.5 31 85.5c44.667 97.333 67.667 151 69 161c0 5.33301 -2.66699 10.333 -8 15c-6.66699 8 -22.5 34 -47.5 78s-43.167 71.333 -54.5 82
c-38.667 36 -49.667 62.333 -33 79c7.33301 7.33301 14.333 11 21 11z" />
    <glyph glyph-name="z" unicode="z" horiz-adv-x="447" 
d="M298 285c0 -2.66699 5.66797 -4.83105 17.001 -6.49805s20.666 -1.83398 27.999 -0.500977c11.333 2 26.5 -2 45.5 -12s28.5 -18.667 28.5 -26c0 -16 -30.333 -24.333 -91 -25c-39.333 0 -68.5 -2.16699 -87.5 -6.5s-34.833 -12.833 -47.5 -25.5
c-13.333 -12.667 -24 -28.167 -32 -46.5s-9 -29.166 -3 -32.499c12.667 -7.33301 49.334 -1.66602 110.001 17.001c26 7.33301 42.667 9.66602 50 6.99902c6.66699 -2.66699 10 -2 10 2c0.666992 3.33301 3.83398 6.16602 9.50098 8.49902s12.167 4.33301 19.5 6
s12.333 3.16699 15 4.5c7.33301 2.66699 14.666 0.333984 21.999 -6.99902c18 -18 3.66699 -34 -43 -48c-8.66699 -2.66699 -34.667 -12.834 -78 -30.501s-74.666 -25.834 -93.999 -24.501c-14.667 0 -31.5 4 -50.5 12s-32.167 16.667 -39.5 26c-4.66699 6 -7.5 19 -8.5 39
s0.833008 31.667 5.5 35c5.33301 3.33301 12.166 13.166 20.499 29.499s9.5 27.5 3.5 33.5c-10.667 18.667 2.66602 33.667 39.999 45c21.333 6.66699 51.333 29.334 90 68.001c40 40 60 62 60 66c0 1.33301 -1.16699 2.33301 -3.5 3s-7.33301 0.5 -15 -0.5
s-17.5 -2.66699 -29.5 -5l-50 -9.5c-66.667 -13.333 -116.667 -11.666 -150 5.00098c-24.667 12.667 -27.667 29 -9 49c8 8 19 11 33 9c14.667 -1.33301 56.667 2.33398 126 11.001s110.333 13 123 13c18.667 0.666992 31.334 0 38.001 -2s14.334 -7.66699 23.001 -17
c15.333 -16 20.666 -29.833 15.999 -41.5s-25.334 -36.834 -62.001 -75.501c-26.667 -26.667 -40 -42.334 -40 -47.001z" />
    <glyph glyph-name="uni0093" horiz-adv-x="312" 
d="M73 187c-6.66699 0 -15.665 5.00293 -26.998 15.0029c-7.33301 6.66699 -12 13.167 -14 19.5s-2.66699 17.166 -2 32.499c0 14 2.83301 30.667 8.5 50s8.5 34.333 8.5 45c0 21.333 8.83301 33.166 26.5 35.499s32.167 -4.83398 43.5 -21.501
c7.33301 -10 11.166 -18.333 11.499 -25s-2.5 -24 -8.5 -52c-6.66699 -30 -14.334 -54 -23.001 -72s-16.667 -27 -24 -27zM244.002 406.003c16 0 26.999 -6.00098 32.999 -18.001s6.33301 -28.667 1 -50c-10 -45.333 -18 -75 -24 -89s-13.333 -22.667 -22 -26
c-19.333 -7.33301 -32.666 -4.83301 -39.999 7.5s-7.66602 33.833 -0.999023 64.5c3.33301 18.667 8.33301 36.834 15 54.501s11 30.167 13 37.5c1.33301 7.33301 3.66602 12.333 6.99902 15s9.33301 4 18 4z" />
    <glyph glyph-name="uni0094" horiz-adv-x="301" 
d="M251 399c4.66699 0 8.33008 -0.666992 10.9971 -2s3.33398 -3 2.00098 -5c-2.66699 -4.66699 -1.66699 -7 3 -7c4.66699 -0.666992 5.83398 -10 3.50098 -28s-7.5 -44 -15.5 -78c-9.33301 -39.333 -17.166 -61.833 -23.499 -67.5s-18.833 -1.16699 -37.5 13.5
c-13.333 12 -18.333 22.333 -15 31c4 6.66699 5.33301 14 4 22c-1.33301 6 4.66699 22.667 18 50c2 4 3.5 7.16699 4.5 9.5l4 9.5c1.66699 4 3.5 7.66699 5.5 11c7.33301 16 13.5 26.833 18.5 32.5s10.833 8.5 17.5 8.5zM48.9961 346c0.666992 6 -2.5 17.6689 -9.5 35.002
s-9.83301 29 -8.5 35c2 6 12 9 30 9c8.66699 0 16 -1.5 22 -4.5s11 -8 15 -15s7 -13.333 9 -19s4.5 -13.834 7.5 -24.501s5.16699 -18 6.5 -22c4.66699 -15.333 6.5 -25.5 5.5 -30.5s-5.16699 -10.833 -12.5 -17.5c-14.667 -16 -29 -16.333 -43 -1
s-21.333 33.666 -22 54.999z" />
    <glyph glyph-name=".null" horiz-adv-x="0" 
 />
    <glyph glyph-name="nonmarkingreturn" horiz-adv-x="333" 
 />
    </font>
</defs>
</svg>
