<?xml version="1.0" standalone="no"?>
<!DOCTYPE svg PUBLIC "-//W3C//DTD SVG 1.1//EN" "http://www.w3.org/Graphics/SVG/1.1/DTD/svg11.dtd" >
<svg>
<metadata>
Created by FontForge 20090914 at Sat Feb 27 01:01:17 2016
 By www-data
Copyright (c) 2016, root
</metadata>
<defs>
<font id="Kenedi" horiz-adv-x="303" >
  <font-face 
    font-family="Kenedi"
    font-weight="400"
    font-stretch="normal"
    units-per-em="1000"
    panose-1="2 0 5 3 0 0 0 0 0 0"
    ascent="800"
    descent="-200"
    x-height="384.5"
    cap-height="631.002"
    bbox="28.4286 -165 706.525 738.04"
    underline-thickness="50"
    underline-position="-100"
    unicode-range="U+0020-U+0094"
  />
<missing-glyph horiz-adv-x="364" 
d="M33 0v666h265v-666h-265zM66 33h199v600h-199v-600z" />
    <glyph glyph-name=".notdef" horiz-adv-x="364" 
d="M33 0v666h265v-666h-265zM66 33h199v600h-199v-600z" />
    <glyph glyph-name="space" unicode=" " horiz-adv-x="248" 
 />
    <glyph glyph-name="exclam" unicode="!" horiz-adv-x="170" 
d="M72 146c0 -9.33301 -2.33203 -14.6689 -6.99902 -16.002c-3.33301 -2 -4.83301 -5 -4.5 -9s2.5 -8 6.5 -12s8 -6 12 -6c14 0.666992 24.167 6.5 30.5 17.5s5.16602 21.167 -3.50098 30.5c-6.66699 6.66699 -14 9.33398 -22 8.00098s-12 -5.66602 -12 -12.999z
M30.001 131.997c0 18 6.00098 33 18.001 45c13.333 12.667 27 18 41 16s26.667 -11 38 -27c21.333 -32 17.666 -59.667 -11.001 -83c-18.667 -16 -37.667 -18.5 -57 -7.5s-29 29.833 -29 56.5zM65.002 550.997c-6 6 -6.66699 15 -2 27c3.33301 8.66699 8.66602 10 15.999 4
c6 -2.66699 10.5 -9.66699 13.5 -21s7.16699 -37.333 12.5 -78c0.666992 -3.33301 2.33398 -40.5 5.00098 -111.5s5 -108.5 7 -112.5c3.33301 -6 0.333008 -10 -9 -12c-8 -0.666992 -14.333 1 -19 5c-6 6 -10.333 55.667 -13 149c-2 94 -5.66699 144 -11 150z" />
    <glyph glyph-name="quotedbl" unicode="&#x22;" horiz-adv-x="234" 
d="M184 406c-5.33301 0 -9 4.33203 -11 12.999s-7.33301 42.334 -16 101.001c-0.666992 2 -1 3.66699 -1 5c-2.66699 18 -6 29 -10 33c-4 3.33301 -2.33301 11 5 23c14.667 20 25 10.333 31 -29c1.33301 -6.66699 2.33301 -14.667 3 -24c4 -36.667 8.66699 -62.667 14 -78
c10.667 -29.333 5.66699 -44 -15 -44zM48 602.999c9.33301 0 19.6689 -38.665 31.002 -115.998c8 -56.667 10.667 -87.334 8 -92.001c-2.66699 -2 -6.33398 -3 -11.001 -3c-7.33301 0 -12.333 4.16699 -15 12.5s-7 35.166 -13 80.499c-4.66699 40 -9.66699 66.667 -15 80
c-4 10.667 -4.33301 19.167 -1 25.5s8.66602 10.5 15.999 12.5z" />
    <glyph glyph-name="dollar" unicode="$" horiz-adv-x="349" 
d="M254 286c-4 0 -7 -17.167 -9 -51.5s-1 -53.5 3 -57.5c7.33301 -8.66699 14 -2 20 20c8.66699 31.333 8.66699 56 0 74c-6 10 -10.667 15 -14 15zM183 239c0 -36 0.666016 -59.502 1.99902 -70.502s4.33301 -16.5 9 -16.5c6.66699 0 10.334 2 11.001 6
c4 34.667 6.5 70.334 7.5 107.001s-0.166992 57.334 -3.5 62.001c-6.66699 9.33301 -13.667 10.333 -21 3c-3.33301 -2 -5 -32.333 -5 -91zM153.999 483.998c-1.33301 43.333 -4.66602 65.6641 -9.99902 66.9971c-4.66699 1.33301 -11.834 -3.66699 -21.501 -15
s-15.834 -22 -18.501 -32c-2.66699 -11.333 1 -27.666 11 -48.999s19.333 -32.666 28 -33.999c2.66699 -0.666992 4.83398 -0.5 6.50098 0.5s3 3.66699 4 8s1.33301 10.833 1 19.5s-0.5 20.334 -0.5 35.001zM210.999 369.996c4 0 7 26.6689 9 80.002
s1.33301 84.666 -2 93.999c-3.33301 8.66699 -7.33301 14 -12 16s-8.66699 0 -12 -6c-2 -2.66699 -3.66699 -31.334 -5 -86.001c0 -36.667 1.5 -62.167 4.5 -76.5s8.83301 -21.5 17.5 -21.5zM217.999 605.998c0 7.33301 5.99707 10.998 17.9971 10.998
c10.667 0 18 -5.66699 22 -17c2 -11.333 8.66699 -20.666 20 -27.999c16.667 -10.667 29 -29.334 37 -56.001c5.33301 -16.667 4.66602 -24.667 -2.00098 -24c-6.66699 1.33301 -16.667 10 -30 26l-28 32c0.666992 -27.333 0.333984 -64.5 -0.999023 -111.5
s-3 -74.5 -5 -82.5c-1.33301 -4.66699 2 -11 10 -19c34 -34 50.667 -71 50 -111s-18.334 -71.667 -53.001 -95c-14.667 -9.33301 -26.667 -15.166 -36 -17.499s-26.666 -3.5 -51.999 -3.5c-32.667 0 -55 2.83301 -67 8.5s-26.333 19.834 -43 42.501
c-27.333 38.667 -35 65 -23 79c7.33301 8 13.333 10.167 18 6.5s12.667 -17.167 24 -40.5c14 -29.333 27 -46.666 39 -51.999c12.667 -6 20.834 -7.16699 24.501 -3.5s5.83398 15.167 6.50098 34.5c0.666992 36 3.66699 94.333 9 175c-42 29.333 -65.333 49 -70 59
c1.33301 2.66699 -1.33398 11 -8.00098 25c-11.333 27.333 -12.166 55 -2.49902 83s27.167 47.667 52.5 59c17.333 6.66699 25.333 12.667 24 18c-2 3.33301 2 8.66602 12 15.999c10.667 7.33301 17.834 10.5 21.501 9.5s7.5 -6.5 11.5 -16.5c4 -11.333 9 -17 15 -17
c3.33301 0.666992 5.33301 4 6 10z" />
    <glyph glyph-name="percent" unicode="%" horiz-adv-x="534" 
d="M404 233c15.333 14.667 29.1689 22.333 41.502 23s25.166 -5.66602 38.499 -18.999c11.333 -11.333 17.666 -22.333 18.999 -33s-1.66699 -23.334 -9 -38.001c-12 -22.667 -34.667 -31 -68 -25c-27.333 5.33301 -43 17 -47 35s4.33301 37 25 57zM48.0029 512.999
c27.333 11.333 47.667 4.33105 61 -21.002c10 -19.333 10.5 -36.666 1.5 -51.999s-22.833 -21 -41.5 -17c-19.333 4 -31.833 18.333 -37.5 43s-0.166992 40.334 16.5 47.001zM392.004 595.997c0 -8.66699 -14.166 -40.3359 -42.499 -95.0029s-55.5 -103 -81.5 -145
c-34 -53.333 -67.667 -113 -101 -179c-18 -34 -32 -50.333 -42 -49c-4.66699 1.33301 -7 7.33301 -7 18c0 14 6.33301 33.167 19 57.5s29 52.333 49 84s32.667 52.167 38 61.5l42.5 75l45 80c12.333 22.667 24.166 46.334 35.499 71.001
c0 0.666992 0.333008 1.83398 1 3.50098s1.5 4 2.5 7s1.83301 5.83301 2.5 8.5c2 6.66699 6.16699 11.334 12.5 14.001s12.333 3 18 1s8.5 -6.33301 8.5 -13z" />
    <glyph glyph-name="ampersand" unicode="&#x26;" horiz-adv-x="272" 
d="M223 605c-0.666992 -4.66699 -0.332031 -12.9971 1.00098 -24.9971s2.83301 -24.833 4.5 -38.5s3 -27.167 4 -40.5s0.833008 -24.333 -0.5 -33s-4.33301 -13 -9 -13c-4 0 -18 11.333 -42 34c-22 22 -43.667 34.667 -65 38c-15.333 2 -26 1.33301 -32 -2
s-9 -10.333 -9 -21c0 -5.33301 5.33301 -14.833 16 -28.5s18 -20.5 22 -20.5c4.66699 -2 18.834 -10.333 42.501 -25s39.5 -23.334 47.5 -26.001c16 -6.66699 25.333 -12.667 28 -18s-0.333008 -12 -9 -20c-10 -8.66699 -16.333 -10.334 -19 -5.00098
c-4 6.66699 -22.167 12.167 -54.5 16.5s-52.833 4.16602 -61.5 -0.500977c-17.333 -9.33301 -26.166 -21.833 -26.499 -37.5s8.16699 -32.167 25.5 -49.5c15.333 -14 34.333 -23.667 57 -29s41.334 -4 56.001 4c11.333 6 19 7 23 3s9 -32.667 15 -86
c5.33301 -52.667 4.66602 -82.334 -2.00098 -89.001c-14.667 -15.333 -24.667 -5.66602 -30 29.001l-3 34l-4 61l-35 3c-45.333 3.33301 -80.666 19.666 -105.999 48.999s-33 62.333 -23 99c0 4.66699 1.5 9.33398 4.5 14.001s7.5 8.83398 13.5 12.501s11.333 6.66699 16 9
s11.167 5.33301 19.5 9s13.833 6.16699 16.5 7.5l-29 30c-13.333 13.333 -21.333 23 -24 29s-3.33398 15 -2.00098 27c2 6.66699 3.33301 11.5 4 14.5s2 7.16699 4 12.5s3.83301 9 5.5 11s4.16699 4.5 7.5 7.5s7 5 11 6s8.66699 1.5 14 1.5s11.666 -0.666992 18.999 -2
c17.333 -2.66699 34.666 -8.16699 51.999 -16.5s27.666 -16.5 30.999 -24.5c1.33301 -1.33301 2.5 5.66699 3.5 21s1 31 0 47s-2.83301 24.333 -5.5 25c-4 7.33301 -4.5 14.166 -1.5 20.499s8.16699 9.16602 15.5 8.49902c5.33301 0 9 -2.16699 11 -6.5s3 -13.166 3 -26.499
z" />
    <glyph glyph-name="quotesingle" unicode="'" horiz-adv-x="109" 
d="M55 448c-11.333 0 -19.0029 5.49902 -23.0029 16.499s-1.66699 20.833 7 29.5c6.66699 8.66699 8.66699 23.167 6 43.5s-6 35.5 -10 45.5c-4 7.33301 -2 15 6 23c5.33301 5.33301 9 8 11 8s5 -2.66699 9 -8c8.66699 -11.333 14.334 -35.5 17.001 -72.5
s0.333984 -59.833 -6.99902 -68.5c-2.66699 -4 -3.5 -7.16699 -2.5 -9.5s0.833008 -4.16602 -0.5 -5.49902s-5.66602 -2 -12.999 -2z" />
    <glyph glyph-name="parenleft" unicode="(" horiz-adv-x="298" 
d="M177 624c-36 0 -68.334 -62.334 -97.001 -187.001c-16 -68 -18 -176 -6 -324c2.66699 -39.333 5.5 -65.666 8.5 -78.999s8.5 -25 16.5 -35c17.333 -23.333 37.5 -35.5 60.5 -36.5s40.833 9.5 53.5 31.5c6.66699 10.667 11.667 17 15 19s8 1.33301 14 -2
c12 -6.66699 16.5 -14.667 13.5 -24s-14.5 -23.666 -34.5 -42.999c-11.333 -11.333 -29.666 -17 -54.999 -17c-22.667 0 -39.667 2.66699 -51 8s-25.666 17.333 -42.999 36c-18 20 -27 38.333 -27 55c0 18 -2.33301 33.333 -7 46
c-5.33301 13.333 -8.16602 63.333 -8.49902 150s2.16699 148 7.5 184c20.667 142 58.667 225.333 114 250c7.33301 3.33301 17.666 6.66602 30.999 9.99902c7.33301 0 18.666 -5.66699 33.999 -17s27.666 -23 36.999 -35c12 -16 16 -30.667 12 -44
c-2.66699 -8.66699 -5.66699 -14.667 -9 -18s-6.83301 -3.5 -10.5 -0.5s-6.83398 8.83301 -9.50098 17.5c-5.33301 16 -13.666 29.167 -24.999 39.5s-22.666 15.5 -33.999 15.5z" />
    <glyph glyph-name="parenright" unicode=")" 
d="M225 18c-4 0 -5.99805 -2.66797 -5.99805 -8.00098c-0.666992 -6 -10.834 -16.667 -30.501 -32s-35.167 -24.333 -46.5 -27c-18.667 -4.66699 -38 0 -58 14s-26.333 27.333 -19 40c7.33301 16 19.333 15.667 36 -1c10 -8.66699 19.167 -12.834 27.5 -12.501
s20.166 5.5 35.499 15.5c14.667 10 26 23.833 34 41.5s16.667 46.167 26 85.5c5.33301 24.667 8.16602 46.834 8.49902 66.501s-1.16699 56.167 -4.5 109.5c-4 59.333 -9.16699 104 -15.5 134s-16.833 59 -31.5 87c-8 16 -19.833 30.833 -35.5 44.5s-28.5 20.5 -38.5 20.5
c-9.33301 0 -18.833 -3.66699 -28.5 -11s-14.5 -14.666 -14.5 -21.999c0 -6 -6 -9 -18 -9c-8.66699 0 -13.667 1.16699 -15 3.5s-1 8.5 1 18.5c4 28 20 47 48 57s54.333 5 79 -15c40 -32 68.167 -73.5 84.5 -124.5s25.833 -126.167 28.5 -225.5
c0.666992 -55.333 -2.66602 -102.333 -9.99902 -141c-16.667 -72.667 -29 -109 -37 -109z" />
    <glyph glyph-name="asterisk" unicode="*" horiz-adv-x="266" 
d="M157 604c0 -12.667 0.834961 -19.6602 2.50195 -20.9932s5.83398 1.66699 12.501 9c11.333 11.333 21.666 13.166 30.999 5.49902s9.66602 -18.5 0.999023 -32.5c-12 -12.667 -6 -21.334 18 -26.001c6.66699 0 11 -5 13 -15s0.333008 -17 -5 -21
c-8.66699 -6 -29.334 -4.33301 -62.001 5c-8 2 -12 2.33301 -12 1s5.66699 -7.33301 17 -18c8 -8 14.167 -13.333 18.5 -16s9 -5.33398 14 -8.00098s10.833 -6.33398 17.5 -11.001c11.333 -8 15 -16.333 11 -25c-3.33301 -8 -11.5 -10.833 -24.5 -8.5
s-25.167 8.5 -36.5 18.5l-16 15c-1.33301 -28 -6.33301 -43.333 -15 -46c-6.66699 -2.66699 -13.5 -1.33398 -20.5 3.99902s-10.5 12.333 -10.5 21c0 6.66699 -0.833008 10 -2.5 10s-6.83398 -2.66699 -15.501 -8c-10.667 -9.33301 -18.5 -10.833 -23.5 -4.5
s-6.16699 14.833 -3.5 25.5c4 16 6.66699 27.667 8 35c2 8.66699 2.33301 14 1 16s-5.33301 2 -12 0c-9.33301 -2 -17.666 0.166992 -24.999 6.5s-9.66602 13.166 -6.99902 20.499c3.33301 6.66699 11.666 10 24.999 10c11.333 0 17.5 1.66699 18.5 5
s-2.16699 10.666 -9.5 21.999c-7.33301 10 -8.66602 19.667 -3.99902 29s11.667 12.833 21 10.5s15.333 -9.16602 18 -20.499c3.33301 -12 7.66602 -17.667 12.999 -17c3.33301 0.666992 5 4 5 10c0 7.33301 2.33301 16.666 7 27.999c5.33301 13.333 12 19 20 17
s12 -10.667 12 -26z" />
    <glyph glyph-name="plus" unicode="+" horiz-adv-x="413" 
d="M112 337c-0.666992 -2.66699 10 -14.668 32 -36.001s32.333 -33.666 31 -36.999c0 -4 2 -5.33301 6 -4c5.33301 8 5.33301 35.333 0 82c-44 0 -67 -1.66699 -69 -5zM292 377.999c61.333 0 91.668 -9.66699 91.001 -29c-0.666992 -5.33301 -2.66699 -11 -6 -17
c-12.667 -19.333 -24.334 -22 -35.001 -8c-4 5.33301 -20.333 9.83301 -49 13.5s-47.667 3.83398 -57 0.500977c-14 -5.33301 -15.333 -41 -4 -107c3.33301 -19.333 5 -32.333 5 -39s-2.33301 -12.334 -7 -17.001c-6.66699 -6 -16.334 -3.33301 -29.001 8
s-44.334 45.333 -95.001 102c-30 34 -49 52 -57 54c-7.33301 2.66699 -12.833 7.83398 -16.5 15.501s-3.16699 13.834 1.5 18.501c5.33301 5.33301 30 7.33301 74 6c39.333 -0.666992 62 1.66602 68 6.99902s6.33301 24.333 1 57c0 6 -0.666992 12.833 -2 20.5
s-2.16602 13.5 -2.49902 17.5s-0.166016 7.83301 0.500977 11.5s2.5 6.33398 5.5 8.00098s7.5 2.5 13.5 2.5c16 -2.66699 24.333 -27.334 25 -74.001c0.666992 -22.667 5 -36.834 13 -42.501s28.667 -8.5 62 -8.5z" />
    <glyph glyph-name="comma" unicode="," horiz-adv-x="156" 
d="M84 57c0 6.66699 -7.66797 10.667 -23.001 12c-10.667 0.666992 -17 2.5 -19 5.5s-2.66699 10.833 -2 23.5c2 27.333 13.333 43.333 34 48c22 4.66699 37 -7 45 -35c8.66699 -32 6.33398 -60.667 -6.99902 -86c-18 -34.667 -36.667 -55.667 -56 -63
c-12 -4 -20 -0.333008 -24 11c-3.33301 7.33301 -3 14.333 1 21s10.333 11 19 13c7.33301 2 14.5 8.33301 21.5 19s10.5 21 10.5 31z" />
    <glyph glyph-name="hyphen" unicode="-" horiz-adv-x="315" 
d="M106 306c28 6.66699 83.6699 6.66797 167.003 0.000976562c14 -1.33301 17 -12 9 -32c-2.66699 -6.66699 -5.83398 -10.5 -9.50098 -11.5s-11.5 -0.166992 -23.5 2.5c-17.333 4 -41.833 6 -73.5 6s-60.167 -2 -85.5 -6c-24 -4 -40.333 -4.66699 -49 -2
s-12.334 9 -11.001 19c0.666992 9.33301 8.66699 14.666 24 15.999c17.333 1.33301 34.666 4 51.999 8z" />
    <glyph glyph-name="period" unicode="." horiz-adv-x="173" 
d="M93 131c8 0 12.333 4.5 13 13.5s-3 14.833 -11 17.5c-10 4 -16.667 1.66699 -20 -7c-6.66699 -16 -0.666992 -24 18 -24zM108 195c11.333 -4 21.1699 -13.501 29.5029 -28.501s9.16602 -29.833 2.49902 -44.5c-6.66699 -32 -16 -47.333 -28 -46
c-2.66699 0 -5.33398 1.33301 -8.00098 4c-6 6 -12.667 9 -20 9c-9.33301 0 -19.833 5.5 -31.5 16.5s-18.834 22.167 -21.501 33.5c-6 9.33301 -1.5 21.833 13.5 37.5s27.5 22.834 37.5 21.501c14 -2 22.667 -3 26 -3z" />
    <glyph glyph-name="slash" unicode="/" horiz-adv-x="249" 
d="M184 623c2.66699 7.33301 9.33496 9.50098 20.002 6.50098s15.667 -8.5 15 -16.5c-4.66699 -24.667 -11.334 -48 -20.001 -70s-15.667 -43 -21 -63c-6.66699 -20.667 -16.834 -49.834 -30.501 -87.501s-24.667 -69.667 -33 -96s-17.166 -55.833 -26.499 -88.5
c-18 -64 -31 -98.333 -39 -103c-4 -2 -8.66699 -1 -14 3c-4 4 -5.33301 11.667 -4 23s3.66602 24.333 6.99902 39s5 22.667 5 24c24.667 82.667 71.667 225.667 141 429z" />
    <glyph glyph-name="zero" unicode="0" horiz-adv-x="361" 
d="M189 602c0 4.66699 -6.33105 7.6709 -18.998 9.00391s-26.834 0.666016 -42.501 -2.00098s-26.5 -7 -32.5 -13c-7.33301 -6.66699 -13.333 -18 -18 -34s-6 -30.667 -4 -44c3.33301 -23.333 5.66602 -65.333 6.99902 -126c1.33301 -58.667 5 -98.334 11 -119.001
s20.667 -43.334 44 -68.001c20.667 -22 38.667 -34.333 54 -37s33.333 3.66602 54 18.999c20 15.333 33 33.5 39 54.5s9 59.167 9 114.5c-0.666992 58 -5.66699 102.667 -15 134s-26.333 60 -51 86c-12 13.333 -21 20 -27 20s-9 2 -9 6zM309.002 501.004
c0 -6.66699 3.33301 -16.6709 10 -30.0039c5.33301 -11.333 8.83301 -42.833 10.5 -94.5s0.5 -90.167 -3.5 -115.5c-8 -47.333 -28.667 -83.166 -62 -107.499s-68.333 -28.833 -105 -13.5c-13.333 5.33301 -30.5 17.333 -51.5 36s-31.5 31.334 -31.5 38.001
c0 6 -1.66699 9 -5 9c-16 0 -27.333 64.667 -34 194c-0.666992 26.667 -2.66699 62 -6 106c-1.33301 21.333 -1.33301 36 0 44s5 15.667 11 23c22.667 26 38.667 41.667 48 47s29 10 59 14c12 0.666992 29.5 -4.66602 52.5 -15.999s41.833 -23.666 56.5 -36.999
c10 -8.66699 21 -24.5 33 -47.5s18 -39.5 18 -49.5z" />
    <glyph glyph-name="one" unicode="1" horiz-adv-x="129" 
d="M71 575c0.666992 -21.333 3.66699 -53.668 9 -97.001s8.33301 -83.333 9 -120c6.66699 -153.333 10 -233.666 10 -240.999c-23.333 0 -36 2.33301 -38 7c-4 8.66699 -6.66699 37.334 -8 86.001c-6 170 -10.667 261 -14 273c-2.66699 17.333 -5 40 -7 68
c-2 26 -2.5 42.167 -1.5 48.5s4.5 10.166 10.5 11.499c12 2.66699 20 1.66699 24 -3s6 -15.667 6 -33z" />
    <glyph glyph-name="two" unicode="2" horiz-adv-x="338" 
d="M308 506c0 -26.667 -15.832 -68.8301 -47.499 -126.497s-67.5 -109.834 -107.5 -156.501c-23.333 -27.333 -32.666 -41.333 -27.999 -42c1.33301 0 3.66602 0.666992 6.99902 2c2 0.666992 19.667 4.16699 53 10.5s53 11.166 59 14.499c8 4 15.833 2.66699 23.5 -4
s11.5 -15.667 11.5 -27c0 -8.66699 -2.16699 -13.834 -6.5 -15.501s-18.833 -2.5 -43.5 -2.5c-37.333 0 -76.333 -7.33301 -117 -22c-31.333 -10.667 -50.333 -16.5 -57 -17.5s-13.334 0.833008 -20.001 5.5c-5.33301 5.33301 -6.5 10.666 -3.5 15.999
s13.167 17.333 30.5 36c29.333 32 49.333 53 60 63c25.333 25.333 61 75.333 107 150c8.66699 14.667 17.334 35 26.001 61s13 45.667 13 59c0 14 -6.83301 26.333 -20.5 37s-29.167 15.667 -46.5 15c-52.667 -1.33301 -92 -22.666 -118 -63.999
c-18 -27.333 -29.333 -38.333 -34 -33c-2 2 -4 6.66699 -6 14c-2 9.33301 2.5 24 13.5 44s21.5 31.667 31.5 35l15.5 13c7 6 13.833 11 20.5 15s14 7 22 9c19.333 5.33301 42 7 68 5s43.333 -7 52 -15c9.33301 -8 18.666 -21 27.999 -39s14 -31.333 14 -40z" />
    <glyph glyph-name="three" unicode="3" horiz-adv-x="405" 
d="M268 413c27.333 0 46.333 -3.1709 57 -9.50391s22.334 -20.833 35.001 -43.5c8 -15.333 13 -36.166 15 -62.499s-0.333008 -47.5 -7 -63.5c-10 -26 -34 -54.667 -72 -86s-69.333 -48.666 -94 -51.999c-42 -4.66699 -74.333 3 -97 23c-18 15.333 -24 26 -18 32
c10 10 23.667 8 41 -6c18 -14 46.333 -17 85 -9c13.333 2.66699 37.333 20.167 72 52.5s52.667 54.5 54 66.5c5.33301 42 0.666016 74 -14.001 96c-7.33301 10.667 -13.666 17.667 -18.999 21s-13 5 -23 5c-13.333 0 -30 -2.33301 -50 -7s-31.333 -9 -34 -13
c-8 -8 -15.667 -15 -23 -21c-10 -8 -16.333 -12.333 -19 -13s-7.33398 2 -14.001 8c-8 7.33301 -11 14.833 -9 22.5s10.667 23.834 26 48.501c19.333 30.667 37.833 61.5 55.5 92.5s25.834 46.833 24.501 47.5c-1.33301 1.33301 -25 3.5 -71 6.5s-81.333 4.83301 -106 5.5
c-28.667 0 -39 10.667 -31 32c2 4.66699 5.66699 7.5 11 8.5s15.666 0.5 30.999 -1.5c5.33301 -2 26.333 -3.66699 63 -5s71.5 -3.16602 104.5 -5.49902s49.833 -5.83301 50.5 -10.5c2.66699 -4.66699 -0.5 -17.167 -9.5 -37.5s-21.333 -45 -37 -74
s-24.167 -44.833 -25.5 -47.5h48z" />
    <glyph glyph-name="four" unicode="4" horiz-adv-x="319" 
d="M213 573c-4.66699 15.333 -1 26.665 11 33.998c10 6.66699 17.333 3.33398 22 -9.99902l2 -6c10 -33.333 16.833 -67.666 20.5 -102.999s6.16699 -89.666 7.5 -162.999c2 -87.333 6.33301 -166.666 13 -237.999c-17.333 3.33301 -26.666 6 -27.999 8
c-4 3.33301 -7.66699 21.333 -11 54c-3.33301 50 -5.33301 86.333 -6 109c-0.666992 31.333 -2.16699 51.833 -4.5 61.5s-6.83301 15.834 -13.5 18.501c-8.66699 3.33301 -36 8.16602 -82 14.499s-73.667 9.16602 -83 8.49902c-8.66699 -0.666992 -13.834 1.33301 -15.501 6
s-3.83398 20 -6.50098 46c-10 116 -12.333 175.667 -7 179c3.33301 1.33301 9.66602 0.333008 18.999 -3c6.66699 -2.66699 10.834 -7.83398 12.501 -15.501s2.83398 -26.5 3.50098 -56.5c2 -71.333 5 -109.666 9 -114.999c22 -6 74 -14.333 156 -25
c-8.66699 111.333 -15 176.666 -19 195.999z" />
    <glyph glyph-name="five" unicode="5" horiz-adv-x="427" 
d="M397 558c1.33301 -4.66699 -1.49902 -8.49316 -8.49902 -11.4932s-14.5 -5.83301 -22.5 -8.5s-12 -5.33398 -12 -8.00098c0 -4.66699 -2 -4 -6 2s-48 8.66699 -132 8c-83.333 -1.33301 -125.333 -2.33301 -126 -3l-9 -98c16.667 6.66699 39.5 9.66699 68.5 9
s51.833 -4.33398 68.5 -11.001c12.667 -6.66699 26.5 -17.834 41.5 -33.501s26.833 -31.5 35.5 -47.5c10.667 -21.333 11.334 -53.333 2.00098 -96s-24.666 -76.334 -45.999 -101.001c-12.667 -14.667 -29.5 -27.667 -50.5 -39s-39.167 -17 -54.5 -17
c-26.667 0 -50.334 12.667 -71.001 38c-10.667 12 -18 18 -22 18c-5.33301 0 -11 9.5 -17 28.5s-7.66699 32.5 -5 40.5c6 15.333 13.333 20 22 14c8.66699 -6.66699 13 -18.334 13 -35.001c0 -9.33301 9.33301 -23.333 28 -42c18.667 -17.333 36.334 -26.5 53.001 -27.5
s35.667 5.83301 57 20.5c27.333 19.333 47 51.666 59 96.999s10 79 -6 101c-22.667 32.667 -55.334 50 -98.001 52c-23.333 1.33301 -40.333 0 -51 -4s-22.334 -13.333 -35.001 -28c-11.333 -14 -21.333 -19.333 -30 -16c-8 3.33301 -12.167 8.16602 -12.5 14.499
s3.16699 21.5 10.5 45.5c3.33301 10.667 6.16602 38.5 8.49902 83.5s4.83301 72.167 7.5 81.5c2.66699 2.66699 9 2.66699 19 0c14 -4 52 -6.5 114 -7.5s107.333 0.166992 136 3.5c30.667 4 50.167 4.66699 58.5 2s12.5 -11 12.5 -25z" />
    <glyph glyph-name="six" unicode="6" horiz-adv-x="317" 
d="M252 316c0.666992 16.667 -2.5 29.835 -9.5 39.502s-16.833 14.5 -29.5 14.5s-27.167 -5.83301 -43.5 -17.5s-29.5 -25.167 -39.5 -40.5c-8.66699 -13.333 -18.667 -34.5 -30 -63.5s-17 -47.167 -17 -54.5c0 -4.66699 8 -9.33398 24 -14.001
c34 -11.333 66.667 -2.33301 98 27s47 65.666 47 108.999zM65 608.001c2 5.33301 6.49707 7.99902 13.4971 7.99902s12.833 -3 17.5 -9c4 -4.66699 5.33301 -21.334 4 -50.001s-4 -60 -8 -94s-6.66699 -50.667 -8 -50c-4 -7.33301 -8 -26.666 -12 -57.999
s-6.66699 -49.333 -8 -54c-2.66699 -14 -1.66699 -20.667 3 -20c5.33301 2.66699 12 12.334 20 29.001c7.33301 16 20.333 33.167 39 51.5s35.334 29.833 50.001 34.5c67.333 25.333 104 4 110 -64c4.66699 -58 -10.333 -105 -45 -141c-34.667 -35.333 -69 -53 -103 -53
c-16 0.666992 -35.167 4 -57.5 10s-36.166 11.667 -41.499 17c-7.33301 8 -10.166 46.333 -8.49902 115s6.16699 116.334 13.5 143.001c3.33301 10 6.5 27.167 9.5 51.5s5.5 51.166 7.5 80.499s3.33301 47 4 53z" />
    <glyph glyph-name="seven" unicode="7" horiz-adv-x="398" 
d="M56 448c-4 0 -9.66113 13.665 -16.9941 40.998c-8.66699 38.667 -11.167 65.334 -7.5 80.001s14.167 20.334 31.5 17.001c4.66699 -1.33301 27 -4 67 -8c34 -3.33301 77.333 2.33398 130 17.001c53.333 13.333 80.333 20.333 81 21
c3.33301 0.666992 7.33301 -3.66602 12 -12.999s5.66699 -15 3 -17c-4 -2 -8 -14.333 -12 -37c-4.66699 -36 -14.667 -84.333 -30 -145l24 4c14 2 23 1 27 -3s4.33301 -12.333 1 -25c-2 -8 -4.5 -12.833 -7.5 -14.5s-10.167 -1.5 -21.5 0.5
c-10.667 2 -17.834 2.33301 -21.501 1s-6.83398 -5.33301 -9.50098 -12c-4 -11.333 -5.33301 -40 -4 -86s4.33301 -70.333 9 -73c5.33301 -3.33301 6.66602 -12.5 3.99902 -27.5s-7.33398 -23.833 -14.001 -26.5c-12 -4.66699 -20.667 4 -26 26
c-5.33301 25.333 -7 76 -5 152v52l-30 -4c-16.667 -2.66699 -29.167 -1.33398 -37.5 3.99902s-10.5 13.333 -6.5 24c3.33301 8 13.666 10.667 30.999 8c26 -4 42.167 -2.33301 48.5 5s13.5 32.666 21.5 75.999c9.33301 53.333 13.333 80.666 12 81.999
c-2.66699 2.66699 -19.667 -0.333008 -51 -9c-50 -12.667 -102 -16 -156 -10c-18.667 2 -29.834 0.833008 -33.501 -3.5s-4.16699 -18.166 -1.5 -41.499c2 -24 2.33301 -39.167 1 -45.5s-5.33301 -9.5 -12 -9.5z" />
    <glyph glyph-name="eight" unicode="8" horiz-adv-x="400" 
d="M278 351c-19.333 8 -44.999 13.001 -76.999 15.001c-22 1.33301 -37.333 1.16602 -46 -0.500977s-19.334 -6.5 -32.001 -14.5c-19.333 -12.667 -34 -28.667 -44 -48c-21.333 -39.333 -18.833 -73.333 7.5 -102s67.833 -42.667 124.5 -42c27.333 0 54.333 7.83301 81 23.5
s40.667 32.167 42 49.5c4 62 -14.667 101.667 -56 119zM121.001 477.001c0 -42.667 19.333 -63.998 58 -63.998c19.333 0 37 6.66699 53 20c15.333 15.333 23 25.666 23 30.999c0 8 -4.16699 22.667 -12.5 44s-14.5 34 -18.5 38c-16 11.333 -35 14.666 -57 9.99902
c-10.667 -2 -21 -11.667 -31 -29s-15 -34 -15 -50zM72.001 363.003c0 4.66699 4.00586 9.33691 12.0059 14.0039c15.333 9.33301 23.666 15.666 24.999 18.999s-1.66699 12.333 -9 27c-26 51.333 -15.667 101.333 31 150c14 14 23.667 22.333 29 25s14.666 3 27.999 1
c20.667 -3.33301 39.167 -12.166 55.5 -26.499s27.833 -31.833 34.5 -52.5c6.66699 -19.333 9.16699 -38.833 7.5 -58.5s-6.83398 -34.5 -15.501 -44.5c-7.33301 -8.66699 -8.66602 -14 -3.99902 -16c1.33301 -0.666992 14.333 -8.33398 39 -23.001
c29.333 -18.667 49.166 -46.334 59.499 -83.001s7.83301 -71 -7.5 -103c-18.667 -38.667 -60.334 -61.334 -125.001 -68.001s-118.667 5.66602 -162 36.999c-22.667 16.667 -35.834 40.5 -39.501 71.5s3.16602 61.167 20.499 90.5c14 22.667 21 36 21 40z" />
    <glyph glyph-name="nine" unicode="9" horiz-adv-x="295" 
d="M218 543c-6.66699 20 -22.668 32.333 -48.001 37s-46.666 -2 -63.999 -20c-26.667 -28 -40 -69.667 -40 -125s13.667 -90 41 -104c13.333 -8.66699 30.833 -9.66699 52.5 -3s35.5 14.667 41.5 24c6 8.66699 11.333 40 16 94s5 86.333 1 97zM149.999 617
c16 0 32.498 -3.33203 49.498 -9.99902s25.5 -13.334 25.5 -20.001c0 -4 5.66699 -8 17 -12c10.667 -4.66699 17.667 -18 21 -40c2.66699 -21.333 3 -47.333 1 -78s-5.66699 -54.667 -11 -72c-4.66699 -16.667 -7 -64.334 -7 -143.001c0 -61.333 -1 -99.833 -3 -115.5
s-7 -23.5 -15 -23.5c-17.333 0 -24.666 39 -21.999 117l2 79c-16.667 -7.33301 -39.167 -10.666 -67.5 -9.99902s-48.5 5.66699 -60.5 15c-23.333 17.333 -38.666 44.5 -45.999 81.5s-5.33301 77.167 6 120.5c8 32 22.667 58.667 44 80c14.667 14 25.5 22.667 32.5 26
s18.167 5 33.5 5z" />
    <glyph glyph-name="colon" unicode=":" horiz-adv-x="191" 
d="M115 189c-14.667 9.33301 -26.333 7.33301 -35 -6s-8 -28 2 -44c4 -6.66699 12 -8.33398 24 -5.00098s18.333 9 19 17c1.33301 20.667 -2 33.334 -10 38.001zM53.001 204c13.333 12 22.499 19.335 27.499 22.002s12.5 3 22.5 1c28 -4 46.333 -18.667 55 -44
s3.33398 -48.333 -15.999 -69c-7.33301 -8.66699 -13.833 -13.834 -19.5 -15.501s-14.5 -1.83398 -26.5 -0.500977c-28.667 4 -48.5 17.167 -59.5 39.5s-5.5 44.5 16.5 66.5zM116 454.002c-10.667 17.333 -22.0029 18.667 -34.0029 4c-6 -7.33301 -7.66699 -15 -5 -23
s8.33398 -12.667 17.001 -14c10.667 -1.33301 18.334 1.5 23.001 8.5s4.33398 15.167 -0.999023 24.5zM39.9971 450.003c-0.666992 13.333 0.333008 22.5 3 27.5s8.66699 9.16699 18 12.5s16.333 6.66602 21 9.99902c10 6 18.833 7.83301 26.5 5.5
s17.167 -9.16602 28.5 -20.499c13.333 -13.333 18.833 -29 16.5 -47s-11.833 -32 -28.5 -42c-14 -8 -25.833 -11.5 -35.5 -10.5s-20.167 6.5 -31.5 16.5c-12 11.333 -18 27.333 -18 48z" />
    <glyph glyph-name="semicolon" unicode=";" horiz-adv-x="174" 
d="M76 138c6.66699 -10 14.332 -10.332 22.999 -0.999023c8 10.667 7.66699 20 -1 28c-7.33301 7.33301 -13.333 5.66602 -18 -5.00098c-5.33301 -8.66699 -6.66602 -16 -3.99902 -22zM128.998 168.001c0 -6 2.33301 -9 7 -9c3.33301 0 5.5 -3 6.5 -9
s0.333008 -13.833 -2 -23.5s-5.83301 -19.5 -10.5 -29.5c-7.33301 -16.667 -20.166 -34.167 -38.499 -52.5s-30.833 -26.166 -37.5 -23.499c-14 6 -9.33301 20.667 14 44l25 24l-26 12c-11.333 5.33301 -18.833 10.333 -22.5 15s-5.83398 13 -6.50098 25
c-1.33301 11.333 -0.833008 19.833 1.5 25.5s7.83301 11.834 16.5 18.501c11.333 9.33301 22.333 14.666 33 15.999c8 0 16.667 -3.83301 26 -11.5s14 -14.834 14 -21.501zM68.998 482.001c-4.66699 -14.667 -0.666992 -21.667 12 -21c12 0.666992 20.667 4.66699 26 12
c6 8 5 16 -3 24c-10 10.667 -17 15.167 -21 13.5s-8.66699 -11.167 -14 -28.5zM29.998 473.001c0 30 6.00195 44.999 18.002 44.999c5.33301 0 9.66602 3.66699 12.999 11c2 6 9 9.33301 21 10s23 -1.66602 33 -6.99902c9.33301 -5.33301 17 -14.5 23 -27.5
s7.66699 -24.167 5 -33.5c-3.33301 -11.333 -9 -21.5 -17 -30.5s-15.667 -13.833 -23 -14.5c-4.66699 0 -13 -1 -25 -3c-10.667 -2 -21.334 2.5 -32.001 13.5s-16 23.167 -16 36.5z" />
    <glyph glyph-name="equal" unicode="=" horiz-adv-x="497" 
d="M467 258c0 -10.667 -3.99805 -18.334 -11.998 -23.001s-17.667 -5 -29 -1c-4.66699 2.66699 -15 4.83398 -31 6.50098s-33 3 -51 4s-29 1.83301 -33 2.5c-2.66699 2 -23.167 4.66699 -61.5 8s-66.833 5 -85.5 5c-38.667 -2 -66.334 -4 -83.001 -6
c-30.667 -4 -47.334 -3.66699 -50.001 1c-0.666992 1.33301 -1 4.33301 -1 9c0 8.66699 3 14.667 9 18s21 7 45 11c50 8 125.667 6.66699 227 -4c97.333 -10.667 148.333 -18 153 -22c2 -1.33301 3 -4.33301 3 -9zM67.002 444c0 8.66699 34.666 13.0029 103.999 13.0029
c24.667 -2.66699 55 -4.33398 91 -5.00098c124 -6 190 -13 198 -21c4 -4.66699 4.66699 -12.334 2 -23.001c-2 -6.66699 -5 -10.5 -9 -11.5s-14.333 -0.166992 -31 2.5c-17.333 3.33301 -80 7 -188 11c-41.333 1.33301 -72.5 2.66602 -93.5 3.99902s-38 3.16602 -51 5.49902
s-20.667 5.33301 -23 9s-2.16602 8.83398 0.500977 15.501z" />
    <glyph glyph-name="greater" unicode="&#x3e;" horiz-adv-x="522" 
d="M356 286c-6 -0.666992 -24.835 -7.83105 -56.502 -21.498s-47.834 -20.5 -48.501 -20.5c-2 -0.666992 -7.33301 -3 -16 -7l-33 -15.5l-37 -17.5c-31.333 -15.333 -51.833 -24.5 -61.5 -27.5s-17.5 -2.83301 -23.5 0.5c-9.33301 4.66699 -10.5 13.667 -3.5 27
s13.833 19.666 20.5 18.999c7.33301 0 19.666 4.33301 36.999 13c11.333 6.66699 42.333 20.334 93 41.001s85 36 103 46c9.33301 5.33301 20 9 32 11s21.667 5.33301 29 10c4.66699 3.33301 7.33398 5.66602 8.00098 6.99902s0 2.83301 -2 4.5
s-6.33301 3.83398 -13 6.50098c-108.667 34.667 -197.667 70.667 -267 108c-19.333 10.667 -37.666 17 -54.999 19c-25.333 0 -35.333 15.667 -30 47c2 4.66699 3.83301 7.5 5.5 8.5s4.33398 1 8.00098 0s9.5 -3.83301 17.5 -8.5c38 -20.667 105 -49.334 201 -86.001
s163.333 -59.334 202 -68.001c10 -2 17.333 -7 22 -15s4.33398 -14.667 -0.999023 -20c-4 -4 -25.667 -15.167 -65 -33.5s-61.333 -27.5 -66 -27.5z" />
    <glyph glyph-name="question" unicode="?" horiz-adv-x="338" 
d="M247 124c4.66699 -0.666992 8.5 0.5 11.5 3.5s4.33301 6.33301 4 10s-2.5 6.16699 -6.5 7.5c-4.66699 0 -9.66699 -3.33301 -15 -10c-3.33301 -4.66699 -4.83301 -7.66699 -4.5 -9s3.83301 -2 10.5 -2zM217 163c13.333 12 27.502 17.832 42.502 17.499
s27.167 -6.83301 36.5 -19.5c7.33301 -9.33301 11.166 -15.333 11.499 -18s-2.5 -8.66699 -8.5 -18c-8.66699 -14 -15.334 -23 -20.001 -27c-5.33301 -5.33301 -17.333 -8.16602 -36 -8.49902s-30.667 2.16699 -36 7.5c-7.33301 7.33301 -10 18 -8 32s8 25.333 18 34z
M233.002 285.999c4 -1.33301 6.83203 -6.66602 8.49902 -15.999s4.16699 -15 7.5 -17c5.33301 -7.33301 5.66602 -16 0.999023 -26s-12 -13.333 -22 -10c-11.333 1.33301 -19.833 8.83301 -25.5 22.5s-11.167 40.167 -16.5 79.5c-3.33301 25.333 -3 53.666 1 84.999
s10.333 52 19 62c6 7.33301 11.667 27.333 17 60s6 53 2 61c-6.66699 16 -22.167 25 -46.5 27s-44.5 -3.66699 -60.5 -17c-12.667 -10.667 -30 -42 -52 -94c-8.66699 -22.667 -20 -27 -34 -13c-5.33301 5.33301 -3 22.166 7 50.499s21.667 50.166 35 65.499
c10 12 21.833 22.333 35.5 31s29.834 15 48.501 19s36.334 0.666992 53.001 -10c26.667 -15.333 44.167 -31.666 52.5 -48.999s9.83301 -41.666 4.5 -72.999c-4.66699 -30 -12 -54.333 -22 -73c-5.33301 -10.667 -10 -29.834 -14 -57.501s-5.83301 -51.667 -5.5 -72
s2.5 -32.166 6.5 -35.499z" />
    <glyph glyph-name="at" unicode="@" horiz-adv-x="482" 
d="M258 402c-19.333 15.333 -41.668 11.999 -67.001 -10.001c-13.333 -11.333 -23.5 -25.5 -30.5 -42.5s-13.167 -43.167 -18.5 -78.5c-6.66699 -48 -4.66699 -81 6 -99s29.334 -20.667 56.001 -8c16 7.33301 27.667 20.833 35 40.5s14.333 54.5 21 104.5
c5.33301 40 7.83301 64.333 7.5 73s-3.5 15.334 -9.5 20.001zM254.998 150.999c0 -6 -12.0068 -13.6621 -36.0068 -22.9951c-18 -7.33301 -29.833 -11.5 -35.5 -12.5s-14.5 0.833008 -26.5 5.5c-18.667 7.33301 -31.667 15.666 -39 24.999s-13.333 24.333 -18 45
c-5.33301 24.667 -4.33301 57.334 3 98.001c6.66699 36 13.834 63 21.501 81s19.5 34.667 35.5 50c10 9.33301 18.833 15.666 26.5 18.999s19.5 5.66602 35.5 6.99902c18 1.33301 29.833 0.833008 35.5 -1.5s14.834 -10.5 27.501 -24.5l25 -28l-4 -106
c-1.33301 -44.667 -1.5 -74.5 -0.5 -89.5s4.16699 -26.167 9.5 -33.5c9.33301 -14.667 20.333 -21 33 -19s25.334 12.333 38.001 31c10 15.333 16 28.833 18 40.5s3 43.5 3 95.5c0 29.333 -0.166992 50.833 -0.5 64.5s-1.66602 26.834 -3.99902 39.501
s-4.33301 20.834 -6 24.501s-6 12.667 -13 27s-13.167 27.5 -18.5 39.5c-16 36.667 -26.333 55 -31 55c-4 0 -8.33301 5.33301 -13 16c-6 11.333 -19.333 21.666 -40 30.999c-44.667 22.667 -86.5 18.5 -125.5 -12.5s-64.5 -80.167 -76.5 -147.5
c-6.66699 -36.667 -7 -99.334 -1 -188.001s14.667 -152 26 -190c6.66699 -22.667 19.334 -46 38.001 -70s35.667 -38.667 51 -44c11.333 -4 29.333 -6.16699 54 -6.5s43.334 1.16699 56.001 4.5c15.333 4.66699 30.333 15.667 45 33s24.667 36 30 56
c6.66699 20.667 12.334 33.667 17.001 39s12 6.33301 22 3c8.66699 -3.33301 13 -8.5 13 -15.5s-4.33301 -22.833 -13 -47.5c-9.33301 -25.333 -24.333 -48.5 -45 -69.5s-41.667 -34.167 -63 -39.5c-19.333 -4.66699 -43.666 -7 -72.999 -7s-44 2.33301 -44 7
s-4.66699 7 -14 7c-11.333 0 -27.833 11.167 -49.5 33.5s-38.167 45.166 -49.5 68.499c-12 25.333 -20.5 49.5 -25.5 72.5s-9.16699 55.167 -12.5 96.5l-7 88c-5.33301 43.333 -5.5 91.666 -0.5 144.999s13.167 94.333 24.5 123c7.33301 20.667 26.666 43.5 57.999 68.5
s58.666 39.5 81.999 43.5c28.667 4.66699 57.167 1 85.5 -11s52.5 -30.667 72.5 -56c12.667 -16.667 43.667 -75.334 93 -176.001l2 -84c2 -56 0.166992 -96.667 -5.5 -122s-18.167 -48 -37.5 -68c-18.667 -19.333 -35.667 -31 -51 -35s-31.666 -0.666992 -48.999 10
c-16 10 -25.333 19.333 -28 28c-3.33301 9.33301 -9.33301 14 -18 14c-4.66699 0 -7 -2.66699 -7 -8z" />
    <glyph glyph-name="A" unicode="A" horiz-adv-x="473" 
d="M295 569c-12.667 9.33301 -35.335 7.66602 -68.002 -5.00098c-12.667 -4.66699 -29.667 -17.667 -51 -39s-36.333 -40.666 -45 -57.999c-5.33301 -10.667 -9.16602 -38.167 -11.499 -82.5s-1.16602 -68.833 3.50098 -73.5c2.66699 -3.33301 16.667 -2.66602 42 2.00098
c38 7.33301 106.333 10.333 205 9c-4.66699 46.667 -15.167 97.667 -31.5 153s-30.833 86.666 -43.5 93.999zM122.999 82c-14 0 -24.502 16.502 -31.502 49.502s-12.167 93.833 -15.5 182.5c-1.33301 40.667 -7 95.667 -17 165s-17.667 106 -23 110
c-7.33301 0 -8.66602 6 -3.99902 18c2 4.66699 5 9 9 13c17.333 17.333 29.666 5.33301 36.999 -36c2 -8 3.33301 -16.667 4 -26c4 -37.333 9 -56 15 -56c2.66699 -0.666992 6.66699 3 12 11c43.333 64.667 99.333 96.667 168 96c17.333 0 28.833 -1.16699 34.5 -3.5
s12.167 -8.16602 19.5 -17.499c36.667 -45.333 65.334 -160 86.001 -344c4.66699 -42.667 11 -77.334 19 -104.001c6.66699 -20.667 8.33398 -35.5 5.00098 -44.5s-11 -11.833 -23 -8.5c-13.333 3.33301 -24 36.666 -32 99.999c-4.66699 37.333 -9.5 61.833 -14.5 73.5
s-13.833 18.5 -26.5 20.5c-19.333 3.33301 -52.5 3.83301 -99.5 1.5s-78.5 -5.83301 -94.5 -10.5l-31 -10c4.66699 -80.667 9.66699 -126.334 15 -137.001c3.33301 -6.66699 3.33301 -15.5 0 -26.5s-7.33301 -16.5 -12 -16.5z" />
    <glyph glyph-name="B" unicode="B" horiz-adv-x="531" 
d="M197 141c0 -11.333 8.5 -19.332 25.5 -23.999s38.833 -5.66699 65.5 -3c17.333 2 32 5.5 44 10.5s28.667 14.5 50 28.5c28 18.667 47 34.667 57 48s17 32.333 21 57c6 38 -9.66699 75 -47 111c-16 15.333 -33 22.666 -51 21.999c-22 0.666992 -80.667 -16.333 -176 -51
c7.33301 -112.667 11 -179 11 -199zM169 518.001c0.666992 -18.667 2.83008 -38.666 6.49707 -59.999s5.5 -41 5.5 -59c34.667 16 70.334 25.667 107.001 29c33.333 3.33301 57 11 71 23c32 27.333 48 54.666 48 81.999c0 8 -2.16699 17.333 -6.5 28s-9.33301 19 -15 25
s-10.167 8 -13.5 6c-4.66699 -2.66699 -7.66699 -1.33398 -9 3.99902c-1.33301 4.66699 -16 9.33398 -44 14.001c-25.333 4 -42.666 5.83301 -51.999 5.5s-24.666 -3.5 -45.999 -9.5c-24.667 -6.66699 -40 -15 -46 -25s-8 -31 -6 -63zM137.996 335.002
c-2.66699 0 -4.33301 2.33887 -5 7.00586s-0.333984 9.83398 0.999023 15.501s3.33301 9.16699 6 10.5c4 7.33301 5 18.833 3 34.5s-4.5 37.167 -7.5 64.5s-3.83301 46.666 -2.5 57.999l-38 -25c-20.667 -13.333 -34.5 -20.833 -41.5 -22.5s-13.5 1.16602 -19.5 8.49902
c-6 6 -5.16699 12.833 2.5 20.5s14.5 11.5 20.5 11.5c8.66699 0 20.834 7.83301 36.501 23.5s22.5 26.834 20.5 33.501c-2.66699 7.33301 3 17.166 17 29.499s29.667 21.166 47 26.499c20 6.66699 31.667 11.667 35 15c4.66699 4 24.667 5.83301 60 5.5s62 -2.83301 80 -7.5
c20 -4.66699 39.333 -15.667 58 -33c24.667 -22.667 36.5 -49.167 35.5 -79.5s-14.833 -59.833 -41.5 -88.5l-14 -16c16.667 -4 34.167 -14.833 52.5 -32.5s33.166 -36.5 44.499 -56.5c9.33301 -19.333 13.666 -42.833 12.999 -70.5s-6 -50.167 -16 -67.5
c-4.66699 -8 -11.667 -16.667 -21 -26s-20.166 -19 -32.499 -29l-24.5 -20c-8 -6.66699 -20.333 -15.334 -37 -26.001c-16 -10.667 -39.167 -17.334 -69.5 -20.001s-58.166 -0.666992 -83.499 6c-10 3.33301 -18.333 5.16602 -25 5.49902s-11.5 0.833008 -14.5 1.5
s-7.16699 3.66699 -12.5 9c-6.66699 8 -11.667 46 -15 114c-2 59.333 -3.5 94.166 -4.5 104.499s-3.5 15.5 -7.5 15.5z" />
    <glyph glyph-name="C" unicode="C" horiz-adv-x="458" 
d="M378 462c-5.33301 0 -8.83496 1.66797 -10.502 5.00098s-3.16699 12.333 -4.5 27c-2 32.667 -14.667 61.667 -38 87c-12.667 13.333 -22.167 21.5 -28.5 24.5s-18.5 4.5 -36.5 4.5c-52.667 0 -93 -13.667 -121 -41c-30.667 -29.333 -51.167 -65.333 -61.5 -108
s-11.166 -95.667 -2.49902 -159c2 -18.667 13 -40.667 33 -66c26 -32 46.167 -53.833 60.5 -65.5s31.833 -20.834 52.5 -27.501c19.333 -6 32.166 -9 38.499 -9s16.833 3.33301 31.5 10c30.667 13.333 54.667 40.333 72 81c5.33301 12.667 11.333 20.834 18 24.501
s12.334 1.83398 17.001 -5.49902c4 -6.66699 3.66699 -19.334 -1 -38.001s-10.667 -32.334 -18 -41.001c-9.33301 -10 -15.333 -18 -18 -24c-10 -15.333 -31.333 -28.5 -64 -39.5s-56 -12.833 -70 -5.5c-4.66699 2.66699 -20 9.66699 -46 21
c-28.667 12.667 -57.167 35.5 -85.5 68.5s-47.166 65.167 -56.499 96.5c-7.33301 26 -10 62.167 -8 108.5s7.66699 81.833 17 106.5c17.333 44.667 41.333 79.834 72 105.501s64.667 39.5 102 41.5c8 0.666992 16 1.5 24 2.5s13.667 1.66699 17 2s7.83301 0.333008 13.5 0
s12.834 -1.16602 21.501 -2.49902c6 -0.666992 17 -8.33398 33 -23.001s31.333 -31.334 46 -50.001c9.33301 -12 15 -17.333 17 -16c0.666992 1.33301 2 4.66602 4 9.99902c5.33301 16.667 13.666 18 24.999 4c5.33301 -5.33301 3.83301 -18.166 -4.5 -38.499
s-11.833 -32.5 -10.5 -36.5c-1.33301 -10 -4.83301 -18.167 -10.5 -24.5s-12.167 -9.5 -19.5 -9.5z" />
    <glyph glyph-name="D" unicode="D" horiz-adv-x="535" 
d="M161 103c18.667 0 49.9971 6.49609 93.9971 19.4961s77.333 25.833 100 38.5c26.667 14.667 47.334 31.334 62.001 50.001s26 43 34 73c9.33301 36.667 10.833 73.334 4.5 110.001s-19.833 68 -40.5 94c-21.333 23.333 -36.666 39.5 -45.999 48.5
s-23.666 17.833 -42.999 26.5s-42.666 13.667 -69.999 15c-24 1.33301 -47.833 0.333008 -71.5 -3s-37.834 -7.33301 -42.501 -12c-3.33301 -3.33301 -6.33301 -73.666 -9 -210.999s-2.66699 -213.333 0 -228c2 -9.33301 4.5 -15.166 7.5 -17.499s9.83301 -3.5 20.5 -3.5z
M47.9971 517.996c-18 0 -22.999 7.33008 -14.999 21.9971c5.33301 8.66699 13.666 17.667 24.999 27c18.667 14.667 28 25.334 28 32.001c0 6 5.33301 13 16 21c10 6.66699 16.167 10 18.5 10s6.16602 -3.66699 11.499 -11c4 -5.33301 8.16699 -8.16602 12.5 -8.49902
s12.5 1.16699 24.5 4.5c36.667 11.333 81 12.333 133 3c23.333 -4.66699 47.5 -15.5 72.5 -32.5s46.5 -37.833 64.5 -62.5c22 -30 36.167 -51.833 42.5 -65.5s12.166 -36.167 17.499 -67.5c4.66699 -26 6.66699 -44 6 -54s-4 -26.333 -10 -49
c-9.33301 -34.667 -19.5 -61.5 -30.5 -80.5s-26.167 -36.5 -45.5 -52.5c-25.333 -20.667 -48.666 -36 -69.999 -46s-52.666 -20 -93.999 -30c-83.333 -20 -135 -23.333 -155 -10c-4.66699 2.66699 -7.33398 8.66699 -8.00098 18c-1.33301 18 -1 130.333 1 337
c0.666992 80 -0.333008 120.667 -3 122c-1.33301 0.666992 -4.66602 -2.66602 -9.99902 -9.99902c-10 -11.333 -20.667 -17 -32 -17z" />
    <glyph glyph-name="E" unicode="E" horiz-adv-x="497" 
d="M417 614c0 8 -1.00195 13.666 -3.00195 16.999s-4.16699 3.66602 -6.5 0.999023s-4.16602 -8 -5.49902 -16c-3.33301 -17.333 -1.66602 -25.666 5.00098 -24.999c2 0 4 1 6 3c2.66699 2.66699 4 9.33398 4 20.001zM466.998 732.999
c0 -4 -6.32812 -14.6748 -18.9951 -32.0078c-8.66699 -13.333 -13.334 -22.333 -14.001 -27s1.66602 -12 6.99902 -22c16 -27.333 16.667 -51.333 2 -72s-36 -25.667 -64 -15c-6.66699 2.66699 -10.334 10.834 -11.001 24.501s1.66602 29.834 6.99902 48.501
c5.33301 16 4.33301 27.333 -3 34c-12 11.333 -39.5 15.333 -82.5 12s-76.167 -11.666 -99.5 -24.999c-24.667 -14.667 -42.667 -43.167 -54 -85.5s-10.333 -75.833 3 -100.5c6.66699 -11.333 12.334 -18 17.001 -20s17.667 -3 39 -3c29.333 0 55 -5.33301 77 -16
c11.333 -6 23 -9.33301 35 -10s21.667 -4.33398 29 -11.001c8.66699 -9.33301 10.334 -17.333 5.00098 -24c-22.667 -22.667 -77.667 -21.667 -165 3c-16 4 -26.667 5.33301 -32 4s-13 -6.66602 -23 -15.999c-35.333 -34 -51 -77 -47 -129
c1.33301 -28 6.16602 -49 14.499 -63s23.5 -28 45.5 -42c29.333 -15.333 62 -18.666 98 -9.99902s61.667 23 77 43c10 12 19 16.333 27 13c22.667 -8.66699 22.667 -24.667 0 -48c-15.333 -14.667 -36.666 -27 -63.999 -37s-56.833 -14.5 -88.5 -13.5
s-57.834 9.5 -78.501 25.5c-12.667 10 -21.334 17 -26.001 21s-10 9.66699 -16 17s-11 15.666 -15 24.999c-17.333 36.667 -22.166 75.834 -14.499 117.501s26.167 76.834 55.5 105.501l31 30l-11 22c-12.667 24.667 -17.334 58.334 -14.001 101.001s12.666 71 27.999 85
c10 8.66699 16.667 17.667 20 27c4 10.667 23 21.167 57 31.5s66 15.833 96 16.5c40 0 75.667 -7.33301 107 -22c6.66699 14.667 15.5 26.334 26.5 35.001s23.5 9.33398 37.5 2.00098z" />
    <glyph glyph-name="F" unicode="F" horiz-adv-x="456" 
d="M289 603c84 0 129.332 -4.32812 135.999 -12.9951c2 -4 1.33301 -9 -2 -15c-3.33301 -6.66699 -11.666 -10.667 -24.999 -12s-49 -2 -107 -2h-125v-169c16 -2 82.333 -4.33301 199 -7c24.667 -0.666992 39.5 -1.83398 44.5 -3.50098s8.5 -6.83398 10.5 -15.501
c2.66699 -9.33301 1.66699 -17 -3 -23s-10.334 -7 -17.001 -3c-19.333 4 -95.666 7.33301 -228.999 10c-5.33301 -14.667 -8.33301 -55.834 -9 -123.501s0.666016 -106.5 3.99902 -116.5c1.33301 -2.66699 -0.5 -5.33398 -5.5 -8.00098s-10.833 -4.33398 -17.5 -5.00098
s-12 0 -16 2c-5.33301 3.33301 -6.66602 31.333 -3.99902 84c4 62.667 7 134 9 214s2 124.333 0 133c-1.33301 5.33301 -2.83301 8.83301 -4.5 10.5s-4.5 2.16699 -8.5 1.5s-11 -2.66699 -21 -6c-38.667 -13.333 -61 -13 -67 1c-2.66699 6.66699 0 12.667 8 18
s19.333 8.66602 34 9.99902c10.667 0.666992 21 4.83398 31 12.501s16.667 16.5 20 26.5c3.33301 8 8.83301 12.833 16.5 14.5s15.167 -0.5 22.5 -6.5c6.66699 -6 48.667 -9 126 -9z" />
    <glyph glyph-name="G" unicode="G" horiz-adv-x="562" 
d="M456 563l8.99902 -16.4961c3.33301 -6.33301 5.16602 -10.333 5.49902 -12s2 -2.16699 5 -1.5s5.16699 2 6.5 4s5.66602 6.66699 12.999 14c21.333 21.333 33.666 20.333 36.999 -3c1.33301 -10.667 -3 -18.334 -13 -23.001c-7.33301 -4 -18 -15.667 -32 -35
s-20.333 -31.333 -19 -36c1.33301 -2.66699 -2 -7.33398 -10 -14.001c-6.66699 -6 -14 -5.33301 -22 2c-7.33301 7.33301 -8 19 -2 35c6.66699 17.333 6 36 -2 56c-11.333 28.667 -25.5 49.334 -42.5 62.001s-40.167 19.667 -69.5 21c-44.667 2 -87.667 -10 -129 -36
c-29.333 -18 -48 -32.667 -56 -44c-2 -2.66699 -2 -4 0 -4s-4.66699 -7 -20 -21c-32 -27.333 -48 -84.666 -48 -171.999c0 -43.333 3.66699 -75.666 11 -96.999s21.333 -40 42 -56c10.667 -10 21.834 -17.5 33.501 -22.5s20.834 -9.83301 27.501 -14.5
c16 -14.667 42.167 -24.334 78.5 -29.001s67.5 -2.33398 93.5 6.99902c22 7.33301 37.5 17.666 46.5 30.999s13.5 32.333 13.5 57c0 27.333 -1.33301 45 -4 53c-2.66699 6.66699 -13.167 10.167 -31.5 10.5s-37.166 -2.5 -56.499 -8.5
c-15.333 -4.66699 -25.166 -5.83398 -29.499 -3.50098s-4.83301 8.5 -1.5 18.5c6 20 43.667 31 113 33c38 1.33301 65 3.66602 81 6.99902c24 4.66699 35.333 1.66699 34 -9c-1.33301 -11.333 -15 -21.333 -41 -30l-27 -9v-40c0.666992 -30.667 -1.5 -54.167 -6.5 -70.5
s-15.5 -32.5 -31.5 -48.5c-20 -20 -31 -29.333 -33 -28c-4.66699 1.33301 -15.667 0.333008 -33 -3c-42 -8 -71.333 -10.833 -88 -8.5s-44.667 13.166 -84 32.499c-41.333 20 -70.166 37.667 -86.499 53s-30.166 37.333 -41.499 66
c-12.667 32.667 -17.834 76.334 -15.501 131.001s10.833 97.667 25.5 129c13.333 26.667 35.5 53.5 66.5 80.5s63.5 48.167 97.5 63.5c18.667 7.33301 33.667 11.833 45 13.5s29.666 2.16699 54.999 1.5c38 -2 66.167 -8.83301 84.5 -20.5s35.5 -33.5 51.5 -65.5z" />
    <glyph glyph-name="H" unicode="H" horiz-adv-x="568" 
d="M395 381c34.667 0 56 0.673828 64 2.00684s12.667 5.33301 14 12c2 11.333 2.5 42.833 1.5 94.5s-2.83301 81.167 -5.5 88.5c-3.33301 10 -2.66602 18 2.00098 24s11.334 7.66699 20.001 5c9.33301 -3.33301 15.333 -17.833 18 -43.5s5 -88.834 7 -189.501
c2 -104 6.66699 -176.667 14 -218c3.33301 -18 5.66602 -32.667 6.99902 -44s1.5 -20.5 0.5 -27.5s-3 -11.667 -6 -14s-7.5 -2.83301 -13.5 -1.5c-6 -0.666992 -10.5 2.66602 -13.5 9.99902s-5.33301 15.666 -7 24.999s-3.83398 15 -6.50098 17
c-4.66699 4.66699 -5.66699 8.33398 -3 11.001c0.666992 12 -1.5 33.5 -6.5 64.5s-7.5 54.5 -7.5 70.5c-2.66699 31.333 -6.16699 51.666 -10.5 60.999s-12.166 14 -23.499 14c-164 1.33301 -253 -2.66699 -267 -12c-4 -2 -5.33301 -26 -4 -72s4.66602 -81.667 9.99902 -107
c6 -31.333 8 -50.333 6 -57c-2 -7.33301 -7.83301 -11.5 -17.5 -12.5s-15.5 1.83301 -17.5 8.5c-12 35.333 -20.667 147.666 -26 336.999c-2.66699 78 -5.66699 120.667 -9 128c-2 5.33301 -4.66699 7.83301 -8 7.5s-11.666 -3.83301 -24.999 -10.5
c-19.333 -10.667 -32.333 -13.334 -39 -8.00098c-19.333 11.333 -15.333 23.666 12 36.999c17.333 9.33301 28 16.666 32 21.999c2.66699 4 10.167 6.16699 22.5 6.5s21.833 -1.5 28.5 -5.5c12 -7.33301 21.667 -60.333 29 -159l5 -70
c67.333 2.66699 141.666 4.66699 222.999 6z" />
    <glyph glyph-name="I" unicode="I" horiz-adv-x="192" 
d="M70 596c3.33301 -1.33301 11.501 4.16895 24.501 16.502s20.5 18.5 22.5 18.5c10.667 0 17.667 -18.667 21 -56s6.66602 -124 9.99902 -260c2.66699 -120.667 5.33398 -183 8.00098 -187c4.66699 -6.66699 6.5 -14.167 5.5 -22.5s-4.16699 -13.5 -9.5 -15.5
c-3.33301 -0.666992 -7.16602 -3 -11.499 -7s-7.5 -6.16699 -9.5 -6.5s-6 2.5 -12 8.5c-6.66699 8 -10.334 74.667 -11.001 200c-0.666992 135.333 -2.33398 224 -5.00098 266c-0.666992 7.33301 -2 11.166 -4 11.499s-8 -1.83398 -18 -6.50098
c-3.33301 -2 -6.83301 -3.5 -10.5 -4.5s-6.66699 -1.66699 -9 -2s-5.33301 0.166992 -9 1.5s-6.16699 2.33301 -7.5 3s-3.83301 2 -7.5 4s-6.16699 3.33301 -7.5 4c20 22 33.333 33.333 40 34z" />
    <glyph glyph-name="J" unicode="J" horiz-adv-x="431" 
d="M375 563c0 5.33301 4.33594 1.99902 13.0029 -10.001l2 -2c7.33301 -9.33301 11.166 -15.5 11.499 -18.5s-3.16699 -7.83301 -10.5 -14.5c-6.66699 -6.66699 -12.334 -9.66699 -17.001 -9s-15 5 -31 13c-19.333 10 -29 13 -29 9c0 -0.666992 0.333008 -1.66699 1 -3
c2.66699 -8.66699 5.33398 -39.667 8.00098 -93c3.33301 -54 -0.333984 -106 -11.001 -156c-8 -37.333 -15.5 -64 -22.5 -80s-17.833 -31.667 -32.5 -47c-8.66699 -9.33301 -16.834 -15 -24.501 -17s-27.5 -4.66699 -59.5 -8c-26 -2.66699 -47.667 -1.5 -65 3.5
s-34 15.167 -50 30.5c-11.333 10 -18.333 18.5 -21 25.5s-4.66699 20.833 -6 41.5c-1.33301 20 -1.33301 32.333 0 37s5.33301 7 12 7c18 0 25.667 -12.333 23 -37c-2 -20.667 4.66699 -37.5 20 -50.5s37 -20.5 65 -22.5c44.667 -3.33301 76.334 8.66699 95.001 36
c16.667 26 27.667 73.333 33 142s3 132.334 -7 191.001c-6.66699 44.667 -9.33398 69 -8.00098 73s7 8.33301 17 13l30 -28c22.667 -21.333 41.667 -32 57 -32c4.66699 0 7 2 7 6z" />
    <glyph glyph-name="K" unicode="K" horiz-adv-x="416" 
d="M289 406c5.33301 0 13.4951 -5.66699 24.4951 -17s20.833 -24 29.5 -38c2.66699 -4 6.66699 -27.667 12 -71c7.33301 -79.333 16.333 -125.333 27 -138c4 -4.66699 4.83301 -11.5 2.5 -20.5s-6.16602 -15.5 -11.499 -19.5c-6.66699 -4.66699 -15 -4 -25 2
c-4 2 -5.33301 4.33301 -4 7c2.66699 5.33301 2 10.333 -2 15c-2.66699 2.66699 -5.16699 14.167 -7.5 34.5s-4.16602 31.833 -5.49902 34.5c-3.33301 7.33301 -8 40.333 -14 99c-2.66699 26.667 -7.66699 41.334 -15 44.001c-6.66699 3.33301 -9 6.33301 -7 9
c7.33301 6.66699 3 12.667 -13 18c-8 3.33301 -17 5 -27 5c-12.667 0 -22.667 -1.83301 -30 -5.5s-17.666 -12.167 -30.999 -25.5l-31 -31l2 -92c0.666992 -62.667 -2.66602 -95 -9.99902 -97c-4.66699 -0.666992 -10.667 2.33301 -18 9
c-9.33301 8.66699 -13.666 22.334 -12.999 41.001c1.33301 31.333 1.5 102 0.5 212s-2.16699 165 -3.5 165c-3.33301 0 -15.666 -4.66699 -36.999 -14c-34.667 -14.667 -52 -13 -52 5c0 8 11.667 17.667 35 29c23.333 9.33301 40 21 50 35
c7.33301 8.66699 12.166 13.334 14.499 14.001s6.83301 -2.33301 13.5 -9c5.33301 -6 9 -16 11 -30s3.33301 -44.333 4 -91c1.33301 -72 3.66602 -108 6.99902 -108c5.33301 0 21.333 14.333 48 43s45.667 52 57 70c9.33301 14 18.333 28.833 27 44.5
s15.334 28.667 20.001 39s6.33398 15.5 5.00098 15.5v3c0 1.33301 0.333008 3.83301 1 7.5s1.66699 7.16699 3 10.5c4 11.333 10.167 18.166 18.5 20.499s15.833 -0.5 22.5 -8.5c4 -5.33301 2.16699 -20.333 -5.5 -45s-16.834 -44.334 -27.501 -59.001
c-6 -7.33301 -14.333 -21 -25 -41s-19.667 -33.667 -27 -41c-4.66699 -5.33301 -7.66699 -10.333 -9 -15s-0.5 -8.33398 2.5 -11.001s7.5 -4 13.5 -4z" />
    <glyph glyph-name="L" unicode="L" horiz-adv-x="464" 
d="M69 619c20.667 17.333 35.167 22.5 43.5 15.5s15.166 -31.5 20.499 -73.5c4 -22 6.66699 -37.833 8 -47.5s2.33301 -21.834 3 -36.501s0.833984 -24.834 0.500977 -30.501s-1 -21.667 -2 -48s-1.83301 -49.833 -2.5 -70.5l-2.5 -63
c-1 -25.333 -1.66699 -43.166 -2 -53.499s0 -21.833 1 -34.5s2.83301 -23.334 5.5 -32.001c161.333 2.66699 252.333 2.33398 273 -0.999023c8 -3.33301 14 -11.333 18 -24c2 -6.66699 1.33301 -10 -2 -10c-4.66699 -1.33301 -58.334 -2.66602 -161.001 -3.99902
c-103.333 -2.66699 -158.333 0 -165 8c-4.66699 6 -6.66699 33.333 -6 82c1.33301 49.333 2 117.5 2 204.5s-0.666992 138.833 -2 155.5c-2.66699 30.667 -10.334 37.334 -23.001 20.001c-7.33301 -10.667 -15.666 -16.834 -24.999 -18.501s-15.666 1.83301 -18.999 10.5
c-2.66699 7.33301 -2.16699 13.5 1.5 18.5s15.5 15.833 35.5 32.5z" />
    <glyph glyph-name="M" unicode="M" horiz-adv-x="666" 
d="M79 554c-4.66699 -0.666992 -5.66309 -29.001 -2.99609 -85.001s6.66699 -100.667 12 -134c4 -26 8.66699 -70.667 14 -134c4 -58 2.66699 -90.333 -4 -97s-13.334 -7.33398 -20.001 -2.00098c-6.66699 6 -10 28 -10 66c0 22 -1.66699 48.5 -5 79.5
s-7.5 64.333 -12.5 100s-8.16699 60.5 -9.5 74.5l-9 117c-4.66699 56.667 -1.16699 86.834 10.5 90.501s38.834 -16.833 81.501 -61.5c41.333 -42.667 85.666 -104 132.999 -184c35.333 -58.667 61.666 -106 78.999 -142c10 -22.667 17 -34 21 -34
c2.66699 0 8.33398 12.667 17.001 38c6 20.667 26.333 69.334 61 146.001c48 108 76.667 185 86 231c2 10 4.33301 16.167 7 18.5s8 3.16602 16 2.49902c11.333 -1.33301 18.833 -10.666 22.5 -27.999s8.5 -66.333 14.5 -147c8 -115.333 22.333 -223 43 -323
c7.33301 -34 11.166 -54.833 11.499 -62.5s-1.83398 -14.5 -6.50098 -20.5c-7.33301 -7.33301 -14.333 -9.66602 -21 -6.99902c-8.66699 3.33301 -20.834 50.333 -36.501 141s-25.5 171.667 -29.5 243l-5 80c-64.667 -138.667 -110 -245.334 -136 -320.001
c-10 -29.333 -19 -48.833 -27 -58.5s-16.667 -11.834 -26 -6.50098c-4.66699 3.33301 -20.667 32 -48 86c-20 39.333 -46.333 86.833 -79 142.5s-57 93.834 -73 114.501c-15.333 20.667 -29.833 38.5 -43.5 53.5s-22.167 22.5 -25.5 22.5z" />
    <glyph glyph-name="N" unicode="N" horiz-adv-x="599" 
d="M381 90c1.33301 1.33301 -10.3359 20.665 -35.0029 57.998s-36.667 56.333 -36 57c-5.33301 10 -19.666 30.833 -42.999 62.5s-37.666 51.834 -42.999 60.501l-18.5 29.5l-33 52.5l-36 56c-12.333 18.667 -22.833 33.667 -31.5 45s-14 16 -16 14
c-2 -23.333 -5.33301 -86 -10 -188s-8.66699 -167.667 -12 -197c-4 -49.333 -12.667 -73 -26 -71l-5 2c-6 4 -7.66699 14.333 -5 31c13.333 159.333 20.666 278 21.999 356c2.66699 82.667 5.33398 129.334 8.00098 140.001c6 19.333 21.333 11 46 -25l109.5 -164
c39 -60 72.5 -109.333 100.5 -148c16 -19.333 38.333 -54.333 67 -105c1.33301 34 7.33301 88.667 18 164s16.334 135.666 17.001 180.999c1.33301 45.333 2.66602 72 3.99902 80s6.33301 12.333 15 13c7.33301 0.666992 12.833 -1 16.5 -5s8.16699 -13.333 13.5 -28
c8.66699 -24.667 18.667 -40.667 30 -48s25.666 -7.66602 42.999 -0.999023c10.667 4 18.667 1.33301 24 -8c6.66699 -12.667 5.83398 -21.834 -2.49902 -27.501s-22.833 -7.16699 -43.5 -4.5c-24 2.66699 -38.333 6.33398 -43 11.001
c-7.33301 7.33301 -12.333 6.66602 -15 -2.00098c-2 -6 -4 -21 -6 -45c-2 -18.667 -5.5 -45 -10.5 -79s-9 -66.167 -12 -96.5s-4.16699 -60.166 -3.5 -89.499c0.666992 -55.333 -2.66602 -86.666 -9.99902 -93.999c-4.66699 -7.33301 -12.167 -8.33301 -22.5 -3
s-15.5 10.666 -15.5 15.999z" />
    <glyph glyph-name="O" unicode="O" horiz-adv-x="353" 
d="M130 131c7.33301 0 16.3291 -2.66602 26.9961 -7.99902s23.834 -4.83301 39.501 1.5s27.834 16.166 36.501 29.499c26.667 45.333 42.334 106.333 47.001 183c2 30 2.33301 51.333 1 64s-5.66602 29.334 -12.999 50.001c-11.333 30.667 -18.333 46 -21 46
c-3.33301 0 -7.33301 5.33301 -12 16c-5.33301 10.667 -20.333 22.667 -45 36c-43.333 22 -73.666 24.167 -90.999 6.5s-28 -61.834 -32 -132.501c-6.66699 -108.667 3.66602 -192 30.999 -250c13.333 -28 24 -42 32 -42zM109.996 605.001
c10 2.66699 24.8359 2.49902 44.5029 -0.500977s35.5 -7.83301 47.5 -14.5c30 -14.667 52.5 -32 67.5 -52s29.833 -51.333 44.5 -94c17.333 -50 7.66602 -138 -29.001 -264c-4.66699 -15.333 -13 -31.5 -25 -48.5s-24 -29.167 -36 -36.5
c-14.667 -9.33301 -35.334 -12.666 -62.001 -9.99902c-29.333 3.33301 -49.833 8.5 -61.5 15.5s-22.5 21.5 -32.5 43.5c-17.333 38 -28.333 72 -33 102s-6 77.333 -4 142c1.33301 52 3 86.833 5 104.5s6.33301 33.167 13 46.5c17.333 37.333 37.666 59.333 60.999 66z" />
    <glyph glyph-name="P" unicode="P" horiz-adv-x="481" 
d="M342 588c-48 22 -93.3311 17.667 -135.998 -13c-17.333 -12 -27.333 -24.167 -30 -36.5s-2 -41.5 2 -87.5c5.33301 -61.333 8 -95.333 8 -102c0.666992 -8.66699 3.16699 -13.834 7.5 -15.501s18.833 -2.16699 43.5 -1.5c25.333 0.666992 43.5 2.33398 54.5 5.00098
s28.167 9.66699 51.5 21c30.667 14.667 51.667 37.5 63 68.5s11.166 62 -0.500977 93s-32.834 53.833 -63.501 68.5zM184.002 260c0 -18.667 2.66504 -44.665 7.99805 -77.998c4 -21.333 5.66699 -34.833 5 -40.5s-4 -10.5 -10 -14.5c-8.66699 -6 -17 -6.66699 -25 -2
c-6 2.66699 -9.66699 10.667 -11 24s-2 47 -2 101c0 52.667 -2 109.5 -6 170.5s-8 93.167 -12 96.5c-1.33301 1.33301 -14.333 -4 -39 -16s-42 -16.333 -52 -13l-8 4c-1.33301 0.666992 -1.83301 2 -1.5 4s1.33301 4 3 6s5.16699 5.33301 10.5 10
c5.33301 5.33301 17.833 14.5 37.5 27.5s32.834 25.833 39.501 38.5c6 10 11.5 16.667 16.5 20s11.833 5 20.5 5c13.333 0.666992 25.166 4.16699 35.499 10.5s20.166 10.833 29.499 13.5c14.667 6 38.334 9.66699 71.001 11c18.667 0 32.334 -1.33301 41.001 -4
s20.667 -9 36 -19c38 -26 62.333 -58 73 -96c13.333 -47.333 9 -90.333 -13 -129s-58.333 -66.334 -109 -83.001c-9.33301 -3.33301 -17.666 -5.83301 -24.999 -7.5s-14.833 -2.83398 -22.5 -3.50098s-14 -1.16699 -19 -1.5s-12.667 -0.5 -23 -0.5h-25.5
c-11.333 -0.666992 -18 -2.5 -20 -5.5s-3 -12.5 -3 -28.5z" />
    <glyph glyph-name="Q" unicode="Q" horiz-adv-x="486" 
d="M303 179c0 2 -6.16895 9.33301 -18.502 22s-16.5 22 -12.5 28c2.66699 10 8.83398 14.667 18.501 14s19.5 -6.66699 29.5 -18l16 -19c30.667 42 41.334 98.333 32.001 169c-5.33301 43.333 -17.5 80.166 -36.5 110.499s-42.5 50.166 -70.5 59.499
c-16.667 6 -28.667 8.5 -36 7.5s-13.666 -5.16699 -18.999 -12.5c-6 -8.66699 -15 -11.667 -27 -9c-16 3.33301 -31.667 -0.5 -47 -11.5s-28 -27.167 -38 -48.5c-18.667 -37.333 -26.5 -83.5 -23.5 -138.5s15.5 -98.833 37.5 -131.5
c10.667 -15.333 26.167 -28.666 46.5 -39.999s39.166 -17 56.499 -17c14.667 0.666992 33.667 5.33398 57 14.001s35 15.667 35 21zM365.998 177c0 -2 14 -9.66992 42 -23.0029c38 -17.333 53 -32.333 45 -45c-5.33301 -8.66699 -20.5 -9 -45.5 -1s-45.5 19.667 -61.5 35
c-6.66699 6.66699 -16 5.33398 -28 -3.99902c-29.333 -21.333 -61.166 -33.5 -95.499 -36.5s-64.166 3.83301 -89.499 20.5c-22 14 -37.667 26.333 -47 37c-25.333 28 -42.5 68.833 -51.5 122.5s-6.83301 103.834 6.5 150.501c10 34.667 21 61 33 79s29.667 34 53 48
c9.33301 6.66699 20.833 11.334 34.5 14.001s24.167 6.33398 31.5 11.001c9.33301 6.66699 17.666 10 24.999 10s23.333 -3.33301 48 -10c38 -10.667 69 -33.5 93 -68.5s39.333 -78.5 46 -130.5c11.333 -82.667 2.66602 -144.667 -26.001 -186
c-8.66699 -10.667 -13 -18.334 -13 -23.001z" />
    <glyph glyph-name="R" unicode="R" horiz-adv-x="564" 
d="M184 380c0 -19.333 3.8291 -29.1699 11.4961 -29.5029s27.834 9.16699 60.501 28.5c36 20.667 61.5 37.334 76.5 50.001s27.5 28 37.5 46c18.667 28.667 22.334 55.334 11.001 80.001s-32 35.667 -62 33c-17.333 -0.666992 -40.166 -5.16699 -68.499 -13.5
s-51.833 -17.833 -70.5 -28.5c-9.33301 -5.33301 -15 -10.166 -17 -14.499s-2.66699 -12.5 -2 -24.5c0.666992 -10 4.83398 -30 12.501 -60s11.167 -52.333 10.5 -67zM418.996 243.996c-5.33301 0 0.333984 -11.0029 17.001 -33.0029c8 -9.33301 14.333 -15.666 19 -18.999
c8.66699 -5.33301 22.334 -8 41.001 -8c16.667 0 28.167 -3.66699 34.5 -11s5.16602 -15.333 -3.50098 -24s-23.334 -12.334 -44.001 -11.001s-38.667 7 -54 17c-16 11.333 -32 35.333 -48 72c-15.333 36.667 -27 60.5 -35 71.5s-19.333 19.833 -34 26.5
c-13.333 6 -25 8.33301 -35 7s-27.667 -7.66602 -53 -18.999c-15.333 -7.33301 -24.666 -12.833 -27.999 -16.5s-4 -10.5 -2 -20.5c0.666992 -5.33301 2.83398 -27.833 6.50098 -67.5s6.16699 -63.167 7.5 -70.5c5.33301 -20.667 8 -34.334 8 -41.001
s-2.66699 -12.667 -8 -18c-9.33301 -8.66699 -16.833 -10.167 -22.5 -4.5s-9.83398 19.167 -12.501 40.5c-2 18 -5.66699 47.833 -11 89.5s-9 80.5 -11 116.5c-5.33301 72 -15.333 128.667 -30 170c-4 10.667 -7.33301 15.667 -10 15
c-1.33301 -0.666992 -5 -3.16699 -11 -7.5s-11 -7.5 -15 -9.5c-13.333 -9.33301 -25.5 -14.166 -36.5 -14.499s-17.167 3.83398 -18.5 12.501c-0.666992 9.33301 7.66602 18 24.999 26c19.333 8.66699 33 21.334 41 38.001c10.667 20.667 19 33.5 25 38.5
s13.667 4.83301 23 -0.5c11.333 -6 34 -2 68 12c11.333 4 23.166 8.5 35.499 13.5s19.833 8 22.5 9s10.834 2.5 24.501 4.5s27.167 1.66699 40.5 -1c19.333 -1.33301 32.333 -3.33301 39 -6s15 -9.66699 25 -21c49.333 -56.667 36 -120 -40 -190l-42 -39
c2 -1.33301 6.5 -3.83301 13.5 -7.5s11.167 -6 12.5 -7s4.66602 -3.16699 9.99902 -6.5s8.83301 -5.83301 10.5 -7.5l8.5 -8.5c4 -4 7.16699 -7.83301 9.5 -11.5s5 -8.16699 8 -13.5l9.5 -17c6.66699 -14 11.834 -25.5 15.501 -34.5s5.16699 -13.5 4.5 -13.5z" />
    <glyph glyph-name="S" unicode="S" horiz-adv-x="496" 
d="M372 539c8.66699 -18 15.002 -27.1709 19.002 -27.5039s13.333 6.5 28 20.5c10.667 9.33301 18.167 14.666 22.5 15.999s9.5 -0.333984 15.5 -5.00098c6.66699 -5.33301 9.83398 -9.16602 9.50098 -11.499s-4.83301 -6.83301 -13.5 -13.5c-10 -8 -24.333 -20.667 -43 -38
c-30.667 -28.667 -48.334 -31 -53.001 -7l-7 35c-2 10.667 -10.333 24.5 -25 41.5s-28.334 28.833 -41.001 35.5c-24 12.667 -50 17.167 -78 13.5s-42 -13.167 -42 -28.5c0 -19.333 5 -37 15 -53s29.667 -37.333 59 -64c102.667 -94 150 -178 142 -252
c-4 -36 -17.167 -65 -39.5 -87s-51.166 -34.667 -86.499 -38c-66 -6 -115 4 -147 30c-20.667 16 -38.667 35.333 -54 58s-23 41.334 -23 56.001c0 16.667 4.33301 24.334 13 23.001c12 -2 24 -17.667 36 -47c21.333 -52.667 65 -81 131 -85
c50.667 -2.66699 86.667 10.333 108 39s26.666 68.334 15.999 119.001c-10.667 38 -53.334 93.333 -128.001 166c-29.333 29.333 -49.166 51.333 -59.499 66s-17.5 31.334 -21.5 50.001c-2.66699 12.667 -0.5 26.334 6.5 41.001s16.5 25 28.5 31
c8.66699 4.66699 26.167 6.66699 52.5 6s48.166 -3.33398 65.499 -8.00098c18 -5.33301 36.333 -16.166 55 -32.499s31.667 -32.833 39 -49.5z" />
    <glyph glyph-name="T" unicode="T" horiz-adv-x="496" 
d="M466 595c0 -7.33301 -4.66602 -13.834 -13.999 -19.501s-18 -7.16699 -26 -4.5c-8.66699 2 -50.334 0.333008 -125.001 -5c4.66699 -28 6.66699 -83.167 6 -165.5s-1.66699 -151.666 -3 -207.999s1 -95.5 7 -117.5c8.66699 -11.333 7.83398 -22.833 -2.49902 -34.5
s-20.5 -11.5 -30.5 0.5c-0.666992 1.33301 -1.33398 2.33301 -2.00098 3c-10.667 12.667 -13.334 139.334 -8.00098 380.001c0 77.333 -2.66699 125.666 -8 144.999c-6.66699 0 -31 -1 -73 -3s-77.667 -3 -107 -3s-43.666 2.33301 -42.999 7
c-13.333 16.667 -5.33301 26.334 24 29.001l15 1c184.667 3.33301 286.667 6.66602 306 9.99902c6.66699 0.666992 14.334 1.5 23.001 2.5l21 2.5c5.33301 0.666992 8.66602 1 9.99902 1c8 0.666992 15 -1 21 -5s9 -9.33301 9 -16z" />
    <glyph glyph-name="U" unicode="U" horiz-adv-x="385" 
d="M31 565c-3.33301 8.66699 -1.67188 14.3311 4.99512 16.998s14.667 3.33398 24 2.00098c3.33301 -1.33301 8.5 -19.5 15.5 -54.5s10.833 -62.167 11.5 -81.5c9.33301 -177.333 16 -273.666 20 -288.999c6.66699 -28 20.334 -48.333 41.001 -61
s41.667 -13.334 63 -2.00098c26.667 14.667 45.834 54.5 57.501 119.5s12.5 135.5 2.5 211.5c-12.667 90 -15.667 141 -9 153c4.66699 7.33301 12.5 8.33301 23.5 3s18.833 -14.333 23.5 -27c6 -16.667 14.333 -27.334 25 -32.001c17.333 -7.33301 24 -17.666 20 -30.999
s-15.333 -17.666 -34 -12.999c-9.33301 2.66699 -14.833 3.16699 -16.5 1.5s-1.16699 -7.16699 1.5 -16.5c5.33301 -21.333 8.5 -59 9.5 -113s-0.5 -97 -4.5 -129c-4 -36.667 -10.5 -65.834 -19.5 -87.501s-22.833 -41.167 -41.5 -58.5
c-31.333 -29.333 -67.666 -35.333 -108.999 -18c-23.333 10.667 -39.333 21.667 -48 33c-13.333 16.667 -22.166 40.667 -26.499 72s-9.16602 107.333 -14.499 228c-3.33301 68.667 -10 126.334 -20 173.001z" />
    <glyph glyph-name="V" unicode="V" horiz-adv-x="524" 
d="M478 589c8 0 12.9961 -1.16895 14.9961 -3.50195s2 -7.5 0 -15.5c0.666992 -4.66699 -14 -39.167 -44 -103.5s-45.333 -98.166 -46 -101.499c0 -8.66699 -15.333 -48 -46 -118c-2 -4.66699 -12.5 -23.834 -31.5 -57.501s-29.5 -55.834 -31.5 -66.501
c-2.66699 -10.667 -7.66699 -18.834 -15 -24.501s-14.666 -7.16699 -21.999 -4.5c-6 2.66699 -11.333 13.334 -16 32.001c-1.33301 12 -8.33301 31.833 -21 59.5s-29.5 62.167 -50.5 103.5s-34.5 68.333 -40.5 81c-36 74.667 -64 123.667 -84 147
c-6.66699 7.33301 -11.167 14.5 -13.5 21.5s-2.16602 12.5 0.500977 16.5s7.33398 6 14.001 6c10.667 -0.666992 26.667 -18 48 -52c19.333 -29.333 52.166 -89.166 98.499 -179.499s69.5 -139.166 69.5 -146.499c0 -8.66699 2.66699 -11.334 8 -8.00098
c3.33301 2 6.66602 6 9.99902 12c16.667 30.667 38.834 77.834 66.501 141.501s46.834 105.834 57.501 126.501c1.33301 0.666992 10.333 22.167 27 64.5s25.334 63.833 26.001 64.5c1.33301 3.33301 8.33301 5 21 5z" />
    <glyph glyph-name="W" unicode="W" horiz-adv-x="736" 
d="M339 363c0 -6.66699 -2.3291 -12.3262 -6.99609 -16.9932c-4 -8 -14.833 -31.167 -32.5 -69.5s-32.167 -66.833 -43.5 -85.5c-26.667 -45.333 -40.334 -69 -41.001 -71c-4 -8 -10.333 -13.333 -19 -16s-15.667 -1.33398 -21 3.99902c-4.66699 4.66699 -7.66699 14 -9 28
c-5.33301 51.333 -22.5 119 -51.5 203s-55.833 144 -80.5 180c-4.66699 7.33301 -5.66699 15 -3 23c8 21.333 26.333 6.66602 55 -44.001c40.667 -72.667 74 -163 100 -271c0.666992 -0.666992 1 -1.33398 1 -2.00098c7.33301 -34 13 -50.333 17 -49c6 4 25 40.833 57 110.5
s54 122.167 66 157.5c4 12.667 8.66699 23.167 14 31.5s10.5 13.333 15.5 15s9.5 0.5 13.5 -3.5c9.33301 -13.333 36.666 -66.833 81.999 -160.5s75 -152.167 89 -175.5l22.5 81c13.667 49.333 25.5 87.333 35.5 114c24 68 40.667 130 50 186
c4.66699 34.667 11 55.334 19 62.001c5.33301 3.33301 11.333 4.5 18 3.5s12.167 -3.83301 16.5 -8.5s5.16602 -9.33398 2.49902 -14.001c-10 -18.667 -18.333 -50.334 -25 -95.001c-2 -14.667 -8.33301 -38.834 -19 -72.501s-19.667 -57.834 -27 -72.501
c-6.66699 -13.333 -14.334 -38 -23.001 -74s-13.667 -56 -15 -60c-7.33301 -21.333 -13.333 -46 -18 -74c-6 -30.667 -10.667 -48.834 -14 -54.501s-9.33301 -7.16699 -18 -4.5c-6.66699 2.66699 -19.5 21.667 -38.5 57s-38.167 73.5 -57.5 114.5s-30.333 63.5 -33 67.5
c-14.667 27.333 -24 49 -28 65c-6 17.333 -12.333 27 -19 29c-5.33301 2 -11.833 -1.66699 -19.5 -11s-11.5 -18.333 -11.5 -27z" />
    <glyph glyph-name="X" unicode="X" horiz-adv-x="490" 
d="M413 603c17.333 0 18.6631 -13.667 3.99609 -41c-3.33301 -6 -7.66602 -12.667 -12.999 -20l-65.5 -100l-64.5 -98c-4 -5.33301 11.667 -26.666 47 -63.999c58 -62 100.333 -119.667 127 -173c14.667 -30.667 16 -46 4 -46c-9.33301 0 -18.666 5 -27.999 15
s-22.666 29.667 -39.999 59c-16 27.333 -40.667 61.666 -74 102.999s-54.333 64 -63 68c-2.66699 1.33301 -9.66699 -5 -21 -19l-38.5 -50l-34 -43.5l-25.5 -34.5c-10 -14 -19.167 -27.5 -27.5 -40.5s-17.166 -27.833 -26.499 -44.5c-8 -18 -17 -26.667 -27 -26
c-8 1.33301 -13.333 6.83301 -16 16.5s-1 18.167 5 25.5c8 10.667 19.5 27 34.5 49l37 53l34 46c13 17.333 25.167 32.333 36.5 45c27.333 32 41 51 41 57s-12 27 -36 63c-35.333 53.333 -56.666 86.333 -63.999 99s-10 21.667 -8 27
c3.33301 8.66699 9.66602 11.834 18.999 9.50098s16 -8.5 20 -18.5c4.66699 -12 18.5 -35.833 41.5 -71.5s41.5 -61.834 55.5 -78.501l131 196c17.333 24.667 29 37 35 37z" />
    <glyph glyph-name="Y" unicode="Y" horiz-adv-x="459" 
d="M278 363c14 0 27 5.99512 39 17.9951c7.33301 7.33301 11.5 15 12.5 23s0.5 26 -1.5 54c-0.666992 16.667 -2.5 36.334 -5.5 59.001s-3.83301 43 -2.5 61c2 10.667 4.16699 17 6.5 19s6.83301 1.66699 13.5 -1c8.66699 -3.33301 14.834 -11.166 18.501 -23.499
s7.16699 -36.833 10.5 -73.5c4 -47.333 11.667 -113.333 23 -198s20.666 -146 27.999 -184c6.66699 -34 9.83398 -56.833 9.50098 -68.5s-3.83301 -18.834 -10.5 -21.501c-8.66699 -2.66699 -16 0.333008 -22 9s-10.333 22.334 -13 41.001l-7.5 52l-11.5 82.5
c-3.33301 25 -7.5 50.833 -12.5 77.5s-8.83301 44.334 -11.5 53.001c-2 2 -7.66699 -1.33301 -17 -10s-25.666 -11.667 -48.999 -9c-18.667 2 -33.167 7 -43.5 15s-26.833 27 -49.5 57c-8 10.667 -23 28.667 -45 54s-39.333 48.333 -52 69c-24 35.333 -39 56 -45 62
c-8.66699 8.66699 -11.667 17.334 -9 26.001c3.33301 9.33301 9.66602 12.833 18.999 10.5s18 -9.83301 26 -22.5l40.5 -54.5l54.5 -71.5c9.33301 -9.33301 20.666 -23.666 33.999 -42.999c17.333 -24.667 31 -41.167 41 -49.5s20.667 -12.5 32 -12.5z" />
    <glyph glyph-name="Z" unicode="Z" horiz-adv-x="477" 
d="M122 588c33.333 0 56.833 -1.00391 70.5 -3.00391s28.834 -6.66699 45.501 -14s27.5 -13.833 32.5 -19.5s9.83301 -16.167 14.5 -31.5c3.33301 -11.333 5.16602 -20.833 5.49902 -28.5s-0.333984 -13.5 -2.00098 -17.5l-8 -18.5
c-3.66699 -8.33301 -6.5 -16.833 -8.5 -25.5c-8.66699 -24 -16 -40.667 -22 -50c-5.33301 -8 -6.83301 -12.833 -4.5 -14.5s11.5 -2.5 27.5 -2.5c22 0 36.5 -2.16699 43.5 -6.5s8.83301 -12.5 5.5 -24.5c-2 -8.66699 -5.5 -13.667 -10.5 -15s-20.167 -1 -45.5 1l-50 4
c-25.333 -27.333 -55.166 -65 -89.499 -113s-50.5 -77.667 -48.5 -89c0 -10.667 4 -17.334 12 -20.001c7.33301 -2.66699 62.5 -4.16699 165.5 -4.5s156.5 0.833984 160.5 3.50098c5.33301 2.66699 12.333 1.66699 21 -3c7.33301 -3.33301 10.666 -9 9.99902 -17
s-4.66699 -14.667 -12 -20c-4 -2.66699 -60.167 -3 -168.5 -1s-169.166 4.33301 -182.499 7c-12 2 -24.333 10 -37 24c-8.66699 10 -13.334 17 -14.001 21s1.66602 11.667 6.99902 23c2.66699 6 11.5 20.333 26.5 43s23.5 37.334 25.5 44.001
c-0.666992 0.666992 5.66602 9.16699 18.999 25.5l39.5 48.5c13 16 18.833 24.333 17.5 25c-4 2 -20 4.66699 -48 8c-19.333 2 -31.666 4.16699 -36.999 6.5s-8 6.5 -8 12.5c0 6.66699 2 10.667 6 12s13.667 1.33301 29 0c24 -1.33301 45.333 -0.666016 64 2.00098
c14.667 2 24.334 5.33301 29.001 10s12 18.334 22 41.001c26 57.333 32.5 94.5 19.5 111.5s-56.5 27.5 -130.5 31.5l-81 3l-2 20c-0.666992 10.667 0 16.334 2 17.001c0.666992 0 1.33398 -0.333008 2.00098 -1c4.66699 -3.33301 33.667 -5 87 -5z" />
    <glyph glyph-name="grave" unicode="`" horiz-adv-x="133" 
d="M89 465c-6.66699 0 -18.667 12.332 -36 36.999s-24.666 39.334 -21.999 44.001c9.33301 14.667 26.333 7.66699 51 -21c19.333 -23.333 25.666 -41 18.999 -53c-2.66699 -4 -6.66699 -6.33301 -12 -7z" />
    <glyph glyph-name="a" unicode="a" 
d="M209 173c-6.66699 0 -9.99805 2.00195 -9.99805 6.00195c0 4.66699 -6 9.33398 -18 14.001c-20.667 9.33301 -41.167 10.166 -61.5 2.49902s-33.833 -20.834 -40.5 -39.501c-10 -30 -10 -54.667 0 -74c5.33301 -10 17.166 -16.833 35.499 -20.5
s37.166 -3.16699 56.499 1.5c28 7.33301 44.5 14.166 49.5 20.499s6.16699 21.833 3.5 46.5c-4 28.667 -9 43 -15 43zM30.002 112.002c0 12.667 4.82715 29.835 14.4941 51.502s18.834 36.167 27.501 43.5c43.333 36 85.333 42 126 18
c8 -5.33301 12.667 -5.66602 14 -0.999023c0.666992 3.33301 1 15 1 35c0 33.333 -3.33301 72.666 -10 117.999c-5.33301 36.667 -10.833 61.167 -16.5 73.5s-14.5 18.5 -26.5 18.5c-4.66699 0 -11 1.33301 -19 4c-5.33301 2 -15.166 -3.16699 -29.499 -15.5
s-26.166 -25.5 -35.499 -39.5c-7.33301 -12.667 -10.666 -39 -9.99902 -79s-2.33301 -63 -9 -69c-12 -12.667 -20 -4.66699 -24 24c-2 11.333 -3 25 -3 41c0 38.667 2.66699 65.334 8 80.001s19.333 33 42 55l40 41l43 -5.5c8 -1 17.833 -3.66699 29.5 -8
s19.334 -9.33301 23.001 -15s8.33398 -14.834 14.001 -27.501s9.5 -27.334 11.5 -44.001s4.33301 -38.334 7 -65.001c16.667 -167.333 24.667 -273 24 -317c-50.667 3.33301 -82.334 2 -95.001 -4c-10.667 -6 -26.167 -8.66699 -46.5 -8s-36.833 4.33398 -49.5 11.001
c-13.333 7.33301 -25.166 19.166 -35.499 35.499s-15.5 32.5 -15.5 48.5z" />
    <glyph glyph-name="b" unicode="b" horiz-adv-x="273" 
d="M98 61c5.33301 0 20.8301 14.667 46.4971 44s41.5 50.333 47.5 63c12.667 24 15.334 46.667 8.00098 68s-25.666 27 -54.999 17c-8.66699 -2 -18.167 -13.667 -28.5 -35s-17.5 -44.333 -21.5 -69c-4 -22.667 -5.66699 -43 -5 -61s3.33398 -27 8.00098 -27zM34.9971 508
c12.667 15.333 22.333 10.333 29 -15c4 -16 8 -42 12 -78c5.33301 -50.667 8 -88.667 8 -114c0.666992 -34.667 4.66699 -51 12 -49c2 0.666992 4 3.66699 6 9c2.66699 8 10.334 15.5 23.001 22.5s26.667 11.5 42 13.5c36.667 5.33301 60.667 -12.667 72 -54
c7.33301 -28 3 -56.5 -13 -85.5s-48 -66.5 -96 -112.5c-39.333 -37.333 -63 -55 -71 -53c-6 1.33301 -9.33301 13 -10 35c-4 267.333 -10 419 -18 455c-2.66699 11.333 -1.33398 20 3.99902 26z" />
    <glyph glyph-name="c" unicode="c" horiz-adv-x="278" 
d="M229 300c-4 0 -9.83887 7.49805 -17.5059 22.498s-11.5 26.167 -11.5 33.5c0 8 -5.66699 24 -17 48s-19.666 37.333 -24.999 40c-5.33301 3.33301 -14.666 2 -27.999 -4s-22.666 -13.333 -27.999 -22c-7.33301 -11.333 -15.166 -33.666 -23.499 -66.999
s-12.833 -59 -13.5 -77c-1.33301 -60 5.33398 -104.667 20.001 -134c11.333 -21.333 34 -35 68 -41c16.667 -3.33301 31 0.666992 43 12s18 26.333 18 45c0 11.333 0.833008 18.333 2.5 21s6.16699 3.33398 13.5 2.00098c12 -4 18.167 -13 18.5 -27
s-5.16699 -30.167 -16.5 -48.5s-24.666 -31.5 -39.999 -39.5c-14 -6.66699 -33.333 -7.66699 -58 -3c-27.333 5.33301 -48.333 15.833 -63 31.5s-25.667 39.167 -33 70.5c-10.667 48 -10.834 102.667 -0.500977 164s27.166 102.666 50.499 123.999
c14.667 14 28.334 24 41.001 30c12.667 5.33301 21.5 8 26.5 8s11.833 -3 20.5 -9c12.667 -8.66699 25.334 -28.167 38.001 -58.5s20.5 -57.166 23.5 -80.499s0.166992 -37 -8.5 -41z" />
    <glyph glyph-name="d" unicode="d" horiz-adv-x="296" 
d="M137 349c-10.667 0 -23.001 -5.33398 -37.001 -16.001s-22.667 -21 -26 -31c-4.66699 -17.333 -6 -47.166 -4 -89.499s6 -68.166 12 -77.499c15.333 -24 34.333 -30.333 57 -19s38.334 35.666 47.001 72.999c5.33301 24 3.5 55.667 -5.5 95s-23.5 61 -43.5 65z
M29.999 214.999c0 38.667 2.66992 67.332 8.00293 85.999c6 22 21.5 43 46.5 63s45.833 28.333 62.5 25c7.33301 -1.33301 11.666 1.33398 12.999 8.00098c2 8.66699 3.66699 36.334 5 83.001c0.666992 61.333 4.66699 96 12 104c9.33301 11.333 17.666 15 24.999 11
s12.333 -14.667 15 -32c1.33301 -12 4 -32.167 8 -60.5s6.66699 -48.5 8 -60.5s3.33301 -33.333 6 -64s3.5 -54.5 2.5 -71.5s-1.83301 -44.833 -2.5 -83.5c0 -8 3 -24.333 9 -49s11.667 -43.667 17 -57c4 -8 2.33301 -15.667 -5 -23c-6 -8.66699 -13 -11.334 -21 -8.00098
s-13.333 11 -16 23c-4.66699 22 -8.33398 33.333 -11.001 34c-2 0.666992 -4.33301 -1.33301 -7 -6c0 -0.666992 -0.333008 -1.33398 -1 -2.00098c-7.33301 -12.667 -18.833 -25.667 -34.5 -39s-28.5 -21 -38.5 -23c-15.333 -3.33301 -31 -0.333008 -47 9s-28.667 23 -38 41
c-10.667 20.667 -16 51.334 -16 92.001z" />
    <glyph glyph-name="e" unicode="e" horiz-adv-x="280" 
d="M125 399c-18.667 -6 -34.501 -20.499 -47.501 -43.499s-17.833 -45.833 -14.5 -68.5l2 -24c54.667 0 90.334 -3 107.001 -9c10.667 -2.66699 12 12.666 4 45.999c-10 44.667 -24 75.667 -42 93c-3.33301 2.66699 -6.33301 4.66699 -9 6zM215.999 278.001
c0 -10 4.00195 -19.668 12.002 -29.001c5.33301 -6.66699 8 -11.167 8 -13.5s-3.33301 -6.83301 -10 -13.5s-12.834 -10.167 -18.501 -10.5s-18.167 2.16699 -37.5 7.5c-56 14 -89.667 14.333 -101 1c-6 -7.33301 -3.83301 -23.666 6.5 -48.999
s23.166 -45.666 38.499 -60.999c30 -30 62 -32.667 96 -8c12.667 9.33301 23 13.166 31 11.499s11 -8.16699 9 -19.5c-1.33301 -11.333 -10.333 -21.333 -27 -30s-35.334 -13 -56.001 -13c-27.333 0 -49.833 7 -67.5 21s-34.5 38 -50.5 72
c-7.33301 16.667 -12.166 31.667 -14.499 45s-3.83301 36 -4.5 68c-0.666992 34 0 56.833 2 68.5s7.33301 25.5 16 41.5c12.667 24 28.667 41 48 51c20 10.667 31.667 16 35 16c5.33301 -0.666992 13 -4.66699 23 -12s18.333 -15.333 25 -24
c7.33301 -8.66699 15.333 -27 24 -55s13 -49.667 13 -65z" />
    <glyph glyph-name="f" unicode="f" horiz-adv-x="293" 
d="M167 187c-28 0 -42.0049 -1.66406 -42.0049 -4.99707c0 -2.66699 3.66699 -29.667 11 -81c6 -39.333 8.5 -65.333 7.5 -78s-5.83301 -19 -14.5 -19c-9.33301 2.66699 -15.833 11.167 -19.5 25.5s-6.16699 33 -7.5 56s-3.33301 39.167 -6 48.5
c-4 19.333 -7.33301 30.666 -10 33.999s-9 4 -19 2c-14.667 -4.66699 -26 -2.66699 -34 6c-5.33301 5.33301 -3.66602 11.666 5.00098 18.999c7.33301 8.66699 16.333 13 27 13c6.66699 0 10.667 3.5 12 10.5s2 29.5 2 67.5v5v5v6c0 94.667 11.667 147.667 35 159
c16.667 8.66699 37 7.66699 61 -3c16 -6.66699 29.333 -14.834 40 -24.501s21.667 -23.5 33 -41.5c12.667 -21.333 16.667 -37 12 -47c-6 -13.333 -13.167 -18.5 -21.5 -15.5s-14.166 12.833 -17.499 29.5c-3.33301 19.333 -16.666 37.5 -39.999 54.5
s-40.666 21.5 -51.999 13.5c-9.33301 -6 -14.333 -34.5 -15 -85.5s1.33301 -90.5 6 -118.5c3.33301 0 14.833 1 34.5 3s35.834 2.83301 48.501 2.5s18.667 -3.16602 18 -8.49902c4 -10.667 1.5 -18.834 -7.5 -24.501s-24.5 -8.5 -46.5 -8.5z" />
    <glyph glyph-name="g" unicode="g" horiz-adv-x="322" 
d="M159 344c-10 8.66699 -18.835 12.501 -26.502 11.501s-17.167 -7.83301 -28.5 -20.5c-20.667 -22 -33.667 -63.333 -39 -124c-2 -24 -2.16699 -39.333 -0.5 -46s7.83398 -16.334 18.501 -29.001c14.667 -16 26.834 -25.5 36.501 -28.5s22.167 -1.16699 37.5 5.5
c16.667 8 30 22.667 40 44s14 44.333 12 69c-2 19.333 -8.16699 41.333 -18.5 66s-20.833 42 -31.5 52zM140.998 385.001c17.333 0 30.5 -3.17188 39.5 -9.50488s19.833 -19.833 32.5 -40.5c7.33301 -13.333 15.333 -19.333 24 -18
c5.33301 0.666992 8.66602 -2.66602 9.99902 -9.99902s2.33301 -26 3 -56c-0.666992 -33.333 4.83301 -74 16.5 -122s18.5 -80 20.5 -96c4 -25.333 5.5 -42.166 4.5 -50.499s-5.83301 -21.5 -14.5 -39.5c-11.333 -22 -22.666 -35.5 -33.999 -40.5s-31.333 -4.5 -60 1.5
c-19.333 4 -36 10.833 -50 20.5s-21 18.834 -21 27.501c0 6 5 12 15 18c6.66699 3.33301 12 4 16 2s10 -7.33301 18 -16c16 -18 33.667 -26.667 53 -26s32.666 10.667 39.999 30c4 10.667 3 36.334 -3 77.001s-12.667 67.667 -20 81l-8 16l-14 -19
c-20 -27.333 -47.167 -40.666 -81.5 -39.999s-60.166 15 -77.499 43c-10 17.333 -16.167 34.5 -18.5 51.5s-1.5 40.5 2.5 70.5c8 61.333 26.333 104 55 128c12 11.333 29.333 17 52 17z" />
    <glyph glyph-name="h" unicode="h" horiz-adv-x="340" 
d="M73 487c1.33301 -12.667 6.83496 -47.667 16.502 -105s14.834 -96 15.501 -116c3.33301 -38.667 7 -58 11 -58c2.66699 0 10.667 8.66699 24 26c11.333 15.333 25.333 26.833 42 34.5s29.667 8.83398 39 3.50098c23.333 -12 38.666 -43 45.999 -93
c2 -25.333 10.333 -53 25 -83c14.667 -28.667 20.334 -45.334 17.001 -50.001c-3.33301 -6 -10.833 -8.16699 -22.5 -6.5s-18.5 5.83398 -20.5 12.501c-22.667 50 -35.667 90.333 -39 121c-6.66699 42 -15.334 63.333 -26.001 64c-8 -1.33301 -17.333 -11 -28 -29
c-11.333 -20 -17.333 -50 -18 -90c-0.666992 -30 -1.83398 -47.667 -3.50098 -53s-7.16699 -8.66602 -16.5 -9.99902c-12 -0.666992 -20.667 3.66602 -26 12.999c-20.667 38 -34.667 102.333 -42 193c-4.66699 52.667 -9.33398 89 -14.001 109
c-21.333 88 -28 136.667 -20 146c8.66699 10.667 17.5 12.667 26.5 6s13.5 -18.334 13.5 -35.001z" />
    <glyph glyph-name="i" unicode="i" horiz-adv-x="197" 
d="M99 189c0 0.666992 -1.33203 5.83301 -3.99902 15.5s-4.33398 18 -5.00098 25s1 12.167 5 15.5c18 11.333 30 2.66602 36 -26.001c6 -30 13.667 -63.667 23 -101c7.33301 -30.667 11.5 -50.667 12.5 -60s-0.5 -15.666 -4.5 -18.999c-10.667 -6.66699 -19 -5.66699 -25 3
c-4.66699 6 -11.667 27 -21 63s-15 64 -17 84zM93.001 334.999c5.33301 1.33301 9.99902 6.33301 13.999 15s4 16.667 0 24c-3.33301 10 -9 8.33301 -17 -5c-6 -8.66699 -8.66699 -16.5 -8 -23.5s4.33398 -10.5 11.001 -10.5zM92 306.999
c-18 0 -32.665 7.33203 -43.998 21.999c-14.667 17.333 -20.667 33 -18 47c1.33301 6 4.66602 9 9.99902 9c8 0 20 5.66699 36 17s26.667 16.833 32 16.5s13.666 -6.16602 24.999 -17.499c12 -12 16.667 -26.333 14 -43c-6 -34 -24.333 -51 -55 -51z" />
    <glyph glyph-name="j" unicode="j" horiz-adv-x="295" 
d="M190 113c0 130 -4.33203 209.333 -12.999 238c-3.33301 9.33301 -2.33301 16.5 3 21.5s11.666 6.33301 18.999 4s12 -7.16602 14 -14.499c4 -18 7.5 -58.833 10.5 -122.5s4.16699 -117.5 3.5 -161.5c-0.666992 -60 -6.33398 -103 -17.001 -129
c-20.667 -51.333 -46.667 -74 -78 -68c-18.667 3.33301 -34 10.333 -46 21s-24.333 28.667 -37 54c-10 19.333 -16 33 -18 41s-1.33301 15 2 21c5.33301 10 12 15 20 15s14.167 -4 18.5 -12s4.83301 -17.667 1.5 -29c-2.66699 -8 1.33301 -20.167 12 -36.5
s22.334 -28.166 35.001 -35.499c8.66699 -4.66699 14.667 -6.83398 18 -6.50098s8.33301 3.5 15 9.5c13.333 12.667 22.833 33.167 28.5 61.5s8.5 71.166 8.5 128.499zM222.001 508c10.667 5.33301 15.667 15.3311 15 29.998s-7.66699 21.667 -21 21
c-7.33301 0.666992 -12.666 -0.166016 -15.999 -2.49902s-6.66602 -8.16602 -9.99902 -17.499c-6.66699 -19.333 -6.83398 -32 -0.500977 -38s17.166 -3.66699 32.499 7zM196.001 586.998c14.667 5.33301 28.6699 3.83301 42.0029 -4.5s21.666 -20.5 24.999 -36.5
c3.33301 -19.333 2.66602 -34 -2.00098 -44s-15 -18.667 -31 -26c-12.667 -6.66699 -21.334 -10.167 -26.001 -10.5s-12 2.16699 -22 7.5c-26 13.333 -37.333 33 -34 59s19.333 44.333 48 55z" />
    <glyph glyph-name="k" unicode="k" 
d="M129 261c0 15.333 -5.99902 15.666 -17.999 0.999023c-18 -22 -29 -46.333 -33 -73c-2.66699 -20 -2.33398 -30 0.999023 -30s12.5 15.333 27.5 46s22.5 49.334 22.5 56.001zM140.001 166c10 0 23.5 -4.33301 40.5 -13s26.5 -15.667 28.5 -21
c1.33301 -4 9.83301 -19.5 25.5 -46.5s24.167 -42.833 25.5 -47.5c0.666992 -3.33301 2 -6 4 -8s3.83301 -3.33301 5.5 -4s2.83398 -2.16699 3.50098 -4.5s0.333984 -5.83301 -0.999023 -10.5c-6 -20.667 -18.333 -19.667 -37 3c-6 8 -12.333 18 -19 30
c-16 30.667 -29.833 52 -41.5 64s-24.834 17.667 -39.501 17c-15.333 0 -23.666 -2.33301 -24.999 -7c-1.33301 -5.33301 -7.66602 -5.66602 -18.999 -0.999023c-8 2.66699 -12.667 2.5 -14 -0.5s-2.33301 -15.167 -3 -36.5c-0.666992 -23.333 -2.66699 -38.333 -6 -45
s-9.33301 -8.33398 -18 -5.00098c-12.667 4.66699 -16.667 70 -12 196c4 86 1.33301 185 -8 297h16c7.33301 -0.666992 12.166 -5 14.499 -13s5.5 -32.333 9.5 -73c4 -46 6 -85 6 -117c-0.666992 -23.333 2 -35 8 -35c2.66699 2 5 5.33301 7 10c2 6 10.333 9.5 25 10.5
s26.667 -1.16699 36 -6.5c6.66699 -3.33301 10.5 -7.33301 11.5 -12s0.5 -15.667 -1.5 -33c-2 -24.667 -8 -44.334 -18 -59.001c-12.667 -17.333 -16.334 -26.666 -11.001 -27.999c1.33301 -0.666992 3.66602 -1 6.99902 -1z" />
    <glyph glyph-name="l" unicode="l" horiz-adv-x="150" 
d="M46 525c12 0 18.001 -0.666992 18.001 -2c9.33301 -46 19.5 -111.333 30.5 -196s18.5 -154 22.5 -208c2 -20.667 2.66699 -33.167 2 -37.5s-4.33398 -6.5 -11.001 -6.5c-11.333 0 -18.833 5.33301 -22.5 16s-7.16699 35.667 -10.5 75c-2 31.333 -8 86.333 -18 165
s-18.333 136 -25 172c-2 10 -2.33301 16.167 -1 18.5s6.33301 3.5 15 3.5z" />
    <glyph glyph-name="m" unicode="m" horiz-adv-x="474" 
d="M45 335c14.667 0 22.3291 -16.334 22.9961 -49.001c1.33301 -20.667 7.33301 -23 18 -7c0.666992 1.33301 1.33398 2.33301 2.00098 3s1.5 1.83398 2.5 3.50098s2 3 3 4s1.83301 2.16699 2.5 3.5c18 24 38.167 35.167 60.5 33.5s41.833 -15.834 58.5 -42.501
c8 -12.667 14 -26.667 18 -42c5.33301 -24 12.333 -23.667 21 1c1.33301 2.66699 2.33301 5.33398 3 8.00098c7.33301 22.667 15.666 38.834 24.999 48.501s21 14.5 35 14.5c22.667 0 43.167 -13 61.5 -39s32.5 -62.333 42.5 -109c8 -35.333 13.667 -61.833 17 -79.5
s5.33301 -32.167 6 -43.5s-0.166016 -18.333 -2.49902 -21s-6.16602 -4 -11.499 -4c-3.33301 0 -7.66602 2 -12.999 6s-9.83301 8.5 -13.5 13.5s-4.5 8.16699 -2.5 9.5c2.66699 2.66699 0.833984 22 -5.49902 58s-13.166 65.667 -20.499 89
c-11.333 35.333 -22.5 59.166 -33.5 71.499s-22.167 13.833 -33.5 4.5c-10.667 -8.66699 -21.5 -31.667 -32.5 -69s-17.5 -72.333 -19.5 -105c-1.33301 -19.333 -5.16602 -33.5 -11.499 -42.5s-13.833 -10.833 -22.5 -5.5c-5.33301 3.33301 -8.66602 8.83301 -9.99902 16.5
s-1.33301 23.834 0 48.501c2.66699 38 0.333984 72 -6.99902 102c-12 47.333 -29 71 -51 71c-9.33301 0 -21.5 -8.33301 -36.5 -25s-23.833 -32.334 -26.5 -47.001c-2 -8.66699 0.166992 -36.667 6.5 -84s11.5 -72.666 15.5 -75.999
c1.33301 -6 -0.833984 -12.333 -6.50098 -19s-11.834 -8.33398 -18.501 -5.00098c-16 4.66699 -27.667 45.334 -35 122.001c-0.666992 12.667 -4.83398 43.167 -12.501 91.5s-10.834 76.166 -9.50098 83.499c0 5.33301 4.66699 8 14 8z" />
    <glyph glyph-name="n" unicode="n" horiz-adv-x="379" 
d="M97 225c0 -10 0.833984 -16.665 2.50098 -19.998s4.16699 -3.5 7.5 -0.5s7 8.83301 11 17.5c6 14.667 16.667 29 32 43s31.666 24.333 48.999 31c14 5.33301 23.833 8 29.5 8s14.167 -2.66699 25.5 -8c15.333 -7.33301 27.166 -19.666 35.499 -36.999
s16.833 -47.666 25.5 -90.999c8 -41.333 16.667 -74 26 -98c5.33301 -14.667 8.16602 -24.334 8.49902 -29.001s-2.16699 -9.33398 -7.5 -14.001c-16.667 -16 -31.667 -1 -45 45c-6 20 -12 46.333 -18 79c-10 55.333 -17 86.666 -21 93.999
c-14 25.333 -34.667 29.666 -62 12.999c-27.333 -17.333 -46.666 -46 -57.999 -86c-4 -14.667 -6 -29.334 -6 -44.001c0 -40 -6 -60 -18 -60c-14 0 -23.333 13.333 -28 40c-11.333 67.333 -25.666 131 -42.999 191c-11.333 39.333 -15.333 61 -12 65
c6.66699 12 16.667 7 30 -15s20.333 -46 21 -72c0.666992 -8.66699 3.5 -16.667 8.5 -24s7.16699 -16.666 6.5 -27.999z" />
    <glyph glyph-name="o" unicode="o" horiz-adv-x="281" 
d="M115 142c0 -5.33301 4.00098 -8.83105 12.001 -10.498s17 -1.33398 27 0.999023s18 6.5 24 12.5c13.333 13.333 22.666 30.166 27.999 50.499s8 49.5 8 87.5c0 86.667 -11 141 -33 163c-9.33301 9.33301 -21.666 14.5 -36.999 15.5s-28.333 -2.5 -39 -10.5
c-8 -6.66699 -14.167 -20.334 -18.5 -41.001s-5.16602 -43.334 -2.49902 -68.001c2 -27.333 -0.333008 -43.333 -7 -48c-4.66699 -4.66699 -6.83398 -9.5 -6.50098 -14.5s2.5 -17.5 6.5 -37.5c15.333 -62 25.666 -93 30.999 -93c1.33301 0.666992 2.5 0.833984 3.5 0.500977
s1.83301 -1.16602 2.5 -2.49902s1 -3 1 -5zM151.001 89.002c-28.667 0 -52.666 8.66504 -71.999 25.998c-11.333 10 -21.333 34.5 -30 73.5s-14.334 82.833 -17.001 131.5c-2 41.333 -2.33301 66.666 -1 75.999s5.66602 17.333 12.999 24c6 6.66699 11.167 15 15.5 25
s11.5 19.667 21.5 29c10 10 18.5 16.167 25.5 18.5s19.5 3.5 37.5 3.5c18 0.666992 30.167 -0.166016 36.5 -2.49902s14.5 -9.16602 24.5 -20.499c14.667 -17.333 24.334 -33.333 29.001 -48c5.33301 -15.333 10 -44.166 14 -86.499s5 -73.833 3 -94.5
c-3.33301 -38 -15.333 -73.333 -36 -106s-42 -49 -64 -49z" />
    <glyph glyph-name="p" unicode="p" horiz-adv-x="283" 
d="M191 330c-10 10 -23.833 17.834 -41.5 23.501s-31.834 6.5 -42.501 2.5c-16 -6 -25.833 -16.333 -29.5 -31s-4.5 -50 -2.5 -106c1.33301 -42 8.33301 -71 21 -87s32.334 -21.333 59.001 -16c17.333 4 29 8.5 35 13.5s12.667 15.833 20 32.5
c11.333 25.333 15 55.166 11 89.499s-14 60.5 -30 78.5zM253 211.001c0 -40.667 -9.83301 -72.667 -29.5 -96s-46.5 -34.333 -80.5 -33c-24 1.33301 -40 5.33301 -48 12c-7.33301 7.33301 -13.333 9.33301 -18 6c-3.33301 -12 -4.16602 -43.167 -2.49902 -93.5
s5.83398 -83.166 12.501 -98.499c3.33301 -16 1.66602 -23.667 -5.00098 -23c-3.33301 0 -7.33301 3 -12 9c-8.66699 9.33301 -15.334 36.5 -20.001 81.5s-8.16699 100.167 -10.5 165.5s-4.16602 104.333 -5.49902 117c-4.66699 53.333 -6.33398 84.833 -5.00098 94.5
s8 15.167 20 16.5c15.333 1.33301 29 5 41 11c15.333 6.66699 25.666 10 30.999 10s19 -4.33301 41 -13c24.667 -8.66699 44.334 -24.334 59.001 -47.001c13.333 -20 22 -37.333 26 -52s6 -37 6 -67z" />
    <glyph glyph-name="q" unicode="q" horiz-adv-x="402" 
d="M211 368c-20 24 -42.332 30.668 -66.999 20.001c-24.667 -10 -43.5 -30.5 -56.5 -61.5s-18.167 -68.833 -15.5 -113.5c1.33301 -21.333 3.33301 -37.333 6 -48s8 -21.667 16 -33c12 -18.667 23.333 -28.334 34 -29.001s23.667 7.33301 39 24
c14 14.667 23.667 31.5 29 50.5s10.666 53.5 15.999 103.5c5.33301 51.333 5 80.333 -1 87zM191.001 41.001c0 30 -2.00098 45.3291 -6.00098 45.9961l-6 -2c-8 -3.33301 -24.333 -6.33301 -49 -9c-16.667 -1.33301 -28 -0.833008 -34 1.5s-13.333 8.83301 -22 19.5
c-20.667 20.667 -34.167 52.334 -40.5 95.001s-3.16602 82.334 9.50098 119.001c9.33301 29.333 23.666 54.5 42.999 75.5s38.333 32.833 57 35.5c4 0 8.16699 0.333008 12.5 1s8 1.16699 11 1.5s4.83301 0.5 5.5 0.5c8 2 22 -3.16699 42 -15.5s36.333 -27.166 49 -44.499
s13.667 -31.333 3 -42c-6 -6 -11 -24.333 -15 -55c-19.333 -171.333 -23 -272.333 -11 -303c4.66699 -12 13.167 -24.833 25.5 -38.5s21.166 -20.5 26.499 -20.5c5.33301 0.666992 12.833 5 22.5 13s16.834 16.333 21.501 25c6 10.667 13.167 15.5 21.5 14.5
s13.166 -7.16699 14.499 -18.5c0.666992 -13.333 -8.33301 -28.333 -27 -45c-13.333 -11.333 -23.166 -18.333 -29.499 -21s-15.833 -3 -28.5 -1c-29.333 4 -52.666 21.333 -69.999 52s-26 69.334 -26 116.001z" />
    <glyph glyph-name="r" unicode="r" 
d="M73 339l10.0029 -30.9951c5.33301 -18 9.66602 -27.333 12.999 -28c2.66699 -0.666992 6 2.66602 10 9.99902l8 16c12.667 29.333 32 51.666 58 66.999s52.333 20.333 79 15c10 -2 16.333 -4.16699 19 -6.5s3.66699 -6.83301 3 -13.5s-3.33398 -10.834 -8.00098 -12.501
s-14.667 -2.83398 -30 -3.50098c-24 0 -41.5 -3.66699 -52.5 -11s-22.167 -23 -33.5 -47c-19.333 -40 -25 -78.667 -17 -116c3.33301 -16.667 4 -28.834 2 -36.501s-7.33301 -10.834 -16 -9.50098c-6 0.666992 -11 5.33398 -15 14.001s-9.33301 26 -16 52
c-3.33301 18.667 -13.833 52 -31.5 100s-25.834 79.333 -24.501 94c9.33301 15.333 20.333 6 33 -28z" />
    <glyph glyph-name="s" unicode="s" horiz-adv-x="256" 
d="M224 179c0 -21.333 -2.50098 -37.167 -7.50098 -47.5s-14.167 -18.833 -27.5 -25.5c-36 -18.667 -63.333 -18.334 -82 0.999023c-9.33301 10 -14.833 18 -16.5 24s0.166016 12.667 5.49902 20c2 4.66699 5.66699 4.5 11 -0.5s11.5 -11.833 18.5 -20.5
s11.167 -13.667 12.5 -15c28 19.333 44.667 33.666 50 42.999c4 7.33301 4.5 18 1.5 32s-8.16699 26.333 -15.5 37c-5.33301 7.33301 -24.166 22.5 -56.499 45.5s-50.833 34.5 -55.5 34.5c-5.33301 0 -12.5 10.667 -21.5 32s-12.167 35 -9.5 41
c18 26.667 47.833 37.334 89.5 32.001s73.5 -21.666 95.5 -48.999c6.66699 -8 10.167 -13.833 10.5 -17.5s-1.5 -7.16699 -5.5 -10.5c-6.66699 -4.66699 -18 1.33301 -34 18c-13.333 14.667 -29 24.667 -47 30s-35 5.33301 -51 0
c-41.333 -14.667 -21.666 -46.667 59.001 -96c50.667 -38 76 -74 76 -108z" />
    <glyph glyph-name="t" unicode="t" horiz-adv-x="374" 
d="M162 363c2 0 12.332 0.168945 30.999 0.501953s33 -0.333984 43 -2.00098s15 -4.5 15 -8.5c3.33301 -8 2.33301 -13.333 -3 -16s-17.666 -4 -36.999 -4c-25.333 0.666992 -40.333 -2.16602 -45 -8.49902s-6.33398 -26.5 -5.00098 -60.5c2 -96.667 21.667 -155 59 -175
c8.66699 -5.33301 15.334 -7.83301 20.001 -7.5s13 3.83301 25 10.5c16.667 8.66699 28.5 20.5 35.5 35.5s11.167 36.5 12.5 64.5c1.33301 31.333 3.33301 48 6 50c2 2 5.33301 -1.33301 10 -10c9.33301 -20 14.333 -37.667 15 -53c0 -37.333 -14.667 -70.166 -44 -98.499
s-57.666 -37.166 -84.999 -26.499c-28 11.333 -48.833 32.333 -62.5 63s-21.834 76 -24.501 136l-4 76h-36c-26 -0.666992 -41.167 -0.5 -45.5 0.5s-7.83301 4.5 -10.5 10.5c-3.33301 8.66699 -1 14.667 7 18s23.667 5 47 5c22.667 0 35.167 2.5 37.5 7.5
s3.16602 28.833 2.49902 71.5v19c0 7.33301 0.166992 12.666 0.5 15.999s1 6.66602 2 9.99902s3 5.66602 6 6.99902s6.83301 2 11.5 2c4.66699 -0.666992 7.83398 -5.33398 9.50098 -14.001s3.16699 -26.667 4.5 -54z" />
    <glyph glyph-name="u" unicode="u" horiz-adv-x="418" 
d="M69 289c0 -39.333 0.832031 -67.1738 2.49902 -83.5068s5.83398 -32.166 12.501 -47.499c13.333 -33.333 28.833 -54.666 46.5 -63.999s34.834 -4.66602 51.501 14.001c12.667 13.333 22 32.5 28 57.5s10.333 61.5 13 109.5c2.66699 43.333 5.5 71.166 8.5 83.499
s8.5 18.5 16.5 18.5c9.33301 0 15.833 -6 19.5 -18s6.5 -36 8.5 -72c0.666992 -13.333 1.33398 -23.666 2.00098 -30.999s1.5 -14.833 2.5 -22.5l2 -15.5c0.333008 -2.66699 1.5 -7.16699 3.5 -13.5s3.5 -10.333 4.5 -12s3.16699 -6.66699 6.5 -15s6 -14.5 8 -18.5
c7.33301 -18.667 24 -41 50 -67c36 -38 40.333 -58 13 -60c-10 0 -25.833 12.167 -47.5 36.5s-37.834 47.833 -48.501 70.5c-10 23.333 -17.667 34.666 -23 33.999c-2.66699 -0.666992 -4 -5.66699 -4 -15c-4 -32 -18.667 -60.167 -44 -84.5s-55 -28.5 -89 -12.5
c-11.333 4.66699 -25.5 19.334 -42.5 44.001s-28.167 47.334 -33.5 68.001c-4 16.667 -6 54.334 -6 113.001s2 91.334 6 98.001c2 3.33301 3.66699 5.33301 5 6s3 0.833984 5 0.500977s5.66699 -1.5 11 -3.5s8.66602 -9 9.99902 -21s2 -37.667 2 -77z" />
    <glyph glyph-name="v" unicode="v" horiz-adv-x="350" 
d="M62 408c0.666992 -7.33301 9.33496 -29.6699 26.002 -67.0029s25.334 -58 26.001 -62c0.666992 -5.33301 6 -19.666 16 -42.999s15.333 -38.333 16 -45c0 -5.33301 5 -21.666 15 -48.999c8 -21.333 14.333 -32 19 -32c7.33301 -0.666992 18 23.333 32 72
c14.667 49.333 36 112 64 188c5.33301 15.333 11.666 25.833 18.999 31.5s14.333 5.16699 21 -1.5c6 -6 2.66699 -21.333 -10 -46c-13.333 -24 -29 -68 -47 -132c-16 -57.333 -29.833 -98 -41.5 -122s-23.834 -36.667 -36.501 -38c-9.33301 -1.33301 -18 1.16699 -26 7.5
s-12.333 14.5 -13 24.5c-0.666992 10.667 -13.5 52.5 -38.5 125.5s-39.167 110.5 -42.5 112.5c-4.66699 2.66699 -7 7.33398 -7 14.001c0.666992 2.66699 -3.5 14.667 -12.5 36s-12.5 34 -10.5 38c1.33301 8.66699 7.66602 9.66699 18.999 3
c8.66699 -4.66699 12.667 -9.66699 12 -15z" />
    <glyph glyph-name="w" unicode="w" horiz-adv-x="602" 
d="M38 401c11.333 14.667 18.666 12.3291 21.999 -7.00391c2 -13.333 2.66699 -38.666 2 -75.999c-0.666992 -38.667 0 -65.334 2 -80.001s6.66699 -31.667 14 -51c10 -26 18.167 -43.167 24.5 -51.5s17.833 -16.833 34.5 -25.5c16 -8.66699 31.333 -10 46 -4
c18.667 7.33301 29.834 15.666 33.501 24.999s2.83398 25.333 -2.49902 48c-13.333 60 -11.666 101.667 5.00098 125c24 32 39.667 16.333 47 -47c2 -12 3.33301 -26 4 -42l4 -73l25 -12c14.667 -7.33301 33.5 -11.333 56.5 -12s42.5 2.33301 58.5 9
c25.333 10.667 48.333 35 69 73s35.667 83 45 135c8 48.667 17 73.334 27 74.001c3.33301 -0.666992 6.66602 -2.66699 9.99902 -6c8 -6.66699 7.66699 -30.667 -1 -72c-14.667 -81.333 -38.334 -142.666 -71.001 -183.999s-75 -64.666 -127 -69.999
c-24.667 -3.33301 -50.334 1.33398 -77.001 14.001c-18 8.66699 -29.5 13.167 -34.5 13.5s-9.5 -2.16699 -13.5 -7.5c-7.33301 -9.33301 -20.833 -17.833 -40.5 -25.5s-34.167 -10.167 -43.5 -7.5c-32.667 8.66699 -57.667 21.834 -75 39.501s-30.666 43.167 -39.999 76.5
c-6.66699 22 -10.5 62.5 -11.5 121.5s1.5 92.167 7.5 99.5z" />
    <glyph glyph-name="x" unicode="x" horiz-adv-x="311" 
d="M263 434c12 0 17.999 -1.33008 17.999 -3.99707c-4 -14.667 -20.667 -45.334 -50 -92.001s-52.333 -79.334 -69 -98.001c18.667 -22.667 40.667 -42.667 66 -60c18 -12 31.333 -22.333 40 -31s11.667 -14.334 9 -17.001s-18.334 3.33301 -47.001 18
s-49.667 27.334 -63 38.001l-26 21c-4.66699 -8 -12.167 -19 -22.5 -33s-19.166 -27.167 -26.499 -39.5s-12.666 -24.166 -15.999 -35.499c0 -8 -5.66699 -12 -17 -12c-12.667 0 -18.667 3.66699 -18 11c0.666992 10.667 20.334 43.667 59.001 99l21 31
c-17.333 22.667 -37.333 52.667 -60 90s-33 59 -31 65c1.33301 6.66699 5.33301 10.667 12 12c5.33301 1.33301 12.333 -4 21 -16s22 -34.333 40 -67c16.667 -31.333 28.167 -47 34.5 -47s19.5 15.333 39.5 46c24 35.333 41.333 64.666 52 87.999
c6.66699 13.333 12.167 22.166 16.5 26.499s10.166 6.5 17.499 6.5z" />
    <glyph glyph-name="y" unicode="y" horiz-adv-x="308" 
d="M259 -165c-5.33301 0 -9.33398 2.49805 -12.001 7.49805s-5.66699 14.5 -9 28.5c-14.667 70.667 -25.667 148 -33 232c-2.66699 32 -5.33398 48 -8.00098 48c-1.33301 0 -2.33301 -1.33301 -3 -4c-3.33301 -8.66699 -9.66602 -16 -18.999 -22
s-16.666 -7.66699 -21.999 -5c-4.66699 2.66699 -7 2 -7 -2s-4 -6.5 -12 -7.5s-17.5 -0.166992 -28.5 2.5s-20.5 6.33398 -28.5 11.001c-15.333 9.33301 -23 18.333 -23 27c0 8 -2.33301 14.333 -7 19c-5.33301 5.33301 -11 66 -17 182
c-0.666992 12 1.66602 19.5 6.99902 22.5s10.666 -0.166992 15.999 -9.5c5.33301 -10 9.33301 -36.667 12 -80c2.66699 -52.667 8.16699 -89.167 16.5 -109.5s21.833 -30.5 40.5 -30.5c23.333 0 40.833 17.333 52.5 52s13.834 75 6.50098 121
c-6 34.667 -7.33301 54.334 -4 59.001c2.66699 5.33301 7.33398 7.83301 14.001 7.5s12 -3.16602 16 -8.49902c14 -18 23 -66.667 27 -146c7.33301 -152.667 20.333 -266.334 39 -341.001c8.66699 -36 4 -54 -14 -54z" />
    <glyph glyph-name="z" unicode="z" horiz-adv-x="313" 
d="M202 310l10 0.00195312l25 1c23.333 1.33301 37.333 -1 42 -7c6.66699 -7.33301 4 -13 -8 -17c-8 -2 -25 -5 -51 -9s-42.667 -8 -50 -12s-18.333 -14.333 -33 -31c-19.333 -22.667 -26.666 -36.334 -21.999 -41.001c4 -4 30.667 -9 80 -15
c32.667 -4 53.167 -7.33301 61.5 -10s13.166 -7.33398 14.499 -14.001c1.33301 -7.33301 -0.5 -11.5 -5.5 -12.5s-20.833 -0.833008 -47.5 0.5c-45.333 2.66699 -81.5 8.5 -108.5 17.5s-40.833 19.833 -41.5 32.5c0 6 8.33301 18.667 25 38c20.667 24 25 36.333 13 37
c-3.33301 0 -7.66602 -0.333008 -12.999 -1c-12.667 -2.66699 -24.667 -2.33398 -36 0.999023s-17 8 -17 14c0 7.33301 4.5 12.5 13.5 15.5s26.167 4.83301 51.5 5.5c22 0.666992 36.333 2 43 4s13 6.66699 19 14c10 12.667 16 24.667 18 36s-0.333008 19.333 -7 24
s-21 6.66699 -43 6s-43.667 -4 -65 -10c-20.667 -5.33301 -33.334 -5 -38.001 1c-4 6.66699 -2.83301 12.834 3.5 18.501s17.166 10.5 32.499 14.5c27.333 7.33301 57 9.33301 89 6s52 -10.333 60 -21c4.66699 -12.667 4.83398 -27.5 0.500977 -44.5
s-9.5 -30.833 -15.5 -41.5z" />
    <glyph glyph-name="uni0093" horiz-adv-x="289" 
d="M202 375c0 -6.66699 -4.66602 -18.6699 -13.999 -36.0029c-17.333 -34.667 -18.666 -62.334 -3.99902 -83.001c6 -8 15.167 -14.167 27.5 -18.5s23.166 -5.16602 32.499 -2.49902c10 2.66699 15 2.66699 15 0c0 -18 -11.333 -26.667 -34 -26
c-25.333 1.33301 -46 12 -62 32c-4 5.33301 -7.33301 11 -10 17c-7.33301 18.667 -9.33301 39.334 -6 62.001s11.333 40.334 24 53.001c11.333 11.333 20.666 14.333 27.999 9c2 -1.33301 3 -3.66602 3 -6.99902zM59.001 386.997c8.66699 14 14.334 21.833 17.001 23.5
s8 0.833984 16 -2.49902c7.33301 -2.66699 10.833 -6.5 10.5 -11.5s-5.5 -14.833 -15.5 -29.5c-16.667 -24 -24.334 -48.667 -23.001 -74s11 -41.666 29 -48.999c12.667 -4.66699 18.667 -11 18 -19c-0.666992 -6.66699 -6 -8.33398 -16 -5.00098
c-28 8 -47.333 26.333 -58 55c-12 33.333 -4.66699 70.666 22 111.999z" />
    <glyph glyph-name="uni0094" horiz-adv-x="228" 
d="M150 406c0 8 6.66504 9.33008 19.998 3.99707c8 -3.33301 14 -7.66602 18 -12.999c8.66699 -12.667 11.834 -42.5 9.50098 -89.5s-8.16602 -72.167 -17.499 -75.5c-8.66699 -3.33301 -14.667 3.33398 -18 20.001c-2 13.333 -1.66699 32 1 56
c3.33301 10.667 4.33301 22.334 3 35.001l-2.5 24c-0.333008 3.33301 -2.33301 9.83301 -6 19.5zM29.998 422.997c0 9.33301 7.00098 9.99707 21.001 1.99707c8.66699 -5.33301 16 -11.666 22 -18.999c6.66699 -8 10.5 -16.167 11.5 -24.5s0.833008 -24.833 -0.5 -49.5
c-2 -38 -4.33301 -61.667 -7 -71s-8.33398 -14.666 -17.001 -15.999s-15 1.5 -19 8.5s-3.33301 13.833 2 20.5c4 4 8 20.333 12 49c2 17.333 2.5 29.833 1.5 37.5s-4.83301 16.834 -11.5 27.501c-10 17.333 -15 29 -15 35z" />
    <glyph glyph-name=".null" horiz-adv-x="0" 
 />
    <glyph glyph-name="nonmarkingreturn" horiz-adv-x="333" 
 />
    </font>
</defs>
</svg>
