<?xml version="1.0" standalone="no"?>
<!DOCTYPE svg PUBLIC "-//W3C//DTD SVG 1.1//EN" "http://www.w3.org/Graphics/SVG/1.1/DTD/svg11.dtd" >
<svg>
<metadata>
Created by FontForge 20090914 at Sat Feb 27 01:01:32 2016
 By www-data
Copyright (c) 2016, root
</metadata>
<defs>
<font id="Maggie" horiz-adv-x="424" >
  <font-face 
    font-family="Maggie"
    font-weight="400"
    font-stretch="normal"
    units-per-em="1000"
    panose-1="2 0 5 3 0 0 0 0 0 0"
    ascent="800"
    descent="-200"
    x-height="378.998"
    cap-height="637"
    bbox="28.3943 -178.998 764.799 707.502"
    underline-thickness="50"
    underline-position="-100"
    unicode-range="U+0020-U+0094"
  />
<missing-glyph horiz-adv-x="364" 
d="M33 0v666h265v-666h-265zM66 33h199v600h-199v-600z" />
    <glyph glyph-name=".notdef" horiz-adv-x="364" 
d="M33 0v666h265v-666h-265zM66 33h199v600h-199v-600z" />
    <glyph glyph-name="space" unicode=" " horiz-adv-x="243" 
 />
    <glyph glyph-name="exclam" unicode="!" horiz-adv-x="204" 
d="M55 106c-4 28 2.3291 46.5 18.9961 55.5s35.667 4.5 57 -13.5c8.66699 -7.33301 14.334 -13.833 17.001 -19.5s3.33398 -13.834 2.00098 -24.501s-3.66602 -18.5 -6.99902 -23.5s-10.333 -10.167 -21 -15.5c-11.333 -5.33301 -19.666 -8.16602 -24.999 -8.49902
s-12.333 1.5 -21 5.5s-14 8.5 -16 13.5s-3.66699 15.167 -5 30.5zM130.996 221c-0.666992 -3.33301 -4.66797 -5.66309 -12.001 -6.99609s-11.333 -4.33301 -12 -9c-2 -6 -6.5 -9.33301 -13.5 -10s-12.167 1.66602 -15.5 6.99902s-6.5 16.5 -9.5 33.5
s-4.83301 26.833 -5.5 29.5c-5.33301 25.333 -12.666 95.5 -21.999 210.5s-12.666 175.833 -9.99902 182.5c4 4.66699 13.333 6.66699 28 6s32.167 -2.16699 52.5 -4.5s31.833 -2.83301 34.5 -1.5c11.333 1.33301 19.666 -1.33398 24.999 -8.00098
c4 -4.66699 3.66699 -32.834 -1 -84.501s-12 -104.834 -22 -159.501c-8 -40 -13.667 -101.667 -17 -185z" />
    <glyph glyph-name="quotedbl" unicode="&#x22;" horiz-adv-x="310" 
d="M128 451c0 -18 -6.66699 -26.668 -20 -26.001c-16.667 1.33301 -32.667 14 -48 38c-4.66699 8 -8.66699 16.667 -12 26c-6 18 -11 44.667 -15 80s-4.33301 57.333 -1 66c2.66699 6 7 9 13 9s13.667 -1.5 23 -4.5s16.333 -4.5 21 -4.5h21
c0 -3.33301 0.5 -19.666 1.5 -48.999s2.16699 -53.166 3.5 -71.499s3.33301 -29.833 6 -34.5c4.66699 -4.66699 7 -14.334 7 -29.001zM170 636.999c6.66699 5.33301 13.499 8.49609 20.499 9.49609s19.833 0.166992 38.5 -2.5c27.333 -3.33301 42 -6 44 -8
c1.33301 -1.33301 3.33301 -33.666 6 -96.999c1.33301 -46.667 1.33301 -75.167 0 -85.5s-6 -19.166 -14 -26.499c-11.333 -10.667 -23.166 -14.167 -35.499 -10.5s-20.5 12.834 -24.5 27.501c-4 14 -9.33301 24.333 -16 31c-14.667 16.667 -24.667 51.334 -30 104.001
c-2 20.667 -2.5 34 -1.5 40s5.16699 12 12.5 18z" />
    <glyph glyph-name="dollar" unicode="$" 
d="M357 208c-10 47.333 -60.999 90.001 -152.999 128.001c5.33301 -170.667 9.66602 -263 12.999 -277c6 -14.667 26.333 -15 61 -1c31.333 12 54 31.667 68 59s17.667 57.666 11 90.999zM176.001 385.001c2.66699 -7.33301 2.99805 6 0.998047 40c-4 68 -9 124 -15 168
c-3.33301 2.66699 -15.166 -1.16602 -35.499 -11.499s-34.166 -19.833 -41.499 -28.5c-14.667 -16 -21.5 -35 -20.5 -57s10.167 -43 27.5 -63c5.33301 -6.66699 19.333 -16.334 42 -29.001s36.667 -19 42 -19zM29.999 512.001
c-1.33301 27.333 11.6738 52.332 39.0068 74.999s53.666 35 78.999 37c7.33301 0 11.833 2 13.5 6s2.5 14.333 2.5 31c0.666992 4.66699 1 10.334 1 17.001s0.166992 11.334 0.5 14.001s1 5.66699 2 9s2.83301 5.33301 5.5 6s6.66699 0.666992 12 0
c4.66699 0.666992 7.66699 -3.16602 9 -11.499s1.83301 -20.666 1.5 -36.999s-0.5 -25.5 -0.5 -27.5c23.333 2 47.166 -1.16699 71.499 -9.5s41.833 -18.833 52.5 -31.5c38 -48.667 54.333 -79.334 49 -92.001c-3.33301 -5.33301 -8 -7.5 -14 -6.5s-12.667 5.33301 -20 13
s-14.666 17.834 -21.999 30.501c-15.333 25.333 -31.5 42.333 -48.5 51s-40.833 12 -71.5 10l3 -90c2.66699 -67.333 7 -107 13 -119c4 -10 16 -20 36 -30c8 -4.66699 13.667 -7.66699 17 -9c20.667 -11.333 35.667 -19.833 45 -25.5s21.166 -14.167 35.499 -25.5
s25 -23.833 32 -37.5s11.833 -29.167 14.5 -46.5c4 -20 6 -35 6 -45s-2.66699 -23.333 -8 -40c-8.66699 -25.333 -17.334 -43 -26.001 -53c-12 -12.667 -31 -25.167 -57 -37.5s-51.667 -22.166 -77 -29.499c0 -4.66699 0.5 -13.334 1.5 -26.001l3 -38
c1 -12.667 1.66699 -25.334 2 -38.001s0.166016 -23.334 -0.500977 -32.001s-2.33398 -13.334 -5.00098 -14.001c-4.66699 -4 -9.33398 -3.66699 -14.001 1c-6 6 -11.333 49.667 -16 131c-1.33301 8 -7.66602 13.667 -18.999 17c-26 6.66699 -51.167 25.834 -75.5 57.501
s-39.166 64.834 -44.499 99.501c-12 76.667 -9 113.667 9 111c2.66699 -0.666992 5.66699 -2.33398 9 -5.00098c8 -6.66699 10.667 -18 8 -34s-0.333984 -40 6.99902 -72c4.66699 -20 9.66699 -35.333 15 -46s15 -23.334 29 -38.001c24 -25.333 38.833 -37 44.5 -35
s7.16699 20 4.5 54c-4.66699 55.333 -6.33398 138 -5.00098 248c-39.333 5.33301 -73.833 24.5 -103.5 57.5s-44.834 68.167 -45.501 105.5z" />
    <glyph glyph-name="percent" unicode="%" horiz-adv-x="594" 
d="M468 96c23.333 0 39.833 4 49.5 12s14.5 21.667 14.5 41c-0.666992 62.667 -34 97.667 -100 105c-20 2 -32 2.33301 -36 1s-7 -6.66602 -9 -15.999c-4.66699 -17.333 -7 -28.333 -7 -33s2 -18.334 6 -41.001c10.667 -46 38 -69 82 -69zM406 279
c2.66699 0 4.66699 1.83301 6 5.5s1.33301 7.16699 0 10.5s-3.33301 5 -6 5s-4.66699 -1.66699 -6 -5s-1.33301 -6.83301 0 -10.5s3.33301 -5.5 6 -5.5zM446 279c35.333 0 66.166 -18.5 92.499 -55.5s32.833 -71.167 19.5 -102.5c-12.667 -30.667 -39.667 -48 -81 -52
c-42.667 -3.33301 -77.667 14.667 -105 54c-14.667 22 -20.5 57.167 -17.5 105.5s12.5 79.833 28.5 94.5c9.33301 10.667 17.833 14.5 25.5 11.5s12.834 -12.167 15.501 -27.5c2 -12.667 4.33301 -20.5 7 -23.5s7.66699 -4.5 15 -4.5zM137 543
c-32.667 34 -54.998 44 -66.998 30c-5.33301 -6.66699 -8.33301 -27.5 -9 -62.5s1.66602 -59.5 6.99902 -73.5c9.33301 -24.667 25 -33.667 47 -27c21.333 6.66699 36.666 23 45.999 49c3.33301 9.33301 5 19.333 5 30c0 16 -9.66699 34 -29 54zM118.002 596
c4.66699 0 18.667 -10.002 42 -30.002c25.333 -22 38.333 -46.5 39 -73.5s-11.333 -52.833 -36 -77.5c-22 -22 -43.5 -34.333 -64.5 -37s-37.5 5.33301 -49.5 24c-14.667 22.667 -21 57.834 -19 105.501s11.333 80.167 28 97.5c11.333 11.333 20.333 17.333 27 18
s12.667 -3.66602 18 -12.999c4.66699 -9.33301 9.66699 -14 15 -14zM399.002 609.998c-2.66699 11.333 1.83398 18.168 13.501 20.501s19.5 -0.166992 23.5 -7.5c1.33301 -6.66699 -6.33398 -28.667 -23.001 -66l-155 -373c-30.667 -76.667 -53 -114.334 -67 -113.001
c-2 0 -4 1 -6 3c-4.66699 4.66699 -1 17 11 37c10 20.667 23.167 52.334 39.5 95.001s31.833 80 46.5 112c2 4.66699 7 17.167 15 37.5s14 33.833 18 40.5c4.66699 10.667 13.5 33.667 26.5 69s23.5 61.666 31.5 78.999c17.333 37.333 26 59.333 26 66z" />
    <glyph glyph-name="ampersand" unicode="&#x26;" horiz-adv-x="477" 
d="M215 270c-62 55.333 -95.666 84.3369 -100.999 87.0039c-4.66699 1.33301 -9 -0.666992 -13 -6c-11.333 -12 -21.333 -29 -30 -51s-13.334 -41 -14.001 -57c-2 -32 14.5 -61 49.5 -87s73.5 -37.667 115.5 -35c22.667 -0.666992 38.834 0.166016 48.501 2.49902
s22.167 8.16602 37.5 17.499c22 13.333 32.333 22.666 31 27.999s-15 16.666 -41 33.999c-30.667 22 -58.334 44.333 -83.001 67zM116.001 561.004c-4 0 -7.50195 -13.499 -10.502 -40.499s-3.16699 -47.167 -0.5 -60.5c2.66699 -16.667 7.33398 -29 14.001 -37
c4.66699 -6.66699 8.5 -9.83398 11.5 -9.50098s9.83301 4.83301 20.5 13.5c26 18.667 47.833 38.167 65.5 58.5s26.5 35.5 26.5 45.5c0 16.667 -3.16699 31.5 -9.5 44.5s-14.166 21.833 -23.499 26.5c-17.333 7.33301 -34.833 8.5 -52.5 3.5s-28.167 -14.5 -31.5 -28.5
c-4 -10.667 -7.33301 -16 -10 -16zM407.999 282.005c6.66699 0 11.002 -4.00391 13.002 -12.0039s1.33301 -18.167 -2 -30.5s-9 -24.833 -17 -37.5c-13.333 -19.333 -19 -30 -17 -32c0 -0.666992 5.33301 -4.33398 16 -11.001s21.167 -13.667 31.5 -21
s15.166 -12 14.499 -14c0 -7.33301 -4.33301 -11.166 -13 -11.499s-16.667 2.83398 -24 9.50098c-6.66699 6.66699 -17.667 14.334 -33 23.001c-6.66699 3.33301 -11.5 4.83301 -14.5 4.5s-5.83301 -2.83301 -8.5 -7.5c-7.33301 -13.333 -27.166 -25.166 -59.499 -35.499
s-62.833 -15.166 -91.5 -14.499c-33.333 0.666992 -67 11.834 -101 33.501s-56 45.834 -66 72.501c-2.66699 5.33301 -4.5 18.666 -5.5 39.999s-0.5 33.333 1.5 36c1.33301 10.667 4.66602 22 9.99902 34s10 21.333 14 28l26 43c5.33301 7.33301 5 24 -1 50
c-10.667 44 -9.83398 85.667 2.49902 125s33.166 64.333 62.499 75c28.667 10.667 54.667 9.66699 78 -3s38.666 -34 45.999 -64c4 -13.333 5.33301 -23.5 4 -30.5s-6.66602 -19.167 -15.999 -36.5c-14.667 -26 -38 -50 -70 -72c-32.667 -23.333 -49.667 -37 -51 -41
c0 -4.66699 9.66699 -15.334 29 -32.001c97.333 -86 162.666 -140.333 195.999 -163c22.667 30 34.334 52.667 35.001 68c0.666992 4.66699 0.333984 9 -0.999023 13c-0.666992 9.33301 3.33301 14 12 14z" />
    <glyph glyph-name="quotesingle" unicode="'" horiz-adv-x="96" 
d="M32 613c3.33301 14 9.33301 19.333 18 16c10 -4.66699 13.333 -15.667 10 -33c-2 -6.66699 -1.16699 -24.167 2.5 -52.5s3.83398 -46.5 0.500977 -54.5l-6 -16l-10 18c-6 10.667 -10.833 30.5 -14.5 59.5s-3.83398 49.833 -0.500977 62.5z" />
    <glyph glyph-name="parenleft" unicode="(" horiz-adv-x="205" 
d="M151 617c23.333 0 22 -10.002 -4 -30.002l-7 -5c-33.333 -23.333 -57 -58.833 -71 -106.5s-20.667 -115.5 -20 -203.5c0 -49.333 1 -82.666 3 -99.999s7.33301 -38.666 16 -63.999c24.667 -70 53.667 -122.667 87 -158c19.333 -20.667 25 -30.334 17 -29.001
c-3.33301 0.666992 -8.33301 3 -15 7c-10 6.66699 -25.333 25.834 -46 57.501s-35.334 59.167 -44.001 82.5c-43.333 108.667 -48.666 248.334 -15.999 419.001c1.33301 0 2.66602 4 3.99902 12c6 23.333 18.333 47.666 37 72.999s38.334 40.333 59.001 45z" />
    <glyph glyph-name="parenright" unicode=")" horiz-adv-x="222" 
d="M30 632c0 8 4.66895 12.3301 14.002 12.9971s20.666 -2.66602 33.999 -9.99902c28.667 -14.667 54.667 -54.667 78 -120s35.333 -131.666 36 -198.999c0 -24 -6 -70.333 -18 -139c-11.333 -68.667 -22.333 -118.667 -33 -150s-23.334 -52 -38.001 -62
c-10 -7.33301 -15.167 -9.66602 -15.5 -6.99902s4.83398 9.66699 15.501 21c14 16 28.833 62.167 44.5 138.5s23.5 142.166 23.5 197.499c0 75.333 -11.333 139 -34 191c-15.333 35.333 -27.833 59.333 -37.5 72s-22.834 22.334 -39.501 29.001c-20 8 -30 16.333 -30 25z
" />
    <glyph glyph-name="asterisk" unicode="*" horiz-adv-x="302" 
d="M30 532c0 11.333 18.334 13.3369 55.001 6.00391c15.333 -3.33301 24.833 -0.5 28.5 8.5s4.33398 19.667 2.00098 32s0.5 23.166 8.5 32.499c14.667 16.667 23.667 12.334 27 -12.999c0.666992 -5.33301 1 -11.333 1 -18c1.33301 -22 4.16602 -34.333 8.49902 -37
s21.5 -1.66699 51.5 3c22.667 3.33301 38.667 4.16602 48 2.49902s13.333 -6.5 12 -14.5c-0.666992 -6.66699 -16 -10.334 -46 -11.001c-31.333 -0.666992 -49.333 -4.5 -54 -11.5s0.333008 -24.167 15 -51.5c15.333 -28 23 -44.333 23 -49
c-0.666992 -8.66699 -8 -8.33398 -22 0.999023c-12.667 8 -19.334 16 -20.001 24c-0.666992 4 -12 30.333 -34 79l-8 -21c-12 -29.333 -22 -51 -30 -65s-14.333 -19.667 -19 -17c-6.66699 3.33301 -6 15.666 2 36.999c11.333 30 16.5 47.5 15.5 52.5s-11.167 9.5 -30.5 13.5
c-22.667 4 -34 9.66699 -34 17z" />
    <glyph glyph-name="plus" unicode="+" horiz-adv-x="459" 
d="M424 360c0.666992 -8 2.33203 -20.001 4.99902 -36.001l-99.5 3l-100.5 3c4 -76.667 8 -124.667 12 -144c3.33301 -12.667 0 -21.667 -10 -27c-4.66699 -2 -8.5 -3.33301 -11.5 -4s-5.16699 1.33301 -6.5 6s-2.33301 10.5 -3 17.5s-1 17.5 -1 31.5
c0 40 -2.66699 79.333 -8 118h-68c-68.667 0.666992 -103 7.66699 -103 21c0 7.33301 7 10.666 21 9.99902c34 -2 85.333 -3 154 -3c-4 60.667 -10 107.334 -18 140.001c-5.33301 20.667 -4.66602 32.667 2.00098 36c6 4.66699 12 4.66699 18 0
c4 -3.33301 8.33301 -25.666 13 -66.999s6.66699 -76.333 6 -105h198z" />
    <glyph glyph-name="comma" unicode="," horiz-adv-x="148" 
d="M47 150c12.667 6.66699 24.166 9.66504 34.499 8.99805s17.166 -4.66699 20.499 -12c2.66699 -4.66699 4.83398 -12.334 6.50098 -23.001s3.5 -24 5.5 -40s3.33301 -26 4 -30l-11.5 -12l-16.5 -18c-4.66699 -5.33301 -10.667 -11.166 -18 -17.499
s-12.666 -10.166 -15.999 -11.499s-6.66602 -1.33301 -9.99902 0c-6 6 -1.33301 17.333 14 34c16.667 20 22 32.333 16 37c-2 1.33301 -5.66699 1 -11 -1c-7.33301 -3.33301 -14.833 0.5 -22.5 11.5s-11.834 23.833 -12.501 38.5c-0.666992 16.667 5 28.334 17 35.001z" />
    <glyph glyph-name="hyphen" unicode="-" horiz-adv-x="323" 
d="M293 261c0 -6.66699 -2.00098 -10.333 -6.00098 -11c-6.66699 -2 -55.667 -0.666992 -147 4c-67.333 5.33301 -102.333 9 -105 11c-5.33301 4 -6.66602 9.66699 -3.99902 17c3.33301 8 16 10.667 38 8c72 -8 136 -13 192 -15c13.333 0 22 -0.833008 26 -2.5
s6 -5.5 6 -11.5z" />
    <glyph glyph-name="period" unicode="." horiz-adv-x="136" 
d="M48 130c11.333 9.33301 20.168 14.166 26.501 14.499s13.166 -3.16699 20.499 -10.5c8.66699 -9.33301 12.167 -19.666 10.5 -30.999s-8.5 -22 -20.5 -32c-32.667 -28 -50.667 -23 -54 15c-0.666992 12 0 20.667 2 26s7 11.333 15 18z" />
    <glyph glyph-name="slash" unicode="/" horiz-adv-x="254" 
d="M39 138c18.667 0 53 103.335 103 310.002c26 110 44.333 173 55 189c4.66699 6 10.334 8.33301 17.001 7c18.667 -4.66699 15.334 -31.334 -9.99902 -80.001c-11.333 -19.333 -19.333 -39.333 -24 -60c-8 -36.667 -24.833 -101.5 -50.5 -194.5
s-43.834 -154.167 -54.501 -183.5c-8.66699 -25.333 -18 -37 -28 -35c-6.66699 2 -11.667 10 -15 24c-1.33301 6 -2 10.667 -2 14s0.666992 5.66602 2 6.99902s3.66602 2 6.99902 2z" />
    <glyph glyph-name="zero" unicode="0" horiz-adv-x="423" 
d="M268 577c-10 5.33301 -27.168 9.82812 -51.501 13.4951s-40.166 3.83398 -47.499 0.500977c-26.667 -10 -49 -29.667 -67 -59c-18.667 -28.667 -31.5 -68.834 -38.5 -120.501s-5.83301 -95.5 3.5 -131.5c6 -24.667 19.667 -56.667 41 -96s37 -61.666 47 -66.999
c8 -4 27.333 -3 58 3s53.667 13.333 69 22c15.333 10 27.333 21.667 36 35c8 12.667 18.167 47.334 30.5 104.001s17.5 91.334 15.5 104.001c-9.33301 44.667 -19.166 77.334 -29.499 98.001s-25.833 36.334 -46.5 47.001c-14.667 6.66699 -22.334 16 -23.001 28
c-0.666992 6.66699 2.33301 10 9 10c6 0.666992 5.33301 3 -2 7zM162.999 622.995c14.667 4 33.001 4.83105 55.001 2.49805s38.667 -7.16602 50 -14.499c8.66699 -4.66699 26.334 -20.667 53.001 -48c68 -69.333 88.333 -158.666 61 -267.999
c-6 -22.667 -11 -44.334 -15 -65.001c-8.66699 -40 -23.167 -70.167 -43.5 -90.5s-51.833 -36.166 -94.5 -47.499c-38 -10.667 -65.333 -11.667 -82 -3s-36.334 34.334 -59.001 77.001c-22 40.667 -36.5 70 -43.5 88s-11.5 37.667 -13.5 59
c-2.66699 25.333 -1.33398 58 3.99902 98s13 73.333 23 100c8.66699 22.667 24 45.667 46 69s41.667 37.666 59 42.999z" />
    <glyph glyph-name="one" unicode="1" horiz-adv-x="211" 
d="M157 610c6.66699 0 11.0039 -4.33398 13.0039 -13.001s5.66699 -34 11 -76c2 -18 -0.333008 -73.667 -7 -167s-12.334 -149.666 -17.001 -168.999c-2.66699 -10.667 -7.83398 -19.5 -15.501 -26.5s-13.5 -8.5 -17.5 -4.5c-2.66699 2.66699 -0.333984 26 6.99902 70
c4.66699 26 8.66699 64.833 12 116.5s5 95 5 130s-1.66699 55.5 -5 61.5c-6 0 -17 -11.667 -33 -35c-14 -19.333 -28.5 -35 -43.5 -47s-25.167 -16.333 -30.5 -13c-6.66699 4 -7.83398 9.66699 -3.50098 17s16.833 21.333 37.5 42c28 29.333 47 55 57 77
c11.333 24.667 21.333 37 30 37z" />
    <glyph glyph-name="two" unicode="2" horiz-adv-x="353" 
d="M42 30c0 12 5.99707 28.1689 17.9971 48.502s26 42.166 42 65.499s26.333 40 31 50l51 93c24 43.333 39.667 74.333 47 93s10.666 38.334 9.99902 59.001c-1.33301 52.667 -20.333 79 -57 79c-17.333 0 -38 -5.66699 -62 -17s-42.333 -24.333 -55 -39
c-9.33301 -10 -15.333 -15.667 -18 -17s-7 0.666992 -13 6c-5.33301 5.33301 -7.33301 9.66602 -6 12.999s7.66602 11 18.999 23c26.667 27.333 59.667 47.333 99 60c13.333 4 29.333 4.5 48 1.5s32.334 -8.83301 41.001 -17.5c17.333 -16.667 28.333 -50.334 33 -101.001
c2 -20.667 -8.16699 -53.5 -30.5 -98.5s-41.833 -78.833 -58.5 -101.5c-15.333 -20 -35.166 -51.167 -59.499 -93.5s-38.166 -69.166 -41.499 -80.499c-3.33301 -13.333 3.33398 -20.333 20.001 -21c13.333 0 32.666 3 57.999 9c105.333 25.333 160 20.666 164 -14.001
c1.33301 -10.667 0.166016 -16.5 -3.50098 -17.5s-15.5 2.16699 -35.5 9.5c-13.333 5.33301 -25.166 8 -35.499 8s-29.166 -2.66699 -56.499 -8c-12.667 -2 -29 -5 -49 -9s-31.333 -6.33301 -34 -7c-13.333 -2.66699 -27.666 -1.16699 -42.999 4.5s-23 12.167 -23 19.5z" />
    <glyph glyph-name="three" unicode="3" horiz-adv-x="364" 
d="M308 267c0 12 -6.16797 25.5029 -18.501 40.5029s-25.833 25.5 -40.5 31.5c-18.667 8 -44.667 11 -78 9c-20.667 -0.666992 -34 -0.5 -40 0.5s-9.66699 4.16699 -11 9.5c-1.33301 8 6.66699 15.667 24 23c36 14.667 64 43.667 84 87c20.667 45.333 29 81.666 25 108.999
c-1.33301 10 -3.5 15.667 -6.5 17s-13.5 1 -31.5 -1c-25.333 -4 -48.666 -10.667 -69.999 -20c-19.333 -8.66699 -38 -22.167 -56 -40.5s-27 -33.5 -27 -45.5c0 -14 -5 -23.667 -15 -29c-5.33301 -2.66699 -9.66602 -1.33398 -12.999 3.99902
c-6.66699 10 -5.16699 26.167 4.5 48.5s23.5 41.166 41.5 56.499c34 30 76.667 48.667 128 56c23.333 3.33301 40.166 3.33301 50.499 0s18.166 -11.333 23.499 -24c8 -18 4.33301 -49.333 -11 -94s-34 -79.334 -56 -104.001l-13 -15
c43.333 -3.33301 81 -23.666 113 -60.999c12.667 -14.667 19 -35 19 -61s-6.33301 -45.667 -19 -59c-28.667 -30.667 -68.667 -50.834 -120 -60.501s-89.666 -4.5 -114.999 15.5c-22 17.333 -37.167 39.833 -45.5 67.5s-6.83301 50.5 4.5 68.5c4.66699 7.33301 7 8 7 2
c0 -3.33301 -0.666992 -11 -2 -23c-4 -40.667 10.667 -71.667 44 -93c15.333 -10 39.333 -14.333 72 -13s60 7.66602 82 18.999c18 8.66699 33.5 20.834 46.5 36.501s19.5 29.834 19.5 42.501z" />
    <glyph glyph-name="four" unicode="4" horiz-adv-x="408" 
d="M287 517c0 15.333 -1.33203 22.999 -3.99902 22.999c-4.66699 0 -28.334 -31.667 -71.001 -95c-5.33301 -7.33301 -15 -21.666 -29 -42.999l-28 -42l-23.5 -36l-17.5 -27c-7.33301 -11.333 -12.333 -19.333 -15 -24l-10.5 -19c-4.33301 -8 -7.5 -14.333 -9.5 -19
s-4 -10.167 -6 -16.5l-6 -19.5c109.333 8 166.666 12.667 171.999 14c6 2 11 11.667 15 29c4.66699 30.667 11.334 81.5 20.001 152.5s13 111.833 13 122.5zM378.001 210.999c0 -8 -2.5 -12.8291 -7.5 -14.4961s-19.833 -2.5 -44.5 -2.5c-30.667 0 -48.5 -3.66699 -53.5 -11
s-7.5 -34.666 -7.5 -81.999c0 -40.667 -3.66699 -62.667 -11 -66c-10 -4 -15.667 1 -17 15c-1.33301 11.333 -0.666016 32.666 2.00098 63.999c4 46 5.33301 69.667 4 71s-28 -0.333984 -80 -5.00098c-82.667 -6.66699 -127 -4.33398 -133 6.99902
c-3.33301 5.33301 16.667 44.166 60 116.499s70.666 111.833 81.999 118.5c6 3.33301 9 7.66602 9 12.999c-0.666992 3.33301 12.833 25.5 40.5 66.5s41.5 62.833 41.5 65.5c2 8.66699 10.333 19.5 25 32.5s24.667 14.5 30 4.5c4.66699 -7.33301 -4 -94 -26 -260
c-10 -76 -13.333 -115.667 -10 -119c4 -4 14.667 -5.16699 32 -3.5s29 5.16699 35 10.5c7.33301 6.66699 14 8 20 4s9 -12.333 9 -25z" />
    <glyph glyph-name="five" unicode="5" horiz-adv-x="405" 
d="M375 596c0 -15.333 -9.33594 -24 -28.0029 -26c-140 -13.333 -219.333 -21.333 -238 -24c6 -104 9.33301 -157.667 10 -161c2 -2 7 0.666992 15 8c22 18 48 29 78 33s54.333 -0.333008 73 -13c35.333 -24.667 61 -61.334 77 -110.001s16 -90 0 -124
c-17.333 -37.333 -55.333 -65.5 -114 -84.5s-109.667 -19.833 -153 -2.5c-17.333 7.33301 -32.5 19.5 -45.5 36.5s-19.5 33.167 -19.5 48.5l2 14c1.33301 0 5.33301 -7 12 -21c0 -0.666992 0.333008 -1.33398 1 -2.00098c26 -52.667 81 -71.667 165 -57
c27.333 4.66699 52.333 13.834 75 27.501s39 29.834 49 48.501c12.667 22.667 14.834 51.834 6.50098 87.501s-24.166 65.834 -47.499 90.501c-27.333 28.667 -59 37 -95 25c-16.667 -4.66699 -36 -16.334 -58 -35.001s-33 -32.667 -33 -42
c0 -6.66699 -3.83301 -11.667 -11.5 -15s-13.5 -3 -17.5 1c-5.33301 5.33301 -4.66602 22 2.00098 50c6 30 7 66 3 108c-5.33301 66 -6.66602 102.333 -3.99902 109c3.33301 4.66699 10.333 8 21 10c12 2 38.833 5 80.5 9s78.5 8.16699 110.5 12.5s50 8.16602 54 11.499
c7.33301 4 14.166 4.66699 20.499 2s9.5 -7.66699 9.5 -15z" />
    <glyph glyph-name="six" unicode="6" horiz-adv-x="410" 
d="M323 357c-32.667 23.333 -61.167 22.833 -85.5 -1.5s-40.5 -58.166 -48.5 -101.499c-2.66699 -22 0.5 -44.333 9.5 -67s20.833 -37.334 35.5 -44.001c8.66699 -4 15.5 -4.5 20.5 -1.5s15.5 13.5 31.5 31.5c31.333 35.333 53 72.333 65 111c2.66699 8.66699 1 21 -5 37
s-13.667 28 -23 36zM241 110c-4.66699 -0.666992 -17.332 7.33105 -37.999 23.998s-32.334 25 -35.001 25c-4 0 -18.167 11.833 -42.5 35.5s-42.833 43.834 -55.5 60.501c-44.667 48.667 -53.334 113.334 -26.001 194.001c12.667 32.667 34.667 64 66 94
s61.666 49.667 90.999 59c21.333 6 41.833 5.33301 61.5 -2s35.834 -20.333 48.501 -39c19.333 -28.667 20 -43 2 -43c-8 0.666992 -16.833 10 -26.5 28s-17.5 27.667 -23.5 29c-11.333 6 -27.166 7.16699 -47.499 3.5s-37.5 -10.167 -51.5 -19.5
c-14.667 -10 -30.834 -24.667 -48.501 -44s-28.167 -33 -31.5 -41c-2.66699 -8 -6.66699 -10.667 -12 -8c-4 3.33301 -5 2.66602 -3 -2.00098c2.66699 -4 0.333984 -18.667 -6.99902 -44c-10 -34 -9.66699 -68 1 -102s31 -65 61 -93c22 -20.667 35.333 -31 40 -31
c3.33301 0 4.33301 14 3 42c-2.66699 28.667 2 55 14 79c14.667 30 28 50.333 40 61s29 17.334 51 20.001c40.667 4 71.667 -17 93 -63c8.66699 -18.667 13.5 -31.167 14.5 -37.5s-1.16699 -16.833 -6.5 -31.5c-13.333 -36.667 -34 -71.5 -62 -104.5
s-51.333 -49.5 -70 -49.5z" />
    <glyph glyph-name="seven" unicode="7" horiz-adv-x="329" 
d="M110 75c-8.66699 0 -12.999 3.33496 -12.999 10.002c0 12.667 22.333 66.667 67 162c36 80.667 61.333 145.5 76 194.5s24 103.5 28 163.5c-16.667 -5.33301 -91.334 -16 -224.001 -32c-5.33301 -0.666992 -9 0.166016 -11 2.49902s-3 6.83301 -3 13.5
c0 9.33301 5.83301 15.333 17.5 18s50.167 7 115.5 13h2c29.333 2 57.666 6.66699 84.999 14c25.333 6.66699 40.333 6.16699 45 -1.5s4.66699 -30.834 0 -69.501c-2.66699 -18.667 -5.66699 -35.5 -9 -50.5s-7.66602 -31.5 -12.999 -49.5s-9 -31.333 -11 -40
c-2 -11.333 -23 -65 -63 -161s-61 -147.333 -63 -154c-8 -22 -16.667 -33 -26 -33z" />
    <glyph glyph-name="eight" unicode="8" 
d="M342 305c-8.66699 8.66699 -14.835 14.501 -18.502 17.501s-9.16699 5.66699 -16.5 8s-14.666 5.16602 -21.999 8.49902c-15.333 8.66699 -67.333 15 -156 19l-23 -23c-16 -16 -28.667 -37.167 -38 -63.5s-13 -49.833 -11 -70.5
c2.66699 -21.333 12.834 -40.333 30.501 -57s38.5 -27 62.5 -31c33.333 -4.66699 70.333 0.833008 111 16.5s71 35.834 91 60.501c14 21.333 19.5 41.666 16.5 60.999s-11.833 37.333 -26.5 54zM89.999 483.001c0 -26.667 9.50293 -46.5 28.5029 -59.5
s44.833 -17.5 77.5 -13.5c28 2.66699 45.667 1.33398 53 -3.99902c12.667 -9.33301 38 -6.66602 76 8.00098c19.333 7.33301 31.666 22.333 36.999 45s1.66602 44.334 -11.001 65.001c-10 16 -19.333 22.333 -28 19c-9.33301 -2.66699 -17.333 2.33301 -24 15
c-6 11.333 -15 20.666 -27 27.999s-22 9.66602 -30 6.99902s-13 -0.666992 -15 6c-2 5.33301 -9.66699 8.66602 -23 9.99902s-25.333 0 -36 -4c-16.667 -6 -33.834 -23 -51.501 -51s-26.5 -51.667 -26.5 -71zM386.002 471.001c0 -25.333 -6.66406 -44.8311 -19.9971 -58.498
s-35.333 -23.834 -66 -30.501c-12.667 -2.66699 -19 -6.16699 -19 -10.5s6 -7.83301 18 -10.5c21.333 -5.33301 42 -19 62 -41s31 -42.667 33 -62c2 -18.667 -2.5 -41 -13.5 -67s-21.5 -39 -31.5 -39c-4.66699 0 -15.334 -6.66699 -32.001 -20
c-23.333 -18.667 -54.333 -32 -93 -40s-71.334 -8 -98.001 0c-16 4.66699 -33 15.834 -51 33.501s-30.667 35.167 -38 52.5c-12.667 30 -9.33398 68.5 9.99902 115.5s43.666 75.833 72.999 86.5c6.66699 1.33301 -1 11.666 -23 30.999c-15.333 14 -24.5 24 -27.5 30
s-4.16699 19 -3.5 39c0.666992 31.333 9.5 61.666 26.5 90.999s37.5 49 61.5 59c15.333 6.66699 42.333 7.66699 81 3s67.334 -12 86.001 -22c11.333 -6.66699 25 -27 41 -61s24 -60.333 24 -79z" />
    <glyph glyph-name="nine" unicode="9" horiz-adv-x="340" 
d="M280 470c0 54.667 -11.668 88.333 -35.001 101c-15.333 8 -33.166 12.833 -53.499 14.5s-36.833 -0.5 -49.5 -6.5c-16 -6.66699 -32.5 -21.167 -49.5 -43.5s-28.5 -44.166 -34.5 -65.499c-18 -61.333 -11.667 -108 19 -140c13.333 -13.333 26.333 -21.333 39 -24
s29 -1 49 5c31.333 9.33301 58.333 29.666 81 60.999s34 64 34 98zM285.999 78.999c-2 -2 -3.33398 16.3359 -4.00098 55.0029c-0.666992 22 -1.33398 60.667 -2.00098 116c-0.666992 75.333 -1.66699 113 -3 113c-2.66699 0 -13.667 -10.333 -33 -31
c-20 -20.667 -42.333 -34.334 -67 -41.001c-26.667 -6.66699 -47.667 -8.33398 -63 -5.00098s-31.666 13.666 -48.999 30.999c-12 12 -20 22 -24 30s-7 19.667 -9 35c-5.33301 47.333 2.83398 93.333 24.501 138s49.167 71.667 82.5 81c56 16 104 6.66699 144 -28l27 -24
c-2.66699 -252.667 -3.66699 -393 -3 -421c0.666992 -38 -5 -55 -17 -51z" />
    <glyph glyph-name="colon" unicode=":" horiz-adv-x="163" 
d="M59 82c-0.666992 -6 2.33301 -9 9 -9c8.66699 -0.666992 14.667 2.33301 18 9c0.666992 2 0.666992 3.66699 0 5c-2 4 -7 5.16699 -15 3.5s-12 -4.5 -12 -8.5zM80 138c-6 0 -9 -0.667969 -9 -2.00098c-0.666992 -1.33301 3 -6.66602 11 -15.999c10 -12 16 -14.333 18 -7
c2.66699 8 0 15.333 -8 22c-4 2.66699 -8 3.66699 -12 3zM122 114.999c0 -11.333 -5.33398 -25.166 -16.001 -41.499s-21.667 -27.833 -33 -34.5c-15.333 -8.66699 -27.666 -1.33398 -36.999 21.999c-10.667 26.667 -10 52.334 2 77.001
c2 3.33301 4.33301 6.66602 7 9.99902c13.333 17.333 29.5 22 48.5 14s28.5 -23.667 28.5 -47zM86.999 419.999c8 2 9.66699 8 5 18c-4 8 -7.33301 9.66699 -10 5c-1.33301 -2 -2 -4.66699 -2 -8c0 -10 2.33301 -15 7 -15zM37.999 441.999
c-0.666992 12 3.50098 20.5 12.501 25.5s19.333 6.5 31 4.5s22.167 -5.66699 31.5 -11c6.66699 -4.66699 12.167 -15.667 16.5 -33s5.16602 -31 2.49902 -41c-5.33301 -20.667 -19.333 -26.667 -42 -18c-22 8.66699 -37.667 24.667 -47 48c-3.33301 8 -5 16.333 -5 25z" />
    <glyph glyph-name="semicolon" unicode=";" horiz-adv-x="144" 
d="M76 145c12 0 19.8311 -13.833 23.498 -41.5s0.833984 -52.167 -8.49902 -73.5c-5.33301 -13.333 -13.333 -22.666 -24 -27.999s-18.334 -4.33301 -23.001 3c-8.66699 13.333 -9.66699 21.666 -3 24.999c1.33301 0.666992 3.33301 0.666992 6 0
c16 -6.66699 24 5.66602 24 36.999c0.666992 8.66699 0.333984 18.334 -0.999023 29.001c-2 21.333 -2.66699 34.833 -2 40.5s3.33398 8.5 8.00098 8.5zM42.998 461c18.667 11.333 36.666 8.00293 53.999 -9.99707c10 -10 15.333 -18.333 16 -25
s-2.66602 -15.334 -9.99902 -26.001c-6 -8.66699 -16.333 -13.834 -31 -15.501s-25.667 1.16602 -33 8.49902c-6.66699 6.66699 -9.5 18.667 -8.5 36s5.16699 28 12.5 32z" />
    <glyph glyph-name="equal" unicode="=" horiz-adv-x="468" 
d="M406 283c3.33301 3.33301 8.16895 4.00098 14.502 2.00098s11.166 -6 14.499 -12c2 -5.33301 3.16699 -9.5 3.5 -12.5s-2.16699 -5.5 -7.5 -7.5s-12.5 -3.5 -21.5 -4.5s-21.5 -1.83301 -37.5 -2.5c-174 -6 -270.667 -11.333 -290 -16
c-16 -4.66699 -27.333 -5.33398 -34 -2.00098s-8.33398 10.333 -5.00098 21c2.66699 8 9.66699 12.833 21 14.5s49.333 3.16699 114 4.5c146 4 222 9 228 15zM342.003 452.001c3.33301 3.33301 9.16797 3.99902 17.501 1.99902s14.5 -5.33301 18.5 -10
c4 -5.33301 5.33301 -10 4 -14s-5.33301 -7.16699 -12 -9.5s-15.334 -3.16602 -26.001 -2.49902c-18 1.33301 -72.333 -1.66699 -163 -9c-65.333 -5.33301 -105 -7.83301 -119 -7.5s-23 3.5 -27 9.5c-8.66699 11.333 -5 18.666 11 21.999
c13.333 2.66699 41.333 4.33398 84 5.00098c46 0.666992 92.167 2.5 138.5 5.5s70.833 5.83301 73.5 8.5z" />
    <glyph glyph-name="greater" unicode="&#x3e;" horiz-adv-x="397" 
d="M221 440c14.667 -3.33301 38.167 -12.1631 70.5 -26.4961s56.166 -22.5 71.499 -24.5c0 -1.33301 1.33301 -6 4 -14s-5.83301 -22 -25.5 -42s-44.167 -39.333 -73.5 -58l-26 -17.5l-26.5 -17.5c-7 -4.66699 -11.833 -8 -14.5 -10
c-21.333 -14 -53.666 -31.333 -96.999 -52s-67 -29.667 -71 -27c-3.33301 2.66699 -4.16602 6.66699 -2.49902 12s5.16699 10.666 10.5 15.999s10.333 8 15 8c17.333 0 65.666 25.333 144.999 76s119 81.667 119 93c-13.333 11.333 -49 28.5 -107 51.5
s-96.667 39.833 -116 50.5l-36.5 19.5c-9 5 -16 9.66699 -21 14s-7.33301 8.16602 -7 11.499s1.83301 6.66602 4.5 9.99902c4 4 9.66699 4.66699 17 2s27 -12.334 59 -29.001c42 -22 78 -37.333 108 -46z" />
    <glyph glyph-name="question" unicode="?" horiz-adv-x="386" 
d="M204 76c0 -4 3.66797 -9 11.001 -15c4 -3.33301 9.16699 -5 15.5 -5s11.666 1.33301 15.999 4s5.83301 6 4.5 10c-0.666992 3.33301 -5 6 -13 8s-15.667 2.83301 -23 2.5s-11 -1.83301 -11 -4.5zM191.001 120c16.667 21.333 27.3311 23.001 31.998 5.00098
c2 -8.66699 9.66699 -14.334 23 -17.001c8 -2.66699 15.333 -6.5 22 -11.5s11.334 -11.5 14.001 -19.5s-0.666016 -16.667 -9.99902 -26c-12 -12.667 -25.667 -20.167 -41 -22.5s-28.333 1.16699 -39 10.5c-10 9.33301 -15.167 22 -15.5 38s4.5 30.333 14.5 43z
M228.998 328.001c8 11.333 13.668 20.8311 17.001 28.498s6.5 13.834 9.5 18.501s9.5 11.334 19.5 20.001c12 11.333 23.333 27.833 34 49.5s16.334 39.167 17.001 52.5c1.33301 10 -2.66699 29.333 -12 58c-8 26.667 -22 47.667 -42 63c-13.333 10 -23.5 15.833 -30.5 17.5
s-19.5 1.83398 -37.5 0.500977c-34.667 -1.33301 -64.834 -13.666 -90.501 -36.999s-42.5 -52.333 -50.5 -87c-5.33301 -27.333 -9 -43.666 -11 -48.999s-5 -8 -9 -8c-6.66699 0 -10.834 7.16699 -12.501 21.5s-0.166992 30.166 4.5 47.499
c9.33301 33.333 26 62.666 50 87.999s51.333 42.666 82 51.999c76.667 20.667 130.667 -2 162 -68c21.333 -46 29.666 -82.167 24.999 -108.5s-25.667 -66.166 -63 -119.499c-30 -41.333 -49 -73.833 -57 -97.5s-8.66699 -46.834 -2 -69.501c5.33301 -20 5.33301 -33 0 -39
c-6.66699 -8.66699 -13.167 -11.5 -19.5 -8.5s-11.166 11.167 -14.499 24.5c-14 48.667 -3.66699 98.667 31 150z" />
    <glyph glyph-name="at" unicode="@" horiz-adv-x="645" 
d="M418 409c-3.33301 3.33301 -6.50098 5.83203 -9.50098 7.49902s-5.5 2.66699 -7.5 3s-5.66699 0.833008 -11 1.5s-9.66602 1.33398 -12.999 2.00098c-18.667 4 -37.167 -1 -55.5 -15s-34.166 -34.667 -47.499 -62s-20.333 -52 -21 -74s4.66602 -38.333 15.999 -49
c16 -15.333 38.5 -18.5 67.5 -9.5s51.5 25.833 67.5 50.5c10.667 16 17.667 42.167 21 78.5s1 58.5 -7 66.5zM493.999 179.999c-30 0 -50.6689 13 -62.002 39c-3.33301 8.66699 -6.66602 14.5 -9.99902 17.5s-6.66602 3.83301 -9.99902 2.5
c-6.66699 -3.33301 -10 -6.33301 -10 -9c-5.33301 -10 -23.166 -21 -53.499 -33s-56.166 -14.667 -77.499 -8c-24 7.33301 -38.333 26 -43 56s0.5 62.667 15.5 98s36.5 63.666 64.5 84.999c24 18.667 50 27.167 78 25.5s50.667 -13.167 68 -34.5
c10 -11.333 15.833 -24.833 17.5 -40.5s-1.16602 -27.167 -8.49902 -34.5c-5.33301 -5.33301 -8 -24.333 -8 -57c-0.666992 -28 2.66602 -48.167 9.99902 -60.5s19.333 -18.5 36 -18.5c22 0 43.333 21.5 64 64.5s29 82.833 25 119.5
c-8.66699 75.333 -51.334 126 -128.001 152c-45.333 15.333 -110 11.666 -194 -11.001s-141.333 -51.667 -172 -87c-44.667 -52.667 -56.667 -122.334 -36 -209.001c12 -50 36.5 -98.833 73.5 -146.5s77.167 -82.167 120.5 -103.5c27.333 -13.333 62.666 -20 105.999 -20
s75.333 6.66699 96 20c10 6 16.333 7 19 3c2.66699 -5.33301 1.33398 -8.66602 -3.99902 -9.99902c-44.667 -14 -79.834 -22.167 -105.501 -24.5s-53.167 0.833984 -82.5 9.50098c-42.667 12 -84 36.667 -124 74c-54 49.333 -92 111.666 -114 186.999s-20.667 137 4 185
c25.333 50 65.333 86 120 108c59.333 24 112 41.333 158 52c36 8 66.333 11.333 91 10s49.667 -8.33301 75 -21c32 -15.333 52.667 -27.666 62 -36.999c19.333 -18 35.333 -47 48 -87s16 -72.333 10 -97c-12.667 -49.333 -29.5 -88.166 -50.5 -116.499
s-43.833 -42.5 -68.5 -42.5z" />
    <glyph glyph-name="A" unicode="A" horiz-adv-x="491" 
d="M100 242c0 -4.66699 3.33203 -4.66699 9.99902 0c7.33301 5.33301 35.833 11.833 85.5 19.5s84.834 10.5 105.501 8.5l39 -2c0 1.33301 -6 27.333 -18 78c-17.333 76 -37.333 136 -60 180c-6 12 -12.167 20 -18.5 24s-12.5 4 -18.5 0s-11.333 -11.667 -16 -23
c-72.667 -172 -109 -267 -109 -285zM237.999 589c17.333 0 36.334 -20.6641 57.001 -61.9971s38 -92.666 52 -153.999c10 -46 16.5 -73.167 19.5 -81.5s7.16699 -11.5 12.5 -9.5c4 1.33301 7.5 0.166016 10.5 -3.50098s4.83301 -9.33398 5.5 -17.001s0 -16.5 -2 -26.5
c-2.66699 -14 1.5 -39.167 12.5 -75.5s24.167 -68.166 39.5 -95.499c19.333 -35.333 19.333 -53 0 -53c-6.66699 0 -16.5 13 -29.5 39s-25.167 56.667 -36.5 92l-14 43.5c-6.66699 20.333 -11.667 36.166 -15 47.499c-80 4 -139.333 1.66699 -178 -7
c-35.333 -6.66699 -55.333 -7.66699 -60 -3c-10 10 -15.667 9.33301 -17 -2c-0.666992 -13.333 -6.33398 -36.333 -17.001 -69s-17.667 -49 -21 -49c-2.66699 0 -8 -1.33301 -16 -4c-7.33301 -2.66699 -11 0.333008 -11 9c0 10 14 55.667 42 137s54 151.666 78 210.999
c28 69.333 42 109.666 42 120.999c-2 9.33301 1.83301 18.333 11.5 27s16.5 7 20.5 -5c3.33301 -6.66699 8 -10 14 -10z" />
    <glyph glyph-name="B" unicode="B" horiz-adv-x="432" 
d="M150 331c0 6 6.16504 13.5 18.498 22.5s26.833 16.833 43.5 23.5c14.667 6 29.667 20.833 45 44.5s25.666 46.834 30.999 69.501c4.66699 20.667 -0.333008 38.667 -15 54s-31.667 27 -51 35c-38 11.333 -70.667 10.333 -98 -3
c-15.333 -7.33301 -24.5 -19.666 -27.5 -36.999s-1.83301 -50 3.5 -98c9.33301 -88 15.666 -187.667 18.999 -299l24 -20c32.667 -26.667 71.834 -37.5 117.501 -32.5s77.834 23.167 96.501 54.5c8 14 12.667 38.833 14 74.5s-1.66699 60.167 -9 73.5
s-18.666 26.166 -33.999 38.499s-30 20.5 -44 24.5c-18 4.66699 -29.667 6.5 -35 5.5s-16 -7.5 -32 -19.5c-23.333 -17.333 -42.666 -24.333 -57.999 -21c-6 1.33301 -9 4.66602 -9 9.99902zM268.998 389c0 -2 7.00488 -4.33301 21.0049 -7
c14.667 -2.66699 32.334 -12.667 53.001 -30s35.667 -34.666 45 -51.999c7.33301 -13.333 11.666 -24.833 12.999 -34.5s1.33301 -25.5 0 -47.5c-2.66699 -34.667 -8.83398 -60.834 -18.501 -78.501s-26.167 -33.834 -49.5 -48.501
c-30.667 -17.333 -62.334 -24.833 -95.001 -22.5s-63 12.5 -91 30.5l-25 17v-31c0 -12.667 -1 -21 -3 -25s-5.66699 -6 -11 -6s-9 3 -11 9s-4 20 -6 42c-0.666992 18.667 -6.16699 43.667 -16.5 75s-15.833 48.666 -16.5 51.999c0 8.66699 2 12.667 6 12
c5.33301 -0.666992 9.33301 -7.66699 12 -21c4 -18 7.33301 -26.333 10 -25c5.33301 2 6.66602 19 3.99902 51c-2.66699 39.333 -6.33398 80.833 -11.001 124.5s-9.33398 79.167 -14.001 106.5s-8 40 -10 38c-6 -6 -11.667 -8.16699 -17 -6.5s-8 6.16699 -8 13.5
c0 11.333 7.83301 24.333 23.5 39s34.834 26.334 57.501 35.001c25.333 10 44.666 15.5 57.999 16.5s32.333 -2.16699 57 -9.5c46 -13.333 74.833 -37.666 86.5 -72.999s3.16699 -74 -25.5 -116c-12 -16.667 -18 -26 -18 -28z" />
    <glyph glyph-name="C" unicode="C" horiz-adv-x="482" 
d="M379 511c0 -8.66699 -1.16992 -14.332 -3.50293 -16.999s-7.16602 -4 -14.499 -4c-8 0 -12.833 1 -14.5 3s-1.5 6.66699 0.5 14c6 22.667 -2.33301 45 -25 67c-14.667 14 -37.5 14.833 -68.5 2.5s-64.833 -35.833 -101.5 -70.5c-36 -34 -63.333 -75.667 -82 -125
s-23.334 -91 -14.001 -125c8 -30.667 29.833 -57.667 65.5 -81s75.834 -37 120.501 -41c64.667 -6 110 1.33301 136 22c11.333 9.33301 22.833 24.5 34.5 45.5s19.167 40.167 22.5 57.5c1.33301 6.66699 3 11.834 5 15.501s4 5.16699 6 4.5
c9.33301 -4.66699 8.5 -22.5 -2.5 -53.5s-25.833 -56.5 -44.5 -76.5c-30 -34.667 -80.667 -49 -152 -43c-41.333 3.33301 -80.666 15.166 -117.999 35.499s-64.333 44.166 -81 71.499c-9.33301 14.667 -15.166 36.5 -17.499 65.5s0.166992 52.5 7.5 70.5
c6.66699 14.667 8.66699 24 6 28c-1.33301 2 7.16699 19.833 25.5 53.5s27.5 50.834 27.5 51.501c0 3.33301 13.667 18 41 44c19.333 18.667 40.333 35.667 63 51s41 24.666 55 27.999c36.667 10 66 5.16699 88 -14.5s33.667 -46.167 35 -79.5z" />
    <glyph glyph-name="D" unicode="D" horiz-adv-x="508" 
d="M213 131c-28 0 -49.1699 2.16309 -63.5029 6.49609s-27.166 12.833 -38.499 25.5c-13.333 14.667 -19 23 -17 25s9.66699 -3.66699 23 -17c19.333 -19.333 44.5 -29.833 75.5 -31.5s62.5 5.5 94.5 21.5c48.667 24.667 89.167 62.167 121.5 112.5s45.5 96.5 39.5 138.5
c-2.66699 22.667 -8 40.667 -16 54s-22.667 29 -44 47c-78.667 62.667 -161.334 93.667 -248.001 93c-1.33301 -0.666992 -5.33301 -1.66699 -12 -3s-13 -2.66602 -19 -3.99902s-10.667 -2.33301 -14 -3l-5 -233c-3.33301 -154.667 -9.33301 -232 -18 -232
c-15.333 0 -19.666 51.667 -12.999 155c3.33301 48.667 5 110.334 5 185.001c0.666992 52 0.333984 82.167 -0.999023 90.5s-5.66602 12.166 -12.999 11.499c-8 -1.33301 -13.667 0.5 -17 5.5s-3.66602 10.833 -0.999023 17.5s7.66699 11.667 15 15
c12 4.66699 18 9.33398 18 14.001c0 4 12.333 6.66699 37 8c89.333 6.66699 172 -13.666 248 -60.999c105.333 -65.333 145.666 -140.333 120.999 -225c-14.667 -51.333 -44.334 -99.333 -89.001 -144c-25.333 -25.333 -51.166 -43.666 -77.499 -54.999
s-56.833 -17 -91.5 -17z" />
    <glyph glyph-name="E" unicode="E" horiz-adv-x="426" 
d="M396 573c0 -6 -1.33398 -9.5 -4.00098 -10.5s-9 -0.166992 -19 2.5c-29.333 8.66699 -75.833 9 -139.5 1s-107.167 -19.667 -130.5 -35c-2 -5.33301 -5.66699 -67.666 -11 -186.999c16.667 -3.33301 39.834 -5.33301 69.501 -6s62 -0.666992 97 0s59.5 0.666992 73.5 0
c-16.667 -12 -32.834 -19.833 -48.501 -23.5s-46.5 -5.83398 -92.5 -6.50098l-96 -2c-18 -132.667 -28.667 -208 -32 -226c-1.33301 -4.66699 12.167 -8 40.5 -10s60.666 -2.16699 96.999 -0.5s63.833 4.83398 82.5 9.50098c30 7.33301 48 13.333 54 18
c4 3.33301 9 4.16602 15 2.49902s9 -4.83398 9 -9.50098c-0.666992 -17.333 -25.667 -32 -75 -44c-37.333 -9.33301 -88.666 -12.333 -153.999 -9c-66 2.66699 -100 5 -102 7c-0.666992 0.666992 2.66602 27.667 9.99902 81c10.667 71.333 17.334 123.833 20.001 157.5
s4.33398 81.834 5.00098 144.501c0 82.667 3 126.667 9 132c8 6.66699 40 15 96 25c69.333 14 124.333 20 165 18s61 -11.667 61 -29z" />
    <glyph glyph-name="F" unicode="F" horiz-adv-x="464" 
d="M152 357c10 -60 14.999 -116.003 14.999 -168.003c0 -61.333 -5.66699 -93.333 -17 -96c-2.66699 -0.666992 -5.66699 -0.333984 -9 0.999023c-4.66699 0 -7.66699 17.5 -9 52.5s-2 71.5 -2 109.5s-1.33301 59.333 -4 64l-4 37
c-1.33301 0 -9.16602 -1.16699 -23.499 -3.5s-25.833 -3.16602 -34.5 -2.49902s-13 3.33398 -13 8.00098c-5.33301 8 -1.5 14.833 11.5 20.5s28.167 9.83398 45.5 12.501c-8.66699 37.333 -30.667 85.666 -66 144.999c-13.333 24.667 -14.666 41.834 -3.99902 51.501
s39 17.167 85 22.5c118 14.667 204 27 258 37c26 5.33301 42 7.33301 48 6c2 -1.33301 3.5 -6.66602 4.5 -15.999s0.5 -14.333 -1.5 -15c-20 -0.666992 -58.167 -5.5 -114.5 -14.5s-92.833 -14.167 -109.5 -15.5c-82.667 -8.66699 -128 -17 -136 -25
c-3.33301 -3.33301 1.66699 -18 15 -44c13.333 -22 31.666 -63.333 54.999 -124c0.666992 -0.666992 20.667 1.16602 60 5.49902s68.666 8.16602 87.999 11.499c14.667 2.66699 23.334 0.333984 26.001 -6.99902c4.66699 -11.333 4 -19.666 -2 -24.999s-18.333 -8 -37 -8
c-21.333 0 -47.5 -2.5 -78.5 -7.5s-46.5 -9.16699 -46.5 -12.5z" />
    <glyph glyph-name="G" unicode="G" horiz-adv-x="504" 
d="M312 635c0 6.66699 15 -1.00098 45 -23.001c14 -10.667 24.333 -19.667 31 -27c13.333 -16 23.333 -36 30 -60s6.33398 -38 -0.999023 -42c-6.66699 -4 -11.667 -4.33301 -15 -1s-6 12 -8 26c-4 23.333 -18 46.166 -42 68.499s-47 33.5 -69 33.5
c-39.333 0 -83.333 -23.667 -132 -71c-71.333 -69.333 -104 -152 -98 -248c1.33301 -26 3.5 -44.333 6.5 -55s10.167 -24.667 21.5 -42c12.667 -19.333 33.5 -41.333 62.5 -66s52.167 -40.334 69.5 -47.001c6 -2 13 -5 21 -9s15.833 -7.16699 23.5 -9.5
s17.167 -4.16602 28.5 -5.49902c34.667 -4 65 7.33301 91 34s48.667 70.334 68 131.001c4.66699 14.667 7.16699 32.834 7.5 54.501s-1.83398 36.834 -6.50098 45.501c-5.33301 9.33301 -17.666 13.666 -36.999 12.999s-39.666 -6.33398 -60.999 -17.001
c-10.667 -5.33301 -20.334 -9.16602 -29.001 -11.499s-15.5 -2.83301 -20.5 -1.5s-7.5 4.33301 -7.5 9c0 7.33301 2 13.833 6 19.5s8.66699 8.5 14 8.5c8 0 14.333 2.33301 19 7c5.33301 5.33301 21.666 10.333 48.999 15c25.333 4.66699 44 4.83398 56 0.500977
s21.667 -15.166 29 -32.499c16 -39.333 10.667 -93 -16 -161c-28.667 -72.667 -59.334 -115.334 -92.001 -128.001c-13.333 -5.33301 -32.833 -8.5 -58.5 -9.5s-41.167 0.833008 -46.5 5.5c-4 2 -13.167 6 -27.5 12s-27.333 12.167 -39 18.5s-19.834 12.166 -24.501 17.499
c-8 7.33301 -21 16.333 -39 27c-11.333 6 -25.666 21.667 -42.999 47s-29.666 49 -36.999 71c-11.333 34.667 -14 75.5 -8 122.5s19.667 90.5 41 130.5c12.667 24.667 32.667 50.167 60 76.5s53.333 45.833 78 58.5c24 12 36 16.333 36 13s2.66699 -2.33301 8 3s16 6 32 2
l12 -2c4 -0.666992 6.83301 -1 8.5 -1h3.5z" />
    <glyph glyph-name="H" unicode="H" horiz-adv-x="474" 
d="M400 530c0 53.333 3.66406 81.6719 10.9971 85.0049c8 2.66699 12.667 2.66699 14 0l6 -203c3.33301 -167.333 5.66602 -251 6.99902 -251c2 -6.66699 3.66699 -25.667 5 -57c2 -34.667 -0.333008 -54 -7 -58c-6.66699 -4.66699 -12 -5 -16 -1
c-2.66699 4.66699 -5.33398 51 -8.00098 139c-1.33301 50 -2.66602 88.833 -3.99902 116.5s-3 49.667 -5 66s-4 26.5 -6 30.5s-5 5.33301 -9 4c-111.333 -45.333 -212 -60 -302 -44c2.66699 -154 5.33398 -239.333 8.00098 -256
c4.66699 -10.667 3.33398 -18.334 -3.99902 -23.001s-14 -3.66699 -20 3c-2 28 -3 52.833 -3 74.5s0.833008 60.334 2.5 116.001s2.5 87.167 2.5 94.5c-1.33301 1.33301 -7 5.66602 -17 12.999s-17.333 14.166 -22 20.499s-4.33398 11.5 0.999023 15.5c6 7.33301 12 10 18 8
c8 -3.33301 12.333 0.666992 13 12c1.33301 11.333 0.333008 35.666 -3 72.999c-4 48.667 -11 83.334 -21 104.001c-9.33301 17.333 -12.666 28.666 -9.99902 33.999c4 4.66699 8.33301 6.66699 13 6s9.33398 -4.33398 14.001 -11.001s8.33398 -15 11.001 -25
c6 -18.667 10 -52.334 12 -101.001c3.33301 -66 7.33301 -103.667 12 -113c3.33301 -7.33301 14 -13 32 -17c3.33301 -0.666992 5.33301 -1 6 -1c49.333 -12 115.333 -4.66699 198 22c34 11.333 54.333 22.833 61 34.5s10 41.5 10 89.5z" />
    <glyph glyph-name="I" unicode="I" horiz-adv-x="103" 
d="M51 96c-6.66699 0 -12.5 5.16895 -17.5 15.502s-5.5 18.5 -1.5 24.5c2 2 5.16699 24.167 9.5 66.5s6.83301 64.166 7.5 65.499c2 -2.66699 3.66699 26.666 5 87.999s2.33301 123.333 3 186l1 95c0 1.33301 3 1.33301 9 0c4 -1.33301 6 -53.5 6 -156.5
s-2 -180.833 -6 -233.5c-4 -38 -4.66699 -70 -2 -96c2 -24.667 2.33301 -40 1 -46s-6.33301 -9 -15 -9z" />
    <glyph glyph-name="J" unicode="J" horiz-adv-x="299" 
d="M181 -31c-8.66699 0 -20.833 3.8291 -36.5 11.4961s-23.5 13.834 -23.5 18.501c0 3.33301 -2.66699 5 -8 5s-16 10.333 -32 31c-27.333 36 -44 66.667 -50 92c-2 8 -0.666992 11 4 9c0.666992 0 1.33398 -0.333008 2.00098 -1c4.66699 -2 7 -8 7 -18
s11.333 -27.833 34 -53.5s42.667 -43.167 60 -52.5c15.333 -8 25.5 -12.333 30.5 -13s12.167 1.33301 21.5 6c12 6.66699 24.333 22 37 46c8 16.667 13.167 32.167 15.5 46.5s3.83301 42.833 4.5 85.5c2 67.333 -1 133 -9 197c-5.33301 44.667 -7.83301 85.334 -7.5 122.001
s3.16602 59.667 8.49902 69c4.66699 8.66699 9.33398 8 14.001 -2c3.33301 -5.33301 4.66602 -11.666 3.99902 -18.999c-4 -82 -2.33301 -150.333 5 -205c4 -26.667 6.5 -72.167 7.5 -136.5s-0.166992 -105.166 -3.5 -122.499c-6 -32.667 -17.167 -60.167 -33.5 -82.5
s-33.5 -33.5 -51.5 -33.5z" />
    <glyph glyph-name="K" unicode="K" horiz-adv-x="411" 
d="M48 615c-3.33301 12 -3.99805 20.1699 -1.99805 24.5029s5.16699 6 9.5 5s8.5 -3.5 12.5 -7.5c2 0 3.83301 -18.333 5.5 -55s3.16699 -73.834 4.5 -111.501s2.66602 -56.834 3.99902 -57.501c6.66699 -6.66699 57 34.666 151 123.999c62.667 60 96.667 90 102 90
s8.66602 -4 9.99902 -12c3.33301 -16 -53.667 -72.333 -171 -169c-58 -49.333 -89 -76.333 -93 -81c-6.66699 -8 -6.33398 -16.5 0.999023 -25.5s23.333 -20.833 48 -35.5c22 -12.667 44 -28.167 66 -46.5s54 -48.166 96 -89.499c27.333 -26 45.666 -39.667 54.999 -41
c8 1.33301 17 -5 27 -19s9.66699 -24.333 -1 -31c-5.33301 -6 -11.166 -7.5 -17.499 -4.5s-20.5 14.167 -42.5 33.5c-37.333 32.667 -73 65.667 -107 99c-27.333 26 -54.666 48.167 -81.999 66.5s-43.333 25.166 -48 20.499c-2 -2 -5 -21.667 -9 -59
c-2.66699 -25.333 -5 -41 -7 -47s-6.66699 -9.66699 -14 -11c-5.33301 -0.666992 -9.16602 -0.5 -11.499 0.5s-3.83301 5 -4.5 12s-0.166992 15.833 1.5 26.5s4.5 27 8.5 49c6.66699 38 7.33398 62 2.00098 72c-5.33301 9.33301 -5 19.333 1 30
c5.33301 10 8.66602 47.667 9.99902 113s-0.333984 111 -5.00098 137z" />
    <glyph glyph-name="L" unicode="L" horiz-adv-x="388" 
d="M88 499c2.66699 62.667 7.33496 93.666 14.002 92.999c2.66699 0 6.66699 -4 12 -12c5.33301 -8.66699 3.16602 -59.334 -6.50098 -152.001s-21.834 -178 -36.501 -256c-8.66699 -49.333 -7.66699 -74 3 -74c2 0 4.33301 0.333008 7 1c6 2 43.667 5.83301 113 11.5
s107.333 9.83398 114 12.501c17.333 4 30.333 3 39 -3c21.333 -15.333 11.666 -25.666 -29.001 -30.999c-7.33301 -1.33301 -15.666 -2.33301 -24.999 -3c-144.667 -16.667 -232 -21 -262 -13c-3.33301 4 -2.33301 14.333 3 31c28.667 107.333 46.667 239 54 395z" />
    <glyph glyph-name="M" unicode="M" horiz-adv-x="598" 
d="M549 631c5.33301 0 8.50098 -12.165 9.50098 -36.498s0.833008 -88.833 -0.5 -193.5c-2 -155.333 -0.333008 -241.333 5 -258c12.667 -26 3.66699 -44 -27 -54c-5.33301 0 -8.33301 10.5 -9 31.5s-0.666992 73.833 0 158.5c1.33301 126.667 0 190 -4 190
c-4.66699 0 -13.667 -10.667 -27 -32c-10.667 -17.333 -26.5 -34.5 -47.5 -51.5s-42.167 -30.167 -63.5 -39.5c-16.667 -7.33301 -39.334 -10.833 -68.001 -10.5s-53.667 4.16602 -75 11.499c-33.333 11.333 -64 35.5 -92 72.5s-48.333 80.167 -61 129.5
c-8.66699 32 -16.334 50 -23.001 54c-1.33301 0.666992 -2 -1.66602 -2 -6.99902c0.666992 -2.66699 1.33398 -6.33398 2.00098 -11.001c2 -12.667 6.83301 -65.5 14.5 -158.5s12.834 -166.5 15.501 -220.5c4 -69.333 -2 -95.333 -18 -78
c-4.66699 4.66699 -10.667 90.334 -18 257.001c-6 126.667 -14.667 200 -26 220c-6 9.33301 -6.66699 17.666 -2 24.999c3.33301 5.33301 8.33301 6 15 2c8 -4.66699 16.333 -4.33398 25 0.999023c4.66699 2 8.5 3.33301 11.5 4s6.16699 -1.83301 9.5 -7.5
s6.33301 -13.167 9 -22.5s6.33398 -23.333 11.001 -42c17.333 -68 45.666 -119.5 84.999 -154.5s86.666 -50.167 141.999 -45.5c48 4 90.5 27.333 127.5 70s58.5 93 64.5 151c3.33301 30 9 45 17 45z" />
    <glyph glyph-name="N" unicode="N" horiz-adv-x="552" 
d="M39 582c6.66699 0 12.5 -5.83301 17.5 -17.5s7.5 -24.834 7.5 -39.501c0 -7.33301 0.666992 -12.5 2 -15.5s4 -4.16699 8 -3.5c7.33301 1.33301 38.166 -23.834 92.499 -75.501s100.5 -100.167 138.5 -145.5c67.333 -79.333 113 -131.666 137 -156.999
c8 -8.66699 17.5 -16.667 28.5 -24s17.5 -10 19.5 -8c2 2.66699 -2.33301 24 -13 64s-21.667 76 -33 108c-42.667 120 -68.5 195.167 -77.5 225.5s-13.167 57.5 -12.5 81.5c0.666992 30.667 4.66699 48.667 12 54c8 5.33301 15.333 4.66602 22 -2.00098
c7.33301 -7.33301 8.33301 -12.666 3 -15.999c-9.33301 -6 -12.166 -27 -8.49902 -63s12.834 -70.667 27.501 -104c0.666992 -2 3.16699 -8.83301 7.5 -20.5l17.5 -47.5l20 -55c62.667 -172 81.667 -262.667 57 -272c-8.66699 -3.33301 -23.5 3 -44.5 19
s-44.167 38.333 -69.5 67l-117 138c-101.333 116 -174.333 184 -219 204c12 -326 18.667 -492.667 20 -500c2.66699 -20.667 1 -33 -5 -37c-10.667 -6.66699 -17.667 -1.33398 -21 15.999c-3.33301 18 -5.33301 56 -6 114c-0.666992 68.667 -3.16699 157.834 -7.5 267.501
s-8.16602 178.834 -11.499 207.501c-1.33301 10 -1.83301 17.667 -1.5 23s1.16602 9 2.49902 11s3.66602 3 6.99902 3z" />
    <glyph glyph-name="O" unicode="O" horiz-adv-x="465" 
d="M59 352c0 -42 1.16504 -68.835 3.49805 -80.502s9.83301 -30.5 22.5 -56.5c18 -36 33.333 -60.333 46 -73c22 -22 51.667 -40.167 89 -54.5s68 -19.166 92 -14.499c16 3.33301 31.5 9.83301 46.5 19.5s25.167 19.834 30.5 30.501c12.667 24.667 18.5 57.667 17.5 99
s-8.16699 80.333 -21.5 117c-8 20.667 -21.167 46.167 -39.5 76.5s-33.166 51.166 -44.499 62.499c-8.66699 8.66699 -19.334 16.334 -32.001 23.001s-22.667 10 -30 10c-4 0 -16 -7 -36 -21c-27.333 -18 -41.333 -22.667 -42 -14c0 11.333 12.833 25.5 38.5 42.5
s48.167 21.833 67.5 14.5c28.667 -10.667 57.667 -38.167 87 -82.5s52 -95.5 68 -153.5c8 -31.333 12.333 -56.666 13 -75.999s-2.33301 -42.666 -9 -69.999c-11.333 -46.667 -27.333 -74.667 -48 -84l-34 -17c-21.333 -12 -49.833 -14.333 -85.5 -7
s-69.834 22.666 -102.501 45.999c-20 13.333 -40.5 33 -61.5 59s-31.5 44.667 -31.5 56c0 6 -2.33301 11.333 -7 16c-6.66699 6.66699 -13 28.667 -19 66s-8.33301 67.666 -7 90.999c3.33301 58 18.333 108 45 150c10.667 18 16 29 16 33
c0 6.66699 13.167 22.334 39.5 47.001s43.833 37.667 52.5 39c10.667 2 21.834 -2 33.501 -12s15.834 -19.333 12.501 -28c-1.33301 -4 -2.66602 -6.5 -3.99902 -7.5s-3.33301 -1 -6 0s-7 3.5 -13 7.5c-8 5.33301 -13.833 8.16602 -17.5 8.49902
s-9.16699 -2.16699 -16.5 -7.5c-30 -19.333 -57.667 -56 -83 -110l-30 -60v-85z" />
    <glyph glyph-name="P" unicode="P" horiz-adv-x="536" 
d="M157 353c0 -5.33301 9.66211 -15.1641 28.9951 -29.4971s35.333 -23.5 48 -27.5c24 -7.33301 53.333 -7.33301 88 0s64.667 19.666 90 36.999c22.667 16 39.834 37.5 51.501 64.5s13.167 47.833 4.5 62.5c-4 6.66699 -34.667 21.667 -92 45s-97.666 37 -120.999 41
c-31.333 5.33301 -56.666 6.33301 -75.999 3c-17.333 -2.66699 -37.5 -9 -60.5 -19s-38.167 -19.333 -45.5 -28c-6 -8 -9.33301 -91.667 -10 -251c-0.666992 -160 -4 -240 -10 -240c-5.33301 0 -9.33301 2.66699 -12 8c-3.33301 -10.667 -6 48.666 -8 177.999s-3 237 -3 323
c-0.666992 15.333 2.5 25.333 9.5 30s14.833 2.66699 23.5 -6c4.66699 -4.66699 9 -6.83398 13 -6.50098s11 3.5 21 9.5c14.667 9.33301 38.667 17 72 23c32.667 6 65.167 5.83301 97.5 -0.5s76.833 -21.5 133.5 -45.5c38.667 -16 64.334 -27.833 77.001 -35.5
s21 -16.5 25 -26.5c5.33301 -12.667 5.5 -29.167 0.5 -49.5s-13.5 -38.5 -25.5 -54.5c-30.667 -40.667 -76.5 -67.667 -137.5 -81s-108.833 -7 -143.5 19c-41.333 30.667 -59.666 52.334 -54.999 65.001c2.66699 8 6.66699 9 12 3c2.66699 -2.66699 4 -6.33398 4 -11.001z
" />
    <glyph glyph-name="Q" unicode="Q" horiz-adv-x="502" 
d="M191 54c18.667 0 39.1689 2.66895 61.502 8.00195s37.166 11 44.499 17c6.66699 6.66699 13 10 19 10c12.667 0 16.334 7.66699 11.001 23c-3.33301 9.33301 -9.33301 18.333 -18 27c-2.66699 1.33301 -11.834 16.5 -27.501 45.5s-25.167 44.167 -28.5 45.5
c-2.66699 0 -4.33398 1.66699 -5.00098 5s-0.333984 7 0.999023 11s3.33301 7.33301 6 10s5.5 4 8.5 4s6.16699 -2 9.5 -6s6.83301 -9.33301 10.5 -16s8.16699 -15.667 13.5 -27c13.333 -28 34 -59.333 62 -94c20 22.667 35.333 42.167 46 58.5s24.334 42.833 41.001 79.5
c3.33301 6.66699 4.33301 19.667 3 39s-4.33301 37.666 -9 54.999c-4 14.667 -14.167 34 -30.5 58s-28.166 37 -35.499 39c-8.66699 2.66699 -14.334 8.66699 -17.001 18c-4.66699 16.667 -29 31.334 -73 44.001c-4.66699 1.33301 -8 3 -10 5s-2.66699 4 -2 6
c3.33301 5.33301 12.166 7.16602 26.499 5.49902s28.5 -6.16699 42.5 -13.5c26.667 -14.667 38.667 -18 36 -10c-0.666992 2.66699 -2.66699 6 -6 10c-6 8.66699 -28.333 17 -67 25c-7.33301 2 -24.166 -0.833008 -50.499 -8.5s-46.166 -15.167 -59.499 -22.5
c-30.667 -18 -55.334 -39.833 -74.001 -65.5s-35.334 -60.834 -50.001 -105.501c-9.33301 -28 -15.166 -49 -17.499 -63s-2.5 -31.667 -0.5 -53c3.33301 -48.667 18 -88.167 44 -118.5s57.667 -45.5 95 -45.5zM397.002 68.002c3.33301 0 4.99805 -2.66309 4.99805 -7.99609
c0 -6 8.66699 -19 26 -39c11.333 -14 17.833 -23.333 19.5 -28s-0.166016 -9.33398 -5.49902 -14.001c-7.33301 -6.66699 -13.5 -8.16699 -18.5 -4.5s-13.833 16.5 -26.5 38.5c-13.333 24 -25.333 40.667 -36 50c-6 6 -11.833 8.66699 -17.5 8
s-18.167 -6.33398 -37.5 -17.001c-46.667 -24.667 -95.667 -33.334 -147 -26.001c-13.333 2 -24.166 5.66699 -32.499 11s-20.5 16 -36.5 32c-26 26 -43 50.167 -51 72.5s-10.667 55.166 -8 98.499c1.33301 29.333 3.83301 52.166 7.5 68.499s11.167 38.166 22.5 65.499
c40.667 102.667 104.334 164 191.001 184c28 6.66699 55.167 7.66699 81.5 3s47.166 -14 62.499 -28c16 -15.333 16.667 -30.666 2 -45.999c-5.33301 -6.66699 -7.5 -11.667 -6.5 -15s6.83301 -11.666 17.5 -24.999c32 -39.333 52.333 -90 61 -152
c6.66699 -45.333 -16.333 -101.333 -69 -168c-12.667 -14.667 -20 -24.5 -22 -29.5s-1 -10.833 3 -17.5c6 -9.33301 11 -14 15 -14z" />
    <glyph glyph-name="R" unicode="R" horiz-adv-x="613" 
d="M125 397l-0.00390625 -124.002c36.667 16 75.334 28.667 116.001 38c54.667 14 94.834 26.5 120.501 37.5s43.5 23.833 53.5 38.5c8.66699 12.667 17.334 30.834 26.001 54.501s12.334 39.167 11.001 46.5c-2 14 -3 22.333 -3 25c-0.666992 10.667 -11.167 25 -31.5 43
s-39.833 30 -58.5 36c-58 18.667 -122.333 16.334 -193 -6.99902c-20.667 -6.66699 -32.667 -18.167 -36 -34.5s-5 -67.5 -5 -153.5zM145.996 253.998c0 -2.66699 3.50195 -7.3291 10.502 -13.9961s12.167 -10 15.5 -10c19.333 0 98.666 -46 237.999 -138
c67.333 -44 118.666 -69.667 153.999 -77c12.667 -2.66699 19 -8.66699 19 -18c0 -7.33301 -3.16699 -11.833 -9.5 -13.5s-14.5 0.166016 -24.5 5.49902c-62 28 -119 59.667 -171 95c-96.667 64.667 -165 105 -205 121c-33.333 13.333 -51 18.333 -53 15v-6
c1.33301 -12.667 -0.5 -53.334 -5.5 -122.001s-8.5 -103.667 -10.5 -105c-3.33301 -2 -8 0.333008 -14 7c-6 8 -7.66699 40 -5 96c2.66699 58 5 90.333 7 97c1.33301 2.66699 2.83301 35.667 4.5 99s2.83398 121.666 3.50098 174.999s0.333984 84.333 -0.999023 93l-3 -2
c-2.66699 -2 -6.16699 -5 -10.5 -9s-8.5 -7.33301 -12.5 -10c-19.333 -16 -33 -21.333 -41 -16c-3.33301 2 -3 7 1 15c4 7.33301 12.833 16.333 26.5 27s23.167 16 28.5 16s10.333 7 15 21c3.33301 8.66699 6.16602 14 8.49902 16s6.16602 1.66699 11.499 -1
c7.33301 -4 31.333 -1.66699 72 7s76 11.667 106 9c46.667 -4 88.834 -20.167 126.501 -48.5s56.5 -58.166 56.5 -89.499c-0.666992 -21.333 -9 -46.833 -25 -76.5s-33 -50.834 -51 -63.501c-18.667 -14 -58.334 -29 -119.001 -45
c-95.333 -26.667 -143 -43.334 -143 -50.001z" />
    <glyph glyph-name="S" unicode="S" horiz-adv-x="428" 
d="M77 193c0 8.66699 3.00195 11.001 9.00195 7.00098c3.33301 -2.66699 6 -7 8 -13c12 -26 31.667 -49.667 59 -71s56.333 -37.333 87 -48c38.667 -14 69.667 -8.66699 93 16c17.333 18 11 52.333 -19 103c-8.66699 11.333 -27.334 26.666 -56.001 45.999
s-49.334 31 -62.001 35c-23.333 6.66699 -52.333 22.667 -87 48s-55.667 45.666 -63 60.999c-16.667 28 -21.5 56.333 -14.5 85s20.5 54.5 40.5 77.5s47.667 41.333 83 55s73.333 19.834 114 18.501c31.333 -2.66699 61.833 -15.167 91.5 -37.5s41.834 -41.5 36.501 -57.5
c-3.33301 -11.333 -9.33301 -16 -18 -14s-14.667 9.66699 -18 23c-2.66699 9.33301 -7 17 -13 23s-16.333 12.667 -31 20c-23.333 11.333 -45.666 17.333 -66.999 18s-46.666 -4 -75.999 -14c-50.667 -17.333 -85.834 -44.166 -105.501 -80.499
s-17.834 -71.833 5.49902 -106.5c12 -17.333 23.167 -29.666 33.5 -36.999s37.5 -22 81.5 -44c68 -34 114.333 -63 139 -87s38.667 -53 42 -87c3.33301 -34.667 -1.83398 -60.334 -15.501 -77.001s-35.5 -24.334 -65.5 -23.001c-39.333 0.666992 -84.333 20.667 -135 60
c-19.333 15.333 -37 33.5 -53 54.5s-24 36.5 -24 46.5z" />
    <glyph glyph-name="T" unicode="T" horiz-adv-x="594" 
d="M30 515c0 5.33301 0.830078 10.4971 2.49707 15.4971s3.66699 8.66699 6 11s4.5 2.83301 6.5 1.5c4 -2.66699 16 -1.66699 36 3c38.667 10 109 17.167 211 21.5s172 3.5 210 -2.5c4 -0.666992 16.333 -2 37 -4c11.333 -0.666992 19 -4.5 23 -11.5
s2.33301 -14.167 -5 -21.5c-6.66699 -6.66699 -19.334 -5.33398 -38.001 3.99902c-13.333 8.66699 -39.166 13.334 -77.499 14.001s-73.666 -0.833008 -105.999 -4.5s-52.833 -6.83398 -61.5 -9.50098c-3.33301 -3.33301 -5.16602 -36.5 -5.49902 -99.5
s0.833984 -97.167 3.50098 -102.5c2.66699 -7.33301 5 -28 7 -62c6.66699 -88 9.5 -145.333 8.5 -172s-7.16699 -41.667 -18.5 -45c-8.66699 -2 -16.667 1.33301 -24 10c-6 6.66699 -13.167 23.5 -21.5 50.5s-10.833 42.167 -7.5 45.5c6 -2 18.667 -26 38 -72
c0 102.667 -2 167.334 -6 194.001c-2 10.667 -5 52 -9 124s-7.33301 113.333 -10 124c-3.33301 3.33301 -26.666 2.33301 -69.999 -3s-70.333 -10.666 -81 -15.999s-21.334 -7.16602 -32.001 -5.49902s-16 5.83398 -16 12.501z" />
    <glyph glyph-name="U" unicode="U" horiz-adv-x="537" 
d="M226 110c28.667 0 61.667 9.83008 99 29.4971s63.666 41.167 78.999 64.5c7.33301 11.333 16 29.833 26 55.5s16.333 45.834 19 60.501c3.33301 18 4.5 47.167 3.5 87.5s-3.5 71.5 -7.5 93.5c-3.33301 14.667 -4.66602 24.667 -3.99902 30s3.33398 10 8.00098 14
c14 11.333 23 2.33301 27 -27c0.666992 -9.33301 3 -22 7 -38c1.33301 -25.333 2.66602 -67.333 3.99902 -126s3.16602 -112 5.49902 -160s6.16602 -91 11.499 -129c3.33301 -29.333 2.66602 -44.666 -2.00098 -45.999l-6 1c-6 0.666992 -10.167 6.16699 -12.5 16.5
s-5.16602 35.833 -8.49902 76.5c-2 22.667 -5 62.334 -9 119.001c-2.66699 33.333 -9.66699 33.333 -21 0c-10.667 -30 -29 -57.333 -55 -82s-54 -41.667 -84 -51c-19.333 -6 -43.833 -9 -73.5 -9s-52.5 2.66699 -68.5 8c-24 8.66699 -47.5 27.334 -70.5 56.001
s-40.833 61 -53.5 97c-6.66699 18 -10 54.167 -10 108.5s3 90.5 9 108.5c2.66699 6.66699 6 18.5 10 35.5s8.33301 32.167 13 45.5s10.334 22.666 17.001 27.999c13.333 11.333 20.666 11.333 21.999 0c0.666992 -7.33301 -1.66602 -17.333 -6.99902 -30
c-16 -36 -26.5 -66.5 -31.5 -91.5s-7.83301 -58.167 -8.5 -99.5c-0.666992 -40 0 -65.833 2 -77.5s8.66699 -28.5 20 -50.5c16.667 -33.333 39.334 -61.333 68.001 -84s56 -34 82 -34z" />
    <glyph glyph-name="V" unicode="V" horiz-adv-x="516" 
d="M30 587c0 20 1.99902 29.998 5.99902 29.998c12 -1.33301 19.833 -3.66602 23.5 -6.99902s6.83398 -10 9.50098 -20s6 -18.667 10 -26c10 -20 20.333 -48.333 31 -85c24 -78.667 53.5 -164.834 88.5 -258.501s55.167 -141.5 60.5 -143.5c2 -0.666992 4.33301 1 7 5
s6.16699 10.833 10.5 20.5s9.66602 23 15.999 40l22.5 62.5c25.333 72 50.333 132 75 180c16 32.667 29.667 71.667 41 117c4.66699 16.667 11.667 27.834 21 33.501s18.333 3.83398 27 -5.49902c5.33301 -4.66699 7.83301 -8.66699 7.5 -12s-3.83301 -8.33301 -10.5 -15
c-4.66699 -4 -12.5 -16.833 -23.5 -38.5s-18.5 -34.167 -22.5 -37.5c-4 0 -6 -2.33301 -6 -7c0 -4 -9.66699 -27 -29 -69c-33.333 -71.333 -58.666 -134 -75.999 -188c-31.333 -96.667 -50.333 -145 -57 -145c-5.33301 0 -15 18.167 -29 54.5s-47.333 129.833 -100 280.5
c-24.667 70.667 -41.167 115 -49.5 133s-19.5 34.333 -33.5 49c-13.333 14 -20 31.333 -20 52z" />
    <glyph glyph-name="W" unicode="W" horiz-adv-x="795" 
d="M507 315c-18 54.667 -46.002 119.004 -84.002 193.004c-2.66699 2 -14.5 -15.667 -35.5 -53s-38.167 -71.333 -51.5 -102c-14 -34 -27.333 -77 -40 -129s-21 -98.333 -25 -139c-8.66699 -80.667 -21 -119.334 -37 -116.001c-12 2 -24.333 29.667 -37 83v2
c-6.66699 27.333 -17.667 66.666 -33 117.999s-23.333 78.666 -24 81.999c-2 9.33301 -5.66699 20.166 -11 32.499s-8.33301 21.833 -9 28.5c-8.66699 28 -21.667 65 -39 111s-32 75 -44 87c-6.66699 7.33301 -8.83398 14.666 -6.50098 21.999s8.16602 11 17.499 11
c21.333 0 66 -115 134 -345c19.333 -66 30.333 -106.333 33 -121c10 -42.667 19.667 -35 29 23c6.66699 41.333 16.334 87.333 29.001 138s23.667 85.667 33 105l13.5 33c5.66699 14 10.667 25.833 15 35.5s9.16602 18.5 14.499 26.5c5.33301 7.33301 15.333 25.333 30 54
s22 45.334 22 50.001c0 5.33301 3.33301 10.166 10 14.499s12 5.16602 16 2.49902c4.66699 -3.33301 11.334 -14.333 20.001 -33l60 -147c30 -74.667 51 -125.334 63 -152.001c4.66699 -8 10.834 -22.833 18.501 -44.5l21.5 -58.5
c6.66699 -17.333 12.334 -27.666 17.001 -30.999c7.33301 0 16.666 32.667 27.999 98c20.667 116 41.667 218.333 63 307c4.66699 17.333 7 34 7 50c-0.666992 12.667 2.83301 21.667 10.5 27s15.834 4.33301 24.501 -3c4 -3.33301 5.5 -8.66602 4.5 -15.999
s-5.5 -23.666 -13.5 -48.999c-13.333 -44 -22 -73.667 -26 -89c-7.33301 -29.333 -20.166 -94.5 -38.499 -195.5s-28.166 -162.5 -29.499 -184.5c-2 -19.333 -4 -31.333 -6 -36s-6 -6.66699 -12 -6c-5.33301 0.666992 -10.833 7 -16.5 19s-14.5 36.667 -26.5 74
c-10.667 38.667 -26.834 81.5 -48.501 128.5s-35.167 78.5 -40.5 94.5z" />
    <glyph glyph-name="X" unicode="X" horiz-adv-x="460" 
d="M225 251c-5.33301 0 -26.8311 -28.999 -64.498 -86.999s-62.834 -101 -75.501 -129c-15.333 -34.667 -24.333 -52 -27 -52c-0.666992 0 -5 -1.33301 -13 -4c-10 -3.33301 -15 0.666992 -15 12c0 8.66699 3.66699 17.334 11 26.001c11.333 14 30.5 42.667 57.5 86
s40.5 66.666 40.5 69.999c0 5.33301 1.66699 8.33301 5 9c2.66699 1.33301 14.167 17.333 34.5 48s30.5 47.334 30.5 50.001c0.666992 1.33301 -20 36.5 -62 105.5s-63 103.833 -63 104.5c0 2 -5 9 -15 21s-12.333 22 -7 30c7.33301 13.333 16 12.666 26 -2.00098l19 -32
c54 -103.333 92.333 -170 115 -200c1.33301 -2 7.16602 2.66699 17.499 14s21.5 25.5 33.5 42.5s21.667 32.167 29 45.5c2 4.66699 9.16699 18.5 21.5 41.5s22.666 43 30.999 60s13.833 31.167 16.5 42.5c-0.666992 7.33301 1 13 5 17s8.5 4.66699 13.5 2
s7.83301 -8 8.5 -16c2 -15.333 -17 -57.333 -57 -126s-75 -119 -105 -151l163 -241c35.333 -50.667 41.333 -73.334 18 -68.001c-4 0.666992 -25.833 30.5 -65.5 89.5s-73.5 111.833 -101.5 158.5c-13.333 22 -21.666 33 -24.999 33z" />
    <glyph glyph-name="Y" unicode="Y" horiz-adv-x="427" 
d="M355 564c3.33301 10.667 5.83301 23.5 7.5 38.5s3 31.333 4 49s1.83301 30.167 2.5 37.5c6.66699 11.333 14.667 8.33301 24 -9c6 -11.333 4.33301 -40.5 -5 -87.5s-24.666 -102.167 -45.999 -165.5c-2 -6 -4.83301 -23 -8.5 -51s-10.5 -48 -20.5 -60
c-16 -23.333 -32.5 -64.5 -49.5 -123.5s-22.833 -96.167 -17.5 -111.5c4 -12.667 3.66699 -25.334 -1 -38.001s-11.334 -18 -20.001 -16c-8 1.33301 -12.667 11 -14 29s1.33398 37.667 8.00098 59c32 103.333 48 164 48 182c0.666992 16 -6.66602 28.667 -21.999 38
c-2 1.33301 -9 5 -21 11c-22.667 11.333 -41.667 24.666 -57 39.999c-16 15.333 -35.167 39.833 -57.5 73.5s-38.5 63.167 -48.5 88.5c-11.333 27.333 -19 40.333 -23 39c-5.33301 -1.33301 -8 1.33398 -8 8.00098c-0.666992 10 2.66602 19.667 9.99902 29
c8.66699 10.667 16.5 14.334 23.5 11.001s11.833 -13.333 14.5 -30c5.33301 -40 21.333 -81.333 48 -124s56.667 -75 90 -97c30.667 -20 50.167 -30.333 58.5 -31s16.833 8.33301 25.5 27c13.333 30 31.666 91.333 54.999 184z" />
    <glyph glyph-name="Z" unicode="Z" horiz-adv-x="571" 
d="M460 528c0 -22.667 -54.3281 -90.667 -162.995 -204c-18.667 -20 -28 -31.333 -28 -34c0 -8.66699 -26 -44.667 -78 -108c-46 -56 -72.333 -92.333 -79 -109c-2 -5.33301 -1 -9.83301 3 -13.5s13 -6.83398 27 -9.50098s32.5 -4.83398 55.5 -6.50098
s54.167 -3.16699 93.5 -4.5c90 -3.33301 150.667 -8 182 -14c25.333 -4.66699 42.333 -3 51 5c4 3.33301 6.83301 5.5 8.5 6.5s3 0.833008 4 -0.5s2.16699 -4.33301 3.5 -9c2.66699 -7.33301 1.66699 -17.666 -3 -30.999s-9.66699 -20 -15 -20c-6 0 -16.333 3.33301 -31 10
s-48.834 12.5 -102.501 17.5s-101.5 6.83301 -143.5 5.5c-77.333 -2 -126.666 7.33301 -147.999 28c-12 11.333 -16.833 23 -14.5 35s12.5 29 30.5 51l57 72.5c32 41 54 67.5 66 79.5c12.667 14 19 23.333 19 28c0 4 8.66699 16.5 26 37.5s34.666 40.5 51.999 58.5
c17.333 17.333 35.666 39 54.999 65s29 41.333 29 46c0 2 -1.16699 4 -3.5 6s-5.83301 3.66699 -10.5 5l-12.5 3.5c-3.66699 1 -7.83398 2 -12.501 3s-7.33398 1.5 -8.00098 1.5c-6 0.666992 -47.167 1.83398 -123.5 3.50098s-119.166 4.16699 -128.499 7.5
c-72.667 19.333 -100.334 48.333 -83.001 87c4 4 8.33301 4.16699 13 0.5s7.66699 -9.16699 9 -16.5c1.33301 -9.33301 11.666 -19 30.999 -29c12 -6 27 -10 45 -12s53 -3.66699 105 -5c148 -4 222 -16.333 222 -37z" />
    <glyph glyph-name="underscore" unicode="_" horiz-adv-x="479" 
d="M30 -78c-1.33301 5.33301 -0.167969 11.3301 3.49902 17.9971s7.83398 11.167 12.501 13.5s9.66699 0.833008 15 -4.5c4 -4 20.333 -7.5 49 -10.5s45 -5.83301 49 -8.5c10 -3.33301 50.333 -5.16602 121 -5.49902s115 1.5 133 5.5c12.667 2.66699 21 3.5 25 2.5
s7 -4.16699 9 -9.5c4 -7.33301 3.33301 -13.666 -2 -18.999c-4 -4 -37.167 -6.5 -99.5 -7.5s-117.5 0.5 -165.5 4.5c-60.667 4.66699 -97 7 -109 7c-25.333 0.666992 -39 5.33398 -41 14.001z" />
    <glyph glyph-name="grave" unicode="`" horiz-adv-x="142" 
d="M30 582c0 6 2 10.1689 6 12.502s9.16699 2.16602 15.5 -0.500977s12.5 -7.33398 18.5 -14.001c11.333 -13.333 21.666 -28.833 30.999 -46.5s13 -29.167 11 -34.5c-3.33301 -7.33301 -10.166 -9.83301 -20.499 -7.5s-16.5 7.83301 -18.5 16.5
c0 4.66699 -7.33301 16.5 -22 35.5s-21.667 31.833 -21 38.5z" />
    <glyph glyph-name="a" unicode="a" horiz-adv-x="428" 
d="M273 342c-12.667 4.66699 -31.333 6.83496 -56 6.50195s-41.334 -2.83301 -50.001 -7.5c-12 -6.66699 -26.667 -19 -44 -37s-29.666 -34 -36.999 -48c-8.66699 -15.333 -17 -38.333 -25 -69c-15.333 -60 -8.16602 -103 21.501 -129s71.5 -26 125.5 0
c32 15.333 57.167 34.166 75.5 56.499s27.833 46.833 28.5 73.5c1.33301 15.333 0.166016 38.666 -3.50098 69.999s-7.5 52 -11.5 62c-5.33301 10.667 -13.333 18 -24 22zM330.001 138.001c-4 0 -12.332 -9.33496 -24.999 -28.002
c-12.667 -20.667 -36.167 -41.5 -70.5 -62.5s-63.833 -32.5 -88.5 -34.5c-15.333 -1.33301 -26.833 -1 -34.5 1s-17.834 7 -30.501 15c-47.333 30.667 -61 88.334 -41 173.001c8.66699 36 24.834 69.833 48.501 101.5s50.5 54.834 80.5 69.501
c16 7.33301 36.333 10.166 61 8.49902s47 -7.83398 67 -18.501c14.667 -7.33301 25 -18.666 31 -33.999s11 -43.666 15 -84.999c2.66699 -30.667 10 -64.667 22 -102c27.333 -94.667 37.333 -147 30 -157c-8 -9.33301 -14.333 -10 -19 -2
c-4.66699 10 -13.334 43.667 -26.001 101c-7.33301 36 -14 54 -20 54z" />
    <glyph glyph-name="b" unicode="b" horiz-adv-x="391" 
d="M183 39c34 0 60.168 5.99805 78.501 17.998s36.166 34.333 53.499 67c7.33301 13.333 12 35.833 14 67.5s0.333008 56.5 -5 74.5c-11.333 29.333 -30.666 54 -57.999 74s-58 21.667 -92 5c-27.333 -13.333 -47.833 -35.166 -61.5 -65.499s-21.834 -71.833 -24.501 -124.5
c-2 -34 -2.33301 -55.167 -1 -63.5s6 -16.166 14 -23.499c20 -19.333 47.333 -29 82 -29zM89.001 598.998c0.666992 0 -0.00292969 -27.1729 -2.00293 -81.5059s-3.66699 -104.166 -5 -149.499s0 -70.333 4 -75c4.66699 0 8.33398 5 11.001 15
c6 18.667 21.833 36.167 47.5 52.5s50.167 24.5 73.5 24.5c24.667 0 51.167 -12.167 79.5 -36.5s47.166 -51.166 56.499 -80.499c6.66699 -19.333 8.66699 -46 6 -80s-9 -61 -19 -81c-9.33301 -19.333 -22.166 -37.166 -38.499 -53.499s-31.5 -26.5 -45.5 -30.5
c-12.667 -4 -33.5 -5.5 -62.5 -4.5s-51.5 3.83301 -67.5 8.5c-17.333 5.33301 -29.666 4.66602 -36.999 -2.00098c-7.33301 -5.33301 -14.333 -5.5 -21 -0.5s-9.66699 13.167 -9 24.5c0 8 -5.16699 18.833 -15.5 32.5s-15.166 24.834 -14.499 33.501
c-0.666992 8.66699 -0.333984 13.334 0.999023 14.001c2 0.666992 7 -4 15 -14c4.66699 -5.33301 7.66699 -6.66602 9 -3.99902c2.66699 2.66699 3.33398 41.334 2.00098 116.001c-2 104.667 -2 195.167 0 271.5s5.33301 116.166 10 119.499
c7.33301 4.66699 13 5.33398 17 2.00098s5.66699 -10.333 5 -21z" />
    <glyph glyph-name="c" unicode="c" 
d="M353 308c0 -13.333 -4.99707 -18.333 -14.9971 -15c-10.667 5.33301 -19.334 16 -26.001 32c-8 21.333 -15 35 -21 41c-18.667 22 -52 33.667 -100 35c-27.333 0.666992 -49.333 -4.66602 -66 -15.999s-31.334 -31.333 -44.001 -60
c-12.667 -27.333 -20.167 -60.166 -22.5 -98.499s0.833984 -69.833 9.50098 -94.5c10.667 -28 26.167 -50.5 46.5 -67.5s41.833 -25.5 64.5 -25.5c33.333 0 71.166 13.167 113.499 39.5s66.166 51.5 71.499 75.5c2 8 5.16699 13.5 9.5 16.5s8.66602 2.66699 12.999 -1
s6.83301 -9.83398 7.5 -18.501c2.66699 -20.667 -17.166 -47.167 -59.499 -79.5s-83.5 -52.5 -123.5 -60.5c-48.667 -10.667 -92.334 4.33301 -131.001 45c-20 20.667 -33.667 43.667 -41 69s-10 58.666 -8 99.999c3.33301 56.667 15.5 101.167 36.5 133.5
s52.833 55.166 95.5 68.499c19.333 6 44.333 4.83301 75 -3.5s54 -20.166 70 -35.499c10.667 -10 20.834 -23.5 30.501 -40.5s14.5 -30.167 14.5 -39.5z" />
    <glyph glyph-name="d" unicode="d" horiz-adv-x="420" 
d="M303 401c-40 10.667 -81.5029 2.50488 -124.503 -24.4951s-75.667 -63.833 -98 -110.5s-26.166 -90.334 -11.499 -131.001c11.333 -32.667 35.666 -52 72.999 -58c38 -4.66699 83.667 16 137 62c33.333 29.333 52.833 55.166 58.5 77.499
s2.83398 62.166 -8.49902 119.499c-5.33301 25.333 -9.66602 42.166 -12.999 50.499s-7.66602 13.166 -12.999 14.499zM29.9971 184.005c0 51.333 24.499 104.67 73.499 160.003s92.5 83 130.5 83c5.33301 0 12 2.16699 20 6.5s16.667 4.16602 26 -0.500977
c12 -4 21 -6 27 -6c2.66699 0 4.16699 10.333 4.5 31l1 62c0.333008 20.667 1.5 31.667 3.5 33c7.33301 11.333 14.666 8 21.999 -10l6 -16c6.66699 -22 8.66699 -45.333 6 -70c-1.33301 -14.667 -1 -25.5 1 -32.5s7.33301 -15.5 16 -25.5
c8 -9.33301 12.667 -16.833 14 -22.5s1 -14.167 -1 -25.5c-7.33301 -36 -7 -93 1 -171c6.66699 -66 9.83398 -109.5 9.50098 -130.5s-4.16602 -33.167 -11.499 -36.5c-8.66699 -2.66699 -14.667 0.5 -18 9.5s-5.33301 26.5 -6 52.5c0 39.333 -3.33301 72.333 -10 99
c-1.33301 5.33301 -2.33301 5.66602 -3 0.999023c0 -4.66699 -13.667 -20.667 -41 -48c-42 -40.667 -84.167 -65.834 -126.5 -75.501s-77 -2.5 -104 21.5s-40.5 61 -40.5 111z" />
    <glyph glyph-name="e" unicode="e" horiz-adv-x="540" 
d="M386 282c0 5.33301 -10 17.668 -30 37.001s-35.333 31.666 -46 36.999c-12.667 6.66699 -27 9.16699 -43 7.5s-30.667 -7.16699 -44 -16.5c-12 -7.33301 -27 -23 -45 -47s-25.333 -37.667 -22 -41c2.66699 -2.66699 17.667 -1 45 5c27.333 4.66699 65 7.66699 113 9
c48 0 72 3 72 9zM367 344.002l21.5049 -20.501c5 -5 8.16699 -8.66699 9.5 -11s3.83301 -6.16602 7.5 -11.499s8.83398 -12 15.501 -20c12 -13.333 18.667 -22.5 20 -27.5s-1.33398 -10.167 -8.00098 -15.5c-5.33301 -5.33301 -14.333 -5 -27 1
c-10.667 6 -37.667 9.66699 -81 11s-66.666 -0.666992 -69.999 -6c-2.66699 -4.66699 -6 -6 -10 -4c-5.33301 3.33301 -21.833 1.66602 -49.5 -5.00098s-43.5 -12.667 -47.5 -18c-10.667 -13.333 -12.5 -40 -5.5 -80s18.167 -67.333 33.5 -82
c41.333 -38.667 99.666 -45.334 174.999 -20.001c81.333 26.667 125.666 62.667 132.999 108c3.33301 18.667 8.33301 28.334 15 29.001c4 0 7.33301 -5 10 -15c3.33301 -12 0.666016 -27.5 -8.00098 -46.5s-20.334 -34.833 -35.001 -47.5
c-17.333 -16 -43.5 -30.667 -78.5 -44s-67.5 -21.666 -97.5 -24.999c-22.667 -2.66699 -38.667 -3.16699 -48 -1.5s-23.333 6.83398 -42 15.501c-32.667 16 -56.167 36.667 -70.5 62s-21.5 58 -21.5 98c0 26 -2 40.833 -6 44.5s-16.667 2.5 -38 -3.5
c-14.667 -4.66699 -24.667 -3.66699 -30 3c-7.33301 8.66699 -2.33301 15.667 15 21c7.33301 2 18.333 4.33301 33 7c17.333 2.66699 28.5 5.83398 33.5 9.50098s10.167 12.167 15.5 25.5c7.33301 20 19.166 39.333 35.499 58s33.166 32.667 50.499 42
c26.667 13.333 51.667 17.666 75 12.999s48.333 -19.334 75 -44.001z" />
    <glyph glyph-name="f" unicode="f" horiz-adv-x="375" 
d="M217 604c0 -3.33301 5.66309 -4.33301 16.9961 -3c15.333 3.33301 33 -2.5 53 -17.5s34.667 -32.833 44 -53.5c9.33301 -19.333 14 -33.166 14 -41.499s-5.33301 -12.5 -16 -12.5c-9.33301 0 -14 5 -14 15c0 13.333 -4.33301 27 -13 41s-19 24 -31 30
c-37.333 18.667 -70.166 19.834 -98.499 3.50098s-45.5 -46.5 -51.5 -90.5c-2 -14 -1 -43 3 -87s8 -72 12 -84c2.66699 -6.66699 20.667 -10 54 -10c32.667 0 51 -3 55 -9c4 -6.66699 3.16699 -11.334 -2.5 -14.001s-21.5 -5.66699 -47.5 -9
c-7.33301 -1.33301 -15.166 -2.16602 -23.499 -2.49902s-13.666 -0.333008 -15.999 0s-4.16602 -1 -5.49902 -4s-1.66602 -6.16699 -0.999023 -9.5s2.66699 -10 6 -20c4.66699 -18 12 -56 22 -114c7.33301 -42.667 10.666 -71.334 9.99902 -86.001s-6 -22 -16 -22
c-7.33301 0 -13 5.16699 -17 15.5s-5.33301 24.166 -4 41.499c2.66699 18 -9 79.667 -35 185h-43c-18.667 0.666992 -30.334 1.66699 -35.001 3s-7 5.33301 -7 12c0 10 7 15.333 21 16c25.333 2 40 5.33301 44 10s5.33301 19 4 43c-5.33301 102 -1.33301 169.333 12 202
c14.667 34 39.334 57 74.001 69c20 4.66699 30.667 5.66699 32 3z" />
    <glyph glyph-name="g" unicode="g" horiz-adv-x="443" 
d="M302 398c-18 6.66699 -35.332 8.6709 -51.999 6.00391s-37.667 -10.334 -63 -23.001s-46.333 -27.834 -63 -45.501s-32 -41.167 -46 -70.5c-25.333 -53.333 -18.333 -93.666 21 -120.999c15.333 -11.333 33.166 -18 53.499 -20s39.5 0.666992 57.5 8s30.333 11.333 37 12
c4 0 16.667 10.667 38 32s35.333 43.166 42 65.499s7.66699 52.833 3 91.5c-2.66699 27.333 -5.5 44.166 -8.5 50.499s-9.5 11.166 -19.5 14.499zM367.001 351.004c-2.66699 -24 2.99805 -65.6621 16.998 -124.995c3.33301 -14 11.666 -68 24.999 -162
c9.33301 -64 3 -108 -19 -132s-52.667 -35.333 -92 -34s-70 14.666 -92 39.999c-22.667 25.333 -26.334 38 -11.001 38c6.66699 0 10 -3 10 -9c0 -13.333 10.667 -26.833 32 -40.5s42.333 -20.5 63 -20.5c54 0 81 32 81 96c0 17.333 -3.66699 52.833 -11 106.5
s-12.666 85.5 -15.999 95.5c-2.66699 8 -7.33398 7.66699 -14.001 -1c-2.66699 -3.33301 -6 -8.33301 -10 -15c-17.333 -26 -42.5 -47.833 -75.5 -65.5s-64.5 -26.5 -94.5 -26.5c-29.333 0 -56.666 8 -81.999 24s-40.666 35 -45.999 57
c-5.33301 20.667 -0.666016 48.5 14.001 83.5s35.334 67.167 62.001 96.5c10 11.333 27.667 25.166 53 41.499s43 25.166 53 26.499c11.333 1.33301 17.333 3 18 5c1.33301 1.33301 13 1.16602 35 -0.500977s39.667 -3.5 53 -5.5c12.667 -2 29.167 -10.833 49.5 -26.5
s33.833 -29.834 40.5 -42.501c4 -8 2.33301 -15.667 -5 -23c-6 -5.33301 -10.5 -7.33301 -13.5 -6s-7.33301 5.5 -13 12.5s-9.5 11.167 -11.5 12.5z" />
    <glyph glyph-name="h" unicode="h" horiz-adv-x="356" 
d="M185 399c-20 0 -39.501 -11.333 -58.501 -34s-32.167 -50.334 -39.5 -83.001c-6.66699 -26.667 -10.667 -49.667 -12 -69s-2 -59 -2 -119c-0.666992 -74 -4 -111 -10 -111c-23.333 0 -28 76.333 -14 229c2.66699 25.333 4.16699 52.833 4.5 82.5s0 62.667 -1 99
s-1.5 64.833 -1.5 85.5c0 41.333 -1.66699 62 -5 62c-1.33301 0 -3.33301 -2 -6 -6c-6.66699 -8.66699 -10 -9.66699 -10 -3s3.66699 17.667 11 33c17.333 36 28 25.667 32 -31c2 -28 2.66699 -67.333 2 -118c-0.666992 -54 0.333008 -81 3 -81c0.666992 0 1.66699 1 3 3
s6.33301 8.66699 15 20s15.334 20.333 20.001 27c44 56 91.333 55.667 142 -1c16.667 -18 29 -35.167 37 -51.5s15 -38.5 21 -66.5c5.33301 -27.333 8.5 -76.666 9.5 -147.999s-1.16699 -110 -6.5 -116c-9.33301 -9.33301 -15 -4 -17 16c-1.33301 13.333 -1.33301 34 0 62
c4.66699 86 -2 159.667 -20 221c-6 18 -19.667 39.667 -41 65s-40 36.333 -56 33z" />
    <glyph glyph-name="i" unicode="i" horiz-adv-x="118" 
d="M60 434c7.33301 0 12.667 -2.33691 16 -7.00391c3.33301 -5.33301 6.66602 -69.666 9.99902 -192.999s3.33301 -186.666 0 -189.999c-9.33301 -9.33301 -15.666 -3.33301 -18.999 18c-3.33301 20 -5.33301 56.333 -6 109c-1.33301 68.667 -3.33301 132.334 -6 191.001
c-2 30.667 -2.83301 50.334 -2.5 59.001s2.83301 13 7.5 13zM65.001 574.996c0 -7.33301 -3.33398 -13.999 -10.001 -19.999s-12.667 -7.66699 -18 -5c-4 2.66699 -6.33301 8.16699 -7 16.5s1 14.166 5 17.499c4.66699 5.33301 10.834 6.83301 18.501 4.5
s11.5 -6.83301 11.5 -13.5z" />
    <glyph glyph-name="j" unicode="j" horiz-adv-x="291" 
d="M159 -158c-22 0 -45.499 10.8281 -70.499 32.4951s-41.833 45.834 -50.5 72.501c-4 18.667 -4.66699 28.334 -2 29.001c4 0 8.33301 -7 13 -21c10.667 -30 27.5 -53.667 50.5 -71s45.5 -24.333 67.5 -21s37 17.333 45 42c29.333 95.333 27 214 -7 356
c-18 77.333 -22 119 -12 125c6.66699 4 11.5 5.33301 14.5 4s7.83301 -6.66602 14.5 -15.999c14.667 -22.667 15.667 -36 3 -40c-5.33301 -2 -3 -25.333 7 -70c16 -71.333 25.333 -125.666 28 -162.999s-0.333008 -82.666 -9 -135.999c-7.33301 -46 -17.833 -78 -31.5 -96
s-33.834 -27 -60.501 -27zM212.001 500.995c0 -6.66699 -3.33301 -12.668 -10 -18.001s-13 -5.83301 -19 -1.5s-7.33301 10.5 -4 18.5c2 4.66699 5.66699 7.83398 11 9.50098s10.333 1.66699 15 0s7 -4.5 7 -8.5z" />
    <glyph glyph-name="k" unicode="k" horiz-adv-x="373" 
d="M91 224c0 -4.66699 8.33594 -8.3291 25.0029 -10.9961c24 -4.66699 47.667 -13.834 71 -27.501s52.666 -35.5 87.999 -65.5c46.667 -39.333 69.334 -64.666 68.001 -75.999c-2.66699 -18.667 -15.334 -19.334 -38.001 -2.00098c-9.33301 7.33301 -21.333 18 -36 32
l-26 23l-24 21.5c-3.33301 3 -9.66602 8.33301 -18.999 16s-15.833 12.5 -19.5 14.5s-9.5 5.5 -17.5 10.5s-14.833 8.16699 -20.5 9.5s-12.5 3.16602 -20.5 5.49902s-16.667 4.16602 -26 5.49902c-4 0 -5.33301 -25 -4 -75c1.33301 -38.667 0.666016 -64 -2.00098 -76
s-8.33398 -18 -17.001 -18c-6.66699 0 -10 27.667 -10 83c0 36.667 -0.833008 60.334 -2.5 71.001s-5.83398 18.667 -12.501 24c-6.66699 6.66699 -10.167 11.5 -10.5 14.5s2.5 8.83301 8.5 17.5c15.333 23.333 13.666 97 -5.00098 221c-9.33301 66 -13 102.333 -11 109
c2 5.33301 6.5 8.5 13.5 9.5s12.167 -0.833008 15.5 -5.5c1.33301 -0.666992 6.33301 -45.334 15 -134.001s13.334 -133.334 14.001 -134.001c2 -6 11.5 1.5 28.5 22.5s35.833 47.667 56.5 80s36.667 60.5 48 84.5c9.33301 20 16.5 31.5 21.5 34.5
s11.167 0.166992 18.5 -8.5c4 -5.33301 5.66699 -10 5 -14s-3.66699 -10.667 -9 -20c-8.66699 -16.667 -18.667 -33.667 -30 -51s-21 -31.5 -29 -42.5l-35 -48l-35 -47.5c-24.667 -32 -37 -49.667 -37 -53z" />
    <glyph glyph-name="l" unicode="l" horiz-adv-x="139" 
d="M78 30c-0.666992 24.667 -3.50195 73.8359 -8.50195 147.503l-9.5 140.5c-2 72.667 -11.333 154 -28 244c-4 18.667 -1.66699 29.667 7 33c4.66699 2 10 -0.666992 16 -8c16.667 -20.667 30.334 -139.667 41.001 -357c4.66699 -96.667 9 -162.334 13 -197.001
c0.666992 -2.66699 -0.666016 -5.33398 -3.99902 -8.00098s-7 -4.33398 -11 -5.00098c-10.667 -2 -16 1.33301 -16 10z" />
    <glyph glyph-name="m" unicode="m" horiz-adv-x="564" 
d="M374 434c20 0 41.335 -8.66602 64.002 -25.999s41.334 -39.333 56.001 -66c12.667 -22 21.334 -45 26.001 -69s8.66699 -62.333 12 -115c2 -41.333 2.5 -66.5 1.5 -75.5s-4.16699 -14.833 -9.5 -17.5c-8.66699 -3.33301 -15.334 -2.66602 -20.001 2.00098
c-4 4 -6.66699 36.333 -8 97c-0.666992 56.667 -5.16699 99.5 -13.5 128.5s-23.5 54.167 -45.5 75.5c-21.333 21.333 -37 33 -47 35c-12.667 3.33301 -27 0.333008 -43 -9s-28 -21.333 -36 -36c-27.333 -48.667 -33.333 -130.667 -18 -246
c2 -14.667 2.33301 -23.334 1 -26.001s-6.66602 -4 -15.999 -4c-12 0 -18 4 -18 12c-0.666992 23.333 -5 66.666 -13 129.999s-14.333 102.666 -19 117.999c-11.333 36.667 -27.5 60.5 -48.5 71.5s-41.167 6.16699 -60.5 -14.5c-14 -14.667 -22.667 -33.167 -26 -55.5
s-4.66602 -70.5 -3.99902 -144.5v-131h-16c-8.66699 0 -14.334 10.333 -17.001 31s-6.33398 86.334 -11.001 197.001c-2.66699 52 -6.33398 85.333 -11.001 100c-8 25.333 -4.33301 38 11 38c6.66699 0 12.5 -4.66699 17.5 -14s7.5 -20.333 7.5 -33c0 -8 0.666992 -12 2 -12
s7.66602 8.66699 18.999 26c12.667 20.667 25 34 37 40c11.333 4.66699 24.666 5.66699 39.999 3s28.333 -7.66699 39 -15c30.667 -26 48.667 -60.667 54 -104l17 33c8.66699 17.333 23.5 34.333 44.5 51s38.167 25 51.5 25z" />
    <glyph glyph-name="n" unicode="n" horiz-adv-x="370" 
d="M77 82c-13.333 0 -20.6709 0.665039 -22.0039 1.99805c0 17.333 -2.66699 73.833 -8 169.5s-9.33301 144.834 -12 147.501c-4.66699 18 -6 30.333 -4 37c2.66699 8 8.66699 11.167 18 9.5s15 -6.83398 17 -15.501c0.666992 -7.33301 3.16699 -21.333 7.5 -42l7.5 -36
l20 30c26 36.667 60 55.667 102 57c10 0 18.5 -2.16699 25.5 -6.5s16.833 -13.166 29.5 -26.499c29.333 -31.333 51.166 -72.166 65.499 -122.499s19.5 -105.5 15.5 -165.5c-2 -24 -4.16699 -39.333 -6.5 -46s-6.16602 -10.667 -11.499 -12
c-10 -2 -16.167 0.833008 -18.5 8.5s-2.16602 23.834 0.500977 48.501c5.33301 46.667 2 95.167 -10 145.5s-29.333 88.166 -52 113.499c-23.333 25.333 -47.5 33.5 -72.5 24.5s-46.833 -33.833 -65.5 -74.5c-6 -12.667 -9.66699 -25.667 -11 -39
s-1.66602 -40.333 -0.999023 -81c1.33301 -63.333 2.33301 -99 3 -107c0.666992 -8.66699 0.333984 -14 -0.999023 -16s-6.66602 -3 -15.999 -3z" />
    <glyph glyph-name="o" unicode="o" horiz-adv-x="354" 
d="M180 308c-36.667 16.667 -61.8281 22.332 -75.4951 16.999s-26.834 -26 -39.501 -62c-8.66699 -23.333 -13.334 -48.833 -14.001 -76.5s2.66602 -48.5 9.99902 -62.5c7.33301 -13.333 21.5 -27.333 42.5 -42s40.167 -23.334 57.5 -26.001
c32 -5.33301 62.167 0.833984 90.5 18.501s44.833 40.834 49.5 69.501c5.33301 32.667 -2.33398 63.167 -23.001 91.5s-53.334 52.5 -98.001 72.5zM156.006 358.998c0 -11.333 3.33594 -16.999 10.0029 -16.999c7.33301 0 19.666 -4.66699 36.999 -14
c85.333 -44 125.666 -100.667 120.999 -170c-3.33301 -50.667 -27.333 -88.667 -72 -114s-90 -26.333 -136 -3c-83.333 41.333 -107 117.333 -71 228c10.667 36 16 59.333 16 70c0.666992 9.33301 2.5 15.166 5.5 17.499s10.833 4.5 23.5 6.5c16.667 2 30.667 6 42 12
c9.33301 4.66699 15.666 6 18.999 4s5 -8.66699 5 -20z" />
    <glyph glyph-name="p" unicode="p" horiz-adv-x="356" 
d="M76 152c3.33301 0 13.332 -8.33496 29.999 -25.002c14 -14 27.833 -21.833 41.5 -23.5s33.834 1.83301 60.501 10.5c62 20 93 62 93 126c0 21.333 -5.83301 43.666 -17.5 66.999s-24.834 39.333 -39.501 48c-13.333 7.33301 -30.666 12.5 -51.999 15.5
s-40 2.83301 -56 -0.5c-13.333 -3.33301 -27.666 -8.66602 -42.999 -15.999s-24.333 -13.666 -27 -18.999c-3.33301 -5.33301 -3.33301 -37.166 0 -95.499s6.66602 -87.5 9.99902 -87.5zM325.999 229.998c0 -24 -1.16211 -40.333 -3.49512 -49s-7.83301 -18.667 -16.5 -30
c-22.667 -30 -60.667 -50.333 -114 -61c-44 -10 -75.667 -2.33301 -95 23c-8.66699 12 -15.334 18 -20.001 18c-2.66699 0 -2.16699 -20.333 1.5 -61s8.83398 -81 15.501 -121c7.33301 -38.667 9.33301 -60.334 6 -65.001c-7.33301 -12 -14 -5.33301 -20 20
c-8 34 -16.333 113.333 -25 238c-4.66699 62.667 -10 108.334 -16 137.001c-4 16 -6.83301 40 -8.5 72s-1.16699 51 1.5 57c3.33301 7.33301 8.66602 7 15.999 -1c3.33301 -4.66699 5.33301 -9.33398 6 -14.001c1.33301 -9.33301 3.16602 -14 5.49902 -14
s13.166 3.66699 32.499 11c23.333 9.33301 51.666 12.333 84.999 9s60.666 -11.666 81.999 -24.999c44.667 -30 67 -78 67 -144z" />
    <glyph glyph-name="q" unicode="q" horiz-adv-x="371" 
d="M220 412c-22 2.66699 -46.999 -8.33008 -74.999 -32.9971s-51.5 -54.334 -70.5 -89.001s-28.5 -64.334 -28.5 -89.001c0 -38.667 14 -66.834 42 -84.501s60.333 -18.834 97 -3.50098c52.667 22 88.667 72 108 150c10 40.667 14.333 67.834 13 81.501
s-10.333 27.834 -27 42.501c-11.333 10.667 -20.833 17.667 -28.5 21s-17.834 4.66602 -30.501 3.99902zM222.001 440.003c8.66699 0 22.166 -3.66895 40.499 -11.002s31.166 -14.333 38.499 -21c9.33301 -7.33301 16.333 -8.66602 21 -3.99902c10 10 16 8.66699 18 -4
c2 -12 1.66699 -42.333 -1 -91c-2.66699 -25.333 -5 -107 -7 -245s-4 -218 -6 -240c-2.66699 -4 -8 -4 -16 0c-6.66699 2.66699 -9.66699 17 -9 43c1.33301 26 3 39 5 39c2 0.666992 3.33301 52 4 154s2.33398 153.333 5.00098 154c2 6.66699 2.83301 10.834 2.5 12.501
s-2.83301 2.16699 -7.5 1.5c-7.33301 -1.33301 -14 -10.333 -20 -27c-7.33301 -22.667 -18.666 -43.5 -33.999 -62.5s-31.333 -32.5 -48 -40.5c-26.667 -13.333 -55.5 -18.333 -86.5 -15s-54.5 14.333 -70.5 33c-9.33301 10 -15 19.667 -17 29s-3.33301 29.333 -4 60
c-0.666992 32 4 59 14 81c18 38 42.5 70.667 73.5 98s65.833 46 104.5 56z" />
    <glyph glyph-name="r" unicode="r" horiz-adv-x="288" 
d="M212 356c0 10 -12.3311 10.667 -36.998 2c-7.33301 -2.66699 -15 -6.33398 -23 -11.001c-17.333 -10 -33.833 -25.167 -49.5 -45.5s-26.167 -40.166 -31.5 -59.499c-3.33301 -6 -6.33301 -47.667 -9 -125s-5 -118.666 -7 -123.999h-8c-2 0 -3.83301 0.333008 -5.5 1
s-3 1.66699 -4 3s-1.83301 2.83301 -2.5 4.5s-1 3.83398 -1 6.50098v9v11v14v17c3.33301 115.333 2.66602 209 -2.00098 281c-3.33301 57.333 -3.33301 89.666 0 96.999c2.66699 8.66699 7 11.667 13 9c6 -0.666992 9.33301 -25.667 10 -75c0.666992 -52 3.66699 -78 9 -78
c2.66699 0 5.66699 3 9 9c8 14.667 19.833 29.667 35.5 45s31.5 27 47.5 35c33.333 16 62 20.667 86 14c18 -4.66699 21.333 -14 10 -28c-8.66699 -10 -19.334 -15.333 -32.001 -16c-5.33301 -0.666992 -8 0.666016 -8 3.99902z" />
    <glyph glyph-name="s" unicode="s" horiz-adv-x="362" 
d="M224 420c24 0 49.498 -10.832 76.498 -32.499s36.833 -38.834 29.5 -51.501c-3.33301 -5.33301 -8.66602 -6.33301 -15.999 -3s-12.666 9.66602 -15.999 18.999c-7.33301 18.667 -28.166 32 -62.499 40s-68.166 7.66699 -101.499 -1
c-16.667 -4.66699 -33.5 -14.334 -50.5 -29.001s-25.5 -27 -25.5 -37c0 -12.667 12.5 -28.167 37.5 -46.5s58.833 -36.5 101.5 -54.5c75.333 -31.333 118.333 -63.666 129 -96.999c4.66699 -14.667 6.16699 -30.5 4.5 -47.5s-6.16699 -28.833 -13.5 -35.5
c-29.333 -27.333 -65 -38.666 -107 -33.999s-80.333 24 -115 58c-10.667 10.667 -20.834 22.5 -30.501 35.5s-16.334 24.5 -20.001 34.5s-3.83398 16 -0.500977 18c2 1.33301 4.5 0.166016 7.5 -3.50098s5.83301 -8.83398 8.5 -15.501c6.66699 -16 22.5 -35.167 47.5 -57.5
s45.5 -35.833 61.5 -40.5c56.667 -16 98.667 -6.33301 126 29c16 19.333 12.333 42.833 -11 70.5s-59.333 50.834 -108 69.501c-41.333 16.667 -69.666 29.667 -84.999 39s-29.333 21.833 -42 37.5s-19 28.5 -19 38.5c0 21.333 10.333 41.833 31 61.5s44 30.834 70 33.501
c19.333 1.33301 32.666 4.33301 39.999 9c6.66699 4 12.334 3.66699 17.001 -1c4 -4 16 -6 36 -6z" />
    <glyph glyph-name="t" unicode="t" horiz-adv-x="507" 
d="M314 54c24 0 51.998 14 83.998 42s45.667 48 41 60c-2.66699 6.66699 -0.5 13.834 6.5 21.501s13.833 10.167 20.5 7.5c16 -6.66699 11.667 -30 -13 -70c-26.667 -41.333 -59 -68.666 -97 -81.999c-13.333 -4.66699 -31.666 -6 -54.999 -4s-40.666 6.66699 -51.999 14
c-44.667 30 -65 116.333 -61 259c0.666992 36.667 -2 56 -8 58c-5.33301 2 -26 -0.666992 -62 -8c-18 -4 -32.5 -6.83301 -43.5 -8.5s-20 -2.66699 -27 -3s-11.667 0.166992 -14 1.5s-3.5 3.66602 -3.5 6.99902c0 5.33301 5.5 10 16.5 14s38.167 10.333 81.5 19l63 13
c0 3.33301 -0.666992 12.166 -2 26.499s-2.33301 27.166 -3 38.499s-1.16699 23.833 -1.5 37.5s0 24.667 1 33s2.83301 13.5 5.5 15.5c5.33301 5.33301 10.833 7.83301 16.5 7.5s8.83398 -3.16602 9.50098 -8.49902c0 -1.33301 0.666992 -26.666 2 -75.999
c0.666992 -33.333 1.66699 -52.833 3 -58.5s6.66602 -8.16699 15.999 -7.5c2.66699 0 8.66699 0.333008 18 1l35.5 2.5c14.333 1 27.166 1.83301 38.499 2.5c36 2.66699 57.5 3.5 64.5 2.5s11.5 -4.83301 13.5 -11.5c2.66699 -11.333 0.666992 -19.333 -6 -24
s-15.667 -4.33398 -27 0.999023c-10 5.33301 -35.167 6.83301 -75.5 4.5s-66.166 -6.83301 -77.499 -13.5c-6.66699 -4 -10.5 -11 -11.5 -21s-0.833008 -36.333 0.5 -79c2 -80.667 10.5 -136.5 25.5 -167.5s40.833 -46.5 77.5 -46.5z" />
    <glyph glyph-name="u" unicode="u" horiz-adv-x="398" 
d="M338 469c6 0 9.66602 -3.66895 10.999 -11.002s2.33301 -27.666 3 -60.999c1.33301 -158.667 4.66602 -278 9.99902 -358c4.66699 -57.333 6.83398 -92.166 6.50098 -104.499s-3.83301 -19.166 -10.5 -20.499c-4 -0.666992 -7.33301 0.333008 -10 3s-5 9.16699 -7 19.5
s-3.5 24.166 -4.5 41.499s-2.16699 41.666 -3.5 72.999c-2.66699 68.667 -5.66699 105.334 -9 110.001c-3.33301 3.33301 -11 -3.66699 -23 -21c-27.333 -43.333 -65.333 -67 -114 -71c-52 -4 -89.667 5 -113 27c-18.667 16.667 -31 37.167 -37 61.5s-8 63.5 -6 117.5
c3.33301 69.333 6.66602 114.833 9.99902 136.5s9.33301 32.5 18 32.5c7.33301 0 11.333 -2.66699 12 -8c1.33301 -7.33301 0 -36.333 -4 -87c-5.33301 -63.333 -7.66602 -108.833 -6.99902 -136.5s4.66699 -48.834 12 -63.501c18 -35.333 52 -53.666 102 -54.999
c37.333 0 70 16 98 48c23.333 25.333 37 47 41 65s5.66699 60.333 5 127c-1.33301 82.667 -0.666016 125.667 2.00098 129c2 4 8 6 18 6z" />
    <glyph glyph-name="v" unicode="v" horiz-adv-x="368" 
d="M64 406c0 -6.66699 10.3359 -51.332 31.0029 -133.999c32.667 -128 57.334 -197 74.001 -207c10 -6 25.667 19.667 47 77c36.667 90 65 171 85 243c3.33301 16 10.666 24.667 21.999 26c10 1.33301 15 -2 15 -10c-0.666992 -6.66699 -4 -17.334 -10 -32.001l-28 -83
c-10.667 -33.333 -26.834 -77 -48.501 -131s-36.834 -88.333 -45.501 -103c-6.66699 -12 -15 -19.333 -25 -22c-17.333 -4.66699 -32.833 4 -46.5 26s-26.834 60 -39.501 114c-4.66699 21.333 -11.167 45 -19.5 71s-15.5 55.333 -21.5 88c0 2 -3.33301 11.667 -10 29
c-14.667 36 -17.667 56.667 -9 62c6.66699 4 13.167 4.5 19.5 1.5s9.5 -8.16699 9.5 -15.5z" />
    <glyph glyph-name="w" unicode="w" horiz-adv-x="596" 
d="M277 385c5.33301 0 25.332 -49.333 59.999 -148c2 -6 6.33301 -17.833 13 -35.5l17 -44c4.66699 -11.667 10.334 -25 17.001 -40s13.334 -27.5 20.001 -37.5s13 -17.333 19 -22c7.33301 -5.33301 14.666 -3.5 21.999 5.5s14 24.5 20 46.5
c3.33301 12.667 7.5 25.167 12.5 37.5s8.83301 27.833 11.5 46.5c1.33301 17.333 5.83301 40.833 13.5 70.5s12.5 50.5 14.5 62.5c3.33301 17.333 8.66602 28.833 15.999 34.5s15.666 5.16699 24.999 -1.5c5.33301 -4 8 -7.33301 8 -10s-3 -7.66699 -9 -15
c-8 -10.667 -13.5 -20.5 -16.5 -29.5s-5.83301 -22 -8.5 -39s-6 -32.833 -10 -47.5l-10 -45.5c-5.33301 -24.333 -9 -40.333 -11 -48s-5.66699 -19.334 -11 -35.001s-11.166 -28.167 -17.499 -37.5s-13.833 -18 -22.5 -26c-14.667 -13.333 -31.334 -12 -50.001 4
s-34.667 42.667 -48 80c-7.33301 21.333 -20 54.5 -38 99.5s-31.333 81.5 -40 109.5c0 4.66699 -2.33301 8.66699 -7 12c-3.33301 2 -8.16602 -2.33301 -14.499 -13s-13.5 -27.167 -21.5 -49.5s-16.333 -49.166 -25 -80.499c-16 -60 -28 -94 -36 -102
c-17.333 -19.333 -33.333 -17.666 -48 5.00098c-6.66699 10 -18 44.167 -34 102.5s-28.333 109.833 -37 154.5c-7.33301 40.667 -13.333 65 -18 73c-4 9.33301 -3.33301 17 2 23c8.66699 10.667 15.667 11 21 1c6.66699 -13.333 20.334 -69 41.001 -167
c10.667 -48.667 19.667 -84.167 27 -106.5s17 -44.5 29 -66.5c7.33301 19.333 19.333 56.666 36 111.999c34 111.333 63.333 167 88 167z" />
    <glyph glyph-name="x" unicode="x" horiz-adv-x="404" 
d="M326 399c14.667 0 16.335 -9.00098 5.00195 -27.001c-9.33301 -16.667 -32 -46.667 -68 -90c-24 -28.667 -36 -47.334 -36 -56.001c2.66699 -7.33301 18.834 -28.166 48.501 -62.499s46.167 -54.166 49.5 -59.499c10 -12.667 16 -18 18 -16
c0.666992 0.666992 1.66699 3.66699 3 9s2.5 8.5 3.5 9.5s2.5 1 4.5 0s5 -3.5 9 -7.5c8 -8 11.333 -19.333 10 -34c-4 -31.333 -25 -25.333 -63 18l-6 6c-49.333 56.667 -81.666 92.667 -96.999 108c-20.667 -14.667 -47 -41.834 -79 -81.501s-52 -68.834 -60 -87.501
c-2.66699 -10 -5.33398 -16 -8.00098 -18s-7.33398 -1.33301 -14.001 2c-8.66699 2.66699 -13.834 8.66699 -15.501 18s1.16602 17.666 8.49902 24.999c4 4 21.167 25.333 51.5 64s50.5 62.334 60.5 71.001c5.33301 5.33301 9.33301 9.83301 12 13.5s5.33398 7 8.00098 10
s4.16699 6 4.5 9s0.666016 5.33301 0.999023 7s-0.666992 4.5 -3 8.5s-4 7 -5 9s-3.66699 6 -8 12l-10.5 15c-17.333 23.333 -32.5 47.833 -45.5 73.5s-18.167 41.834 -15.5 48.501c6.66699 17.333 21 5 43 -37c9.33301 -18.667 19.333 -36.5 30 -53.5s20 -30.167 28 -39.5
s13 -12.666 15 -9.99902c30 37.333 58.667 75 86 113c15.333 20 27 30 35 30z" />
    <glyph glyph-name="y" unicode="y" horiz-adv-x="409" 
d="M42 395c6 0 10.334 -3.67188 13.001 -11.0049s5.66699 -24.666 9 -51.999c8 -60 21.333 -104.333 40 -133c20 -28.667 48.333 -42.167 85 -40.5s72 18.167 106 49.5c14 13.333 22.667 23.333 26 30s5.33301 18.667 6 36c0.666992 20.667 4 48.334 10 83.001
s11 55.334 15 62.001c3.33301 5.33301 8.66602 7.33301 15.999 6c5.33301 -0.666992 8.66602 -4.66699 9.99902 -12s1.33301 -24 0 -50c-1.33301 -38 -4.66602 -67.333 -9.99902 -88c-15.333 -59.333 -25.666 -157.333 -30.999 -294
c-3.33301 -88 -7.33301 -133.667 -12 -137c-6 -3.33301 -11.667 -0.333008 -17 9s-8.33301 21 -9 35c0 18.667 1.66699 52.834 5 102.501s6.5 94.334 9.5 134.001s3.83301 60.5 2.5 62.5c-4.66699 -2.66699 -12.334 -8 -23.001 -16s-19.5 -14.333 -26.5 -19
s-17.167 -10.167 -30.5 -16.5s-24.833 -9.33301 -34.5 -9s-22.5 1.5 -38.5 3.5c-24.667 4.66699 -44 12.667 -58 24s-27.5 32.333 -40.5 63s-21.5 61 -25.5 91c-8 52.667 -10 81 -6 85c1.33301 1.33301 4.33301 2 9 2z" />
    <glyph glyph-name="z" unicode="z" horiz-adv-x="463" 
d="M85 49c0 6 13.6641 19.6621 40.9971 40.9951c38 30.667 82.167 72 132.5 124s81.5 89 93.5 111c18.667 34.667 27.334 55.667 26.001 63s-14 12.666 -38 15.999c-103.333 14 -194.666 5 -273.999 -27c-16 -6 -26.333 -6.66699 -31 -2c-12 12 -0.333008 23.667 35 35l27 8
c44 12 67 18 69 18c10 1.33301 38.667 1.33301 86 0s74 -3 80 -5c2.66699 -1.33301 10.834 -2.83301 24.501 -4.5s26.5 -3.66699 38.5 -6s19 -5.16602 21 -8.49902c4.66699 -7.33301 1.16699 -24 -10.5 -50s-27.834 -52.667 -48.501 -80
c-24.667 -32.667 -69 -78.667 -133 -138c-29.333 -27.333 -51.833 -49.166 -67.5 -65.499s-22.167 -25.166 -19.5 -26.499c9.33301 -6 47.333 -11 114 -15c24.667 -1.33301 39.334 -3.66602 44.001 -6.99902c2.66699 -2.66699 7.16699 -3.16699 13.5 -1.5
s10.166 0.833984 11.499 -2.49902c2.66699 -3.33301 21.334 -7 56.001 -11c37.333 -4 56.666 -10.333 57.999 -19c0 -4 -3.66699 -9.33301 -11 -16c-9.33301 -8 -21.666 -9.66699 -36.999 -5c-32.667 10 -59.5 16.833 -80.5 20.5s-62.167 8.83398 -123.5 15.501
c-64.667 6 -97 18.667 -97 38z" />
    <glyph glyph-name="uni0093" horiz-adv-x="329" 
d="M221 370c6.66699 0 11.501 -3.66797 14.501 -11.001s2.16699 -12.666 -2.5 -15.999c-4.66699 -2.66699 -9.5 -12 -14.5 -28s-6.5 -26.667 -4.5 -32c2 -6 11.167 -11.5 27.5 -16.5s26.166 -5.5 29.499 -1.5c6.66699 12 14.667 9.33301 24 -8
c5.33301 -11.333 4.5 -20.166 -2.5 -26.499s-17.167 -7.83301 -30.5 -4.5c-20.667 3.33301 -38.5 10.166 -53.5 20.499s-25 24 -30 41s0.833008 37.167 17.5 60.5c10 14.667 18.333 22 25 22zM80.001 376.999c10.667 2 16.667 -1.66699 18 -11s-0.666992 -16 -6 -20
c-4.66699 -2 -11 -17.333 -19 -46c-8 -26 -9.5 -42.5 -4.5 -49.5s20.167 -10.5 45.5 -10.5c15.333 0 25.333 -0.833008 30 -2.5s7.33398 -5.16699 8.00098 -10.5c2 -8.66699 -0.166992 -14.834 -6.5 -18.501s-13.5 -3.5 -21.5 0.5c-8 4.66699 -16.333 6.33398 -25 5.00098
c-10.667 -2 -23.167 1 -37.5 9s-23.5 17 -27.5 27c-2.66699 12.667 -2.83398 24 -0.500977 34s6.5 23 12.5 39s9.33301 26.667 10 32c4.66699 14.667 12.667 22 24 22z" />
    <glyph glyph-name="uni0094" horiz-adv-x="271" 
d="M191 380c14 17.333 27.333 14.001 40 -9.99902c8 -18 11.167 -35.833 9.5 -53.5s-8 -32.334 -19 -44.001s-23.167 -15.5 -36.5 -11.5c-8 3.33301 -11.667 11.333 -11 24c0.666992 10.667 2.33398 16 5.00098 16l4 -2c5.33301 -4.66699 10.666 -0.666992 15.999 12
c4 10 5.5 17.667 4.5 23s-5.5 13.333 -13.5 24c-5.33301 8 -5 15.333 1 22zM45 387.001c5.33301 8.66699 11.668 11.998 19.001 9.99805s12.666 -8.66699 15.999 -20c7.33301 -37.333 7 -74.666 -1 -111.999c-6 -29.333 -16.333 -42.666 -31 -39.999l-3 1
c-8.66699 2.66699 -13.5 9 -14.5 19s2.16699 20 9.5 30c6 7.33301 9.66699 22 11 44s-0.666992 36.667 -6 44c-4.66699 6.66699 -4.66699 14.667 0 24z" />
    <glyph glyph-name=".null" horiz-adv-x="0" 
 />
    <glyph glyph-name="nonmarkingreturn" horiz-adv-x="333" 
 />
    </font>
</defs>
</svg>
