<?xml version="1.0" standalone="no"?>
<!DOCTYPE svg PUBLIC "-//W3C//DTD SVG 1.1//EN" "http://www.w3.org/Graphics/SVG/1.1/DTD/svg11.dtd" >
<svg>
<metadata>
Created by FontForge 20090914 at Sat Feb 27 01:29:04 2016
 By www-data
Copyright (c) 2016, root
</metadata>
<defs>
<font id="Sugar" horiz-adv-x="431" >
  <font-face 
    font-family="Sugar"
    font-weight="400"
    font-stretch="normal"
    units-per-em="1000"
    panose-1="2 0 5 3 0 0 0 0 0 0"
    ascent="800"
    descent="-200"
    x-height="378.003"
    cap-height="583"
    bbox="28.4767 -174.541 803.001 666"
    underline-thickness="50"
    underline-position="-100"
    unicode-range="U+0020-U+0094"
  />
<missing-glyph horiz-adv-x="364" 
d="M33 0v666h265v-666h-265zM66 33h199v600h-199v-600z" />
    <glyph glyph-name=".notdef" horiz-adv-x="364" 
d="M33 0v666h265v-666h-265zM66 33h199v600h-199v-600z" />
    <glyph glyph-name="space" unicode=" " horiz-adv-x="359" 
 />
    <glyph glyph-name="exclam" unicode="!" horiz-adv-x="142" 
d="M70 62c4 1.33301 6.16699 6.66895 6.5 16.002s-1.83398 14.666 -6.50098 15.999s-7 -5.33398 -7 -20.001c0 -8.66699 1.66699 -13 5 -13c0.666992 0 1.33398 0.333008 2.00098 1zM77 122.003c0 -4.66699 2.33398 -6.99902 7.00098 -6.99902c6 0 12 -4.33301 18 -13
s9.33301 -17.334 10 -26.001c0 -7.33301 -5.83301 -17.833 -17.5 -31.5s-20.834 -20.5 -27.501 -20.5c-12 0.666992 -21.667 8.16699 -29 22.5s-9.66602 29.833 -6.99902 46.5c3.33301 16 7.66602 26 12.999 30c6 4 13 5.83301 21 5.5s12 -2.5 12 -6.5zM90.001 263.004
c2 -9.33301 2.99902 -17.332 2.99902 -23.999s-1 -12.167 -3 -16.5s-4.66699 -7.16602 -8 -8.49902s-7.16602 -1.33301 -11.499 0s-8.83301 4 -13.5 8c-4 4.66699 -7.5 62.167 -10.5 172.5s-2.83301 167.166 0.5 170.499c7.33301 7.33301 14.333 6 21 -4
c2.66699 -4.66699 4.66699 -32.334 6 -83.001c2 -88 7.33301 -159.667 16 -215z" />
    <glyph glyph-name="quotedbl" unicode="&#x22;" horiz-adv-x="280" 
d="M77 492c4.66699 0 8.00098 4.66699 10.001 14c1.33301 6.66699 1 11 -1 13s-5.33301 0.666992 -10 -4c-3.33301 -3.33301 -4.83301 -8 -4.5 -14s2.16602 -9 5.49902 -9zM120.001 511c0 -11.333 -3.50098 -22 -10.501 -32s-14.5 -15 -22.5 -15
c-11.333 0 -12.666 -7.33301 -3.99902 -22l13 -16c21.333 -21.333 20.333 -33.666 -3 -36.999c-9.33301 -1.33301 -17.5 1.66699 -24.5 9s-15.5 21.666 -25.5 42.999c-21.333 46 -17 81 13 105c13.333 10.667 27.333 12 42 4s22 -21 22 -39zM155 476
c0 32 9.66895 56.667 29.002 74c26 22 46.667 15.667 62 -19c6 -12 4.33301 -24 -5 -36s-19.333 -19.333 -30 -22c-14 -2 -18.333 -7.33301 -13 -16c3.33301 -5.33301 10 -10 20 -14c8.66699 -3.33301 14.667 -8 18 -14s3.16602 -11.667 -0.500977 -17
s-9.83398 -8.33301 -18.501 -9c-12.667 -1.33301 -26.167 6.5 -40.5 23.5s-21.5 33.5 -21.5 49.5z" />
    <glyph glyph-name="dollar" unicode="$" horiz-adv-x="349" 
d="M184 270c1.33301 -96 -1.66797 -175.669 -9.00098 -239.002c34.667 -4 60.834 3.83301 78.501 23.5s27.167 49.834 28.5 90.501c0 22.667 -4 44.334 -12 65.001s-17.667 34.667 -29 42c-10.667 6 -29.667 12 -57 18zM148.999 329.998c0 12.667 1.66699 44.0029 5 94.0029
c2.66699 54.667 0.666992 82 -6 82c-8.66699 -0.666992 -19 -5.33398 -31 -14.001s-20.333 -17.667 -25 -27s-10.334 -19 -17.001 -29c-10 -11.333 -13.667 -40 -11 -86c0 -8 7.33301 -15.333 22 -22s28.334 -9.83398 41.001 -9.50098s20 4.16602 22 11.499z
M256.999 480.001c4.66699 -10.667 2.99805 -15.999 -5.00195 -15.999c-7.33301 0 -11.333 3 -12 9c1.33301 10 -2.5 17.5 -11.5 22.5s-21.167 9.16699 -36.5 12.5l-6 -202l31 -9c33.333 -10 58.833 -28.5 76.5 -55.5s26.167 -60.5 25.5 -100.5
c-0.666992 -48.667 -16.334 -87.667 -47.001 -117c-10 -9.33301 -19.333 -15.666 -28 -18.999s-22.667 -6.33301 -42 -9c-42 -5.33301 -72.833 -1.5 -92.5 11.5s-36.5 40.5 -50.5 82.5c-6 18.667 -9.16699 30.834 -9.5 36.501s2.16699 10.167 7.5 13.5
c8 5.33301 13.667 6.16602 17 2.49902s8.33301 -16.5 15 -38.5c8.66699 -27.333 23.334 -53 44.001 -77c6 16 9.83301 60.667 11.5 134s0.833984 112.666 -2.49902 117.999c-8.66699 2.66699 -21.167 5.66699 -37.5 9s-27.5 6.16602 -33.5 8.49902s-13.167 6.5 -21.5 12.5
s-13.666 14 -15.999 24s-3.5 23 -3.5 39c0 60.667 26.333 112 79 154c2.66699 2.66699 11.667 5 27 7s22 9 20 21c-2 18.667 2.33301 28 13 28c10 0 17.667 -6 23 -18c2 -5.33301 2.33301 -10.666 1 -15.999c-1.33301 -4.66699 -0.666016 -8.33398 2.00098 -11.001
s8 -4.66699 16 -6c21.333 -4.66699 36.666 -21.667 45.999 -51z" />
    <glyph glyph-name="percent" unicode="%" horiz-adv-x="545" 
d="M400 73c15.333 0 27.5 3.33301 36.5 10s20.167 20.334 33.5 41.001c8 13.333 12 31.666 12 54.999s-4 39.333 -12 48c-9.33301 10.667 -20.333 15.167 -33 13.5s-25 -9.16699 -37 -22.5c-23.333 -25.333 -37.5 -46.333 -42.5 -63s-3.16699 -37 5.5 -61
c3.33301 -10 6.83301 -16 10.5 -18s12.5 -3 26.5 -3zM397 38c-26 0 -41.667 1.66699 -47 5c-6.66699 4.66699 -14.5 18 -23.5 40s-13.5 39.667 -13.5 53c0 20.667 3.83301 46.5 11.5 77.5s14.834 48.833 21.501 53.5c15.333 10.667 24.666 9 27.999 -5
c0.666992 -4 1.33398 -6.66699 2.00098 -8s1.83398 -2 3.50098 -2s3.5 0.666992 5.5 2s5.33301 4 10 8c13.333 10.667 28.833 15.167 46.5 13.5s33.5 -8.5 47.5 -20.5c10 -8.66699 16.333 -16.5 19 -23.5s4.66699 -21.167 6 -42.5
c1.33301 -20 1.16602 -35.167 -0.500977 -45.5s-6.83398 -23.833 -15.501 -40.5c-12 -24.667 -25.333 -41.667 -40 -51s-35 -14 -61 -14zM134 403c-23.333 16 -39.667 33.333 -49 52c-4.66699 7.33301 -8.33398 8 -11.001 2c-1.33301 -3.33301 -3 -9 -5 -17
c-7.33301 -26 -9.16602 -51 -5.49902 -75s11.167 -38.333 22.5 -43c7.33301 -1.33301 17.333 1.66699 30 9c14 8.66699 23 21.5 27 38.5s1 28.167 -9 33.5zM123.999 487c0 -14.667 5 -28.335 15 -41.002c3.33301 -3.33301 6 -4.33301 8 -3c2 2 1 13.333 -3 34
c-4.66699 20.667 -9.66699 30.334 -15 29.001c-3.33301 -1.33301 -5 -7.66602 -5 -18.999zM172.999 367.999c0 -20.667 -9.83496 -39.6641 -29.502 -56.9971s-39.834 -24.666 -60.501 -21.999c-18.667 2.66699 -33 16.167 -43 40.5s-12.333 52.833 -7 85.5
c3.33301 20.667 10 42.167 20 64.5s17.667 33.5 23 33.5c2.66699 1.33301 6.33398 11.5 11.001 30.5s8.33398 29.5 11.001 31.5c4.66699 6 10.334 8.33301 17.001 7c7.33301 -1.33301 19 -17.333 35 -48s24.333 -52.334 25 -65.001c0.666992 -20.667 4 -33.834 10 -39.501
s19 -7.16699 39 -4.5c29.333 4 53.5 13.167 72.5 27.5s36.167 36.5 51.5 66.5c10 19.333 20.333 28.666 31 27.999c20 -2.66699 22.333 -21.667 7 -57c-17.333 -39.333 -36 -91 -56 -155s-36.333 -113 -49 -147c-26.667 -76.667 -41.334 -121 -44.001 -133
c-5.33301 -20 -11.666 -31.333 -18.999 -34c-8.66699 -2.66699 -16 -0.833984 -22 5.49902s-8.33301 14.5 -7 24.5c1.33301 9.33301 11.666 40.833 30.999 94.5s32 86.5 38 98.5c5.33301 10 15.5 39.5 30.5 88.5s21.833 74.167 20.5 75.5s-5.66602 -1 -12.999 -7
c-5.33301 -5.33301 -28 -9.33301 -68 -12c-26.667 -1.33301 -42.5 -3 -47.5 -5s-7.5 -7.33301 -7.5 -16z" />
    <glyph glyph-name="ampersand" unicode="&#x26;" 
d="M262 359c-0.666992 5.33301 -3.16992 9.33203 -7.50293 11.999s-5.83301 6.66699 -4.5 12c2.66699 7.33301 -5.16602 19.166 -23.499 35.499s-33.166 24.5 -44.499 24.5s-26 -4.16699 -44 -12.5s-33.333 -18.5 -46 -30.5c-11.333 -10 -20.166 -25.167 -26.499 -45.5
s-7.83301 -39.166 -4.5 -56.499c2.66699 -16 7.16699 -26 13.5 -30s19.833 -6 40.5 -6c32.667 0 57.334 8.33301 74.001 25c6.66699 6.66699 14.334 7.33398 23.001 2.00098c21.333 -10.667 15.666 -25 -17.001 -43l-9 -5c-21.333 -10.667 -36.333 -20 -45 -28
s-16.667 -19.333 -24 -34c-14.667 -28 -8.66699 -47 18 -57c30.667 -10.667 60.334 -8.33398 89.001 6.99902s59 45.333 91 90c14.667 20.667 22 35.334 22 44.001c0 7.33301 3.66699 13 11 17c10 4 18 0.5 24 -10.5s9.66699 -29.167 11 -54.5
c2.66699 -39.333 6.66699 -77.333 12 -114c5.33301 -38.667 7.33301 -63.167 6 -73.5s-6.33301 -16.833 -15 -19.5c-4.66699 -1.33301 -8.66699 -0.5 -12 2.5s-6.33301 8.83301 -9 17.5s-4.83398 20.334 -6.50098 35.001s-3.16699 33.667 -4.5 57
c-4 52.667 -7.33301 79 -10 79c-3.33301 0 -10 -8 -20 -24c-18.667 -29.333 -44.667 -55.333 -78 -78c-18.667 -12.667 -40.667 -18.667 -66 -18c-53.333 0.666992 -86.333 16.334 -99 47.001c-7.33301 20.667 -8.16602 39 -2.49902 55s15.167 31 28.5 45
c-30 4 -50.833 12.5 -62.5 25.5s-16.167 36.5 -13.5 70.5c1.33301 33.333 8.33301 59.333 21 78c30 43.333 69.333 66.666 118 69.999c18.667 1.33301 31 1.16602 37 -0.500977s14 -7.5 24 -17.5c14.667 -13.333 23 -19 25 -17c0.666992 13.333 0.833984 28 0.500977 44
s-1.33301 39.5 -3 70.5s-2.5 49.833 -2.5 56.5c3.33301 -0.666992 7.16602 -1.33398 11.499 -2.00098s7.16602 -1 8.49902 -1s3.16602 -0.666992 5.49902 -2s3.83301 -2.33301 4.5 -3s1.5 -2.66699 2.5 -6s1.5 -6.33301 1.5 -9s0.333008 -7.16699 1 -13.5
s1 -12.666 1 -18.999s0.5 -15 1.5 -26s1.83301 -22.167 2.5 -33.5c4 -74.667 4.33301 -117 1 -127c-2.66699 -10.667 -7.66699 -16.667 -15 -18s-12.333 3 -15 13z" />
    <glyph glyph-name="quotesingle" unicode="'" horiz-adv-x="148" 
d="M79 457c0 14 -5 22.3301 -15 24.9971c-14 4.66699 -23.167 16.834 -27.5 36.501s-1.16602 36.167 9.50098 49.5c9.33301 12 21.666 9.66699 36.999 -7c28 -31.333 39.333 -64.333 34 -99c-4.66699 -39.333 -18 -67.666 -40 -84.999c-18 -14 -32.333 -12 -43 6
c-4.66699 8 -3 15 5 21c26.667 14.667 40 32.334 40 53.001z" />
    <glyph glyph-name="parenleft" unicode="(" horiz-adv-x="260" 
d="M203 -165c-15.333 0 -43.4941 29.998 -84.4941 89.998s-67.167 109.333 -78.5 148c-8 25.333 -11 77.666 -9 156.999c1.33301 78.667 7.33301 133.334 18 164.001c28.667 82.667 65 136 109 160c8.66699 5.33301 14.667 7.83301 18 7.5s8.66602 -3.16602 15.999 -8.49902
c5.33301 -4 8.33301 -7 9 -9s-1 -4.66699 -5 -8c-36.667 -29.333 -63.834 -60.833 -81.501 -94.5s-29.834 -76.834 -36.501 -129.501c-5.33301 -46.667 -5.83301 -99.167 -1.5 -157.5s11.833 -97.833 22.5 -118.5c11.333 -21.333 29.166 -48.666 53.499 -81.999
s41.166 -53.333 50.499 -60c15.333 -10 24 -18.667 26 -26c2.66699 -7.33301 1.16699 -14.666 -4.5 -21.999s-12.834 -11 -21.501 -11z" />
    <glyph glyph-name="parenright" unicode=")" horiz-adv-x="250" 
d="M30 -106c0 4 3.33496 11.665 10.002 22.998s12.334 19 17.001 23c17.333 14.667 38 46 62 94c18 34.667 30.333 69.167 37 103.5s10 79.5 10 135.5v98l-29 59c-17.333 33.333 -30.333 56 -39 68s-22.334 25 -41.001 39c-13.333 10 -21.5 18.167 -24.5 24.5
s-1.16699 12.833 5.5 19.5c12 12 33.333 2.83301 64 -27.5s56.667 -68.166 78 -113.499c17.333 -36.667 28.5 -65.5 33.5 -86.5s7.16699 -50.167 6.5 -87.5c-0.666992 -58 -9.33398 -116.5 -26.001 -175.5s-37.334 -103.5 -62.001 -133.5
c-14.667 -17.333 -25 -31.666 -31 -42.999c-8 -16 -22.667 -26.333 -44 -31c-17.333 -2.66699 -26.333 1 -27 11z" />
    <glyph glyph-name="asterisk" unicode="*" horiz-adv-x="366" 
d="M148 388c0 4 -2 6.16699 -6 6.5s-7.33301 -1.16699 -10 -4.5c-6.66699 -7.33301 -6.66699 -11.333 0 -12c8.66699 -0.666992 14 2 16 8v2zM185 428c-4.66699 17.333 -16.666 20.333 -35.999 9c-2 -1.33301 -3.33301 -2.5 -4 -3.5s-0.333984 -2.33301 0.999023 -4
s3.16602 -3.16699 5.49902 -4.5l10.5 -6c13.333 -6.66699 21.333 -9.5 24 -8.5s2.33398 6.83301 -0.999023 17.5zM162.001 478c2.66699 0.666992 4.5 1.50293 5.5 2.50293s1.5 2.16699 1.5 3.5s-0.333008 2.66602 -1 3.99902s-1.66699 3.16602 -3 5.49902
s-2.33301 4.16602 -3 5.49902c-2.66699 4 -4.5 5.83301 -5.5 5.5s-1.5 -3.83301 -1.5 -10.5c0 -10.667 2.33301 -16 7 -16zM163.001 569.003c5.33301 1.33301 12.666 -8.3291 21.999 -28.9961s16.333 -39.334 21 -56.001l56 3c45.333 3.33301 69.833 -0.166992 73.5 -10.5
s-13.166 -27.166 -50.499 -50.499c-24 -15.333 -37.833 -27 -41.5 -35s-1.5 -22.333 6.5 -43c5.33301 -10.667 8 -18.667 8 -24s-2.66699 -11.333 -8 -18c-6.66699 -10.667 -13.667 -14.5 -21 -11.5s-13.333 11.833 -18 26.5c-6 17.333 -12.333 28.166 -19 32.499
s-16 3.16602 -28 -3.50098s-30.333 -20.667 -55 -42c-17.333 -14.667 -29 -22.667 -35 -24s-11.667 3 -17 13c-5.33301 9.33301 -3.66602 20.333 5.00098 33c8 12 16.167 27.167 24.5 45.5s12.5 30.166 12.5 35.499s-10.667 11.666 -32 18.999
c-23.333 7.33301 -35.333 16 -36 26c-1.33301 8.66699 0.166992 13.667 4.5 15s20.166 2 47.499 2h35c2 4.66699 5.5 16.167 10.5 34.5s10 32.5 15 42.5s11.5 16.333 19.5 19z" />
    <glyph glyph-name="plus" unicode="+" horiz-adv-x="486" 
d="M198 499c3.33301 0 7.00098 -1.66699 11.001 -5s6.66699 -7 8 -11c2.66699 -6.66699 6.83398 -31.334 12.501 -74.001s8.5 -69.667 8.5 -81c0 -2.66699 32.333 -4 97 -4c74 0 113.667 -4 119 -12c4 -5.33301 -0.666992 -15 -14 -29c-10 -10 -18 -12.333 -24 -7
c-14 8 -71 11 -171 9v-69c0 -92 -6.66699 -141 -20 -147c-6 -2 -10.5 -2 -13.5 0s-5.5 7.16699 -7.5 15.5s-3 20.5 -3 36.5s0.333008 37.333 1 64v52c0 13.333 -0.333008 23.833 -1 31.5s-1.5 12.834 -2.5 15.501s-2.5 3.66699 -4.5 3c-10 -2 -36.667 -4.66699 -80 -8
c-34 -2 -54.667 -2.5 -62 -1.5s-13 5.16699 -17 12.5c-6 10 -6.33301 17.667 -1 23c4.66699 4.66699 13.167 7.5 25.5 8.5s40.166 1.83301 83.499 2.5c12.667 0 22.667 0.333008 30 1s13.333 1.33398 18 2.00098s7.66699 1.5 9 2.5s1.66602 2.5 0.999023 4.5
c-2.66699 7.33301 -5.66699 36.333 -9 87c-2.66699 35.333 -3.66699 57.166 -3 65.499s3.66699 12.5 9 12.5z" />
    <glyph glyph-name="comma" unicode="," horiz-adv-x="173" 
d="M68 116c9.33301 4 16.9971 5.16699 22.9971 3.5s13.333 -7.83398 22 -18.501c10.667 -12 18.834 -27.667 24.501 -47s6.83398 -34.666 3.50098 -45.999c-4 -14 -11.167 -30.5 -21.5 -49.5s-19.5 -32.167 -27.5 -39.5c-7.33301 -6.66699 -12.166 -10.167 -14.499 -10.5
s-5.5 1.83398 -9.5 6.50098c-6.66699 7.33301 -2.33398 25.333 12.999 54c18 36 23.667 55.667 17 59c-2.66699 1.33301 -7.66699 1 -15 -1c-10.667 -2.66699 -21.167 0.5 -31.5 9.5s-17.166 21.167 -20.499 36.5s9 29.666 37 42.999z" />
    <glyph glyph-name="hyphen" unicode="-" horiz-adv-x="290" 
d="M169 240c33.333 4 54.835 5.49805 64.502 4.49805s16.834 -5.16699 21.501 -12.5c5.33301 -8.66699 5.33301 -16.667 0 -24c-4.66699 -8 -19.334 -11.667 -44.001 -11c-27.333 1.33301 -61.666 -2 -102.999 -10c-28.667 -5.33301 -47.334 -8.16602 -56.001 -8.49902
s-14.334 1.83398 -17.001 6.50098c-4.66699 7.33301 -6.33398 15.333 -5.00098 24c0.666992 7.33301 7.5 12.5 20.5 15.5s52.5 8.16699 118.5 15.5z" />
    <glyph glyph-name="period" unicode="." horiz-adv-x="155" 
d="M84 94c9.33301 0 18.5 -4.99902 27.5 -14.999s13.5 -20.333 13.5 -31c0 -12 -5.66699 -22.5 -17 -31.5s-23.333 -13.5 -36 -13.5s-24 4.33301 -34 13c-14 15.333 -12.333 39.666 5 72.999c2.66699 5.33301 6 8.33301 10 9s9.16699 0.166992 15.5 -1.5
s11.5 -2.5 15.5 -2.5z" />
    <glyph glyph-name="slash" unicode="/" horiz-adv-x="287" 
d="M220 571c2.66699 6.66699 8.83301 10.6699 18.5 12.0029s15.834 -0.666992 18.501 -6c2.66699 -4 -4 -25.667 -20 -65c-6.66699 -16 -20.834 -55.167 -42.501 -117.5l-60.5 -172.5c-18.667 -52.667 -29.667 -80.334 -33 -83.001
c-2.66699 -2.66699 -7.33398 -15.334 -14.001 -38.001c-12.667 -42.667 -23.667 -64.334 -33 -65.001c-5.33301 0 -11.666 5.33301 -18.999 16c-4.66699 6 -5.83398 14.333 -3.50098 25s10.5 33.334 24.5 68.001l26 64.5l21 50c6 14.333 13 33.5 21 57.5
c33.333 105.333 55.333 165 66 179c2.66699 4 7.83398 16.667 15.501 38s12.5 33.666 14.5 36.999z" />
    <glyph glyph-name="zero" unicode="0" horiz-adv-x="471" 
d="M103 434c0 -3.33301 -3.66895 -8.67188 -11.002 -16.0049c-16 -15.333 -24.333 -59.666 -25 -132.999c-0.666992 -38.667 2.83301 -69.334 10.5 -92.001s21.167 -43.667 40.5 -63c22.667 -22.667 45.834 -38 69.501 -46s51.167 -9.33301 82.5 -4
c20 4 34.333 8.33301 43 13s20.334 14.334 35.001 29.001c22 22.667 36.167 46 42.5 70s9.5 65.667 9.5 125c0 40.667 -0.833008 67.834 -2.5 81.501s-5.5 24.834 -11.5 33.501c-8 10.667 -13.333 14.667 -16 12c-2 -6 -7.33301 -8.33301 -16 -7c-4 0 -5.66699 1.66699 -5 5
c1.33301 4 -0.166992 11 -4.5 21s-7.83301 15 -10.5 15c-3.33301 0 -12 7 -26 21c-31.333 32.667 -74 35.334 -128 8.00098c-10 -5.33301 -25.333 -17.666 -46 -36.999s-31 -31.333 -31 -36zM373.998 491.994c5.33301 0 14.5 -7.16797 27.5 -21.501s22.167 -27.5 27.5 -39.5
c7.33301 -18 11.333 -61.667 12 -131c0.666992 -50 0.166992 -81.667 -1.5 -95s-7.16699 -29.333 -16.5 -48c-10.667 -21.333 -24.834 -41.833 -42.501 -61.5s-34.167 -33.5 -49.5 -41.5c-14 -7.33301 -40 -12.333 -78 -15
c-26.667 -1.33301 -45.167 -1.16602 -55.5 0.500977s-24.166 6.83398 -41.499 15.501c-46 23.333 -81.667 59.666 -107 108.999c-9.33301 18.667 -15 34 -17 46s-2.66699 36.333 -2 73c0 52 5.33301 92 16 120c12 30.667 32.833 60.5 62.5 89.5s58.167 47.167 85.5 54.5
c59.333 16.667 110 5.66699 152 -33c16 -14.667 25.333 -22 28 -22z" />
    <glyph glyph-name="one" unicode="1" horiz-adv-x="128" 
d="M82 73c-12 0 -20.001 6.33594 -24.001 19.0029s-5.66699 38.334 -5 77.001c1.33301 95.333 -5.33398 193.666 -20.001 294.999c-1.33301 9.33301 -2.16602 19.166 -2.49902 29.499s-0.166016 16.166 0.500977 17.499c2.66699 6.66699 9.5 9.5 20.5 8.5
s17.5 -4.83301 19.5 -11.5c21.333 -191.333 30 -311.333 26 -360c-0.666992 -32.667 -2 -53.334 -4 -62.001s-5.66699 -13 -11 -13z" />
    <glyph glyph-name="two" unicode="2" horiz-adv-x="519" 
d="M63 193c0 -29.333 9.33301 -51.999 28 -67.999s45.334 -24 80.001 -24c63.333 0 111 32 143 96c12.667 24.667 17.167 41.5 13.5 50.5s-18.834 18.833 -45.501 29.5c-68 25.333 -119.333 30.666 -154 15.999c-14.667 -6.66699 -29.167 -21 -43.5 -43s-21.5 -41 -21.5 -57
zM371 213.001c-2 0 -7.83496 -10.8301 -17.502 -32.4971s-15.834 -31.834 -18.501 -30.501c-4 0 -6 -3.66699 -6 -11c0 -6.66699 -12.667 -19.334 -38 -38.001s-46 -30.334 -62 -35.001c-16 -5.33301 -40 -7.33301 -72 -6c-28.667 1.33301 -51.5 7.66602 -68.5 18.999
s-31.5 29.666 -43.5 54.999c-8.66699 17.333 -13.5 29.5 -14.5 36.5s0.166992 18.833 3.5 35.5c13.333 64 42.5 105.333 87.5 124s102.167 13.667 171.5 -15c30 -12 46 -18 48 -18c1.33301 2 1.5 8.66699 0.5 20s-3.16699 26 -6.5 44s-7 32.667 -11 44
c-6 20.667 -15.333 40.667 -28 60c-8.66699 14.667 -19.834 24 -33.501 28s-39.5 6 -77.5 6c-25.333 0 -41.666 -1.33301 -48.999 -4s-19.666 -11.667 -36.999 -27c-24 -21.333 -37 -37.666 -39 -48.999c-3.33301 -9.33301 -6.66602 -14 -9.99902 -14
c-5.33301 0 -5.33301 10 0 30c0.666992 2.66699 1.33398 5 2.00098 7c4.66699 16.667 15.667 34.5 33 53.5s34.333 32.167 51 39.5c8.66699 4 34.667 5 78 3s69.333 -5.33301 78 -10c18.667 -10 37.334 -37.5 56.001 -82.5s29.667 -88.833 33 -131.5
c2.66699 -32 8.66699 -54 18 -66c13.333 -17.333 31.666 -44.166 54.999 -80.499s35 -56.166 35 -59.499c0 -6 -3.83301 -11.833 -11.5 -17.5s-14.167 -7.83398 -19.5 -6.50098c-6.66699 2 -16 16.333 -28 43c-10 20.667 -21.167 40.167 -33.5 58.5s-20.833 27.5 -25.5 27.5
z" />
    <glyph glyph-name="three" unicode="3" horiz-adv-x="460" 
d="M223 359c6.66699 0 20.9971 11.167 42.9971 33.5s36.333 39.833 43 52.5c12 23.333 5.33301 48 -20 74c-10 11.333 -18.167 17.333 -24.5 18s-26.166 -1.66602 -59.499 -6.99902c-42.667 -6.66699 -85 -31 -127 -73c-34 -33.333 -50 -38.333 -48 -15
c0.666992 2.66699 1.33398 6 2.00098 10c5.33301 22 24.333 44.833 57 68.5s69 41.167 109 52.5c33.333 9.33301 58.5 11.333 75.5 6s34.833 -21.333 53.5 -48c32.667 -46.667 33 -90.667 1 -132l-24 -31c76 -4.66699 117.667 -65 125 -181c0.666992 -24.667 -5 -45 -17 -61
c-19.333 -25.333 -47.5 -48 -84.5 -68s-65.833 -28 -86.5 -24c-18 3.33301 -39.167 11.5 -63.5 24.5s-44.5 26.833 -60.5 41.5c-16.667 15.333 -30.667 27.333 -42 36c-14.667 11.333 -23.5 20.5 -26.5 27.5s-1.16699 15.167 5.5 24.5c7.33301 12 15.666 17.667 24.999 17
s17.333 -7.66699 24 -21c14.667 -28 36.834 -52.833 66.501 -74.5s55.834 -32.167 78.501 -31.5c12.667 0.666992 33.667 8.66699 63 24s50.666 29.666 63.999 42.999c9.33301 10 14.833 18 16.5 24s1.83398 18.333 0.500977 37c-2 24 -8.16699 47.333 -18.5 70
s-21.5 36.334 -33.5 41.001c-25.333 11.333 -57 10.666 -95 -2.00098c-11.333 -4 -19.166 -5.83301 -23.499 -5.5s-8.83301 2.83301 -13.5 7.5c-8 7.33301 -9.33301 16 -4 26s11.666 15.333 18.999 16z" />
    <glyph glyph-name="four" unicode="4" horiz-adv-x="437" 
d="M323 520c-4 0 -5.99902 -2.33301 -5.99902 -7c0 -10 -45 -65.667 -135 -167c-40.667 -46.667 -66.334 -80.334 -77.001 -101.001c12.667 4 32 7 58 9s60.833 3.83301 104.5 5.5s69.5 2.83398 77.5 3.50098c2 74.667 -1.33301 143.667 -10 207
c-3.33301 33.333 -7.33301 50 -12 50zM397.001 269c6 0 9.33203 -4.66797 9.99902 -14.001s-1.66602 -15.666 -6.99902 -18.999c-6.66699 -3.33301 -5 -38.666 5 -105.999c6 -38 0.666992 -60.333 -16 -67c-9.33301 -4 -16.833 -0.666992 -22.5 10s-8.5 27.667 -8.5 51
c-1.33301 44.667 -4.33301 76.667 -9 96c-129.333 4 -222 -6.33301 -278 -31c-14.667 -6 -25.334 -6.33301 -32.001 -1c-6 6 -9 13.833 -9 23.5s3 16.167 9 19.5c4 2.66699 18.333 20 43 52c30 39.333 53.833 68.833 71.5 88.5s28.5 28.167 32.5 25.5h3
c-3.33301 3.33301 7.33398 20 32.001 50c18 21.333 41.667 52.666 71 93.999c25.333 36.667 42.5 52.667 51.5 48s17.5 -33.667 25.5 -87c4 -20 9.66699 -96 17 -228c0 -3.33301 3.66699 -5 11 -5z" />
    <glyph glyph-name="five" unicode="5" horiz-adv-x="426" 
d="M234 541c44.667 6 72.1689 8.17188 82.502 6.50488s16.166 -12.167 17.499 -31.5c0.666992 -0.666992 -19.166 -3.33398 -59.499 -8.00098l-121 -14.5c-40.333 -5 -59.833 -7.83301 -58.5 -8.5c-1.33301 -3.33301 -2.83301 -13.333 -4.5 -30
s-3.33398 -36.167 -5.00098 -58.5s-2.83398 -36.5 -3.50098 -42.5l45 22c53.333 26 106 27.667 158 5c38.667 -16.667 68.667 -45.167 90 -85.5s27 -79.5 17 -117.5c-12 -44.667 -36.167 -77.5 -72.5 -98.5s-80.833 -27.833 -133.5 -20.5c-32 5.33301 -61 14.166 -87 26.499
s-39.667 23.833 -41 34.5c-1.33301 10 1 15 7 15c5.33301 -0.666992 16 -5 32 -13c17.333 -8.66699 40.333 -15.667 69 -21s54.667 -7.33301 78 -6c44.667 4 79.334 29.333 104.001 76c16.667 32.667 16.834 67.167 0.500977 103.5s-43.5 61.166 -81.5 74.499
c-27.333 9.33301 -50.833 12.333 -70.5 9s-43.834 -14.333 -72.501 -33c-12.667 -8 -24.167 -19.167 -34.5 -33.5s-13.5 -23.5 -9.5 -27.5c0 -6.66699 -3 -11.834 -9 -15.501s-14 -3.16699 -24 1.5c-13.333 4.66699 -18.666 13.334 -15.999 26.001
c1.33301 8 5.66602 49.667 12.999 125s13.666 118.666 18.999 129.999c76.667 1.33301 133.667 4.66602 171 9.99902z" />
    <glyph glyph-name="six" unicode="6" 
d="M358 223c0 14.667 -2.17285 30.833 -6.50586 48.5s-9.16602 29.167 -14.499 34.5c-3.33301 4 -13.666 6.33301 -30.999 7s-34.666 -1 -51.999 -5c-25.333 -5.33301 -51.333 -24.5 -78 -57.5s-43.667 -67.167 -51 -102.5
c-1.33301 -5.33301 -1.66602 -9.66602 -0.999023 -12.999s2.33398 -6.5 5.00098 -9.5s7.33398 -6.5 14.001 -10.5c16 -10 38.5 -15 67.5 -15s53.833 5 74.5 15c20 9.33301 37.167 24.666 51.5 45.999s21.5 42 21.5 62zM29.9941 276.999
c0 29.333 1.49512 57.835 4.49512 85.502s7.83301 59.5 14.5 95.5s11 61 13 75c2.66699 10 9.33398 11.333 20.001 4c6 -4.66699 10.333 -10.667 13 -18c4.66699 -14 2.66699 -46.667 -6 -98c-7.33301 -41.333 -11.833 -85 -13.5 -131s-0.166992 -75 4.5 -87
c3.33301 -7.33301 9 -4 17 10c2 4.66699 5 10.667 9 18c39.333 78 99 120.333 179 127c28.667 2 50.334 -0.666992 65.001 -8c13.333 -6.66699 22.666 -14.834 27.999 -24.501s11.333 -28.5 18 -56.5c8 -34.667 7 -67.667 -3 -99s-26.833 -56.333 -50.5 -75
s-52.167 -31.834 -85.5 -39.501s-68.666 -5.16699 -105.999 7.5c-19.333 6 -36.666 10.333 -51.999 13c-6.66699 0 -14 3.33301 -22 10s-11 11.667 -9 15c2.66699 4 -3.33301 23.333 -18 58c-9.33301 23.333 -15.166 41.833 -17.499 55.5s-3.16602 34.5 -2.49902 62.5z" />
    <glyph glyph-name="seven" unicode="7" horiz-adv-x="379" 
d="M307 73c-12 0 -18.668 3.00391 -20.001 9.00391c-1.33301 4 -0.5 45.667 2.5 125s5.83301 132.333 8.5 159c2.66699 21.333 4.16699 52.666 4.5 93.999s-0.5 62.666 -2.5 63.999c0 1.33301 -21.833 -1.33398 -65.5 -8.00098l-130.5 -20.5c-43.333 -7 -65 -9.5 -65 -7.5
c-6 2.66699 -9 9.66699 -9 21s2.66699 18.666 8 21.999c26 6.66699 74 15 144 25s113.667 16.667 131 20c10 3.33301 18.667 3 26 -1c6.66699 -1.33301 9.83398 -11.833 9.50098 -31.5s-5.16602 -81.167 -14.499 -184.5c-10 -110.667 -11.333 -186.667 -4 -228
c7.33301 -38.667 -0.333984 -58 -23.001 -58z" />
    <glyph glyph-name="eight" unicode="8" horiz-adv-x="363" 
d="M247 248c-26.667 15.333 -46.668 24.668 -60.001 28.001s-29 2.66602 -47 -2.00098c-18 -5.33301 -33 -16.666 -45 -33.999s-17.667 -36.666 -17 -57.999c0 -32.667 16.333 -61.334 49 -86.001c24 -18 52.667 -23.833 86 -17.5s56 21.833 68 46.5
c8.66699 17.333 12.334 49.666 11.001 96.999zM221.999 483.002c-8 2 -13.666 5.16699 -16.999 9.5s-7.33301 7.83301 -12 10.5c-8.66699 5.33301 -22.334 4 -41.001 -4c-34.667 -14.667 -60 -40 -76 -76s-14.667 -64 4 -84c6 -7.33301 12.167 -11.5 18.5 -12.5
s17.166 -0.5 32.499 1.5c44 6 76.667 25.333 98 58c12.667 19.333 18.334 39.5 17.001 60.5s-9.33301 33.167 -24 36.5zM37 187.002c0 29.333 5.66211 52.668 16.9951 70.001s17 27.333 17 30s-6.66699 12 -20 28c-9.33301 10 -15.166 18.833 -17.499 26.5
s-3.5 20.5 -3.5 38.5c0 26.667 3 47.334 9 62.001c6.66699 15.333 21.834 35.166 45.501 59.499s43.834 40.166 60.501 47.499c24 11.333 48.5 15 73.5 11s43.833 -14.333 56.5 -31c6.66699 -8 10.5 -16 11.5 -24s0.5 -24 -1.5 -48
c-7.33301 -64.667 -24.666 -106.667 -51.999 -126c-6 -4.66699 -9.83301 -8.33398 -11.5 -11.001s-1.66699 -5 0 -7s5.5 -4 11.5 -6c14.667 -4.66699 34.5 -17.5 59.5 -38.5s38.167 -35.833 39.5 -44.5c4 -22 0 -57.667 -12 -107c-2.66699 -10 -11.5 -23.5 -26.5 -40.5
s-28.167 -28.833 -39.5 -35.5c-15.333 -8 -33.5 -12.667 -54.5 -14s-38.5 0.666992 -52.5 6c-15.333 6.66699 -34.166 19.834 -56.499 39.501s-36.833 36.167 -43.5 49.5c-6.66699 12 -10 33.667 -10 65z" />
    <glyph glyph-name="nine" unicode="9" horiz-adv-x="365" 
d="M211 518c0 6 -10.333 9.00195 -31 9.00195c-33.333 0 -60 -13.833 -80 -41.5s-30 -63.834 -30 -108.501c0 -32.667 3.5 -56.5 10.5 -71.5s19.833 -25.167 38.5 -30.5c52.667 -16 92 10.667 118 80c20.667 52.667 19 94.667 -5 126c-14 17.333 -21 29.666 -21 36.999z
M185 562.002c12.667 0 19.002 -2.33203 19.002 -6.99902s3 -7 9 -7c8 0 18 -6.5 30 -19.5s20 -26.167 24 -39.5c8.66699 -26.667 15.667 -26.334 21 0.999023l3 21c4 28.667 9 46 15 52c8 8.66699 15.167 11.334 21.5 8.00098s8.5 -10.666 6.5 -21.999
c-3.33301 -16.667 -8.33301 -47.667 -15 -93s-12.334 -80 -17.001 -104c-19.333 -100 -29.333 -175.333 -30 -226c-0.666992 -33.333 -5 -50.666 -13 -51.999c-4.66699 0 -11.334 4.33301 -20.001 13c-6.66699 6.66699 -10.667 13.5 -12 20.5s-1 21.833 1 44.5
c1.33301 14 4 34.167 8 60.5s6.33301 44.5 7 54.5c-1.33301 1.33301 -7.66602 -2.33398 -18.999 -11.001c-23.333 -18.667 -54 -26 -92 -22c-40 4.66699 -69.333 25.667 -88 63c-8 10.667 -12.5 27.5 -13.5 50.5s0.5 45.167 4.5 66.5s8.66699 38.666 14 51.999
c13.333 29.333 32.166 52.666 56.499 69.999s50.833 26 79.5 26z" />
    <glyph glyph-name="colon" unicode=":" horiz-adv-x="145" 
d="M72 87c2.66699 0 4.66699 1.83203 6 5.49902s1.33301 7.16699 0 10.5s-3.33301 5 -6 5c-5.33301 0.666992 -7.33301 -3.66602 -6 -12.999c0.666992 -6 2.66699 -8.66699 6 -8zM50 142.999c7.33301 8.66699 13 12.502 17 11.502s12.333 -7.83301 25 -20.5
c28.667 -30 28.667 -55.667 0 -77c-7.33301 -5.33301 -13 -8.33301 -17 -9s-9.33301 0.666016 -16 3.99902c-15.333 7.33301 -23.833 20.666 -25.5 39.999s3.83301 36.333 16.5 51zM82 402.001c-5.33301 8.66699 -11.333 8.66699 -18 0c-6 -7.33301 -7 -13.666 -3 -18.999
c3.33301 -3.33301 8.33301 -1.83301 15 4.5s8.66699 11.166 6 14.499zM44 428.001c10 10.667 21.333 15 34 13s22.667 -9.33301 30 -22c6.66699 -14 8 -25.833 4 -35.5s-14.667 -21.5 -32 -35.5c-22 -18 -37.333 -15.333 -46 8c-8 21.333 -6.66699 42.333 4 63z" />
    <glyph glyph-name="semicolon" unicode=";" horiz-adv-x="164" 
d="M75 80c8.66699 0.666992 10.001 4 4.00098 10c-6.66699 6 -11.334 6 -14.001 0c-0.666992 -0.666992 -1 -1.66699 -1 -3c0 -4.66699 3.66699 -7 11 -7zM36.001 125c18 14 37.1641 14.001 57.4971 0.000976562s31.833 -31.333 34.5 -52
c1.33301 -28.667 1.33301 -48.167 0 -58.5s-4.66602 -21.166 -9.99902 -32.499c-9.33301 -19.333 -17.166 -32.333 -23.499 -39s-12.833 -8.66699 -19.5 -6c-14.667 6 -13.667 22.667 3 50c10 16 14.833 29.667 14.5 41s-5.83301 17 -16.5 17c-11.333 0 -20.666 3 -27.999 9
c-8 5.33301 -13.5 16.666 -16.5 33.999s-1.5 29.666 4.5 36.999zM77.998 435.001c8 8.66699 14.499 13.4961 19.499 14.4961s12.5 -1.16699 22.5 -6.5c8.66699 -5.33301 13.334 -16.166 14.001 -32.499s-3.33301 -29.166 -12 -38.499c-6.66699 -7.33301 -15 -11.5 -25 -12.5
s-18.333 1.83301 -25 8.5s-9.16699 17.334 -7.5 32.001s6.16699 26.334 13.5 35.001z" />
    <glyph glyph-name="equal" unicode="=" horiz-adv-x="428" 
d="M363 233c0 -8.66699 -6.66602 -14.167 -19.999 -16.5s-54.333 -5.83301 -123 -10.5c-66.667 -4 -109.667 -7.66699 -129 -11c-8.66699 -2.66699 -15.667 -1.33398 -21 3.99902s-7.33301 12.333 -6 21c0.666992 8.66699 6 14 16 16s43.667 5 101 9
c93.333 8.66699 146 14 158 16c5.33301 0.666992 10.666 -2.16602 15.999 -8.49902s8 -12.833 8 -19.5zM33.001 359c-2 0 -3 3.00195 -3 9.00195s0.833008 12.5 2.5 19.5s3.83398 11.833 6.50098 14.5c6 6 82.667 14 230 24c38.667 2 67.667 5.33301 87 10
c15.333 3.33301 26.666 2.66602 33.999 -2.00098c5.33301 -4.66699 7.83301 -12.334 7.5 -23.001s-3.5 -17 -9.5 -19c-14 -2 -58.333 -5.33301 -133 -10s-122.334 -9 -143.001 -13c-45.333 -6.66699 -71.666 -10 -78.999 -10z" />
    <glyph glyph-name="greater" unicode="&#x3e;" horiz-adv-x="408" 
d="M378 365c0 -7.33301 -3.66797 -16.001 -11.001 -26.001s-13.666 -15 -18.999 -15c-4 0 -21.333 -11.667 -52 -35s-59.667 -47 -87 -71c-70 -62 -112.333 -91.333 -127 -88c-6 1.33301 -9.66699 6.66602 -11 15.999c-1.33301 10 9.33398 23 32.001 39l98 76
c47.333 37.333 78 62.333 92 75c9.33301 8 12.666 13.333 9.99902 16s-25.667 8.66699 -69 18c-46.667 10 -100.667 24.333 -162 43c-38 11.333 -50 28 -36 50c4 6.66699 8.83301 9.66699 14.5 9s21.167 -6 46.5 -16c29.333 -11.333 70.5 -24.166 123.5 -38.499
s91.167 -23.166 114.5 -26.499c18.667 -2 30.5 -4.5 35.5 -7.5s7.5 -9.16699 7.5 -18.5z" />
    <glyph glyph-name="question" unicode="?" horiz-adv-x="356" 
d="M192 80c8.66699 0 14.665 3.33105 17.998 9.99805c2.66699 6.66699 2.83398 10.834 0.500977 12.501s-7.16602 1.83398 -14.499 0.500977c-10 -2.66699 -15 -7.66699 -15 -15c0 -5.33301 3.66699 -8 11 -8zM188.998 35.998c-14.667 0 -27.333 3.66504 -38 10.998
s-16 16.333 -16 27c0 14.667 6.16699 29.5 18.5 44.5s25.166 23.5 38.499 25.5c28 4.66699 46.833 -3.16602 56.5 -23.499s4.83398 -41.166 -14.499 -62.499c-12.667 -14.667 -27.667 -22 -45 -22zM148.999 568.996c4 7.33301 16.999 8.33594 38.999 3.00293
s47.167 -15.333 75.5 -30s45.5 -27.667 51.5 -39c27.333 -51.333 7.66602 -111 -59.001 -179c-38.667 -38.667 -57.667 -75 -57 -109c0.666992 -14 -1.16602 -23.833 -5.49902 -29.5s-11.166 -7.83398 -20.499 -6.50098s-14.5 11.166 -15.5 29.499
s2.16699 39.166 9.5 62.499c8 23.333 27.667 51.666 59 84.999c44.667 46 64.667 81.5 60 106.5s-34.667 46.5 -90 64.5c-38 12 -72.333 3 -103 -27c-12.667 -12.667 -20.5 -22.167 -23.5 -28.5s-4.5 -16.5 -4.5 -30.5c0 -24 -4.66699 -35.333 -14 -34
c-4.66699 0.666992 -9.33398 5.66699 -14.001 15c-6.66699 13.333 -8.66699 27.333 -6 42c1.33301 4.66699 3 6.33398 5 5.00098s3.66699 1.33398 5 8.00098c0.666992 2.66699 1 5.66699 1 9c1.33301 12 8.33301 25.5 21 40.5s27.334 26.833 44.001 35.5s28 10.667 34 6
c5.33301 -4.66699 8 -4.33398 8 0.999023z" />
    <glyph glyph-name="at" unicode="@" horiz-adv-x="689" 
d="M387 191c0.666992 9.33301 10.6689 65.998 30.002 169.998c-21.333 21.333 -35.666 32.333 -42.999 33c-3.33301 -1.33301 -17 -3.66602 -41 -6.99902c-58.667 -8 -103.334 -42.667 -134.001 -104c-14.667 -28.667 -20.834 -59.334 -18.501 -92.001
s12.166 -55.667 29.499 -69c9.33301 -7.33301 23.833 -11.833 43.5 -13.5s37.167 0.5 52.5 6.5c12 4.66699 28.5 16.834 49.5 36.501s31.5 32.834 31.5 39.501zM401.002 126.998c0 7.33301 -3.3291 8.98535 -9.99609 4.98535l-30 -24
c-16.667 -15.333 -37.5 -26.666 -62.5 -33.999s-47.833 -9 -68.5 -5c-26.667 5.33301 -48.5 23.5 -65.5 54.5s-23.833 65.5 -20.5 103.5c2.66699 36.667 17.167 72.334 43.5 107.001s57.833 60 94.5 76c21.333 9.33301 46.166 13.333 74.499 12s48.5 -7.66602 60.5 -18.999
c12 -10.667 22 -16 30 -16c10 0 16 -5.33301 18 -16c2.66699 -12 1.83398 -33.167 -2.49902 -63.5s-10.166 -56.166 -17.499 -77.499c-10.667 -33.333 -12.834 -60.833 -6.50098 -82.5s20.166 -32.5 41.499 -32.5c33.333 0 62.833 19.333 88.5 58
s41.834 88.334 48.501 149.001c5.33301 44 5 76.833 -1 98.5s-21 44.834 -45 69.501c-13.333 14.667 -36.5 26.834 -69.5 36.501s-66.5 14.5 -100.5 14.5c-38.667 0 -76.334 -9.33301 -113.001 -28s-76.667 -48.667 -120 -90c-70 -68 -101 -149.667 -93 -245
c5.33301 -64 22.333 -115.833 51 -155.5s74.334 -75.167 137.001 -106.5c30.667 -14.667 64.667 -26.167 102 -34.5s66.333 -11.166 87 -8.49902c66 10.667 116 32 150 64c22 20.667 34.667 31 38 31c5.33301 0 9.66602 -5.16699 12.999 -15.5s3.33301 -18.833 0 -25.5
c-21.333 -39.333 -73.333 -69.666 -156 -90.999c-26 -6.66699 -44.333 -10.167 -55 -10.5s-30.667 1.83398 -60 6.50098c-39.333 6.66699 -85.5 22.834 -138.5 48.501s-91.5 50.5 -115.5 74.5c-34.667 36 -59.5 73.833 -74.5 113.5s-22.833 87.834 -23.5 144.501
c0 34 2.33301 61.167 7 81.5s14.334 45.833 29.001 76.5c21.333 45.333 62.666 90.333 123.999 135s117 70.667 167 78c50.667 6.66699 101 1.16699 151 -16.5s88.333 -43.5 115 -77.5c17.333 -21.333 28.666 -51.666 33.999 -90.999s3.66602 -82 -5.00098 -128
c-12 -65.333 -38.833 -118.166 -80.5 -158.499s-81.834 -52.166 -120.501 -35.499c-13.333 4.66699 -25 12.167 -35 22.5s-15 19.5 -15 27.5z" />
    <glyph glyph-name="A" unicode="A" horiz-adv-x="544" 
d="M254 513c-2.66699 0 -6.66797 -6.33105 -12.001 -18.998c0 -0.666992 -5.5 -14 -16.5 -40l-34.5 -82c-12 -28.667 -22.667 -55.834 -32 -81.501s-13.666 -39.834 -12.999 -42.501c3.33301 -2.66699 42.833 -4 118.5 -4s115.167 1.66699 118.5 5
c2.66699 -0.666992 -6.83301 21.5 -28.5 66.5l-66.5 134.5c-22.667 44.667 -34 65.667 -34 63zM106.999 168.002c-4.66699 -10.667 -8.16602 -20.5 -10.499 -29.5s-4.66602 -15.667 -6.99902 -20s-8.5 -10.833 -18.5 -19.5c-14.667 -13.333 -25 -17.333 -31 -12
c-3.33301 2.66699 -5.83301 7.5 -7.5 14.5s-2.16699 13.333 -1.5 19s2.66699 8.5 6 8.5c4 0 14.333 16.5 31 49.5s25 53.833 25 62.5c0 8 3.33301 16.333 10 25c8 14 23.167 48 45.5 102s36.5 87.333 42.5 100c25.333 56.667 38.333 89 39 97
c1.33301 9.33301 4.66602 15.666 9.99902 18.999c10 6.66699 18.5 6.83398 25.5 0.500977s15.833 -22.833 26.5 -49.5c16 -39.333 45 -99 87 -179s66.667 -127.667 74 -143c0 -0.666992 4 -7.66699 12 -21c48.667 -76 61 -119 37 -129c-5.33301 -2 -10 -0.333008 -14 5
s-13.667 23.333 -29 54c-12.667 26.667 -29 56.667 -49 90c-0.666992 0.666992 -4.66699 -1.33301 -12 -6c-2.66699 -3.33301 -21.334 -5.33301 -56.001 -6s-79 -0.5 -133 0.5s-83.333 1.5 -88 1.5z" />
    <glyph glyph-name="B" unicode="B" horiz-adv-x="582" 
d="M464 315c-16.667 8.66699 -49.334 13.668 -98.001 15.001s-87.334 -1.66699 -116.001 -9l-35.5 -8.5c-15 -3.66699 -24.167 -5.83398 -27.5 -6.50098c-22 -4 -34.833 -11 -38.5 -21s-4.16699 -39.333 -1.5 -88l4 -87l43 -11c121.333 -32 210 -21 266 33
c34.667 33.333 52.334 68 53.001 104s-15.666 62.333 -48.999 79zM331 545.001c-42.667 5.33301 -67.667 7.33398 -75 6.00098l-41 -5c-36.667 -2 -68.334 -11.333 -95.001 -28c9.33301 -90.667 15 -150.667 17 -180c39.333 6.66699 81 21.167 125 43.5
s80.333 47.166 109 74.499c24.667 24.667 33.834 44.167 27.501 58.5s-28.833 24.5 -67.5 30.5zM345 371.002c0 -3.33301 10.334 -4.99414 31.001 -4.99414c84 0 140 -29.333 168 -88c12 -26 11.333 -57.167 -2 -93.5s-34.666 -66.166 -63.999 -89.499
c-22 -18 -41.833 -30 -59.5 -36s-42.834 -9.66699 -75.501 -11c-29.333 -1.33301 -63.333 0.666992 -102 6s-65 11.666 -79 18.999c-7.33301 3.33301 -12.333 1 -15 -7c-2 -12.667 -10.333 -14.334 -25 -5.00098c-8.66699 6 -13.334 12 -14.001 18
c-1.33301 9.33301 -7.66602 15.666 -18.999 18.999c-8.66699 2 -15 6.33301 -19 13s-4.33301 13 -1 19c4.66699 5.33301 18 4.66602 40 -2.00098c-4 90 -9.66699 145.667 -17 167c-6 16 -6 25.667 0 29c6.66699 4 6.66699 32.333 0 85c-6 54 -9.66699 81.667 -11 83
s-6.66602 -2 -15.999 -10c-7.33301 -6.66699 -15 -9.33398 -23 -8.00098s-12 5.66602 -12 12.999s9 18.666 27 33.999c31.333 30 80.666 50.667 147.999 62c49.333 8 98.666 4.66699 147.999 -10s78 -34.667 86 -60c8.66699 -28 -9 -61.333 -53 -100
c-27.333 -26 -41 -40 -41 -42z" />
    <glyph glyph-name="C" unicode="C" horiz-adv-x="549" 
d="M519 129c0 -8 -11.0029 -22.168 -33.0029 -42.501s-42.333 -34.833 -61 -43.5c-10 -4 -23.667 -11.167 -41 -21.5s-33.833 -17 -49.5 -20s-38.167 -3.83301 -67.5 -2.5c-32 0 -54 0.833008 -66 2.5s-24.667 6.16699 -38 13.5c-64 32.667 -105.333 85.167 -124 157.5
s-9.66699 144.833 27 217.5c6.66699 12 12.5 21.167 17.5 27.5s8.5 8.83301 10.5 7.5s3.33301 -1.66602 4 -0.999023s0.333984 2 -0.999023 4c-4 6.66699 8.5 22.667 37.5 48s57.167 44.666 84.5 57.999c34.667 16.667 67 25 97 25c12.667 0 24.667 -1.83301 36 -5.5
s19 -6.33398 23 -8.00098s12.167 -7.33398 24.5 -17.001s18.833 -14.834 19.5 -15.501l5 28c4 26 13.667 33.667 29 23c6.66699 -4 10.834 -27.333 12.501 -70s-0.166016 -68 -5.49902 -76c-4 -5.33301 -7.16699 -8.16602 -9.5 -8.49902s-5.83301 1.5 -10.5 5.5
c-8 6.66699 -14.333 17.334 -19 32.001c-4.66699 13.333 -16 28.833 -34 46.5s-33.333 27.834 -46 30.501c-22.667 5.33301 -57.334 -3.5 -104.001 -26.5s-82 -48.833 -106 -77.5c-34.667 -41.333 -55.167 -90.666 -61.5 -147.999s3.16699 -106 28.5 -146
c18.667 -30.667 37.834 -52.5 57.501 -65.5s45.167 -21.167 76.5 -24.5c48.667 -4.66699 103 7 163 35c26 11.333 44.167 22 54.5 32s20.833 25 31.5 45c6 0.666992 14.333 -0.833008 25 -4.5s15 -8.5 13 -14.5z" />
    <glyph glyph-name="D" unicode="D" horiz-adv-x="584" 
d="M519 381c0 22 -4.66602 40.498 -13.999 55.498s-26 30.5 -50 46.5c-26.667 17.333 -46.667 28.833 -60 34.5s-35 10.834 -65 15.501c-51.333 7.33301 -88.833 10.833 -112.5 10.5s-53.167 -4.16602 -88.5 -11.499c-14.667 -2 -23.667 -4.66699 -27 -8
c-2.66699 -2.66699 -1.66699 -22 3 -58c16.667 -147.333 25 -256.333 25 -327c55.333 -0.666992 139.666 25.333 252.999 78c42 20 75.167 44.833 99.5 74.5s36.5 59.5 36.5 89.5zM85.001 91.998c-1.33301 6.66699 -5.99707 11.501 -13.9971 14.501s-12.667 6.5 -14 10.5
c0 1.33301 -0.166992 3.16602 -0.5 5.49902s-0.833008 5.16602 -1.5 8.49902s-1 5.66602 -1 6.99902c-0.666992 6 0.5 10.5 3.5 13.5s6.83301 3.83301 11.5 2.5s9 -4.33301 13 -9c5.33301 -7.33301 8 -6.66602 8 2.00098c0.666992 5.33301 0.333984 16.666 -0.999023 33.999
c-4 57.333 -7.33301 111 -10 161c-6 92 -11.667 142 -17 150c-2.66699 4 -7.66699 5 -15 3c-12 -3.33301 -17.667 -0.333008 -17 9c0 7.33301 4.66699 19.666 14 36.999c8.66699 16.667 15.667 26.834 21 30.501s11.333 2.83398 18 -2.49902c8 -4 18.167 -5.16699 30.5 -3.5
s27.666 4.33398 45.999 8.00098s28.833 5.5 31.5 5.5c63.333 9.33301 131.833 1.16602 205.5 -24.501s120.834 -58.167 141.501 -97.5c10.667 -19.333 16.167 -43 16.5 -71s-4.5 -53.333 -14.5 -76c-20 -46.667 -66.5 -87.667 -139.5 -123s-149.167 -61.666 -228.5 -78.999
c-18.667 -4 -30.834 -7.66699 -36.501 -11s-10.167 -9.66602 -13.5 -18.999c-2.66699 -8.66699 -5.83398 -14 -9.50098 -16s-7.33398 -0.833008 -11.001 3.5s-6.83398 8.66602 -9.50098 12.999s-5 8.83301 -7 13.5z" />
    <glyph glyph-name="E" unicode="E" horiz-adv-x="567" 
d="M72 175l0.00195312 -79.9971l47 -9c26 -5.33301 72.667 -8.5 140 -9.5s117.333 0.833008 150 5.5c26.667 3.33301 43.667 1.33301 51 -6c11.333 -11.333 10.333 -19.333 -3 -24c-13.333 -5.33301 -49.666 -11.333 -108.999 -18c-22 -2 -62 -3 -120 -3
c-102.667 0 -165.667 9.66699 -189 29c-6.66699 5.33301 -9.66699 47.666 -9 126.999c1.33301 80 3.66602 123.333 6.99902 130c4 9.33301 6.83301 38.666 8.5 87.999s0.5 81.333 -3.5 96c-4 18.667 -4 30 0 34s46.667 7.33301 128 10
c55.333 1.33301 125.166 5.5 209.499 12.5s128.166 12.167 131.499 15.5c2.66699 2.66699 7 2 13 -2s9.66699 -9 11 -15c3.33301 -13.333 -0.5 -22.666 -11.5 -27.999s-34.833 -9.33301 -71.5 -12c-45.333 -2.66699 -69.666 -4.66699 -72.999 -6
c-2 -1.33301 -45.833 -3.83301 -131.5 -7.5s-133.834 -5.16699 -144.501 -4.5c-6 0.666992 -9.83301 -0.833008 -11.5 -4.5s-2.83398 -11.834 -3.50098 -24.501c-0.666992 -6.66699 -2.5 -30.167 -5.5 -70.5s-4.83301 -68.833 -5.5 -85.5c6.66699 0 28.667 1.66699 66 5
s73.833 6.16602 109.5 8.49902s59.167 2.83301 70.5 1.5c7.33301 -2.66699 11.833 -8 13.5 -16s-0.833008 -14.667 -7.5 -20c-2.66699 -3.33301 -43.667 -8.83301 -123 -16.5s-120 -12.834 -122 -15.501c-5.33301 -2.66699 -8.66602 -8.66699 -9.99902 -18
s-2 -31.666 -2 -66.999z" />
    <glyph glyph-name="F" unicode="F" horiz-adv-x="480" 
d="M119 335c2 4.66699 6.66797 7.49805 14.001 8.49805s23.666 0.833008 48.999 -0.5c38 -2.66699 60 -8 66 -16c14 -18.667 6 -29.667 -24 -33c-14 -2 -31.667 -1.66699 -53 1s-36.333 7.33398 -45 14.001s-11 15.334 -7 26.001zM412.001 589.998
c18 6.66699 29.999 1.66699 35.999 -15s1.66699 -32.667 -13 -48c-6.66699 -6.66699 -12.334 -6.66699 -17.001 0c-2.66699 4.66699 -9.33398 6.66699 -20.001 6s-34.667 -4.66699 -72 -12c-86 -15.333 -155.667 -26 -209 -32
c-0.666992 -9.33301 -4.66699 -109.666 -12 -300.999c-2 -60.667 -4 -100.334 -6 -119.001s-5.33301 -28.334 -10 -29.001c-13.333 -2.66699 -21.5 2.83301 -24.5 16.5s-4.16699 52.834 -3.5 117.501c0 47.333 0.666992 82.833 2 106.5s3.33301 51.834 6 84.501
s5 72.667 7 120l-24 11c-11.333 5.33301 -18 10.666 -20 15.999s-1.66699 15.333 1 30c0.666992 4 10.834 7 30.501 9s31.5 1.33301 35.5 -2c30.667 -7.33301 82.834 -4.83301 156.501 7.5s125.834 23.5 156.501 33.5z" />
    <glyph glyph-name="G" unicode="G" horiz-adv-x="553" 
d="M229 348c6 6.66699 19.001 5.99902 39.001 -2.00098s62.167 -13 126.5 -15s98.5 0.333008 102.5 7c2.66699 5.33301 8 4 16 -4c4.66699 -5.33301 7.66699 -16.666 9 -33.999s1.33301 -56.333 0 -117c-2.66699 -92.667 -5.66699 -142.667 -9 -150
c-4 -8.66699 -16.667 -9 -38 -1l10 255c-160 11.333 -244.667 18.333 -254 21c-3.33301 2 -5.33301 8.33301 -6 19s0.666016 17.667 3.99902 21zM326.001 569.999c20.667 5.33301 41.9971 6.32812 63.9971 2.99512s39.333 -10.333 52 -21
c2.66699 -2.66699 6.33398 -6 11.001 -10c6 -5.33301 9.83301 -9.5 11.5 -12.5s3.83398 -9.5 6.50098 -19.5c0.666992 -2 1 -3.66699 1 -5c4.66699 -15.333 4.33398 -25 -0.999023 -29c-3.33301 -3.33301 -7.33301 0.333984 -12 11.001
c-4.66699 12 -16.334 25.333 -35.001 40c-12.667 10.667 -22.5 16.834 -29.5 18.501s-19.167 1.5 -36.5 -0.5c-53.333 -6 -108.333 -37 -165 -93c-38 -37.333 -66 -72.666 -84 -105.999s-30.667 -74.333 -38 -123c-15.333 -91.333 26 -146 124 -164c38 -6 74 -3 108 9
s56.667 31.667 68 59c8.66699 20 17.834 33 27.501 39s18.5 4.66699 26.5 -4c5.33301 -4.66699 7 -10 5 -16s-9.33301 -18 -22 -36c-21.333 -31.333 -45 -54.166 -71 -68.499s-59 -23.166 -99 -26.499c-64 -4 -116.167 12.167 -156.5 48.5s-57.166 81.833 -50.499 136.5
c10 78.667 29.333 138 58 178c33.333 46.667 72.166 88 116.499 124s84.5 58.667 120.5 68z" />
    <glyph glyph-name="H" unicode="H" horiz-adv-x="529" 
d="M31 564c6 8.66699 13.666 5.33301 22.999 -10c8 -12.667 13.333 -63.667 16 -153c9.33301 -192.667 18.333 -304.334 27 -335.001c4 -16 4 -26.667 0 -32c-4 -6.66699 -4.66699 -10.667 -2 -12c2.66699 -3.33301 1 -5 -5 -5c-7.33301 0 -13.666 2 -18.999 6
c-6 2.66699 -12.333 31 -19 85c-5.33301 42 -10.833 127.333 -16.5 256s-7.16699 195.334 -4.5 200.001zM395.999 365.999l9.99805 0.00195312c22 0 35 3 39 9c5.33301 6.66699 9 33 11 79l1 19c2 44.667 5.66699 75.667 11 93c5.33301 11.333 11.666 16.666 18.999 15.999
c6.66699 -1.33301 10.334 -8.33301 11.001 -21s0.333984 -56.667 -0.999023 -132c-2.66699 -144 -4 -219.667 -4 -227c-0.666992 -60.667 -1.66699 -98.5 -3 -113.5s-4.66602 -24.833 -9.99902 -29.5c-12 -8.66699 -20 -5.66699 -24 9c-4 16 -6.66699 57.333 -8 124l-2 125
c-87.333 1.33301 -162.666 -1.33398 -225.999 -8.00098c-59.333 -6.66699 -95.333 -9.5 -108 -8.5s-20.334 6.83301 -23.001 17.5c-3.33301 13.333 -2.5 21.833 2.5 25.5s17.5 5.83398 37.5 6.50098c146 11.333 235 16.666 267 15.999z" />
    <glyph glyph-name="I" unicode="I" horiz-adv-x="109" 
d="M57 115c-6 0 -11.333 2.99902 -16 8.99902c-5.33301 6.66699 -8.83301 82.334 -10.5 227.001s-0.166992 219.667 4.5 225c4.66699 4.66699 10 7 16 7s10.333 -2 13 -6c0.666992 0.666992 1.5 -13.5 2.5 -42.5s2 -64.333 3 -106s1.83301 -83.167 2.5 -124.5
s1.5 -76.5 2.5 -105.5s2.16699 -43.167 3.5 -42.5c2.66699 -4.66699 1.16699 -12.667 -4.5 -24s-11.167 -17 -16.5 -17z" />
    <glyph glyph-name="J" unicode="J" horiz-adv-x="457" 
d="M64 238c0 -24 20.3311 -52.834 60.998 -86.501s79.667 -48.834 117 -45.501c30.667 0 53.334 4.66699 68.001 14c17.333 10 33 27.5 47 52.5s23.333 52.167 28 81.5c4.66699 26.667 7.16699 65.834 7.5 117.501s-1.5 95.5 -5.5 131.5c-3.33301 32.667 -4 52 -2 58
c2 6.66699 7 9.5 15 8.5s13.667 -5.16699 17 -12.5c3.33301 -8.66699 6.33301 -53.667 9 -135c3.33301 -98 -0.666992 -170.333 -12 -217s-34.333 -85 -69 -115c-22.667 -20.667 -57.334 -31 -104.001 -31c-25.333 0 -53.333 8.33301 -84 25
c-26.667 14 -47.5 27.5 -62.5 40.5s-29.833 30.5 -44.5 52.5c-9.33301 13.333 -15 24.333 -17 33s-2.66699 24.334 -2 47.001c0.666992 20 1.83398 33.333 3.50098 40s5.16699 10.667 10.5 12c11.333 2 20.833 -3.5 28.5 -16.5s6.83398 -22.167 -2.49902 -27.5
c-4.66699 -2 -7 -11 -7 -27z" />
    <glyph glyph-name="K" unicode="K" horiz-adv-x="520" 
d="M99 317c5.33301 0 25.334 16.0049 60.001 48.0049c15.333 14.667 54.166 46 116.499 94s98.833 76.667 109.5 86c5.33301 6.66699 11.166 10 17.499 10s11.5 -3.66699 15.5 -11c6 -11.333 4.33301 -22.333 -5 -33s-34.666 -31 -75.999 -61
c-71.333 -52 -134.666 -106.333 -189.999 -163l40 -24c35.333 -21.333 81.5 -42 138.5 -62s98.5 -30 124.5 -30c14.667 0 25.667 -4.33301 33 -13s9 -19 5 -31c-4 -11.333 -8 -17.333 -12 -18c-5.33301 -0.666992 -23.333 3.66602 -54 12.999
c-36.667 10.667 -67.834 20.167 -93.501 28.5s-48.667 16.666 -69 24.999s-36.166 15.166 -47.499 20.499s-28 13.666 -50 24.999l-54 27c-2.66699 -1.33301 -3.83398 -8.83301 -3.50098 -22.5s2 -31.834 5 -54.501s6.5 -44.334 10.5 -65.001
c4.66699 -27.333 6 -44.333 4 -51c-3.33301 -6.66699 -9.33301 -10.167 -18 -10.5s-15.667 2.83398 -21 9.50098c-5.33301 21.333 -13.833 93.333 -25.5 216s-18.834 192.667 -21.501 210c-7.33301 58.667 -9.66602 90.667 -6.99902 96c7.33301 12 15.333 10.333 24 -5
c4.66699 -9.33301 10.5 -34.333 17.5 -75s12.167 -79 15.5 -115c3.33301 -42.667 7 -64 11 -64z" />
    <glyph glyph-name="L" unicode="L" horiz-adv-x="598" 
d="M42 569c20 0 32.9971 -32.667 38.9971 -98c7.33301 -68.667 12 -128 14 -178c0 -6.66699 0.333008 -15.667 1 -27c2.66699 -65.333 7 -102.666 13 -111.999c5.33301 -8 17.333 -13 36 -15c3.33301 -0.666992 6 -1 8 -1c12 -2.66699 78 -3.83398 198 -3.50098
s186.667 -0.5 200 -2.5c7.33301 -1.33301 12.5 -6.33301 15.5 -15s1.5 -15 -4.5 -19c-5.33301 -3.33301 -69.166 -5.16602 -191.499 -5.49902s-198.833 0.833984 -229.5 3.50098c-39.333 3.33301 -62.666 8.66602 -69.999 15.999s-12.666 56.666 -15.999 147.999
c-5.33301 151.333 -13 248 -23 290c-2 8 -2.33301 13.167 -1 15.5s5 3.5 11 3.5z" />
    <glyph glyph-name="M" unicode="M" horiz-adv-x="729" 
d="M518 541c-11.333 0 -20.835 -2.00586 -28.502 -6.00586s-18.834 -13.333 -33.501 -28c-27.333 -27.333 -46.333 -55.166 -57 -83.499s-18.667 -70.5 -24 -126.5c-3.33301 -34 -6.16602 -55.333 -8.49902 -64s-7.16602 -13 -14.499 -13c-10 0 -16.667 3 -20 9
c-4.66699 4.66699 -8.33398 41 -11.001 109c-2.66699 87.333 -13 144.5 -31 171.5s-47.667 30.833 -89 11.5c-20 -9.33301 -40.167 -24.666 -60.5 -45.999s-34.166 -42.333 -41.499 -63c-8 -21.333 -12.333 -55.333 -13 -102s2.33301 -93 9 -139
c4.66699 -27.333 6.83398 -44.666 6.50098 -51.999s-3.5 -14.333 -9.5 -21s-10.167 -10 -12.5 -10s-6.83301 2.66699 -13.5 8c-9.33301 8 -14.333 28.667 -15 62c-1.33301 44.667 -2.83301 74.334 -4.5 89.001s-4.83398 26.334 -9.50098 35.001
c-6 10.667 -6.33301 25.667 -1 45c4.66699 18 5 55.667 1 113c-6 78 -7.33301 120 -4 126c2 2.66699 6 3.33398 12 2.00098c16.667 -2 25.334 -32 26.001 -90v-31l17 21c18.667 26 42.167 49.5 70.5 70.5s50.5 31.833 66.5 32.5c21.333 0.666992 36.666 -0.333008 45.999 -3
s18.333 -8 27 -16c14 -12.667 26 -32 36 -58s16.333 -52.667 19 -80c43.333 84.667 81.666 135.667 114.999 153c30.667 18 60 21.167 88 9.5s51.667 -36.834 71 -75.501c68.667 -148 88.334 -279.667 59.001 -395c-3.33301 -6.66699 -6 -10 -8 -10s-6 2.66699 -12 8
c-5.33301 4.66699 -8.5 11.334 -9.5 20.001s-0.833008 26 0.5 52c7.33301 106.667 -12 206.667 -58 300c-11.333 24 -23.166 40.833 -35.499 50.5s-27.5 14.5 -45.5 14.5z" />
    <glyph glyph-name="N" unicode="N" horiz-adv-x="585" 
d="M79 464c-1.33301 -0.666992 -1.83203 -3.16699 -1.49902 -7.5s1.16602 -10.5 2.49902 -18.5c2 -10.667 4.66699 -78.167 8 -202.5s6.33301 -192.833 9 -205.5c4 -24 5 -40.333 3 -49s-7.66699 -13 -17 -13c-15.333 0 -24.833 13.667 -28.5 41s-6.83398 108 -9.50098 242
c-2 100 -5.66699 170.667 -11 212c-4.66699 28.667 -5.66699 45.667 -3 51c3.33301 4 9.33301 6 18 6s13 -2.33301 13 -7c0 -5.33301 5.66699 -6.33301 17 -3c6.66699 1.33301 12.5 0.166016 17.5 -3.50098s11.833 -12.5 20.5 -26.5l35 -47.5
c10 -13 24.167 -30.167 42.5 -51.5l39.5 -46c42 -52 92 -109.333 150 -172c8.66699 -9.33301 29 -27.833 61 -55.5s49 -41.5 51 -41.5s3 47 3 141c-0.666992 80 1.83301 160.333 7.5 241s11.834 124.667 18.501 132c7.33301 9.33301 15.666 11 24.999 5
c6 -3.33301 6 -39 0 -107c-4 -49.333 -6.66699 -127.666 -8 -234.999s-0.333008 -180.333 3 -219c2.66699 -26.667 -0.333008 -40 -9 -40c-10.667 -0.666992 -41 22 -91 68c-72.667 68 -140.667 138.667 -204 212c-75.333 86.667 -121.666 143.667 -138.999 171
c-12 19.333 -19.667 29 -23 29z" />
    <glyph glyph-name="O" unicode="O" horiz-adv-x="556" 
d="M159 564c0 16.667 25.6699 27.667 77.0029 33c21.333 2 32 3.66699 32 5c0 0.666992 -2.66699 1.66699 -8 3c-16.667 2.66699 -34.5 2.16699 -53.5 -1.5s-32.5 -9.16699 -40.5 -16.5c-10 -8.66699 -24.167 -32.5 -42.5 -71.5s-30.833 -71.167 -37.5 -96.5
c-10 -38 -16.833 -82 -20.5 -132s-2.83398 -86.667 2.49902 -110c10.667 -50 37 -88.833 79 -116.5s92.333 -39.5 151 -35.5c66 4.66699 116.667 34.667 152 90c21.333 34 34.166 79.167 38.499 135.5s-0.333984 109.333 -14.001 159s-33.5 83.167 -59.5 100.5
c-40 26 -97.333 40 -172 42c-50.667 1.33301 -77 2.33301 -79 3c-3.33301 0 -5 3 -5 9zM183.003 638c19.333 5.33301 42.001 4.83398 68.001 -1.49902s47.333 -16.833 64 -31.5c20.667 -16 42.334 -27.667 65.001 -35c32.667 -12 59.5 -31 80.5 -57s38.5 -62 52.5 -108
c8.66699 -28.667 13 -70.334 13 -125.001s-4.33301 -95.667 -13 -123c-13.333 -44.667 -36 -81.667 -68 -111s-70.333 -48.333 -115 -57c-18.667 -3.33301 -34.334 -4.83301 -47.001 -4.5s-31.334 2.83301 -56.001 7.5c-46.667 10 -83.834 25.167 -111.501 45.5
s-50.167 48.5 -67.5 84.5c-8.66699 18.667 -14 34.5 -16 47.5s-2.66699 40.167 -2 81.5c0.666992 96.667 15.834 182.5 45.501 257.5s65.5 118.167 107.5 129.5z" />
    <glyph glyph-name="P" unicode="P" horiz-adv-x="519" 
d="M333 531c-40.667 7.33301 -70.334 10.3301 -89.001 8.99707c-26 -1.33301 -52.667 -4.16602 -80 -8.49902s-43 -8.16602 -47 -11.499c-2.66699 -4 -4.16699 -20.833 -4.5 -50.5s0 -66.334 1 -110.001s1.5 -68.5 1.5 -74.5l67 9c62 8.66699 111.333 20.5 148 35.5
s67.334 35.833 92.001 62.5c34 36.667 43.833 66.334 29.5 89.001s-53.833 39.334 -118.5 50.001zM104 9.99707c-10 0 -16.499 7.49707 -19.499 22.4971s-5.16699 48.5 -6.5 100.5c-0.666992 45.333 -1.83398 74.5 -3.50098 87.5s-5.16699 21.5 -10.5 25.5
c-8 6 -12 11.333 -12 16s4.33301 11 13 19c6.66699 6.66699 10.5 15.334 11.5 26.001s0.833008 38.667 -0.5 84c-2.66699 64 -5 97 -7 99c-1.33301 2.66699 -7 1.33398 -17 -3.99902c-13.333 -7.33301 -20.666 -6.16602 -21.999 3.50098s4.66699 21.167 18 34.5
c24.667 26 70 41.833 136 47.5s127.667 1.5 185 -12.5c58 -13.333 95.167 -35 111.5 -65s10.5 -66.333 -17.5 -109c-50.667 -76 -150.334 -121 -299.001 -135l-50 -5c-1.33301 -57.333 1 -110 7 -158c6 -51.333 0.333008 -77 -17 -77z" />
    <glyph glyph-name="Q" unicode="Q" horiz-adv-x="523" 
d="M351 111c0 3.33301 -7.66699 9.66895 -23 19.002c-32.667 22 -67.334 50 -104.001 84s-55 54.667 -55 62c0 16.667 8.33301 21 25 13c7.33301 -4 15 -9.33301 23 -16c13.333 -12.667 38.666 -33.834 75.999 -63.501s63 -48.834 77 -57.501
c7.33301 -5.33301 12.5 -7.83301 15.5 -7.5s6.83301 3.5 11.5 9.5c40.667 51.333 61.334 106.666 62.001 165.999s-19 106 -59 140c-14.667 12 -37.5 22.833 -68.5 32.5s-56.167 13.834 -75.5 12.501c-23.333 -1.33301 -35.333 3 -36 13c-1.33301 10 8.66699 18.333 30 25
l8 2c10 2.66699 28.667 0 56 -8s51.666 -17.667 72.999 -29c40 -21.333 69.333 -55.166 88 -101.499s22.667 -94.833 12 -145.5c-8 -48.667 -32.333 -97 -73 -145l35 -29c19.333 -16 30.666 -30 33.999 -42s-1.66699 -20.333 -15 -25c-10 -2.66699 -21 2.66602 -33 15.999
c-9.33301 10 -27.666 27.333 -54.999 52l-34 -23c-75.333 -52 -144 -61.667 -206 -29c-43.333 22.667 -74.166 60.167 -92.499 112.5s-22.5 115.166 -12.5 188.499c10.667 67.333 33.5 122 68.5 164s79.5 64.667 133.5 68c12.667 0.666992 11.667 -5.33301 -3 -18l-27 -20
c-59.333 -36.667 -97.666 -78.667 -114.999 -126c-21.333 -56 -29 -114.667 -23 -176s23.667 -106.333 53 -135c14.667 -15.333 30.167 -25.5 46.5 -30.5s37.5 -5.83301 63.5 -2.5c14.667 1.33301 38.167 8.83301 70.5 22.5s48.5 22.834 48.5 27.501z" />
    <glyph glyph-name="R" unicode="R" horiz-adv-x="657" 
d="M173 276c7.33301 2 19.4971 6.49902 36.4971 13.499s33.833 13.167 50.5 18.5s32.667 8.33301 48 9c41.333 6 73.666 14.667 96.999 26c22.667 10.667 46.334 27.5 71.001 50.5s36.334 38.833 35.001 47.5c-1.33301 8 -13.666 16.667 -36.999 26
c-24 9.33301 -73 14.333 -147 15c-112.667 2 -172 -1.66699 -178 -11c-3.33301 -5.33301 -1.16602 -39.166 6.50098 -101.499s13.5 -93.5 17.5 -93.5zM454.997 509.999c47.333 -11.333 76.668 -27.6621 88.001 -48.9951s1.66602 -47.333 -29.001 -78
c-28 -28 -45.667 -44.667 -53 -50c-14 -10 -20 -16 -18 -18l45 -14c54 -16.667 91.333 -43 112 -79c8.66699 -15.333 14.334 -29.833 17.001 -43.5s5.33398 -41.834 8.00098 -84.501c0.666992 -16.667 1.16699 -32.667 1.5 -48s0.5 -27.5 0.5 -36.5
s-0.333008 -14.167 -1 -15.5c-2.66699 -5.33301 -8.5 -7 -17.5 -5s-15.167 6.33301 -18.5 13c-4.66699 8 -7 38 -7 90c0 44.667 -2.83301 76.5 -8.5 95.5s-17.167 35.167 -34.5 48.5c-15.333 11.333 -36.333 20.833 -63 28.5s-52.667 11.5 -78 11.5
c-21.333 0.666992 -56.5 -5.5 -105.5 -18.5s-90.833 -26.5 -125.5 -40.5c4 -58.667 9.33301 -120.667 16 -186c3.33301 -31.333 5 -51.5 5 -60.5s-2 -14.833 -6 -17.5c-15.333 -8.66699 -25.333 -6.66699 -30 6c-8 21.333 -16.333 111.333 -25 270
c-8.66699 143.333 -16.667 218.666 -24 225.999c-4.66699 4.66699 -12.334 3.33398 -23.001 -3.99902s-16 -15.333 -16 -24c0 -9.33301 -3.33301 -17.333 -10 -24s-12.667 -8.33398 -18 -5.00098c-4.66699 3.33301 -7 10.5 -7 21.5s2.33301 22.167 7 33.5
c7.33301 16 27.666 30.667 60.999 44c0 0.666992 -1.5 7.16699 -4.5 19.5s-3.83301 20.166 -2.5 23.499c2 4.66699 5.16699 7.16699 9.5 7.5s8.83301 -1.66699 13.5 -6s8.66699 -9.83301 12 -16.5c4.66699 -10.667 11 -16.334 19 -17.001s31.333 2.66602 70 9.99902
c20.667 4 60.167 5 118.5 3s98.833 -5.66699 121.5 -11z" />
    <glyph glyph-name="S" unicode="S" horiz-adv-x="408" 
d="M325 485c0 22.667 -6.83203 41.0039 -20.499 55.0039s-32.5 22.667 -56.5 26s-55.167 -4.83398 -93.5 -24.501s-63.833 -40.834 -76.5 -63.501c-7.33301 -12.667 -11.333 -27.334 -12 -44.001s2.33301 -29.334 9 -38.001c12 -14.667 58 -35.334 138 -62.001
c63.333 -20.667 109.666 -48.5 138.999 -83.5s33.333 -66.167 12 -93.5c-7.33301 -9.33301 -23.333 -18.666 -48 -27.999s-45.667 -14 -63 -14c-20 0 -52.833 5.83301 -98.5 17.5s-76.167 21.834 -91.5 30.501c-21.333 12.667 -28.666 28.334 -21.999 47.001
c2.66699 7.33301 7.33398 8.33301 14.001 3c16.667 -13.333 52.834 -26.666 108.501 -39.999s96.167 -18 121.5 -14c14.667 2 28.5 7.33301 41.5 16s19.5 16.667 19.5 24c0 9.33301 -18.333 26.833 -55 52.5s-63.334 39.5 -80.001 41.5c-10 0.666992 -31 7.16699 -63 19.5
s-54.667 22.5 -68 30.5c-22 13.333 -37 35.333 -45 66s-6 57.667 6 81c23.333 43.333 68 75.666 134 96.999c19.333 6 40.166 9.16699 62.499 9.5s39.833 -2.83398 52.5 -9.50098c18 -8.66699 32 -20.667 42 -36s14.333 -31 13 -47
c-1.33301 -16.667 -5.33301 -27.334 -12 -32.001c-4.66699 0.666992 -7.33398 5 -8.00098 13z" />
    <glyph glyph-name="T" unicode="T" horiz-adv-x="685" 
d="M30 543c0 8 4.66797 13.166 14.001 15.499s42.666 6.5 99.999 12.5c3.33301 0.666992 5.66602 1 6.99902 1c42 6 121.5 10.833 238.5 14.5s189.833 7.16699 218.5 10.5c19.333 1.33301 32.166 -0.5 38.499 -5.5s8.16602 -14.833 5.49902 -29.5
c-2.66699 -4.66699 -17.334 -7.66699 -44.001 -9s-98 -2.66602 -214 -3.99902c-9.33301 0 -16.666 -0.333008 -21.999 -1s-9.66602 -1.33398 -12.999 -2.00098s-5.16602 -1.66699 -5.49902 -3s-0.166016 -3 0.500977 -5c2 -2.66699 4.83301 -76.167 8.5 -220.5
s5.83398 -217.833 6.50098 -220.5c2.66699 -14.667 1 -26 -5 -34c-12 -16.667 -22.667 -13 -32 11c-8.66699 22 -12.334 52 -11.001 90c2 64.667 4 191.667 6 381c-11.333 4.66699 -59.5 1.83398 -144.5 -8.49902s-132.5 -14.833 -142.5 -13.5
c-6.66699 2 -10 8.66699 -10 20z" />
    <glyph glyph-name="U" unicode="U" horiz-adv-x="522" 
d="M259 101c17.333 0 38.501 5.16602 63.501 15.499s43.5 21.833 55.5 34.5c26.667 28 47 65 61 111s19 92.667 15 140c-1.33301 25.333 -1.83301 42 -1.5 50s2.83301 12.667 7.5 14c7.33301 2.66699 14.666 0.333984 21.999 -6.99902c5.33301 -5.33301 8.5 -13.5 9.5 -24.5
s0.833008 -33.833 -0.5 -68.5c-1.33301 -34 -3.66602 -59.167 -6.99902 -75.5s-10 -37.166 -20 -62.499c-15.333 -40 -30.333 -69 -45 -87c-40 -52.667 -94.333 -78 -163 -76c-13.333 0.666992 -32.333 6.33398 -57 17.001s-42.334 21 -53.001 31
c-57.333 52 -93.333 134 -108 246c-4 31.333 -6.5 76.333 -7.5 135s0.166992 90.667 3.5 96c4.66699 7.33301 12.667 7.33301 24 0c6.66699 -4 9.66699 -31.333 9 -82c-2 -68.667 3.16699 -132.834 15.5 -192.501s30.5 -107.167 54.5 -142.5
c12.667 -18.667 31.5 -35.334 56.5 -50.001s46.833 -22 65.5 -22z" />
    <glyph glyph-name="V" unicode="V" horiz-adv-x="609" 
d="M552 576c14.667 0 23.502 -7.33594 26.502 -22.0029s-2.16699 -24.667 -15.5 -30c-6.66699 -2 -17.334 -19 -32.001 -51c-8 -20 -22.667 -52 -44 -96c-20 -41.333 -43 -96.5 -69 -165.5s-39 -108.833 -39 -119.5c0 -18 -7.83301 -28.667 -23.5 -32
s-26.5 3.33398 -32.5 20.001c-8 22.667 -51.5 89.834 -130.5 201.501s-127.833 174.834 -146.5 189.501c-8.66699 7.33301 -13.834 16.333 -15.501 27s1.16602 17.334 8.49902 20.001c6 1.33301 18.333 -7.33398 37 -26.001s38.334 -42 59.001 -70
c15.333 -20 43 -59.167 83 -117.5s71.333 -101.5 94 -129.5l31 -41l47.5 112.5l55.5 129l66 143.5c18 38 31.333 57 40 57z" />
    <glyph glyph-name="W" unicode="W" horiz-adv-x="793" 
d="M743 520c12 2 18.6689 -1.1709 20.002 -9.50391s-0.666992 -15.5 -6 -21.5c-22 -43.333 -44.833 -101.166 -68.5 -173.499s-38.5 -131.833 -44.5 -178.5c-6.66699 -40.667 -11.167 -64 -13.5 -70s-8.83301 -8.33301 -19.5 -7c-12 1.33301 -20.667 7 -26 17
c-6 12.667 -19.667 30 -41 52c-22.667 26 -49.5 62 -80.5 108s-56.833 89 -77.5 129c-19.333 38 -31 57 -35 57c-2 0 -4 -2.66699 -6 -8c-15.333 -37.333 -36.833 -93.166 -64.5 -167.499s-50.834 -134.166 -69.501 -179.499c-4.66699 -11.333 -12 -16.666 -22 -15.999
s-17.333 7 -22 19c-44 96.667 -73.667 163 -89 199c-6 15.333 -13 32.333 -21 51s-13 31 -15 37s-4.66699 13.167 -8 21.5s-4.83301 15.833 -4.5 22.5s0.5 13.167 0.5 19.5s0.666992 17.166 2 32.499c32.667 -66 60.667 -126.667 84 -182c14.667 -34.667 29.5 -66 44.5 -94
s24.5 -42 28.5 -42c3.33301 0 39.666 89.667 108.999 269c16.667 44 28.334 71.833 35.001 83.5s13.667 17.5 21 17.5c5.33301 0 24 -32 56 -96c23.333 -47.333 50.166 -95.333 80.499 -144s56.833 -86 79.5 -112c13.333 -15.333 21.5 -22 24.5 -20s7.83301 17 14.5 45
c18.667 78.667 46.667 167.334 84 266.001c14 36 23.333 57.5 28 64.5s12 10.5 22 10.5z" />
    <glyph glyph-name="X" unicode="X" horiz-adv-x="504" 
d="M425 578c8.66699 9.33301 19.334 7.99609 32.001 -4.00391c10 -9.33301 11.667 -16.666 5 -21.999c-13.333 -19.333 -35.666 -56.166 -66.999 -110.499s-59.333 -98.833 -84 -133.5l-23 -35c14.667 -21.333 50.334 -61.666 107.001 -120.999
c53.333 -56 79.666 -87 78.999 -93c-1.33301 -7.33301 -8 -11.666 -20 -12.999c-12.667 -0.666992 -24.667 6.33301 -36 21c-12.667 16.667 -30.334 37.167 -53.001 61.5s-40 43.833 -52 58.5c-28 31.333 -43.333 47 -46 47s-18.334 -18 -47.001 -54
c-51.333 -68 -87.666 -114.5 -108.999 -139.5s-35.333 -37.5 -42 -37.5c-8.66699 0 -14.334 3.66699 -17.001 11s-1.66699 16 3 26c2.66699 7.33301 16 25 40 53c22 24.667 50.167 59.5 84.5 104.5s51.5 69.833 51.5 74.5c0 5.33301 -30 40.333 -90 105
c-49.333 54 -80.666 90.167 -93.999 108.5s-18.666 31.166 -15.999 38.499c2.66699 6.66699 7.5 10 14.5 10s12.167 -3.33301 15.5 -10c5.33301 -10 38.166 -48.167 98.499 -114.5s92.166 -99.5 95.499 -99.5s24 29.333 62 88s66.333 105.334 85 140.001
c7.33301 14.667 15 28 23 40z" />
    <glyph glyph-name="Y" unicode="Y" horiz-adv-x="531" 
d="M190 55c10.667 21.333 19.9941 43.5 27.9941 66.5s19.667 51.167 35 84.5c28.667 61.333 41.334 96 38.001 104c-3.33301 6.66699 -4.33301 12.334 -3 17.001c0.666992 1.33301 0.333984 2.33301 -0.999023 3s-2.66602 0.333984 -3.99902 -0.999023
c-3.33301 -2 -17.333 6.66699 -42 26c-48 40 -98 79 -150 117c-47.333 34.667 -67 57.334 -59 68.001l5 5c12.667 8 31.334 1.66699 56.001 -19l33 -28l28 -24l22.5 -18.5c11 -9 19.5 -15.667 25.5 -20l26.5 -20l36 -27.5l44.5 -33
c3.33301 -0.666992 5.83301 -1.33398 7.5 -2.00098s4.83398 2.5 9.50098 9.5s9.66699 15.667 15 26l24 46.5l18 36.5c4 8.33301 8.66699 17.333 14 27l10.5 19c1.66699 3 5.33398 8.33301 11.001 16l11 15c1.66699 2.33301 7 8.66602 16 18.999s15.833 18.5 20.5 24.5
c8.66699 6 16.5 7.33301 23.5 4s10.667 -8.83301 11 -16.5s-3.16699 -15.834 -10.5 -24.501c-20 -20 -48.333 -64.667 -85 -134s-54 -110.666 -52 -123.999c1.33301 -9.33301 -4 -19.333 -16 -30c-5.33301 -4 -11.833 -13.333 -19.5 -28s-14.5 -28.834 -20.5 -42.501
l-20 -47l-13 -31.5c-5.33301 -9.33301 -15.333 -33.666 -30 -72.999c-8 -22 -14.5 -36.333 -19.5 -43s-11.5 -10.667 -19.5 -12c-24 -2.66699 -29 12.666 -15 45.999c2.66699 6 6 12.333 10 19z" />
    <glyph glyph-name="Z" unicode="Z" horiz-adv-x="618" 
d="M349 366c16 -0.666992 43.665 2.66895 82.998 10.002c24.667 5.33301 41.167 7.5 49.5 6.5s13.833 -5.5 16.5 -13.5c4.66699 -11.333 2.83398 -20.5 -5.49902 -27.5s-21.833 -10.5 -40.5 -10.5c-39.333 0 -83 -5.33301 -131 -16l-45 -72.5l-51 -81.5l-18.5 -31.5
c-5.66699 -9.66699 -10 -17.667 -13 -24s-4.16699 -9.5 -3.5 -9.5c21.333 2 67.333 9.66699 138 23s118 21.333 142 24c48 6.66699 76.833 10 86.5 10s17.5 -3.33301 23.5 -10c12.667 -14 9.33398 -24 -9.99902 -30c-13.333 -4 -38.666 -7.66699 -75.999 -11
c-60 -6.66699 -115.667 -15.334 -167 -26.001c-88 -18 -143.167 -28.167 -165.5 -30.5s-35.5 1.5 -39.5 11.5c-2.66699 7.33301 1 20 11 38s38.333 63.333 85 136l47 75c-26 -5.33301 -56.667 -10 -92 -14c-18 -2 -29.333 -2.5 -34 -1.5s-8.33398 5.16699 -11.001 12.5
c-2.66699 10.667 -3 17.334 -1 20.001c8.66699 5.33301 64 16 166 32c51.333 84.667 86 145.667 104 183c-49.333 6 -138.666 -4 -267.999 -30c-40.667 -8.66699 -65.167 -13.334 -73.5 -14.001s-14.833 2.33301 -19.5 9c-4 5.33301 -6 9.33301 -6 12s2 6 6 10
c6.66699 6.66699 40.167 16.167 100.5 28.5s111.166 19.833 152.499 22.5c40 3.33301 78 5.66602 114 6.99902c19.333 0.666992 31.5 0.166992 36.5 -1.5s9.16699 -6.16699 12.5 -13.5c4 -11.333 4.33301 -19 1 -23l-54.5 -94z" />
    <glyph glyph-name="underscore" unicode="_" horiz-adv-x="619" 
d="M42 -61c8 5.33301 17.998 6.66504 29.998 3.99805c24 -4.66699 102 -8.66699 234 -12s209 -3.33301 231 0c24.667 4 39.334 5 44.001 3c6.66699 -2 9.33398 -8.66699 8.00098 -20s-5.33301 -18.666 -12 -21.999c-9.33301 -3.33301 -45 -3.33301 -107 0
c-20.667 2 -60.5 3.83301 -119.5 5.5s-123.5 3.33398 -193.5 5.00098s-109.333 2.5 -118 2.5c-4 0 -6.66699 2.33301 -8 7s-1 9.66699 1 15s5.33301 9.33301 10 12z" />
    <glyph glyph-name="grave" unicode="`" horiz-adv-x="205" 
d="M158 377c-10.667 0 -33 25.333 -67 76l-26.5 39l-22.5 32.5c-5.33301 7.66699 -8.33301 12.167 -9 13.5c-4 6 -4.66699 12.667 -2 20c7.33301 19.333 23 14 47 -16l32 -43c31.333 -44.667 50.666 -71.667 57.999 -81c6.66699 -7.33301 8.83398 -16 6.50098 -26
s-7.83301 -15 -16.5 -15z" />
    <glyph glyph-name="a" unicode="a" horiz-adv-x="447" 
d="M328 125c0 14.667 3 25 9 31s9 25.667 9 59c0 24 -1.16699 39.667 -3.5 47s-8.5 16.333 -18.5 27c-23.333 24 -52.166 32 -86.499 24s-67.833 -30 -100.5 -66c-27.333 -30.667 -47.833 -64.667 -61.5 -102s-17.167 -69.333 -10.5 -96c6 -24 27.667 -36.833 65 -38.5
s75.666 8.5 114.999 30.5c30.667 17.333 52.167 32.333 64.5 45s18.5 25.667 18.5 39zM335 336c0.666992 18 2.16895 29.668 4.50195 35.001s8.5 8.33301 18.5 9c4 0.666992 8.5 -14.833 13.5 -46.5s11.5 -81.834 19.5 -150.501c8.66699 -72 15.667 -124 21 -156
c8 -34.667 4.66699 -55 -10 -61c-7.33301 -3.33301 -13.5 -0.666016 -18.5 8.00098s-8.5 23 -10.5 43c-3.33301 36.667 -6.66602 56.334 -9.99902 59.001s-14.333 -5 -33 -23c-34.667 -32.667 -77.334 -56.667 -128.001 -72s-90.334 -16.333 -119.001 -3
s-45.834 40.666 -51.501 81.999s1.83301 83.666 22.5 126.999c18 38.667 43.5 72.834 76.5 102.501s65.5 48.167 97.5 55.5c16.667 5.33301 35.5 3.16602 56.5 -6.50098s37.833 -22.167 50.5 -37.5v35z" />
    <glyph glyph-name="b" unicode="b" horiz-adv-x="564" 
d="M48 527c5.33301 0 10 -16.3301 14 -48.9971s5.66699 -72.334 5 -119.001c0 -41.333 1.33301 -62 4 -62c6 0 24 4.33301 54 13c57.333 16 124.833 18.333 202.5 7s134.167 -31.666 169.5 -60.999c22.667 -18.667 35.167 -41.167 37.5 -67.5
s-5.83398 -48.833 -24.501 -67.5c-27.333 -28.667 -65 -52 -113 -70s-101.333 -28.667 -160 -32c-87.333 -6 -134 0.666992 -140 20c-3.33301 9.33301 -1.66602 15.833 5.00098 19.5s16.667 3.5 30 -0.5c26 -7.33301 63.333 -8.5 112 -3.5s93.334 14.833 134.001 29.5
c92.667 32 131.334 71 116.001 117c-3.33301 9.33301 -7.33301 16.666 -12 21.999s-8.83398 9.16602 -12.501 11.499s-10.334 5.66602 -20.001 9.99902s-17.834 8.5 -24.501 12.5c-45.333 26 -107.833 38.333 -187.5 37s-132.5 -15 -158.5 -41
c-6.66699 -6.66699 -10.5 -16.834 -11.5 -30.501s-0.166992 -52.167 2.5 -115.5c3.33301 -87.333 1.33301 -134.666 -6 -141.999c-6.66699 -6.66699 -13.667 -7.33398 -21 -2.00098c-5.33301 4 -8.66602 22 -9.99902 54s-2.33301 106.667 -3 224
c-1.33301 178.667 0 271.334 4 278.001c4 5.33301 8.66699 8 14 8z" />
    <glyph glyph-name="c" unicode="c" horiz-adv-x="478" 
d="M434 115c5.33301 0 9.33301 -5.16602 12 -15.499s2 -18.166 -2 -23.499c-7.33301 -8 -46 -13.333 -116 -16s-123 -0.666992 -159 6c-52.667 10 -92 35.5 -118 76.5s-29.333 83.167 -10 126.5c16.667 38.667 41.167 68.5 73.5 89.5s80.5 38.833 144.5 53.5
c48 11.333 72.667 17 74 17c0.666992 1.33301 5.66699 -1 15 -7s18.666 -11.667 27.999 -17s14 -6 14 -2c2 6 7.33301 6.33301 16 1c10 -6 15.333 -26.333 16 -61c0.666992 -23.333 0.333984 -38.333 -0.999023 -45s-5.33301 -11.667 -12 -15
c-10 -4.66699 -16.833 -5.33398 -20.5 -2.00098s-7.16699 12.666 -10.5 27.999c-11.333 50.667 -32.333 76 -63 76c-14.667 0 -27 -1.33301 -37 -4s-20.667 -4.33398 -32 -5.00098c-32 -1.33301 -68 -15.666 -108 -42.999s-61.667 -55 -65 -83
c-10.667 -31.333 -6 -62 14 -92s45 -48.333 75 -55c26.667 -7.33301 66.667 -11 120 -11s91 3.66699 113 11c22.667 8 35.667 12 39 12z" />
    <glyph glyph-name="d" unicode="d" horiz-adv-x="470" 
d="M391 113c-0.666992 0 -2.00195 31.6689 -4.00195 95.002c-2 36 -4.66699 54 -8 54c-6.66699 0 -14.667 6 -24 18c-10 12.667 -27.667 19.667 -53 21c-19.333 0.666992 -30.166 1.16699 -32.499 1.5s-7.5 -0.833984 -15.5 -3.50098s-16.333 -5 -25 -7
c-28.667 -4 -58.667 -18 -90 -42s-54.666 -50.667 -69.999 -80c-14 -26.667 -13.833 -50.834 0.5 -72.501s40.5 -38.167 78.5 -49.5c53.333 -16 111 -5.66699 173 31c32.667 19.333 53 28 61 26c4.66699 -1.33301 7.66699 -1.33301 9 0s1.33301 4 0 8zM389.998 66.002
c-5.33301 0 -26.9961 -13.0029 -64.9961 -39.0029c-14.667 -10 -27.167 -16 -37.5 -18s-34.166 -3 -71.499 -3c-43.333 0 -76.166 3.66699 -98.499 11s-43.166 21.333 -62.499 42c-14.667 14.667 -23 36 -25 64s2.66699 54 14 78c15.333 33.333 41.666 62.333 78.999 87
s80 41.667 128 51c26.667 4.66699 54 3.83398 82 -2.49902s44.333 -15.5 49 -27.5c3.33301 -8 5.66602 -5.66699 6.99902 7c5.33301 38 4.66602 87.333 -2.00098 148c-1.33301 14.667 -3 26 -5 34c-4 16 -2 30.333 6 43c6 10.667 13.667 10 23 -2
c4 -4 8.83301 -29.5 14.5 -76.5s7.16699 -74.833 4.5 -83.5c-2.66699 -11.333 -3.33398 -64.833 -2.00098 -160.5s3.66602 -146.5 6.99902 -152.5c5.33301 -10 6.16602 -18.167 2.49902 -24.5s-10.834 -9.16602 -21.501 -8.49902
c-13.333 0.666992 -20.333 6.33398 -21 17.001c-1.33301 10.667 -3 16 -5 16z" />
    <glyph glyph-name="e" unicode="e" horiz-adv-x="582" 
d="M365 260c0 8 -7 26.334 -21 55.001s-26 49 -36 61c-11.333 14 -26.833 22 -46.5 24s-39.667 -1.66699 -60 -11s-39.666 -21.833 -57.999 -37.5s-33.333 -35.167 -45 -58.5s-17.5 -47 -17.5 -71c0.666992 -0.666992 14.167 0 40.5 2s58.5 5 96.5 9s72 8 102 12
c2.66699 0.666992 7 1.16699 13 1.5s11.167 0.666016 15.5 0.999023s8.16602 1.5 11.499 3.5s5 5 5 9zM498 139.001c0 5.33301 3.33301 9.66406 10 12.9971s15 5 25 5c8 0 13.667 -2.33301 17 -7s3 -10.334 -1 -17.001c-6.66699 -11.333 -33.5 -34.666 -80.5 -69.999
s-76.833 -54.333 -89.5 -57c-0.666992 0 -2.16699 -0.5 -4.5 -1.5s-5.33301 -2.16699 -9 -3.5l-10.5 -4c-75.333 -31.333 -144.333 -33.666 -207 -6.99902c-50.667 22.667 -83 68 -97 136c-4 23.333 -9 41 -15 53c-9.33301 17.333 -8 31 4 41c7.33301 6 11 13.667 11 23
c0 33.333 14.833 67.5 44.5 102.5s64.834 60.167 105.501 75.5c16.667 5.33301 36 7 58 5c26 -1.33301 47 -9.33301 63 -24s33 -40.667 51 -78c19.333 -43.333 32 -69.666 38 -78.999c7.33301 -13.333 9.66602 -21.666 6.99902 -24.999c-2.66699 -4 -10 -7 -22 -9
s-19 -1.33301 -21 2c-3.33301 6 -62.666 2 -177.999 -12c-62.667 -7.33301 -98.334 -14 -107.001 -20c-6.66699 -5.33301 -10 -17.333 -10 -36c-0.666992 -28.667 9 -56.5 29 -83.5s43.667 -44.167 71 -51.5c70 -18 141.667 -5.33301 215 38c19.333 10.667 41.333 27 66 49
s37 36 37 42z" />
    <glyph glyph-name="f" unicode="f" horiz-adv-x="510" 
d="M480 510c-1.33301 -32.667 -7.33008 -45.3369 -17.9971 -38.0039c-6 4 -9 11.333 -9 22c0.666992 19.333 -6.83301 37.333 -22.5 54s-34.5 27.334 -56.5 32.001s-44.333 2.33398 -67 -6.99902c-50.667 -20.667 -80.334 -79 -89.001 -175l-5 -60
c102.667 8.66699 164.667 18 186 28c2.66699 1.33301 5 2.33301 7 3s4 0.833984 6 0.500977s3.66699 -0.666016 5 -0.999023s2.66602 -1.5 3.99902 -3.5l3 -4.5c0.666992 -1 1.5 -2.83301 2.5 -5.5s1.66699 -4.5 2 -5.5s0.833008 -2.83301 1.5 -5.5l2 -5
c0 -4.66699 -5.33301 -9.83398 -16 -15.501s-21.667 -9.16699 -33 -10.5c-81.333 -10.667 -131 -16 -149 -16c-6 0 -9.5 -2.33301 -10.5 -7s-0.5 -15.667 1.5 -33c2 -14 4.83301 -31.167 8.5 -51.5s6.5 -39 8.5 -56s3.33301 -38.833 4 -65.5
c1.33301 -34.667 1.33301 -57.5 0 -68.5s-4.33301 -19.833 -9 -26.5c-18 -21.333 -29.667 -10 -35 34c-0.666992 4.66699 -1.33398 10 -2.00098 16c-2 32 -1 55 3 69c3.33301 8.66699 1.5 38.834 -5.5 90.501s-12.833 79.834 -17.5 84.501c-2 2 -17.833 1.66699 -47.5 -1
s-53.834 -6 -72.501 -10c-8 -1.33301 -13.667 -1 -17 1s-6.33301 7.66699 -9 17c-3.33301 10 -4.66602 16.333 -3.99902 19s4.66699 5.33398 12 8.00098c2.66699 2 24.167 5.16699 64.5 9.5s61.833 7.16602 64.5 8.49902c1.33301 1.33301 3.33301 14.333 6 39
c6 68.667 17.667 121 35 157c9.33301 18.667 23.5 36.167 42.5 52.5s36.167 26.166 51.5 29.499c38 7.33301 76.5 -0.5 115.5 -23.5s58.5 -49.5 58.5 -79.5z" />
    <glyph glyph-name="g" unicode="g" horiz-adv-x="464" 
d="M285 401c-22.667 0 -48.999 -10.0029 -78.999 -30.0029c-10 -6.66699 -25.167 -25.5 -45.5 -56.5s-31.833 -53.5 -34.5 -67.5c-4 -17.333 -7.33301 -37.666 -10 -60.999s-3 -36.666 -1 -39.999c3.33301 -5.33301 5 -8.66602 5 -9.99902
c1.33301 -12.667 13 -26.667 35 -42c23.333 -16.667 52 -20.5 86 -11.5s66.333 28.5 97 58.5l35 34c-0.666992 4 -1.66699 11.5 -3 22.5l-3.5 29.5c-1 8.66699 -2.33301 18 -4 28s-3.33398 18.333 -5.00098 25s-3.5 11 -5.5 13c-4.66699 6.66699 -9 20 -13 40
s-8.66699 34 -14 42c-6 12 -11.167 19.333 -15.5 22s-12.5 4 -24.5 4zM333.001 400.997c0 -1.33301 0.170898 -2.16309 0.503906 -2.49609s1.16602 -0.5 2.49902 -0.5s2.66602 0.333008 3.99902 1l6 3c8.66699 6 16.667 7.33301 24 4c6 -2 11.833 -14.167 17.5 -36.5
s8.5 -44.166 8.5 -65.499c0 -11.333 1 -19 3 -23s6.66699 -6.66699 14 -8c22.667 -6 27.334 -24.333 14.001 -55c-6 -14.667 -10 -56.667 -12 -126c-0.666992 -42.667 -2.16699 -71.834 -4.5 -87.501s-7.16602 -30.834 -14.499 -45.501c-22 -46 -60.333 -78 -115 -96
c-18.667 -6 -36 -9.66699 -52 -11s-45.333 -1.33301 -88 0c-66 1.33301 -100.333 2.66602 -103 3.99902c-10.667 0 -11.667 9.33301 -3 28c8 16 15.667 24.333 23 25c2 0 3.66699 -1 5 -3c6 -4.66699 34.333 -8.66699 85 -12c50 -2.66699 87.167 -1.33398 111.5 3.99902
s46.166 17.333 65.499 36c27.333 24.667 43.666 50.5 48.999 77.5s6.66602 67.167 3.99902 120.5l-31 -29c-28.667 -26 -59.834 -43.833 -93.501 -53.5s-63.5 -9.5 -89.5 0.5c-12 5.33301 -25.667 14.666 -41 27.999s-25.666 25.333 -30.999 36
c-12 22.667 -16.333 52 -13 88s13.333 70.667 30 104c9.33301 18.667 25.666 39.667 48.999 63s44 39.333 62 48c18.667 8 33.667 12 45 12c12 0.666992 26.333 -2.5 43 -9.5s25 -13.167 25 -18.5z" />
    <glyph glyph-name="h" unicode="h" horiz-adv-x="453" 
d="M66 528c0.666992 -53.333 3.99902 -122.67 9.99902 -208.003l62 35c26.667 14.667 46.5 24.334 59.5 29.001s30.167 7.66699 51.5 9c32 2 57.167 -1 75.5 -9s34.833 -23 49.5 -45c19.333 -28.667 32.333 -58.5 39 -89.5s10 -75.833 10 -134.5
c0 -69.333 -2 -105.333 -6 -108c-3.33301 -2 -10 2 -20 12c-6.66699 7.33301 -11 17.833 -13 31.5s-3.33301 45.5 -4 95.5c-0.666992 54 -2.16699 87.833 -4.5 101.5s-8.16602 29.167 -17.499 46.5c-44 79.333 -116.667 87 -218 23
c-14.667 -9.33301 -25.334 -17.166 -32.001 -23.499s-12.667 -13.5 -18 -21.5s-8.16602 -19.833 -8.49902 -35.5s0 -32.5 1 -50.5s3.5 -44.667 7.5 -80c5.33301 -55.333 5.33301 -87 0 -95c-4 -5.33301 -7 -8 -9 -8s-6 2.66699 -12 8s-10.333 17 -13 35s-6 57.667 -10 119
c-2.66699 38 -5 79 -7 123s-3.83301 93.833 -5.5 149.5s-2.83398 91.834 -3.50098 108.501c-1.33301 18.667 1.33398 32 8.00098 40c14.667 18 23.667 9 27 -27c0.666992 -8.66699 1 -19 1 -31z" />
    <glyph glyph-name="i" unicode="i" horiz-adv-x="289" 
d="M259 98c0 -11.333 -15.4971 -27.4961 -46.4971 -48.4961s-57.167 -33.167 -78.5 -36.5c-14.667 -2 -25 -1.83301 -31 0.5s-15.333 9.83301 -28 22.5c-17.333 17.333 -29.333 37.333 -36 60s-9.66699 54.667 -9 96c1.33301 104.667 5.66602 168 12.999 190
c2 8 8 11.333 18 10c5.33301 -0.666992 8.66602 -2.33398 9.99902 -5.00098s2.16602 -12 2.49902 -28s-0.166992 -40.333 -1.5 -73c-0.666992 -9.33301 -1 -16.333 -1 -21c-2.66699 -84.667 0 -138 8 -160c7.33301 -20.667 15 -33.834 23 -39.501s21 -6.83398 39 -3.50098
s36.667 15.666 56 36.999c13.333 14.667 22.5 23.167 27.5 25.5s11.167 1.5 18.5 -2.5c10.667 -5.33301 16 -13.333 16 -24zM108.003 497.004c0 -8.66699 -1.16699 -14 -3.5 -16s-8.5 -2.33301 -18.5 -1c-7.33301 0.666992 -12.5 1.5 -15.5 2.5s-5.16699 2.83301 -6.5 5.5
s-2.33301 7 -3 13c-1.33301 14 1 24 7 30c8.66699 8.66699 17.5 9.16699 26.5 1.5s13.5 -19.5 13.5 -35.5z" />
    <glyph glyph-name="j" unicode="j" horiz-adv-x="401" 
d="M322 345c10.667 0 17.668 -5.33008 21.001 -15.9971c2.66699 -7.33301 5 -45.333 7 -114s2.33301 -131 1 -187c-0.666992 -23.333 -5.83398 -47.333 -15.501 -72s-21.5 -43.667 -35.5 -57c-32 -31.333 -98.667 -48.333 -200 -51
c-21.333 -0.666992 -35.833 -0.333984 -43.5 0.999023s-13.5 4.66602 -17.5 9.99902c-6.66699 8.66699 -9.66699 14.667 -9 18s5.33398 7.66602 14.001 12.999c8.66699 6 25 6.33301 49 1c39.333 -10.667 83.666 -7 132.999 11c18 6.66699 32 14.167 42 22.5
s19.667 21.5 29 39.5c7.33301 13.333 11.5 30 12.5 50s1.16699 71.667 0.5 155c-1.33301 108 -0.333008 165 3 171c2 3.33301 5 5 9 5zM325.001 526.003c4.66699 7.33301 11.668 10 21.001 8s16 -8 20 -18c6.66699 -12 5 -21.333 -5 -28
c-14 -13.333 -25.833 -13.5 -35.5 -0.5s-9.83398 25.833 -0.500977 38.5z" />
    <glyph glyph-name="k" unicode="k" horiz-adv-x="468" 
d="M62 569c14.667 0 26 -21.165 34 -63.498s11 -97.5 9 -165.5c-1.33301 -61.333 -1 -92 1 -92c4.66699 0 45 36.333 121 109c48 46 76 66 84 60c3.33301 -3.33301 5 -9.33301 5 -18c0 -10 -22 -36 -66 -78c-44.667 -42 -67 -64 -67 -66c0 -3.33301 19.333 -4.33301 58 -3
c74 1.33301 125.667 -8 155 -28c16.667 -10.667 27.5 -22.834 32.5 -36.501s7.83301 -38.167 8.5 -73.5c0.666992 -32 0.333984 -51.167 -0.999023 -57.5s-5.66602 -9.83301 -12.999 -10.5c-10.667 -1.33301 -18.334 3.66699 -23.001 15s-6.66699 31 -6 59
c0.666992 28.667 -1.66602 47.5 -6.99902 56.5s-19 17.167 -41 24.5c-28.667 10 -68.834 13 -120.501 9s-88.5 -12.667 -110.5 -26c-8 -5.33301 -12.667 -11.333 -14 -18s-0.666016 -26.667 2.00098 -60c1.33301 -28 1.83301 -46.333 1.5 -55s-2.5 -13 -6.5 -13
c-22.667 0 -35.334 21 -38.001 63c-3.33301 30.667 -9 51 -17 61c-8.66699 10.667 -12.834 19.167 -12.501 25.5s4.83301 12.833 13.5 19.5c7.33301 4.66699 11.833 13.5 13.5 26.5s3.16699 52.5 4.5 118.5c2.66699 92 0.666992 147 -6 165
c-0.666992 2 -1.66699 5.33301 -3 10s-2.16602 8 -2.49902 10s-0.833008 4.83301 -1.5 8.5s-0.833984 6.5 -0.500977 8.5s0.833008 4.16699 1.5 6.5s2 4.16602 4 5.49902s4.66699 2.33301 8 3z" />
    <glyph glyph-name="l" unicode="l" horiz-adv-x="121" 
d="M62 569c6 0 9.33105 -2.16992 9.99805 -6.50293s0.333984 -15.5 -0.999023 -33.5c-4 -42 -4.83301 -108.167 -2.5 -198.5s6.83301 -156.5 13.5 -198.5c8.66699 -55.333 9.66699 -86.666 3 -93.999s-14 -8.16602 -22 -2.49902s-12.333 15.834 -13 30.501
c0 4 -3.33301 30.667 -10 80c-5.33301 39.333 -8.66602 90.666 -9.99902 153.999s-0.333008 105.333 3 126c6 40.667 9.66699 70.334 11 89.001c2 24 4 39 6 45s6 9 12 9z" />
    <glyph glyph-name="m" unicode="m" horiz-adv-x="833" 
d="M35 406c7.33301 33.333 14.6689 39 22.002 17c6 -17.333 9.66699 -42.666 11 -75.999c0.666992 -6.66699 1 -15.667 1 -27c0.666992 -20.667 3.33398 -31 8.00098 -31c3.33301 0 10.666 5.66699 21.999 17c36.667 36.667 70.667 60.667 102 72
c18 6.66699 38.167 9.66699 60.5 9s40.5 -4.33398 54.5 -11.001c16 -8.66699 33.167 -23 51.5 -43s31.833 -40 40.5 -60l16 -34c8 20 22.833 40.833 44.5 62.5s42.834 37.5 63.501 47.5c39.333 16 83.166 14.167 131.499 -5.5s88.166 -51.167 119.499 -94.5
c3.33301 -5.33301 6.33301 -10.833 9 -16.5s4.66699 -10.5 6 -14.5s2.33301 -10.167 3 -18.5s1.16699 -14 1.5 -17s0.5 -10.167 0.5 -21.5v-22l-19 38c-26.667 53.333 -60.834 91.833 -102.501 115.5s-87.167 30.5 -136.5 20.5c-29.333 -6 -55.5 -30.667 -78.5 -74
s-35.5 -92.333 -37.5 -147c-0.666992 -32 -5.33398 -51.333 -14.001 -58s-14.667 -9.66699 -18 -9s-7 5.66699 -11 15c-4 2.66699 -4.66699 32.167 -2 88.5s3.33398 86.833 2.00098 91.5c-8 34 -25.333 66.333 -52 97c-10.667 12 -19.167 19.167 -25.5 21.5
s-21.833 3.5 -46.5 3.5c-27.333 0 -49.5 -3.83301 -66.5 -11.5s-38.833 -23.5 -65.5 -47.5c-24 -22 -38.167 -43.5 -42.5 -64.5s-1.5 -56.833 8.5 -107.5c9.33301 -48 7.33301 -79.667 -6 -95c-6 -5.33301 -12.667 -6 -20 -2c-8 6 -12.333 22.333 -13 49
c-1.33301 32.667 -5.33301 69.667 -12 111c-16.667 114 -20 191.333 -10 232z" />
    <glyph glyph-name="n" unicode="n" horiz-adv-x="542" 
d="M309 324c-66.667 0 -125.336 -25.6641 -176.003 -76.9971l-37 -37l3 -39c9.33301 -88.667 11 -144 5 -166c-6 -23.333 -13.333 -33.666 -22 -30.999c-12 2.66699 -18.333 22.334 -19 59.001v9c0.666992 31.333 -2.16602 75.666 -8.49902 132.999s-12.166 95 -17.499 113
c-4.66699 14.667 -7 24.167 -7 28.5s2.66699 9.5 8 15.5c7.33301 8.66699 13 13 17 13c4.66699 0 10.5 -7.33301 17.5 -22s10.5 -27 10.5 -37c0 -10.667 2.33301 -16 7 -16c6.66699 0 22.667 10 48 30c26.667 20.667 42.667 31 48 31c2 0.666992 11.833 5.16699 29.5 13.5
s33.167 13.166 46.5 14.499c33.333 5.33301 68 4.16602 104 -3.50098s63.333 -19.834 82 -36.501c39.333 -34.667 60 -100.334 62 -197.001c0 -8.66699 0.166992 -23.667 0.5 -45s0.833008 -35.333 1.5 -42c0.666992 -18.667 -1 -30 -5 -34s-11.333 -2.33301 -22 5
c-6 4 -10 12.5 -12 25.5s-4 42.5 -6 88.5c-2 48 -4.33301 79 -7 93s-8.66699 29.667 -18 47c-13.333 24.667 -29.666 41.5 -48.999 50.5s-47.333 13.5 -84 13.5z" />
    <glyph glyph-name="o" unicode="o" horiz-adv-x="584" 
d="M226 42c52 0 103.665 11.6719 154.998 35.0049s90.166 51.833 116.499 85.5s32.5 64.5 18.5 92.5c-11.333 21.333 -29.5 37.833 -54.5 49.5s-61.833 20.5 -110.5 26.5c-54 6.66699 -87.667 10.167 -101 10.5s-25 -2.83398 -35 -9.50098
c-10 -5.33301 -17 -7.83301 -21 -7.5s-12 3.16602 -24 8.49902c-12.667 7.33301 -18.667 11.333 -18 12c3.33301 0 2.66602 3.33301 -2.00098 10c-7.33301 8.66699 -4.33301 14.334 9 17.001c10.667 1.33301 32.334 2 65.001 2c158.667 -1.33301 258 -23.333 298 -66
c18 -19.333 28.5 -37.833 31.5 -55.5s-0.5 -42.167 -10.5 -73.5c-8 -25.333 -26.667 -51.333 -56 -78c-31.333 -28.667 -67.5 -51.334 -108.5 -68.001s-81.5 -25.334 -121.5 -26.001s-77.167 5.16602 -111.5 17.499s-62.166 35.166 -83.499 68.499s-32 74.333 -32 123
c0 50 11.167 95 33.5 135s53.166 70.667 92.499 92c28 15.333 45.333 17.666 52 6.99902c0.666992 -1.33301 -1.66602 -4.16602 -6.99902 -8.49902s-12.666 -9.16602 -21.999 -14.499c-42.667 -21.333 -74.667 -56.333 -96 -105s-27.333 -99 -18 -151
c4 -20 8.33301 -34.333 13 -43s14.334 -20.334 29.001 -35.001c23.333 -22 47 -36 71 -42c25.333 -6 41.333 -9 48 -9z" />
    <glyph glyph-name="p" unicode="p" horiz-adv-x="539" 
d="M217 143c68 0 128.668 14.0049 182.001 42.0049c44.667 24.667 71 52.667 79 84c2.66699 12.667 -4.33301 25.667 -21 39c-16 13.333 -33.667 22.833 -53 28.5s-47.333 9.5 -84 11.5c-53.333 2.66699 -102 -1.33301 -146 -12s-70.667 -25 -80 -43
c-3.33301 -6.66699 -7.33301 -12.334 -12 -17.001c-4.66699 -3.33301 -7.83398 -30.833 -9.50098 -82.5s-0.833984 -90.167 2.49902 -115.5l11 -105c1.33301 -26 1.5 -42 0.5 -48s-5.83301 -11.667 -14.5 -17c-13.333 -8 -20.333 -11 -21 -9
c-7.33301 6 -11.666 114.333 -12.999 325c-1.33301 110 -3.66602 166 -6.99902 168c-4.66699 7.33301 -0.333984 14 12.999 20c14 6.66699 22.333 5.33398 25 -3.99902v-3c4.66699 -28 6.66699 -48 6 -60c4 1.33301 12.667 4.66602 26 9.99902l35.5 14
c10.333 4 17.833 6.66699 22.5 8c46.667 8.66699 94 12.667 142 12c53.333 -0.666992 94.666 -5.83398 123.999 -15.501s52.666 -25.167 69.999 -46.5c8.66699 -10.667 13.334 -27.334 14.001 -50.001s-2.66602 -41.334 -9.99902 -56.001
c-16.667 -32.667 -49 -60.5 -97 -83.5s-101.333 -36.5 -160 -40.5c-68 -4 -110 4.33301 -126 25c-13.333 16 -16 29.333 -8 40c7.33301 9.33301 18 7.66602 32 -5.00098c6.66699 -6 14.667 -9.83301 24 -11.5s27 -2.5 53 -2.5z" />
    <glyph glyph-name="q" unicode="q" horiz-adv-x="563" 
d="M373 176c0 18.667 0.832031 45 2.49902 79s1.5 55.667 -0.5 65c-4 8 -15 11.333 -33 10s-52 -7 -102 -17c-62 -13.333 -109 -33 -141 -59c-34.667 -28 -44.667 -60.333 -30 -97c7.33301 -19.333 17.5 -33.5 30.5 -42.5s35.167 -17.167 66.5 -24.5
c36 -8 72.667 -9.66699 110 -5c42 6.66699 67.667 11.667 77 15s14.833 8.33301 16.5 15s2.83398 27 3.50098 61zM419.999 73c-8.66699 0 -12.9961 -5.99609 -12.9961 -17.9961v-5c0 -1.33301 0.166992 -2.5 0.5 -3.5s0.666016 -1.83301 0.999023 -2.5
s0.833008 -1.33398 1.5 -2.00098s1.5 -1 2.5 -1h4h5h7h8.5c5.33301 0 12.666 1.33301 21.999 4s18 5 26 7s15.833 3.33301 23.5 4s13.834 -1 18.501 -5s6.66699 -10.667 6 -20c0 -12 -3 -19.333 -9 -22s-26 -6 -60 -10c-30 -3.33301 -47.833 -8 -53.5 -14
s-8.16699 -22.667 -7.5 -50c1.33301 -32 3.66602 -51 6.99902 -57c5.33301 -8.66699 5.5 -18 0.5 -28s-11.833 -15 -20.5 -15c-10 0 -16.667 5.16699 -20 15.5s-5 32.5 -5 66.5s-1 51 -3 51c-3.33301 0 -18.666 -5.33301 -45.999 -16s-42.666 -17.334 -45.999 -20.001
c-5.33301 -4.66699 -12 -2.33398 -20 6.99902c-18.667 20.667 -3 39.334 47 56.001c36 12.667 57.167 20.834 63.5 24.501s9.16602 10.167 8.49902 19.5s-4 14.166 -10 14.499s-29.667 -2.5 -71 -8.5c-48 -6.66699 -92.167 -5.16699 -132.5 4.5s-71.833 26.167 -94.5 49.5
c-12.667 13.333 -20.834 25.666 -24.501 36.999s-5.83398 30 -6.50098 56s4.33301 46 15 60c22 30 52.667 54.333 92 73c22 9.33301 53.833 18.5 95.5 27.5s74.5 13.5 98.5 13.5c26.667 0 41.667 2.33301 45 7c4.66699 7.33301 10.167 9.33301 16.5 6s11.5 -11.333 15.5 -24
c2.66699 -6 4.16699 -19.167 4.5 -39.5s0.166016 -40 -0.500977 -59s-1.83398 -42.167 -3.50098 -69.5s-2.5 -44.333 -2.5 -51c2 -0.666992 5.5 -2 10.5 -4s8.66699 -3.33301 11 -4s5 -2.16699 8 -4.5s4.83301 -4.83301 5.5 -7.5s0.833984 -6.33398 0.500977 -11.001
s-1.5 -10 -3.5 -16c-3.33301 -10.667 -9.33301 -16 -18 -16z" />
    <glyph glyph-name="r" unicode="r" horiz-adv-x="511" 
d="M78 364c2.66699 -8.66699 4.6709 -19.666 6.00391 -32.999c1.33301 -8.66699 2.66602 -13.334 3.99902 -14.001c2 0 6 3.33301 12 10c14 14 40 31.667 78 53s66.333 34.666 85 39.999c10.667 2.66699 39 4.66699 85 6c49.333 0 83 -6.5 101 -19.5
s28.333 -38.833 31 -77.5c1.33301 -15.333 1.16602 -24.5 -0.500977 -27.5s-7.5 -4.5 -17.5 -4.5c-8.66699 0 -14.5 1.33301 -17.5 4s-5.5 9.33398 -7.5 20.001c-2.66699 16 -6 24 -10 24c-3.33301 0 -4 3.33301 -2 10c3.33301 9.33301 -1 17.5 -13 24.5
s-27.667 11.333 -47 13s-40.333 0.5 -63 -3.5c-37.333 -7.33301 -80 -25.666 -128 -54.999s-73.667 -52.333 -77 -69c-0.666992 -8 2.66602 -36 9.99902 -84c7.33301 -43.333 11.333 -70.5 12 -81.5s-2.33301 -21.167 -9 -30.5c-13.333 -18 -23.666 -15.333 -30.999 8
c-2.66699 9.33301 -4.33398 20.666 -5.00098 33.999c-1.33301 20.667 -6 52.5 -14 95.5s-12.667 73.833 -14 92.5c0 14 -2.83301 34 -8.5 60s-7.83398 45.333 -6.50098 58c3.33301 7.33301 8 11.333 14 12s11.667 -2.33301 17 -9c6 -7.33301 11.333 -26 16 -56z" />
    <glyph glyph-name="s" unicode="s" horiz-adv-x="466" 
d="M436 113c0 -12.667 -5.67188 -26.5 -17.0049 -41.5s-24 -25.5 -38 -31.5c-33.333 -10.667 -76 -14.334 -128 -11.001s-102.167 12.833 -150.5 28.5s-72.5 31.834 -72.5 48.501c0 9.33301 4 14.5 12 15.5s17.333 -2.5 28 -10.5c21.333 -13.333 52 -25 92 -35
s81.833 -14.833 125.5 -14.5s75.834 8.83301 96.501 25.5c6.66699 6.66699 10.5 12 11.5 16s-0.166992 10.333 -3.5 19c-5.33301 15.333 -18.666 27.833 -39.999 37.5s-59.333 20.5 -114 32.5c-71.333 16 -112.666 34.333 -123.999 55
c-6.66699 12.667 -8.83398 28.334 -6.50098 47.001s8.83301 36.334 19.5 53.001c12.667 19.333 24.834 33.166 36.501 41.499s30.167 16.166 55.5 23.499c56 14.667 101.667 11 137 -11c22 -14 26.333 -22.333 13 -25c-8 -2 -21 -1 -39 3c-25.333 6 -45.5 8.33301 -60.5 7
s-31.833 -6.33301 -50.5 -15c-26 -13.333 -46.167 -34.166 -60.5 -62.499s-14.5 -48.5 -0.5 -60.5c7.33301 -4 41.333 -13.167 102 -27.5s95.334 -24.5 104.001 -30.5c18.667 -9.33301 35.334 -21.833 50.001 -37.5s22 -28.834 22 -39.501z" />
    <glyph glyph-name="t" unicode="t" horiz-adv-x="472" 
d="M30 302c-2 4 -0.161133 7.33496 5.50586 10.002s13.667 4.66699 24 6s20.5 2.33301 30.5 3l30 2c10 0.666992 16 1 18 1h4c10 0 16.167 3.83301 18.5 11.5s6.16602 38.167 11.499 91.5c0.666992 6.66699 1.33398 12 2.00098 16c4 31.333 8 49.666 12 54.999
s7.16699 8 9.5 8s6.5 -3 12.5 -9c6 -5.33301 8.33301 -28.666 7 -69.999s-5.33301 -73 -12 -95c67.333 3.33301 112.333 6.66602 135 9.99902c11.333 1.33301 18.833 1.33301 22.5 0s7.5 -6.33301 11.5 -15c2 -6.66699 3.33301 -12.167 4 -16.5s-3 -7.66602 -11 -9.99902
s-18.333 -4.16602 -31 -5.49902s-31 -2.33301 -55 -3c-52.667 -2.66699 -79.334 -4.33398 -80.001 -5.00098c-1.33301 -1.33301 -1.83301 -25.333 -1.5 -72s1.16602 -73 2.49902 -79c12 -51.333 39.333 -77 82 -77c9.33301 0 33 4.5 71 13.5s58.333 14.833 61 17.5
c1.33301 2 6.66602 0.666992 15.999 -4s13 -12.334 11 -23.001s-8.33301 -17.334 -19 -20.001c-72.667 -20.667 -126.334 -27 -161.001 -19c-36.667 8.66699 -62.5 26.167 -77.5 52.5s-23.167 69.5 -24.5 129.5c-0.666992 41.333 -3.83398 64.833 -9.50098 70.5
s-25.834 5.83398 -60.501 0.500977c-22.667 -3.33301 -38.167 -3.33301 -46.5 0s-12.5 11.666 -12.5 24.999z" />
    <glyph glyph-name="u" unicode="u" horiz-adv-x="602" 
d="M522 80c15.333 0 27.5049 -2.66699 36.5049 -8s13.5 -12.333 13.5 -21c0 -7.33301 -2.5 -11.5 -7.5 -12.5s-18.833 -0.833008 -41.5 0.5c-32.667 2 -56 8.33301 -70 19c-10.667 7.33301 -20.167 11.666 -28.5 12.999s-26.5 1 -54.5 -1c-25.333 -2 -51.5 -4.5 -78.5 -7.5
s-55.5 -5.5 -85.5 -7.5c-46.667 -2.66699 -83.167 0.833008 -109.5 10.5s-46.5 27.167 -60.5 52.5c-6 10.667 -7.83301 51.334 -5.5 122.001s7.16602 124 14.499 160c1.33301 9.33301 3.83301 14.166 7.5 14.499s10.167 -2.83398 19.5 -9.50098
c7.33301 -6 11.333 -15.833 12 -29.5s-1 -59.834 -5 -138.501c-1.33301 -22 -2 -38.5 -2 -49.5s-0.166992 -22.667 -0.5 -35s1 -20.833 4 -25.5s5.66699 -9.5 8 -14.5s7.16602 -8.33301 14.499 -10l20.5 -4.5c6.33301 -1.33301 16.166 -2.66602 29.499 -3.99902
c14.667 -1.33301 26 -2.16602 34 -2.49902s13.667 -0.333008 17 0s8.83301 1.16602 16.5 2.49902s15.167 2.33301 22.5 3c110 6.66699 165 18 165 34l-1 4c-3.33301 6.66699 -5 35.5 -5 86.5s2 93.5 6 127.5c3.33301 24.667 6 40.334 8 47.001s6.33301 10.334 13 11.001
c13.333 1.33301 21.833 -3 25.5 -13s3.5 -29.667 -0.5 -59c-8.66699 -60 -10.334 -112.833 -5.00098 -158.5s16.666 -74.5 33.999 -86.5c8.66699 -6.66699 21.667 -10 39 -10z" />
    <glyph glyph-name="v" unicode="v" horiz-adv-x="590" 
d="M355 94c0 -8.66699 -4.66797 -14.6689 -14.001 -18.002c-5.33301 -7.33301 -33.833 15.834 -85.5 69.501s-81.5 86.5 -89.5 98.5c-4 6 -18.167 23.5 -42.5 52.5s-38.166 45.833 -41.499 50.5c0 2.66699 -9.66699 13.667 -29 33
c-21.333 22.667 -27.666 34.334 -18.999 35.001c3.33301 0.666992 8.33301 0 15 -2c11.333 -3.33301 35.166 -23.333 71.499 -60s67.5 -72.667 93.5 -108c10 -14.667 46 -51 108 -109c34.667 59.333 53.667 91 57 95c12 15.333 18 25.333 18 30c0 5.33301 1.66699 8 5 8
c4.66699 0 12.334 10.667 23.001 32c5.33301 10 19.166 32.833 41.499 68.5s36.5 60.167 42.5 73.5c8.66699 18.667 14.334 29.667 17.001 33c5.33301 6.66699 9.33301 9.5 12 8.5s6.33398 -5.83301 11.001 -14.5c10 -20 13.333 -39 10 -57
c-2 -8.66699 -5.33301 -10.667 -10 -6c-14 14 -23.667 11.333 -29 -8c-2.66699 -10 -8 -19.667 -16 -29c-12.667 -14 -35.334 -53.667 -68.001 -119c-8 -18 -21.833 -42.833 -41.5 -74.5s-32.834 -59.167 -39.501 -82.5z" />
    <glyph glyph-name="w" unicode="w" horiz-adv-x="818" 
d="M92 349c9.33301 -27.333 28.002 -72.5049 56.002 -135.505s50 -102.833 66 -119.5c5.33301 -4 9 -5.16699 11 -3.5s5.66699 7.5 11 17.5c7.33301 16.667 21.833 43.667 43.5 81s33.834 57 36.501 59c2 2 6.66699 9.66699 14 23c8.66699 16.667 24.667 37 48 61
s38 35 44 33c6.66699 -2 14.334 -14.667 23.001 -38c5.33301 -15.333 12.666 -33.166 21.999 -53.499s19.166 -40.166 29.499 -59.499s20.5 -37.166 30.5 -53.499s18.667 -29 26 -38s12.333 -12.833 15 -11.5c2 0.666992 11.333 15.334 28 44.001s26 43.334 28 44.001
c6 8 17.5 25.167 34.5 51.5s31.167 46.5 42.5 60.5c23.333 32 35 49.667 35 53c0 4.66699 5.33301 12 16 22s18.334 15 23.001 15c14.667 0 18 -10.667 10 -32c-4 -10 -10.333 -20.667 -19 -32c-61.333 -87.333 -101.666 -147.333 -120.999 -180
c-20.667 -33.333 -37 -65.333 -49 -96c-5.33301 -13.333 -12 -21.333 -20 -24s-15.667 1 -23 11c-13.333 16.667 -35.166 50.667 -65.499 102s-50.5 87.666 -60.5 108.999c-8.66699 20 -14.834 32.167 -18.501 36.5s-8.16699 4.5 -13.5 0.5
c-24.667 -20.667 -71 -100 -139 -238c-10.667 -22.667 -19.834 -34.5 -27.501 -35.5s-17.834 7.5 -30.501 25.5c-28.667 39.333 -61.334 101.333 -98.001 186c-30 72 -50 113 -60 123c-14.667 14.667 -15.334 29.334 -2.00098 44.001c6 6 16.333 0 31 -18
c15.333 -18 23 -29.333 23 -34z" />
    <glyph glyph-name="x" unicode="x" horiz-adv-x="487" 
d="M30 394c0 12.667 5.33398 17.333 16.001 14c9.33301 -4 17.666 -11.667 24.999 -23c8 -12.667 38 -44.5 90 -95.5s80.667 -76.5 86 -76.5c4 0 36 30.667 96 92c60 60.667 94 89.667 102 87c8 -4 12 -9 12 -15c-7.33301 -14 -68 -78 -182 -192
c50.667 -44 84.334 -69.667 101.001 -77c21.333 -10 36 -20 44 -30c11.333 -12 14.333 -23 9 -33c-6 -9.33301 -12.333 -14 -19 -14c-15.333 7.33301 -45.333 28.833 -90 64.5s-71.334 56.167 -80.001 61.5c-30.667 -27.333 -75.334 -56 -134.001 -86
c-7.33301 -5.33301 -15 -4.83301 -23 1.5s-11.333 14.5 -10 24.5c0.666992 8.66699 12.334 17 35.001 25c18 6 38.667 16 62 30s35 23.333 35 28s-21.667 28 -65 70c-73.333 72 -110 120 -110 144z" />
    <glyph glyph-name="y" unicode="y" horiz-adv-x="526" 
d="M283 206c2 0 8.83008 -4.83008 20.4971 -14.4971s19.167 -14.167 22.5 -13.5c3.33301 -0.666992 12.666 9.66602 27.999 30.999l45 64.5c14.667 21.667 22.667 32.834 24 33.501c4 3.33301 13.333 17 28 41c14 25.333 26.333 35.333 37 30
c4 -1.33301 6.66699 -5.33301 8 -12c2 -2.66699 -19.667 -39.834 -65 -111.501s-67.666 -108.167 -66.999 -109.5c0 -6.66699 -4.33301 -14.334 -13 -23.001s-32 -43 -70 -103c-30.667 -49.333 -53.667 -83.166 -69 -101.499s-27.333 -26.833 -36 -25.5
c-10 2 -14.167 9.33301 -12.5 22s8.5 26.667 20.5 42c14 16.667 54 74.667 120 174c-13.333 12.667 -44.666 34 -93.999 64c-31.333 18 -65.666 43.167 -102.999 75.5s-60.333 56.833 -69 73.5c-7.33301 14.667 -9.66602 25.667 -6.99902 33c8 18.667 22.667 13 44 -17
c11.333 -16.667 22.333 -27.334 33 -32.001c7.33301 -2.66699 11 -6 11 -10c0 -2.66699 26.333 -21.834 79 -57.501s81 -53.5 85 -53.5z" />
    <glyph glyph-name="z" unicode="z" horiz-adv-x="516" 
d="M274 274c0 -3.33301 5.99805 -4.3291 17.998 -2.99609s20.833 -2 26.5 -10s4.83398 -15.667 -2.49902 -23c-12 -10.667 -37.333 -16.667 -76 -18c-6 0 -11.667 -6.33301 -17 -19c-8.66699 -18.667 -18 -36.334 -28 -53.001c-17.333 -28 -21.666 -41.333 -12.999 -40
c2.66699 0.666992 6.33398 3 11.001 7c4.66699 4.66699 9.5 6.33398 14.5 5.00098s10.167 -0.666016 15.5 2.00098c4 4 8.33301 5.66699 13 5s13.667 0.666016 27 3.99902c5.33301 2 10.666 3.66699 15.999 5s9.16602 2.16602 11.499 2.49902
s3.83301 0.166016 4.5 -0.500977c0 -2.66699 3 -1.66699 9 3c20 7.33301 67.333 16.333 142 27c16.667 2 27 2.5 31 1.5s6.66699 -5.83301 8 -14.5c2.66699 -13.333 1.5 -22 -3.5 -26s-17.167 -6.33301 -36.5 -7c-26.667 -0.666992 -57.834 -3.83398 -93.501 -9.50098
s-60.5 -11.834 -74.5 -18.501c-10.667 -4 -37.5 -12 -80.5 -24s-67.5 -18 -73.5 -18c-20 0 -17.667 22 7 66l44 72c8 12 6.66699 18 -4 18c-6 -0.666992 -17 -3 -33 -7c-15.333 -4 -25.666 -5.66699 -30.999 -5s-11 4 -17 10
c-6.66699 6.66699 -9.83398 10.834 -9.50098 12.501s4.83301 5.16699 13.5 10.5c12 8 53 17 123 27c49.333 65.333 74.666 103.666 75.999 114.999c-4.66699 4.66699 -25.5 3.83398 -62.5 -2.49902s-69.167 -14.5 -96.5 -24.5c-36.667 -13.333 -62.667 -20.5 -78 -21.5
s-23.666 3.5 -24.999 13.5c-0.666992 9.33301 5.33301 17 18 23c20.667 10 48.834 20 84.501 30s64.167 16 85.5 18c66.667 7.33301 106.834 4.66602 120.501 -8.00098s4.5 -38 -27.5 -76c-24.667 -28 -37 -44.333 -37 -49z" />
    <glyph glyph-name="uni0093" horiz-adv-x="328" 
d="M212 354c13.333 8.66699 23.501 8.50098 30.501 -0.499023s6.16699 -20.167 -2.5 -33.5c-6.66699 -10.667 -9.66699 -16.334 -9 -17.001l16 -2c29.333 -3.33301 45.666 -14.333 48.999 -33c2.66699 -12.667 2.5 -21.667 -0.5 -27s-10.167 -10.333 -21.5 -15
c-11.333 -4 -26 -3.66699 -44 1s-28.333 11 -31 19c-4.66699 16.667 -5.5 37.5 -2.5 62.5s8.16699 40.167 15.5 45.5zM94.001 380.001c13.333 0 20.999 -6.16797 22.999 -18.501s-2.33301 -24.166 -13 -35.499c-10.667 -10.667 -17.667 -21.667 -21 -33
c-2 -5.33301 -3 -9.16602 -3 -11.499s1 -3.83301 3 -4.5s5.66699 -1 11 -1c10.667 0 20 -8.66699 28 -26c6 -12 8.83301 -19.833 8.5 -23.5s-3.83301 -8.83398 -10.5 -15.501c-11.333 -11.333 -24.666 -14.666 -39.999 -9.99902s-28 15.667 -38 33
c-7.33301 12.667 -11.333 21.834 -12 27.501s1 14.5 5 26.5c2 9.33301 10.667 25.666 26 48.999s26.333 37.666 33 42.999z" />
    <glyph glyph-name="uni0094" horiz-adv-x="282" 
d="M198 324c6.66699 0.666992 8.66602 4.33301 5.99902 11c-3.33301 6.66699 -6.66602 9 -9.99902 7c-1.33301 -0.666992 -2.33301 -2.66699 -3 -6c0 -8 2.33301 -12 7 -12zM176.999 279.999c0 11.333 -2.00098 16.9971 -6.00098 16.9971s-8.5 7.33301 -13.5 22
s-6.16699 24.334 -3.5 29.001c4 7.33301 8.66699 14.333 14 21c9.33301 10.667 20.333 14.334 33 11.001s24.334 -12.666 35.001 -27.999c10.667 -17.333 16 -30.333 16 -39s-5.33301 -22.667 -16 -42c-13.333 -22.667 -26.5 -33.167 -39.5 -31.5s-19.5 15.167 -19.5 40.5z
M85.998 226.996c-10 0 -16.999 3.5 -20.999 10.5s-4 15.833 0 26.5c9.33301 26 9 39 -1 39c-7.33301 0 -14.833 4.66699 -22.5 14s-11.5 19 -11.5 29c0 12.667 6.66699 22.667 20 30c25.333 14 43.666 15 54.999 3s15.333 -36.333 12 -73c-4.66699 -52.667 -15 -79 -31 -79z
" />
    <glyph glyph-name=".null" horiz-adv-x="0" 
 />
    <glyph glyph-name="nonmarkingreturn" horiz-adv-x="333" 
 />
    </font>
</defs>
</svg>
