<?xml version="1.0" standalone="no"?>
<!DOCTYPE svg PUBLIC "-//W3C//DTD SVG 1.1//EN" "http://www.w3.org/Graphics/SVG/1.1/DTD/svg11.dtd" >
<svg>
<metadata>
Created by FontForge 20090914 at Sat Feb 27 01:01:54 2016
 By www-data
Copyright (c) 2016, root
</metadata>
<defs>
<font id="Third" horiz-adv-x="517" >
  <font-face 
    font-family="Third"
    font-weight="400"
    font-stretch="normal"
    units-per-em="1000"
    panose-1="2 0 5 3 0 0 0 0 0 0"
    ascent="800"
    descent="-200"
    x-height="397.999"
    cap-height="750.502"
    bbox="29.059 -165 838.524 774.093"
    underline-thickness="50"
    underline-position="-100"
    unicode-range="U+0020-U+0094"
  />
<missing-glyph horiz-adv-x="364" 
d="M33 0v666h265v-666h-265zM66 33h199v600h-199v-600z" />
    <glyph glyph-name=".notdef" horiz-adv-x="364" 
d="M33 0v666h265v-666h-265zM66 33h199v600h-199v-600z" />
    <glyph glyph-name="space" unicode=" " horiz-adv-x="416" 
 />
    <glyph glyph-name="exclam" unicode="!" horiz-adv-x="182" 
d="M85 145c7.33301 0 17.499 -5.66699 30.499 -17s19.5 -20.333 19.5 -27c0 -9.33301 -4.5 -18.333 -13.5 -27s-18.167 -13 -27.5 -13c-22 0 -37.167 8 -45.5 24s-5.16602 31.333 9.50098 46c9.33301 9.33301 18.333 14 27 14zM88.999 609
c13.333 8.66699 22 13.168 26 13.501s11 -3.5 21 -11.5l16 -13c-6 -70 -14.667 -151 -26 -243s-19.333 -136.333 -24 -133c-5.33301 -4.66699 -16 -5.83398 -32 -3.50098s-27 6.83301 -33 13.5c-6 10 -8.33301 29.667 -7 59s3.5 54.666 6.5 75.999s7 47.833 12 79.5
s8.16699 55.167 9.5 70.5c4 37.333 7.5 60.333 10.5 69s9.83301 16.334 20.5 23.001z" />
    <glyph glyph-name="quotedbl" unicode="&#x22;" horiz-adv-x="274" 
d="M73 603c18 6 34.6689 1 50.002 -15c5.33301 -6 8.16602 -12.5 8.49902 -19.5s-1.5 -21.833 -5.5 -44.5c-6 -42 -9.33301 -67.333 -10 -76c-1.33301 -15.333 -7.33301 -25.666 -18 -30.999s-24.334 -4.33301 -41.001 3c-13.333 5.33301 -21.5 14 -24.5 26
s-3.16699 36 -0.5 72c2 26.667 6 46.167 12 58.5s15.667 21.166 29 26.499zM161.002 518c0 40 1.83203 65.499 5.49902 76.499s13.5 19.167 29.5 24.5c8.66699 3.33301 14.5 4.33301 17.5 3s8.5 -6.33301 16.5 -15c6.66699 -7.33301 10.834 -16.166 12.501 -26.499
s2.16699 -31.5 1.5 -63.5c0 -38.667 -2.33301 -65.167 -7 -79.5s-13.667 -23.166 -27 -26.499c-10 -2.66699 -20.667 1.66602 -32 12.999c-8 8 -12.833 16.667 -14.5 26s-2.5 32 -2.5 68z" />
    <glyph glyph-name="dollar" unicode="$" horiz-adv-x="414" 
d="M245 270c0 -1.33301 -0.333008 -8.33203 -1 -20.999c-4 -64 -2.33301 -96.333 5 -97c13.333 0 25.666 12.167 36.999 36.5s14.333 44.166 9 59.499c-2 4 -3.16699 7.5 -3.5 10.5s-0.166016 4.83301 0.500977 5.5s1 1.5 1 2.5s-0.833008 2 -2.5 3l-9.5 5.5
c-23.333 12.667 -35.333 11 -36 -5zM174 474.001c0.666992 34.667 -3 51.333 -11 50c-2 0 -4 -2 -6 -6c-4.66699 -6.66699 -7.16699 -24.5 -7.5 -53.5s1.5 -45.833 5.5 -50.5c8 -9.33301 13.333 -4 16 16c1.33301 10 2.33301 24.667 3 44zM344 476
c-9.33301 0 -18.666 4.66895 -27.999 14.002s-14 18.666 -14 27.999c0 6.66699 -5.5 14 -16.5 22s-18.5 10 -22.5 6c-5.33301 -21.333 -8 -78.666 -8 -171.999c26.667 -11.333 52 -25.166 76 -41.499s38 -31.5 42 -45.5c7.33301 -18.667 10.833 -39.834 10.5 -63.501
s-4.16602 -43.834 -11.499 -60.501s-19.333 -34.334 -36 -53.001s-28.667 -28 -36 -28c-8.66699 -1.33301 -31.667 -11.333 -69 -30v-41c0 -23.333 -3.66699 -39 -11 -47s-20 -10 -38 -6c-11.333 2.66699 -18.833 8.66699 -22.5 18s-5.5 27.333 -5.5 54v36
c-52 26 -85.333 47.333 -100 64c-12 12.667 -18.667 21 -20 25s0.666992 8.66699 6 14c6 6 8.66699 9.33301 8 10c-0.666992 0 -4 -1 -10 -3c-5.33301 -2 -7.66602 -2 -6.99902 0s4.66699 6.66699 12 14c8.66699 8.66699 15.5 13.5 20.5 14.5s13.833 -0.166992 26.5 -3.5
c19.333 -5.33301 29 -10.666 29 -15.999s2.66699 -10.666 8 -15.999s11.666 -9 18.999 -11c3.33301 -2.66699 6 2.66602 8 15.999c2 11.333 3.33301 33 4 65c1.33301 38.667 3.33301 58.334 6 59.001c2 6.66699 1 12.667 -3 18s-14 13.666 -30 24.999
c-28 21.333 -45.5 38.666 -52.5 51.999s-10.5 37.333 -10.5 72c-0.666992 25.333 0.166016 43.333 2.49902 54s7.5 23 15.5 37s19 27.667 33 41s24.333 20 31 20c3.33301 0 13.333 7 30 21c13.333 11.333 24.833 17 34.5 17s21.167 -5.66699 34.5 -17
c9.33301 -8 22.666 -14 39.999 -18c17.333 -3.33301 36 -15 56 -35s32.333 -38.667 37 -56c4 -15.333 1.83301 -27.5 -6.5 -36.5s-18.833 -14.5 -31.5 -16.5z" />
    <glyph glyph-name="percent" unicode="%" horiz-adv-x="674" 
d="M511 267c-9.33301 21.333 -17.666 29.334 -24.999 24.001c-6.66699 -6.66699 -17.334 -28.667 -32.001 -66c-12 -31.333 -17 -56 -15 -74s11.333 -32 28 -42c31.333 -19.333 59 -18.5 83 2.5s31 49.833 21 86.5c-4 10 -5.33301 17.667 -4 23s1 9.16602 -1 11.499
s-8.33301 4.16602 -19 5.49902c-9.33301 0.666992 -16.333 2.83398 -21 6.50098s-9.66699 11.167 -15 22.5zM577 324.001c0 -3.33301 0.499023 -5.49805 1.49902 -6.49805s2.5 -1.16699 4.5 -0.5c4 2.66699 11 -1.33301 21 -12s17 -21.667 21 -33
c6.66699 -16.667 12 -41.334 16 -74.001s4.66699 -55.667 2 -69c-3.33301 -18.667 -15 -38.5 -35 -59.5s-36.333 -30.167 -49 -27.5c-11.333 1.33301 -18 -1 -20 -7c-4 -7.33301 -19 -9.33301 -45 -6c-24 2.66699 -38.5 5.16699 -43.5 7.5s-6.16699 7.5 -3.5 15.5
c2.66699 6 3 8.33301 1 7l-4 -5c-4.66699 -6 -11.667 -6.33301 -21 -1s-19.666 15.666 -30.999 30.999c-20 28 -30.333 53.167 -31 75.5s8 58.5 26 108.5c12 31.333 22.833 52 32.5 62s27.834 18.667 54.501 26c17.333 5.33301 29.166 7.83301 35.499 7.5
s17.5 -4.5 33.5 -12.5c22.667 -10.667 34 -19.667 34 -27zM463.999 638.003c3.33301 4 11.832 0.171875 25.499 -11.4951s19.167 -19.834 16.5 -24.501c0 -10 -9.5 -36.167 -28.5 -78.5s-36.833 -77.5 -53.5 -105.5c-44 -76 -81 -146 -111 -210
c-20.667 -43.333 -37.667 -77 -51 -101s-25.833 -43 -37.5 -57s-21.667 -20.333 -30 -19s-17.5 5.66602 -27.5 12.999c-17.333 15.333 -13 42.333 13 81c9.33301 13.333 34.833 61.166 76.5 143.499s66.5 129.833 74.5 142.5c8 11.333 13.333 19.333 16 24
s5.33398 9.66699 8.00098 15s7 13 13 23c10 15.333 25 42.833 45 82.5s30 62.167 30 67.5c0 2 1 3.66699 3 5s4.5 2.16602 7.5 2.49902s5.5 1.16602 7.5 2.49902s3 3 3 5zM179.998 530.008c-6 2 -9.99902 6.83203 -11.999 14.499s-5 12.834 -9 15.501
c-7.33301 6.66699 -16.833 4.5 -28.5 -6.5s-18.834 -25.167 -21.501 -42.5c-2 -12 -0.166992 -35.5 5.5 -70.5s10.834 -55.5 15.501 -61.5c18 3.33301 30.5 12.333 37.5 27s12.833 40 17.5 76c3.33301 28.667 1.66602 44.667 -5.00098 48zM111.999 299.007
c0 5.33301 -2.66797 7.99902 -8.00098 7.99902c-22.667 0.666992 -42.167 27.334 -58.5 80.001s-20.166 102 -11.499 148s33.667 78.333 75 97c19.333 8.66699 34 12.667 44 12s23 -6.33398 39 -17.001c17.333 -11.333 28.333 -16 33 -14
c4.66699 2.66699 12 -0.333008 22 -9c8 -6.66699 12.833 -15 14.5 -25s2.16699 -36.667 1.5 -80c-0.666992 -61.333 -4.66699 -98.666 -12 -111.999c-4 -8 -11 -17.5 -21 -28.5s-19.5 -20.167 -28.5 -27.5s-14.5 -10 -16.5 -8
c-3.33301 2.66699 -8.66602 -0.333008 -15.999 -9c-4 -5.33301 -10.833 -10 -20.5 -14s-17.834 -6.16699 -24.501 -6.5s-10.667 1.5 -12 5.5z" />
    <glyph glyph-name="ampersand" unicode="&#x26;" horiz-adv-x="486" 
d="M283 208c0 8.66699 -15.9951 30.3359 -47.9951 65.0029l-1 1l-1 1l-1 1c-24 26 -38.667 39.333 -44 40c-4.66699 0 -10.334 -5.66699 -17.001 -17c-0.666992 -0.666992 -1.33398 -2 -2.00098 -4l-2 -3c-22.667 -36.667 -36.834 -61.334 -42.501 -74.001
s-8.16699 -23.667 -7.5 -33c1.33301 -12.667 8.66602 -26.334 21.999 -41.001c12 -13.333 15.333 -20 10 -20c-2.66699 0 -4.66699 -0.666992 -6 -2l1 -2c4 -2 10.333 -0.333008 19 5s15 7.33301 19 6c9.33301 -0.666992 19.166 0.666016 29.499 3.99902s15.5 7 15.5 11
s3.33301 6 10 6s16 7.33301 28 22s18 26 18 34zM170.005 477.002c0 -7.33301 4.66797 -17.001 14.001 -29.001c6.66699 -8 11.167 -12.333 13.5 -13s5.16602 2 8.49902 8c5.33301 8 11 12 17 12s10.167 2.83301 12.5 8.5s6.5 8.83398 12.5 9.50098c10 4 18.167 12 24.5 24
s5.5 24.333 -2.5 37c-5.33301 10 -13.666 16.333 -24.999 19s-21.333 1 -30 -5c-6.66699 -4 -15.834 -15.333 -27.501 -34s-17.5 -31 -17.5 -37zM410.006 223.001c-4.66699 0 -7.66406 -2.33398 -8.99707 -7.00098s-0.833008 -11 1.5 -19s6.16602 -16 11.499 -24
c14 -18.667 22 -28 24 -28c2.66699 0 7 -6.33301 13 -19c4 -8.66699 5.66699 -15 5 -19s-5.33398 -9.33301 -14.001 -16c-9.33301 -7.33301 -16 -11.333 -20 -12s-11 1.66602 -21 6.99902c-10 4.66699 -18 12.334 -24 23.001s-12.333 18.334 -19 23.001
c-5.33301 4 -9.33301 6.33301 -12 7s-5 0.166992 -7 -1.5s-4.33301 -5.16699 -7 -10.5c-2 -6 -11.333 -14.333 -28 -25s-26 -17.667 -28 -21c-8 -6.66699 -25.333 -13.5 -52 -20.5s-46.334 -8.16699 -59.001 -3.5c-22 2.66699 -38.333 7.16699 -49 13.5
s-26.667 20.5 -48 42.5c-16.667 17.333 -27 29.5 -31 36.5s-6.33301 19.167 -7 36.5c-0.666992 15.333 0.666016 28.666 3.99902 39.999s11.333 28.333 24 51c16.667 34.667 30.334 58 41.001 70c14 15.333 21.667 27 23 35s-3 19.333 -13 34
c-10.667 15.333 -19 32.333 -25 51c-2.66699 11.333 -3.83398 22.833 -3.50098 34.5s2 21.667 5 30s6.5 11.833 10.5 10.5c6.66699 -2.66699 11.334 0.666016 14.001 9.99902c3.33301 8.66699 11.5 19.334 24.5 32.001s26.167 22.334 39.5 29.001
c17.333 8.66699 38 12.334 62 11.001s44.667 -7.33301 62 -18c14 -9.33301 29.167 -24.833 45.5 -46.5s24.5 -37.5 24.5 -47.5c-1.33301 -32 -26 -67.333 -74 -106l-46 -37l44 -49c20.667 -22.667 36.167 -37 46.5 -43s18.833 -5.66699 25.5 1
c5.33301 5.33301 14.333 6.16602 27 2.49902s20.667 -9.5 24 -17.5c3.33301 -8.66699 4.5 -17.5 3.5 -26.5s-3.83301 -13.5 -8.5 -13.5z" />
    <glyph glyph-name="quotesingle" unicode="'" horiz-adv-x="158" 
d="M59 624c9.33301 4 15.3359 5.83203 18.0029 5.49902s7.66699 -3.16602 15 -8.49902c15.333 -12 26.666 -48.667 33.999 -110c4 -36.667 2 -60.667 -6 -72s-23.667 -12 -47 -2c-12.667 5.33301 -20.834 12.166 -24.501 20.499s-5.83398 23.833 -6.50098 46.5
c0.666992 13.333 -1.33301 29.833 -6 49.5s-6 34.834 -4 45.501s11 19 27 25z" />
    <glyph glyph-name="parenleft" unicode="(" horiz-adv-x="281" 
d="M251 589c0 -7.33301 -14.002 -29.3359 -42.002 -66.0029c-24.667 -32.667 -42.5 -62.167 -53.5 -88.5s-20.167 -62.166 -27.5 -107.499c-8 -45.333 -9.33301 -89.666 -4 -132.999c2.66699 -44.667 12.334 -85.5 29.001 -122.5s35.334 -64.5 56.001 -82.5
c16 -13.333 26.5 -26.833 31.5 -40.5s2.5 -24.167 -7.5 -31.5c-13.333 -10 -34.666 -7.33301 -63.999 8s-50.333 35.333 -63 60c-36 68 -57.833 117.833 -65.5 149.5s-10.834 82.5 -9.50098 152.5c1.33301 42 6.83301 83 16.5 123s22.5 72 38.5 96
c11.333 18.667 17 29 17 31c0 4 12.5 19.167 37.5 45.5s40.167 40.5 45.5 42.5c13.333 4.66699 27.5 2.83398 42.5 -5.49902s22.5 -18.5 22.5 -30.5z" />
    <glyph glyph-name="parenright" unicode=")" horiz-adv-x="241" 
d="M45 635c24 12.667 50.332 1.66699 78.999 -33c14 -16.667 28.5 -38.334 43.5 -65.001s25.167 -49.334 30.5 -68.001c11.333 -34.667 15.666 -109 12.999 -223s-10.334 -186.333 -23.001 -217c-3.33301 -6.66699 -8.33301 -22 -15 -46c-6 -19.333 -15.833 -37 -29.5 -53
s-24.167 -22.333 -31.5 -19c-5.33301 2 -8 2 -8 0c0 -0.666992 0.666992 -2 2 -4c3.33301 -5.33301 2 -8 -4 -8c-7.33301 0 -16 3.66699 -26 11c-9.33301 6.66699 -14.166 14 -14.499 22s3.83398 21.333 12.501 40c16.667 36 31 82.667 43 140c5.33301 26 8 83.833 8 173.5
s-2.66699 143.834 -8 162.501c-14 52.667 -34 91.334 -60 116.001c-15.333 14.667 -24.166 28.667 -26.499 42s2.5 23 14.5 29z" />
    <glyph glyph-name="asterisk" unicode="*" horiz-adv-x="308" 
d="M278 549c0 -9.33301 -4.33496 -19.1631 -13.002 -29.4961s-17 -15.5 -25 -15.5c-6.66699 0 -9.66699 -12 -9 -36c0.666992 -14.667 0.166992 -24.834 -1.5 -30.501s-5.83398 -10.834 -12.501 -15.501s-12.167 -6.33398 -16.5 -5.00098s-12.166 8 -23.499 20
c-16.667 14.667 -27.167 21.5 -31.5 20.5s-10.5 -12.167 -18.5 -33.5c-13.333 -35.333 -33.666 -43.666 -60.999 -24.999c-19.333 14 -23.333 34 -12 60c6 12.667 5.33301 21.667 -2 27c-18.667 13.333 -25.667 27.166 -21 41.499s19.667 25.166 45 32.499l30 8
c0 3.33301 -0.333008 8 -1 14s-1.16699 11.833 -1.5 17.5s-0.5 11.167 -0.5 16.5s1 9.5 3 12.5s4.66699 4.5 8 4.5c11.333 2.66699 19.333 3.5 24 2.5s14 -5.16699 28 -12.5c18.667 -10 28.667 -19.333 30 -28c2.66699 -8.66699 13.334 -12.667 32.001 -12
c33.333 0 50 -11.333 50 -34z" />
    <glyph glyph-name="plus" unicode="+" horiz-adv-x="428" 
d="M153 463c-2.66699 16 3.33203 26 17.999 30s28.334 -1 41.001 -15c7.33301 -6 14 -19.667 20 -41s8.66699 -41 8 -59c0 -8 2.16699 -12.5 6.5 -13.5s19.166 -0.166992 44.499 2.5l24.5 2.5c9.66699 1 17 1.83301 22 2.5s7.83301 1 8.5 1
c6.66699 0.666992 15.667 -3.5 27 -12.5s18.333 -17.833 21 -26.5c5.33301 -14.667 4 -25.167 -4 -31.5s-25.667 -10.833 -53 -13.5c-38.667 -2.66699 -64.5 -5.66699 -77.5 -9s-19.833 -8 -20.5 -14c-3.33301 -60 -5 -91 -5 -93c-2 -10 -8.16699 -20.667 -18.5 -32
s-20.166 -13.333 -29.499 -6c-12 4 -21 15 -27 33s-7.33301 38.667 -4 62l5 33l-43 4c-31.333 3.33301 -52.666 8 -63.999 14s-18.333 17.333 -21 34c-3.33301 18 -3.33301 28.667 0 32c3.33301 4 33.333 4.33301 90 1l42 -2c-4.66699 70.667 -8.33398 109.667 -11.001 117z
" />
    <glyph glyph-name="comma" unicode="," horiz-adv-x="193" 
d="M76 131c7.33301 4.66699 16.999 5.5 28.999 2.5s21 -8.16699 27 -15.5c17.333 -21.333 27.166 -46 29.499 -74s-3.16699 -52.333 -16.5 -73c-11.333 -17.333 -23.166 -32.5 -35.499 -45.5s-21.166 -19.833 -26.499 -20.5c-28.667 -3.33301 -46 10.334 -52 41.001
c-2 8.66699 -1.66699 15.834 1 21.501s9.33398 14.5 20.001 26.5c16 17.333 25.5 31.666 28.5 42.999s1.16699 28.333 -5.5 51c-5.33301 16.667 -7.83301 27.167 -7.5 31.5s3.16602 8.16602 8.49902 11.499z" />
    <glyph glyph-name="hyphen" unicode="-" horiz-adv-x="369" 
d="M314 247c-2.66699 -7.33301 -1.33301 -10.667 4 -10c6 0 9.66699 3 11 9c-0.666992 3.33301 -2 6 -4 8c-4 2 -7.66699 -0.333008 -11 -7zM50.001 291.999c0 3.33301 43.6689 4.33496 131.002 3.00195c63.333 -0.666992 101.666 -1.83398 114.999 -3.50098
s23.333 -6.5 30 -14.5c15.333 -20 17.666 -35.667 6.99902 -47s-33 -17.333 -67 -18c-29.333 -0.666992 -43.333 0 -42 2c6 1.33301 9 4.66602 9 9.99902c0 4.66699 -4 4 -12 -2c-6 -5.33301 -12.833 -8.5 -20.5 -9.5s-30.834 -2.16699 -69.501 -3.5
c-35.333 -1.33301 -57 -1.33301 -65 0s-15.667 6 -23 14c-5.33301 6 -9 14 -11 24s-2.16699 19 -0.5 27s4.83398 12 9.50098 12c6 0 9 2 9 6z" />
    <glyph glyph-name="period" unicode="." horiz-adv-x="155" 
d="M125 85c0 -10.667 -5.16895 -21 -15.502 -31s-20.833 -15 -31.5 -15c-20 0 -35 13.333 -45 40c-4.66699 11.333 -4.66699 23.833 0 37.5s11.334 21.5 20.001 23.5c14.667 4 30.334 -0.333008 47.001 -13s25 -26.667 25 -42z" />
    <glyph glyph-name="slash" unicode="/" horiz-adv-x="342" 
d="M312 558c0 -14 -3.16602 -31.1699 -9.49902 -51.5029s-13.5 -37.5 -21.5 -51.5s-14.333 -19.667 -19 -17c-2.66699 1.33301 -3.66699 0.333008 -3 -3c0 -1.33301 0.333008 -3.33301 1 -6c2 -5.33301 2.33301 -8 1 -8c-0.666992 0 -2 0.666992 -4 2
c-2.66699 1.33301 -4.5 1.66602 -5.5 0.999023s-0.833008 -2.66699 0.5 -6c1.33301 -4 -5.16699 -21.5 -19.5 -52.5s-29.5 -61 -45.5 -90s-25 -42.5 -27 -40.5c-1.33301 0.666992 -2.16602 1 -2.49902 1s0.166992 -1.33301 1.5 -4c2 -4 -1.16699 -20.667 -9.5 -50
s-15.166 -47.666 -20.499 -54.999c-2.66699 -3.33301 -5.83398 -13.166 -9.50098 -29.499s-4.83398 -26.166 -3.50098 -29.499c2 -4.66699 -2.66699 -11.834 -14 -21.501s-20.333 -14.5 -27 -14.5c-8 0 -17.5 5.83301 -28.5 17.5s-16.5 21.834 -16.5 30.501s10 41.5 30 98.5
s35.667 97.5 47 121.5c4.66699 10.667 18.167 36.834 40.5 78.501l61 116.5c18.333 36 26.833 56.333 25.5 61c0 11.333 3.16699 24.333 9.5 39s12.166 22.667 17.499 24c14 3.33301 26 -1 36 -13s15 -28 15 -48z" />
    <glyph glyph-name="zero" unicode="0" horiz-adv-x="464" 
d="M336 468c-4 0.666992 -21.168 10 -51.501 28s-49.833 26.667 -58.5 26c-11.333 2.66699 -19.833 2.83398 -25.5 0.500977s-13.5 -8.83301 -23.5 -19.5c-16 -14.667 -32.167 -47 -48.5 -97s-25.166 -85.333 -26.499 -106c1.33301 -30.667 13.333 -62 36 -94
c21.333 -31.333 45.333 -48.333 72 -51s53 9.33301 79 36c27.333 28.667 47 70.5 59 125.5s10.667 98.833 -4 131.5c-2.66699 5.33301 -4 10.666 -4 15.999c0.666992 1.33301 0.5 2.5 -0.5 3.5s-2.16699 1.16699 -3.5 0.5zM223.999 68
c-22 0 -40.835 2.16895 -56.502 6.50195s-23.5 9.83301 -23.5 16.5c0 2 -0.5 3.33301 -1.5 4s-1.83301 0.333984 -2.5 -0.999023c-2.66699 -2.66699 -14.667 7 -36 29c-36.667 38.667 -59.667 82.167 -69 130.5s-4.66602 99.166 14.001 152.499l12 35.5
c4 11.667 6.83301 20.167 8.5 25.5s4.33398 11.833 8.00098 19.5s8.83398 16.5 15.501 26.5c10.667 20 16 31 16 33c0 4.66699 6 13 18 25s20.333 18 25 18s5.66699 2 3 6c-2.66699 5.33301 0 8.66602 8 9.99902c12.667 3.33301 32 4.16602 58 2.49902s45 -5.16699 57 -10.5
s32.167 -18.666 60.5 -39.999s47.5 -37.666 57.5 -48.999c20.667 -24.667 32.667 -58.334 36 -101.001s-0.166992 -83.834 -10.5 -123.501s-24.5 -73.5 -42.5 -101.5c-12.667 -19.333 -22.334 -36 -29.001 -50c-8.66699 -18.667 -25 -34 -49 -46s-49.667 -18 -77 -18z" />
    <glyph glyph-name="one" unicode="1" horiz-adv-x="296" 
d="M170 551c16 21.333 29.667 33.3271 41 35.9941s22.666 -3.66602 33.999 -18.999c5.33301 -7.33301 9 -20.166 11 -38.499s4 -57.166 6 -116.499c3.33301 -80.667 4.83301 -129.667 4.5 -147s-3.5 -49.333 -9.5 -96c-5.33301 -42 -10.166 -69.167 -14.499 -81.5
s-12.166 -20.166 -23.499 -23.499c-10 -3.33301 -20.333 1.66699 -31 15c-10.667 12.667 -14.334 32 -11.001 58c3.33301 29.333 6 83.833 8 163.5s1.66699 121.834 -1 126.501c-4 4.66699 -10.667 2.33398 -20 -6.99902c-10 -9.33301 -26 -18 -48 -26s-38 -11 -48 -9
c-10 1.33301 -19.667 10 -29 26c-17.333 30.667 -7 51.667 31 63c38.667 12 72 37.333 100 76z" />
    <glyph glyph-name="two" unicode="2" horiz-adv-x="461" 
d="M49 555c51.333 43.333 111.669 63.0039 181.002 59.0039c27.333 -0.666992 45.333 -6.33398 54 -17.001c7.33301 -10 13.333 -15 18 -15c4 -0.666992 11.833 -10.5 23.5 -29.5s20.167 -36.833 25.5 -53.5c11.333 -32.667 10.666 -69.334 -2.00098 -110.001
c-4.66699 -15.333 -22.834 -47.333 -54.501 -96s-54.167 -79.334 -67.5 -92.001c-22 -22 -30.333 -35.667 -25 -41c6 -7.33301 44.667 -12 116 -14h1h1h2c56 -0.666992 86.667 -8 92 -22c0.666992 -2 0.333984 -4.33301 -0.999023 -7c-2 -2.66699 -1.33301 -4 2 -4
c1.33301 0 3.33301 0.666992 6 2c5.33301 2 8.33301 1.83301 9 -0.5s0 -8.83301 -2 -19.5c-2.66699 -16 -6 -26 -10 -30c-6.66699 -6.66699 -56.667 -7.5 -150 -2.5s-150.333 11.5 -171 19.5c-20.667 7.33301 -33.5 22.5 -38.5 45.5s1.16699 39.833 18.5 50.5
c13.333 8.66699 25.833 20.334 37.5 35.001s22.167 26.667 31.5 36c18.667 18.667 42.667 48.667 72 90c32 45.333 51.167 77.666 57.5 96.999s4.83301 41 -4.5 65c-7.33301 18 -16.5 28.167 -27.5 30.5s-34.167 -0.833984 -69.5 -9.50098c-28 -7.33301 -49.333 -19 -64 -35
c-18.667 -20.667 -36.167 -28.5 -52.5 -23.5s-25.5 20.833 -27.5 47.5c-0.666992 16 5.66602 30.667 18.999 44z" />
    <glyph glyph-name="three" unicode="3" horiz-adv-x="427" 
d="M109 149c0 -16.667 4.83691 -28.0029 14.5039 -34.0029s27.167 -9 52.5 -9c31.333 0 55.833 5.16699 73.5 15.5s33.5 28.833 47.5 55.5c16 28 23.333 47.667 22 59c-0.666992 11.333 -8.5 21 -23.5 29s-32.5 12.333 -52.5 13c-20.667 0.666992 -35.167 5.5 -43.5 14.5
s-12.5 24.167 -12.5 45.5c0 16 3 26.5 9 31.5s19 7.5 39 7.5c10 0 22.167 5.5 36.5 16.5s26.166 23.5 35.499 37.5c6.66699 10.667 10.5 18.334 11.5 23.001s0.166992 8.83398 -2.5 12.501s-9 8.83398 -19 15.501c-15.333 10 -37.333 15 -66 15
c-19.333 0 -33.166 -1.33301 -41.499 -4s-19.833 -9.33398 -34.5 -20.001c-28.667 -20.667 -47.334 -32.334 -56.001 -35.001s-17 0.666016 -25 9.99902c-9.33301 10.667 -14 21.667 -14 33c0 7.33301 1.16699 14.5 3.5 21.5s5.33301 12.333 9 16s7.16699 4.5 10.5 2.5
c2.66699 -2 4.16699 -2.5 4.5 -1.5s-0.166992 2.83301 -1.5 5.5c-4 5.33301 1.5 14.5 16.5 27.5s30.833 22.167 47.5 27.5c41.333 14 88.666 11 141.999 -9s86.666 -44 99.999 -72c6.66699 -17.333 6.16699 -42.333 -1.5 -75s-19.5 -60 -35.5 -82
c-6 -7.33301 -3.66699 -16.666 7 -27.999c12.667 -13.333 22.167 -30.666 28.5 -51.999s8.16602 -41.666 5.49902 -60.999c-3.33301 -28.667 -17 -61.334 -41 -98.001s-44.667 -57 -62 -61c-10.667 -2 -19 -5.33301 -25 -10c-7.33301 -5.33301 -25.333 -10 -54 -14
s-50 -5 -64 -3c-18.667 2.66699 -37.5 10.334 -56.5 23.001s-33.167 26.667 -42.5 42c-8 14 -14.167 33.5 -18.5 58.5s-4.16602 41.833 0.500977 50.5c4 7.33301 11 13.333 21 18s19.333 6 28 4c7.33301 -2 13.666 -9 18.999 -21s8 -25.667 8 -41z" />
    <glyph glyph-name="four" unicode="4" horiz-adv-x="463" 
d="M267 244c0 69.333 -1.33301 110.997 -4 124.997c-4 13.333 -9 17 -15 11l-16 -22c-2.66699 -5.33301 -14.167 -22.166 -34.5 -50.499s-31.833 -46.166 -34.5 -53.499c5.33301 -1.33301 40 -4.66602 104 -9.99902zM267 564.997
c6.66699 15.333 19.501 20.499 38.501 15.499s31.833 -15.833 38.5 -32.5c5.33301 -10 5.66602 -37 0.999023 -81c-3.33301 -30 -5 -102 -5 -216c58 4.66699 89 -12 93 -50c2 -14.667 -1.16699 -25.167 -9.5 -31.5s-25.166 -10.166 -50.499 -11.499l-32 -2l-3 -42
c-2 -24.667 -6.5 -40.334 -13.5 -47.001s-17.833 -6.33398 -32.5 0.999023c-8.66699 4.66699 -14.5 10.334 -17.5 17.001s-6.5 22.334 -10.5 47.001c-2.66699 15.333 -9.66699 24.833 -21 28.5s-39.333 5.83398 -84 6.50098c-36 0 -65 4 -87 12s-33.333 18.333 -34 31
c0 12 -1.66699 20.333 -5 25c-4 6.66699 -2.83301 15 3.5 25s20.166 26 41.499 48c17.333 18.667 33.5 37.667 48.5 57s31 41.166 48 65.499s32.5 45.5 46.5 63.5c30.667 42 46 65.667 46 71z" />
    <glyph glyph-name="five" unicode="5" horiz-adv-x="412" 
d="M192 500c-14 2 -25.1631 2.99902 -33.4961 2.99902s-14.833 -1 -19.5 -3s-7.66699 -5.16699 -9 -9.5s-2.33301 -9.83301 -3 -16.5s-0.666992 -14.667 0 -24c30 4.66699 52.5 5.83398 67.5 3.50098s39.5 -11.166 73.5 -26.499c13.333 -6 28.333 -15.833 45 -29.5
s25 -23.167 25 -28.5c0 -4 4.66699 -12.333 14 -25c10.667 -14.667 18.834 -35.334 24.501 -62.001s6.5 -47.334 2.5 -62.001c-5.33301 -17.333 -19.5 -42.166 -42.5 -74.499s-40.833 -52.833 -53.5 -61.5c-24.667 -16.667 -61.167 -23.834 -109.5 -21.501
s-82.5 12.833 -102.5 31.5c-10 8.66699 -16.333 17 -19 25s-5 24.333 -7 49c-2 25.333 -2.5 41 -1.5 47s5.16699 10.667 12.5 14c8 4.66699 17.5 6 28.5 4s18.5 -6.33301 22.5 -13c6 -8.66699 8 -30.667 6 -66c62 -4 99.667 -4 113 0
c11.333 3.33301 24.666 13.833 39.999 31.5s25.666 34.834 30.999 51.501c4.66699 13.333 4.66699 30.166 0 50.499s-11.667 34.5 -21 42.5c-10.667 9.33301 -28.834 17.833 -54.501 25.5s-43.5 10.167 -53.5 7.5c-14 -4 -29 -11.167 -45 -21.5s-24 -18.166 -24 -23.499
c0 -10 -6.5 -15.667 -19.5 -17s-25.167 2.66699 -36.5 12c-15.333 13.333 -15.666 47.666 -0.999023 102.999c3.33301 13.333 5.83301 43.166 7.5 89.499s4.5 75.833 8.5 88.5c137.333 -4 219 -4 245 0c17.333 2.66699 30.166 3.33398 38.499 2.00098
s17.166 -5.66602 26.499 -12.999c7.33301 -6.66699 11.5 -17.5 12.5 -32.5s-1.83301 -25.167 -8.5 -30.5s-32.334 -10.5 -77.001 -15.5s-79 -6.5 -103 -4.5z" />
    <glyph glyph-name="six" unicode="6" horiz-adv-x="409" 
d="M197 159c16 0 33.833 5.49902 53.5 16.499s31.167 21.833 34.5 32.5c2.66699 7.33301 2.66699 20 0 38s-6.66699 31.667 -12 41c-6 8.66699 -15.333 16.334 -28 23.001c-33.333 17.333 -59.333 13.666 -78 -11.001c-10 -13.333 -20.667 -25.666 -32 -36.999
s-16.333 -21.5 -15 -30.5s9.33301 -22.833 24 -41.5c11.333 -13.333 20 -21.833 26 -25.5s15 -5.5 27 -5.5zM91 125.999c-0.666992 3.33301 -8.33008 15.1641 -22.9971 35.4971s-21 35.166 -19 44.499c0 16 -2.33301 24 -7 24c-5.33301 0 -9 18.5 -11 55.5
s-1.33301 68.167 2 93.5c6 42.667 24.667 89.667 56 141c9.33301 16 28.5 35.5 57.5 58.5s51.5 36.5 67.5 40.5c20.667 4.66699 42 2.66699 64 -6c22.667 -9.33301 40.167 -19.5 52.5 -30.5s23.166 -26.167 32.499 -45.5c22 -47.333 23 -81.333 3 -102
c-13.333 -14 -26 -17.667 -38 -11s-19.667 21.667 -23 45c-4.66699 27.333 -15.334 44.833 -32.001 52.5s-37.334 4.16699 -62.001 -10.5c-14 -8 -27 -17.833 -39 -29.5s-18 -20.167 -18 -25.5s-1.66699 -8.66602 -5 -9.99902c-4 -2 -10 -10.5 -18 -25.5
s-12 -25.5 -12 -31.5c0 -6.66699 6.66699 -5.66699 20 3l5 3c12.667 8.66699 28.334 14.334 47.001 17.001s30.667 1.33398 36 -3.99902c2 -3.33301 8.66699 -5.66602 20 -6.99902c13.333 -2 30 -11.667 50 -29s34 -34.333 42 -51c10 -20 16 -49.667 18 -89
c1.33301 -27.333 1.16602 -45.5 -0.500977 -54.5s-7.16699 -20.833 -16.5 -35.5c-29.333 -46 -73.333 -69 -132 -69c-59.333 0 -89 6 -89 18c0 3.33301 -4.83301 9 -14.5 17s-14.167 14 -13.5 18z" />
    <glyph glyph-name="seven" unicode="7" horiz-adv-x="400" 
d="M39 588c4.66699 6.66699 14.8311 10.666 30.498 11.999s59.167 1.66602 130.5 0.999023h152c2 -5.33301 5 -12.333 9 -21s6.5 -15 7.5 -19s0.833008 -10.833 -0.5 -20.5s-4.66602 -21.834 -9.99902 -36.501c-25.333 -78.667 -43 -119.334 -53 -122.001
c-0.666992 1.33301 -1.33398 2 -2.00098 2l2 -5c3.33301 -5.33301 -4.33398 -27.666 -23.001 -66.999c-32 -64.667 -52.333 -125.334 -61 -182.001c-3.33301 -23.333 -8.33301 -38.666 -15 -45.999s-17.667 -9.66602 -33 -6.99902c-10 2 -17 4.83301 -21 8.5
s-7 9.83398 -9 18.501c-4 18.667 0.666992 52 14 100s31 95.333 53 142c26.667 56.667 42.834 91.5 48.501 104.5s8.83398 24.833 9.50098 35.5c0.666992 10 -0.166016 16 -2.49902 18s-9.5 3.33301 -21.5 4c-9.33301 0.666992 -22.166 2.5 -38.499 5.5
s-28.833 4.83301 -37.5 5.5s-25 0.333984 -49 -0.999023c-36 -3.33301 -59.667 -1 -71 7c-10 7.33301 -15.833 17 -17.5 29s1.16602 23.333 8.49902 34z" />
    <glyph glyph-name="eight" unicode="8" horiz-adv-x="420" 
d="M254 303c-40 9.33301 -61 14.3359 -63 15.0029c-6.66699 2 -11.167 2 -13.5 0s-4.5 -7 -6.5 -15c-3.33301 -12 -9.66602 -23.333 -18.999 -34c-14.667 -15.333 -26.5 -36.5 -35.5 -63.5s-10.167 -44.167 -3.5 -51.5c2.66699 -2.66699 19 -5.33398 49 -8.00098
s51 -3.33398 63 -2.00098c11.333 1.33301 31.333 15 60 41c18.667 18 29.834 30.167 33.501 36.5s4.5 15.166 2.5 26.499c-2.66699 18 -7.83398 30 -15.501 36s-24.834 12.333 -51.501 19zM294 534.003c-15.333 12.667 -40.833 15.666 -76.5 8.99902
s-56.167 -17.667 -61.5 -33c-2 -8.66699 -4.66699 -12 -8 -10c-2.66699 2.66699 -7.66699 -2.33301 -15 -15c-3.33301 -5.33301 -7.33301 -12.666 -12 -21.999c-4 -7.33301 -0.5 -15.333 10.5 -24s25.5 -15 43.5 -19c14.667 -3.33301 26 -4.16602 34 -2.49902
s21.667 7.16699 41 16.5c20 10 32.5 17.667 37.5 23s9.5 15.666 13.5 30.999s5.66699 25.5 5 30.5s-4.66699 10.167 -12 15.5zM359 349.002c3.33301 0 10.002 -13.999 20.002 -41.999c16 -42.667 15.5 -84.167 -1.5 -124.5s-49.167 -76.833 -96.5 -109.5
c-15.333 -10.667 -27.5 -16.667 -36.5 -18s-32.5 -1 -70.5 1c-55.333 2.66699 -92 10.834 -110 24.501s-29 41.167 -33 82.5c-2 16 -1.16699 29.667 2.5 41s13.5 33.666 29.5 66.999c15.333 31.333 24.5 51.833 27.5 61.5s1.83301 15.834 -3.5 18.501
c-6 4.66699 -10.5 11.167 -13.5 19.5s-7.83301 16.166 -14.5 23.499c-13.333 17.333 -20.666 33.5 -21.999 48.5s3.33398 34.167 14.001 57.5c10.667 24 29.5 50.167 56.5 78.5s49.5 45.166 67.5 50.499c19.333 6.66699 43.166 9.5 71.499 8.5s49.166 -5.16699 62.499 -12.5
c37.333 -19.333 59.666 -52 66.999 -98s-2.33398 -89.667 -29.001 -131c-8.66699 -13.333 -13.167 -21.5 -13.5 -24.5s2.5 -7.16699 8.5 -12.5c9.33301 -6.66699 15 -10 17 -10z" />
    <glyph glyph-name="nine" unicode="9" horiz-adv-x="399" 
d="M262 511c-17.333 16 -32.834 23.001 -46.501 21.001s-31.5 -14.333 -53.5 -37c-24.667 -24.667 -39.667 -47.334 -45 -68.001c-4.66699 -18 -7 -32.833 -7 -44.5s2.33301 -20 7 -25s11.334 -6.16699 20.001 -3.5c8.66699 3.33301 22.834 12 42.501 26
s30.5 23.667 32.5 29c3.33301 6 27.666 33 72.999 81zM309.999 596.001c6 0.666992 12.1699 -1.00293 18.5029 -5.00293s11.166 -7.5 14.499 -10.5s8.33301 -8.66699 15 -17s10.334 -12.833 11.001 -13.5c0 -2 -1 -27 -3 -75s-4 -85.833 -6 -113.5
s-4.33301 -45.834 -7 -54.501c-5.33301 -7.33301 -6.33301 -12.666 -3 -15.999c2 -1.33301 4.33301 -40 7 -116c2 -55.333 2.5 -88.666 1.5 -99.999s-5.5 -20.666 -13.5 -27.999c-19.333 -19.333 -38.666 -16.333 -57.999 9c-7.33301 9.33301 -11.666 21.5 -12.999 36.5
s-2 52.833 -2 113.5c0 86 -0.666992 129 -2 129c-2.66699 0 -9.33398 -3.33301 -20.001 -10s-17.334 -12 -20.001 -16c-6.66699 -7.33301 -20.5 -15.666 -41.5 -24.999s-38.833 -15 -53.5 -17c-18.667 -3.33301 -37.334 1.66699 -56.001 15c-36 24 -52 71 -48 141
c2.66699 36.667 10 65 22 85s41 51.667 87 95c5.33301 5.33301 15.166 10.833 29.499 16.5s26.166 8.16699 35.499 7.5c2 0 6.66699 -0.5 14 -1.5l18 -2.5c4.66699 -0.666992 10 -1.66699 16 -3s11 -3 15 -5s7 -4.33301 9 -7c8 -8 19 -12 33 -12z" />
    <glyph glyph-name="colon" unicode=":" horiz-adv-x="174" 
d="M39 154c22.667 10.667 43.3311 6.66602 61.998 -12.001s18.667 -38.667 0 -60c-15.333 -18.667 -34.333 -15.667 -57 9c-7.33301 8 -11.666 19.833 -12.999 35.5s1.33398 24.834 8.00098 27.501zM65.9971 458.999c7.33301 8.66699 20.5 8.66797 39.5 0.000976562
s31.167 -20.667 36.5 -36c4 -10 3 -22.5 -3 -37.5s-13.667 -24.167 -23 -27.5c-10 -4 -20.667 -2.83301 -32 3.5s-18.333 15.166 -21 26.499c-10 33.333 -9 57 3 71z" />
    <glyph glyph-name="semicolon" unicode=";" horiz-adv-x="157" 
d="M37 154c16.667 8 32.499 7.00098 47.499 -2.99902s24.5 -24.333 28.5 -43c4 -14 7.33301 -21.333 10 -22c4 -2.66699 5 -25.667 3 -69s-5.33301 -73 -10 -89c-5.33301 -17.333 -10.5 -28.833 -15.5 -34.5s-13.833 -9.83398 -26.5 -12.501
c-12 -3.33301 -23 0.333984 -33 11.001c-7.33301 7.33301 -11 16.166 -11 26.499s4.33301 34.5 13 72.5c4.66699 20.667 7 35.167 7 43.5s-2.33301 19.5 -7 33.5c-5.33301 16 -8.66602 33.333 -9.99902 52s0 30 4 34zM65.999 462.001
c7.33301 0 17.498 -7.33105 30.498 -21.998s19.5 -26.334 19.5 -35.001c0 -10.667 -4 -20.334 -12 -29.001s-17 -13 -27 -13c-17.333 0 -30.666 13 -39.999 39s-6.66602 43.333 8.00098 52c8 5.33301 15 8 21 8z" />
    <glyph glyph-name="equal" unicode="=" horiz-adv-x="519" 
d="M373 204c0 -5.33301 -7.66797 -7.00293 -23.001 -5.00293c-20 3.33301 -59.5 5 -118.5 5s-98.833 -1.33301 -119.5 -4c-24 -3.33301 -41 -3.66602 -51 -0.999023c-9.33301 3.33301 -17.166 11.833 -23.499 25.5s-8.16602 26.834 -5.49902 39.501l4 21
c98.667 5.33301 213 4.33301 343 -3c37.333 -2 61.666 -4.16699 72.999 -6.5s19 -6.5 23 -12.5c4 -4.66699 5.83301 -10 5.5 -16s1.16699 -10.333 4.5 -13c5.33301 -3.33301 6 -9.66602 2 -18.999s-10 -15.333 -18 -18c-6 -2 -15.333 -3.83301 -28 -5.5s-25.5 -2 -38.5 -1
s-20.5 4.16699 -22.5 9.5c-4.66699 6.66699 -7 8 -7 4zM30.999 429.997l4.99805 24.999c12.667 -1.33301 75.167 -4 187.5 -8s182.5 -9 210.5 -15c7.33301 -5.33301 13.5 -14.5 18.5 -27.5s7.16699 -23.833 6.5 -32.5c-1.33301 -7.33301 -7.5 -14.5 -18.5 -21.5
s-19.167 -8.83301 -24.5 -5.5c-4.66699 2.66699 -22.167 5.16699 -52.5 7.5s-53.5 3.5 -69.5 3.5c-8.66699 0 -35.667 1.66699 -81 5s-76.666 4.66602 -93.999 3.99902c-24.667 -0.666992 -40.667 0 -48 2s-15.666 7.66699 -24.999 17c-8 8.66699 -13 15.834 -15 21.501
s-2 13.834 0 24.501z" />
    <glyph glyph-name="greater" unicode="&#x3e;" horiz-adv-x="457" 
d="M169 172c-12 -7.33301 -20.665 -12.168 -25.998 -14.501s-12.666 -4.5 -21.999 -6.5s-18 -4.33301 -26 -7c-16.667 -5.33301 -30 -4.33301 -40 3c-17.333 11.333 -25.333 29.166 -24 53.499s10.666 36.5 27.999 36.5c9.33301 0 26.666 5.66699 51.999 17
c89.333 44.667 140 67 152 67c9.33301 0 8.33301 5.33301 -3 16c-6.66699 6 -14.667 11.667 -24 17c-24 13.333 -71.667 30 -143 50c-22 6.66699 -35.333 11.834 -40 15.501s-9.33398 13.167 -14.001 28.5c-6.66699 23.333 -9.33398 35 -8.00098 35
c0.666992 0 2.33398 -1 5.00098 -3c4.66699 -2.66699 7 -0.666992 7 6c0.666992 14 11.334 18.667 32.001 14c2 -0.666992 20.5 -5 55.5 -13s55.167 -13 60.5 -15c2.66699 -2 8.5 -4 17.5 -6s14.5 -5 16.5 -9c3.33301 -4 20.666 -13.667 51.999 -29s59 -27.333 83 -36
c26 -10 42.667 -18.667 50 -26c7.33301 -6.66699 12.5 -17.167 15.5 -31.5s2.16699 -25.833 -2.5 -34.5c-7.33301 -13.333 -60 -40.666 -158 -81.999c-46 -20 -78 -35.333 -96 -46z" />
    <glyph glyph-name="question" unicode="?" horiz-adv-x="418" 
d="M228 138c12.667 3.33301 23.335 -5.00098 32.002 -25.001s7.66699 -34.667 -3 -44c-8.66699 -14.667 -18.667 -21.667 -30 -21c-5.33301 0.666992 -8 4.33398 -8 11.001c0 8 -2 8.66699 -6 2s-8.66699 -5 -14 5c-5.33301 9.33301 -7.83301 21 -7.5 35
s3.16602 23.667 8.49902 29s14.666 8 27.999 8zM283.001 289.999c0 -4 -3.66699 -10.167 -11 -18.5s-10.666 -15.5 -9.99902 -21.5c0 -11.333 -3.5 -22.5 -10.5 -33.5s-14.5 -17.5 -22.5 -19.5c-15.333 -4 -26.5 -3.16699 -33.5 2.5s-11.5 17.5 -13.5 35.5
c-3.33301 30.667 5 63.834 25 99.501s45.333 63.167 76 82.5c7.33301 4.66699 14.666 15 21.999 31c16.667 36 7.33398 59.333 -27.999 70c-20.667 5.33301 -47.5 1.66602 -80.5 -11.001s-61.167 -30 -84.5 -52c-20.667 -19.333 -36.667 -30.5 -48 -33.5
s-20 2.16699 -26 15.5c-5.33301 12 -7.83301 21.833 -7.5 29.5s4.5 19.5 12.5 35.5c7.33301 15.333 21 32.333 41 51s32.333 26.667 37 24c4.66699 -2 7 -1 7 3c0 4.66699 7.16699 9.5 21.5 14.5s25.166 6.16699 32.499 3.5c5.33301 -2 8 -2 8 0
c0 0.666992 -0.333008 1.66699 -1 3c-3.33301 4 2.66699 7.66699 18 11c4 1.33301 8.66699 2.33301 14 3c36.667 6.66699 60.5 8.66699 71.5 6s25.167 -13.667 42.5 -33c20.667 -21.333 35 -40.333 43 -57c6 -12 9.5 -30.833 10.5 -56.5s-1.16699 -43.5 -6.5 -53.5
c-6.66699 -15.333 -11.667 -26.333 -15 -33s-9 -15.167 -17 -25.5s-17.667 -20.5 -29 -30.5c-25.333 -22 -38 -36 -38 -42z" />
    <glyph glyph-name="at" unicode="@" horiz-adv-x="751" 
d="M275 152c11.333 0 20.1641 2.66895 26.4971 8.00195s17.5 20.333 33.5 45c22 34.667 35 62.667 39 84c6 42 1.66699 67.333 -13 76c-16 10 -40.167 3.16699 -72.5 -20.5s-54.166 -50.834 -65.499 -81.501c-11.333 -28.667 -11.666 -54.334 -0.999023 -77.001
s28.334 -34 53.001 -34zM118.998 296.002c-2.66699 -6 -1.33789 -9.33594 3.99512 -10.0029c5.33301 0 8 2.33301 8 7s8 19.334 24 44.001s28.667 41.667 38 51c44.667 44.667 87.334 67 128.001 67c46.667 0 79.667 -9.66699 99 -29c4 -4 7.83301 -7.16699 11.5 -9.5
s6.33398 -3.83301 8.00098 -4.5s4 -2.5 7 -5.5s6.5 -7.16699 10.5 -12.5c6 -8.66699 9.5 -18.5 10.5 -29.5s0.5 -35.833 -1.5 -74.5c-6.66699 -108.667 -7.33398 -170 -2.00098 -184c6.66699 -16 32.334 -14.333 77.001 5c24 10 41.833 20.333 53.5 31
s21.834 25.667 30.501 45s13.334 44.333 14.001 75s-2.66602 57.667 -9.99902 81c-5.33301 18.667 -16.166 40.834 -32.499 66.501s-27.5 38.5 -33.5 38.5s-11.333 3.33301 -16 10c-22.667 16.667 -70.334 28.167 -143.001 34.5s-120 4.5 -142 -5.5
c-24 -8.66699 -50 -29.167 -78 -61.5s-45.667 -62.166 -53 -89.499c-2.66699 -10.667 -6.66699 -24 -12 -40zM587.994 517.999c0 -4.66699 2.66504 -5.66992 7.99805 -3.00293c4.66699 2.66699 17.5 -7.16602 38.5 -29.499s33.167 -39.166 36.5 -50.499
c0.666992 -6.66699 4.5 -14.834 11.5 -24.501s10.833 -18.167 11.5 -25.5c0 -9.33301 2 -15 6 -17c5.33301 -3.33301 10.666 -24.333 15.999 -63s7 -69.334 5 -92.001c-2 -24 -8.5 -49 -19.5 -75s-20.167 -38.333 -27.5 -37c-4.66699 1.33301 -7 0 -7 -4
c1.33301 -7.33301 -0.166992 -13.833 -4.5 -19.5s-14.166 -13.5 -29.499 -23.5c-42.667 -28 -84.167 -43.667 -124.5 -47s-72.833 6.33398 -97.5 29.001c-16 14.667 -26 27.334 -30 38.001c-2 6 -4.33301 10 -7 12s-6.16699 2.33301 -10.5 1s-10.5 -4.66602 -18.5 -9.99902
c-11.333 -7.33301 -30.666 -10 -57.999 -8c-50 4 -89.333 26.667 -118 68c-10 15.333 -15.667 20.333 -17 15c0.666992 -10 5.66699 -29.5 15 -58.5s17.666 -50.5 24.999 -64.5c8.66699 -16.667 24.834 -36.667 48.501 -60s42.167 -37.333 55.5 -42
c41.333 -15.333 94.333 -1.33301 159 42c22.667 14 38 21 46 21c11.333 0 22.666 -3.33301 33.999 -10s19.333 -14.667 24 -24c4 -7.33301 5.33301 -13.333 4 -18s-6 -10.667 -14 -18c-12 -11.333 -20 -13.666 -24 -6.99902c-3.33301 5.33301 -6.33301 6 -9 2
c-2.66699 -5.33301 -1.66699 -9 3 -11c2 -0.666992 -1 -3.66699 -9 -9c-12 -8 -28 -17 -48 -27c-28.667 -14 -49.5 -23 -62.5 -27s-27.5 -6 -43.5 -6c-42.667 0 -88.667 18.667 -138 56s-85.666 81.333 -108.999 132c-35.333 74.667 -59.666 158 -72.999 250
c-6 44 -7.16699 75.167 -3.5 93.5s16.167 43.833 37.5 76.5c48 71.333 102.333 115.333 163 132c14 4 50.5 5 109.5 3s103.833 -6.33301 134.5 -13c28 -5.33301 53.5 -12.833 76.5 -22.5s34.5 -17.834 34.5 -24.501z" />
    <glyph glyph-name="A" unicode="A" 
d="M369 418c-2.66699 -4.66699 -4.66797 -3 -6.00098 5c-2.66699 20.667 -4 30.667 -4 30c-0.666992 2 -1.66699 2.66699 -3 2c-3.33301 0 -14 -14 -32 -42s-26 -43 -24 -45c2 -1.33301 8.5 -2.66602 19.5 -3.99902l37 -4.5c13.667 -1.66699 22.5 -2.83398 26.5 -3.50098v24
c0 30 -3.33301 44 -10 42c-1.33301 0 -2.66602 -1.33301 -3.99902 -4zM382.999 303c-4.66699 -6.66699 -48.665 -15.332 -131.998 -25.999l-55 -92c-25.333 -42 -45.166 -73.667 -59.499 -95s-27.333 -37.5 -39 -48.5s-21.167 -15.667 -28.5 -14
s-15.666 8.16699 -24.999 19.5c-12.667 14.667 -16.667 24 -12 28c5.33301 4 5.33301 6.33301 0 7c-2.66699 0.666992 -1.83398 6.66699 2.49902 18s11.833 26.333 22.5 45c18 26.667 50.667 92.834 98 198.501s70 161.167 68 166.5
c7.33301 32.667 12.666 52.167 15.999 58.5s9.66602 10.166 18.999 11.499c10.667 2 27.667 -8.66699 51 -32l23 25c12.667 12.667 23.5 19.167 32.5 19.5s21.167 -5.16699 36.5 -16.5c7.33301 -6 16.5 -25.333 27.5 -58s19.5 -66.667 25.5 -102
c15.333 -94 25.666 -200.667 30.999 -320c2 -42.667 1.33301 -63 -2 -61c-4.66699 2 -8 0 -10 -6c-2.66699 -4.66699 -7.5 -6.83398 -14.5 -6.50098s-14.5 3.5 -22.5 9.5s-13.333 12.667 -16 20c-2.66699 4.66699 -7.5 46 -14.5 124s-12.167 119.333 -15.5 124
c-4.66699 6.66699 -7 7.66699 -7 3z" />
    <glyph glyph-name="B" unicode="B" horiz-adv-x="690" 
d="M333 287v-140c0 -3.33301 29.667 -4.33301 89 -3c50 1.33301 84.167 5 102.5 11s31.833 18.333 40.5 37c6 12 9 27.333 9 46s-2.66699 30.667 -8 36c-7.33301 7.33301 -58 8.33301 -152 3c-22 -1.33301 -49 2 -81 10zM494 537
c-4.66699 5.33301 -10.002 7.83203 -16.002 7.49902s-31 -4.16602 -75 -11.499l-67 -11l-2 -52c-1.33301 -36 -0.166016 -56.5 3.50098 -61.5s17.834 -4.16699 42.501 2.5c10 2.66699 23.167 5.66699 39.5 9s29.666 6.66602 39.999 9.99902s20.833 8 31.5 14
c9.33301 6.66699 14.833 12.334 16.5 17.001s1.5 15 -0.5 31c-3.33301 22 -7.66602 37 -12.999 45zM579.998 390.999c-7.33301 -10 -11.501 -16.998 -12.501 -20.998s-0.166992 -7.33301 2.5 -10s10.334 -7.33398 23.001 -14.001c19.333 -8.66699 35.333 -22.334 48 -41.001
c8 -12.667 13.167 -23.834 15.5 -33.501s3.5 -25.834 3.5 -48.501c0 -24.667 -1.16699 -41.834 -3.5 -51.501s-7.83301 -21.167 -16.5 -34.5c-11.333 -16.667 -23.333 -31.667 -36 -45c-14 -13.333 -37.5 -23.166 -70.5 -29.499s-81.167 -10.5 -144.5 -12.5l-116 -3
c-2.66699 4 -7.33398 9.66699 -14.001 17s-11.5 13.333 -14.5 18s-5.66699 11.334 -8 20.001s-3.16602 18.334 -2.49902 29.001v38l-29 -28c-6 -6.66699 -12 -12.334 -18 -17.001s-11.167 -9 -15.5 -13s-9.5 -7.5 -15.5 -10.5s-10.5 -5.5 -13.5 -7.5
s-8.16699 -3.83301 -15.5 -5.5s-12.166 -3 -14.499 -4s-8.16602 -1.83301 -17.499 -2.5s-15.333 -1.16699 -18 -1.5s-10.167 -0.833008 -22.5 -1.5s-20.5 -1 -24.5 -1v48c0 24 0.833008 38 2.5 42s7.5 5.66699 17.5 5c11.333 -1.33301 28.666 3.33398 51.999 14.001
c22.667 10 38 23 46 39s11.667 41 11 75c-2 105.333 -2.66699 166.333 -2 183s5.33398 33 14.001 49c18.667 36.667 38 55.667 58 57c8 0 12.667 2.33301 14 7c2 8 46 17.667 132 29c36 4.66699 56 7.66699 60 9c15.333 6 37.166 3.5 65.499 -7.5s49.166 -25.5 62.499 -43.5
c18 -24.667 29.5 -56.167 34.5 -94.5s-0.833008 -70.833 -17.5 -97.5z" />
    <glyph glyph-name="C" unicode="C" horiz-adv-x="723" 
d="M629 602c0 -4.66699 10.6709 -19.999 32.0039 -45.999s32 -46.667 32 -62c0 -18 -7 -30 -21 -36s-26.667 -2.66699 -38 10c-27.333 30 -46.5 48.833 -57.5 56.5s-25.167 13.5 -42.5 17.5c-10 2 -32.5 0.166992 -67.5 -5.5s-56.167 -7.83398 -63.5 -6.50098
c-4.66699 2 -6.33398 0 -5.00098 -6c0.666992 -2.66699 -0.5 -4.83398 -3.5 -6.50098s-7.5 -2.5 -13.5 -2.5c-3.33301 0 -6.33301 -0.166992 -9 -0.5s-4.66699 -0.833008 -6 -1.5s-1.66602 -1.33398 -0.999023 -2.00098c1.33301 -2.66699 -8.33398 -10.667 -29.001 -24
c-36.667 -24.667 -58 -64.334 -64 -119.001c-2.66699 -26 -0.5 -48 6.5 -66s21.5 -38.667 43.5 -62c21.333 -22.667 43.833 -39.167 67.5 -49.5s53.834 -17.166 90.501 -20.499c21.333 -2 36.333 -2.16699 45 -0.5s21 6.5 37 14.5c40.667 20 70 21 88 3
c10 -10 14.5 -21.167 13.5 -33.5s-7.16699 -23.5 -18.5 -33.5c-22 -19.333 -57.833 -32.166 -107.5 -38.499s-91.5 -3.5 -125.5 8.5c-32 11.333 -56.667 22.5 -74 33.5s-41.666 30.5 -72.999 58.5c-42.667 38.667 -68.334 92 -77.001 160c-2.66699 22 -5.66699 34.333 -9 37
s-14.333 0 -33 -8c-16.667 -8.66699 -29.334 -13.167 -38.001 -13.5s-18.334 3.5 -29.001 11.5c-4.66699 4 -12 8.66699 -22 14s-16.667 11.5 -20 18.5s-5 18.833 -5 35.5l-2 40c40.667 -6 70.667 -5.66699 90 1s41.333 26.334 66 59.001c28 36.667 62.5 68.167 103.5 94.5
s78.833 41.5 113.5 45.5c11.333 1.33301 18.333 3.33301 21 6c3.33301 3.33301 9.66602 4.16602 18.999 2.49902s30.333 -7.16699 63 -16.5c29.333 -8.66699 57.166 -20.167 83.499 -34.5s39.5 -25.166 39.5 -32.499z" />
    <glyph glyph-name="D" unicode="D" horiz-adv-x="747" 
d="M504 520c-26.667 11.333 -57.333 17.334 -92 18.001s-56.667 -4.33301 -66 -15c-6.66699 -7.33301 -10 -58.166 -10 -152.499s3 -155.5 9 -183.5l10 -46c43.333 4 89 14.333 137 31s81.667 36 101 58c18 21.333 29.667 40.166 35 56.499s6.33301 39.166 3 68.499
c-4 36.667 -9 62 -15 76s-18 28.333 -36 43c-22 18 -47.333 33.333 -76 46zM254.001 469.001c-5.33301 0 -12.498 -9.33398 -21.498 -28.001s-15.833 -37.667 -20.5 -57c-14 -57.333 -37.833 -99.5 -71.5 -126.5s-64.834 -29.167 -93.501 -6.5
c-12 8.66699 -17.667 22.667 -17 42c0.666992 12.667 2.5 21 5.5 25s11.833 8.66699 26.5 14c34 12.667 56.333 39 67 79c4.66699 16.667 8.66699 24.667 12 24c1.33301 -2 2.66602 -1 3.99902 3c0.666992 3.33301 1 8.66602 1 15.999
c0.666992 27.333 17.667 60.166 51 98.499s66 62.5 98 72.5c14 4 48.667 5.33301 104 4c40.667 -0.666992 67.167 -2.5 79.5 -5.5s32.5 -11.167 60.5 -24.5c32.667 -16 63.5 -37.5 92.5 -64.5s46.833 -50.833 53.5 -71.5c4.66699 -16.667 9 -27.667 13 -33
c6 -7.33301 12 -43 18 -107c3.33301 -35.333 0.833008 -64.166 -7.5 -86.499s-24.833 -46.166 -49.5 -71.499c-25.333 -25.333 -43.333 -40.666 -54 -45.999c-25.333 -12 -45.166 -20.167 -59.499 -24.5s-29.833 -10.5 -46.5 -18.5c-35.333 -16 -73 -26.333 -113 -31
s-69 -2 -87 8c-8.66699 4.66699 -17.667 20.667 -27 48c-6 18 -9.83301 38.833 -11.5 62.5s-2.16699 71.167 -1.5 142.5c1.33301 108.667 -0.333984 163 -5.00098 163z" />
    <glyph glyph-name="E" unicode="E" horiz-adv-x="734" 
d="M36 349c2.66699 0 12.6699 7.32812 30.0029 21.9951s27.666 21.667 30.999 21c4 0 11.333 5.66699 22 17s21 23.5 31 36.5s15.667 19.833 17 20.5l44 52.5c23.333 27.667 39.333 47.5 48 59.5c12.667 22.667 28.334 28.667 47.001 18c11.333 -6 23.666 -6 36.999 0
c10.667 4.66699 37.5 8.33398 80.5 11.001s67.833 4.66699 74.5 6c58 8.66699 87.333 13.334 88 14.001c2.66699 3.33301 9.16699 4.33301 19.5 3s18.166 -4 23.499 -8c6.66699 -6 13 -14 19 -24s9 -18.333 9 -25c0 -7.33301 -4.66699 -16.333 -14 -27
c-6.66699 -8.66699 -19.334 -14.667 -38.001 -18s-72.334 -8.66602 -161.001 -15.999c-56 -4.66699 -88.333 -9.33398 -97 -14.001c-8.66699 -5.33301 -15.667 -19.666 -21 -42.999c-5.33301 -24.667 -7.33301 -38.667 -6 -42s9 -5.33301 23 -6
c20.667 -1.33301 38.334 -4 53.001 -8c27.333 -8 84.333 -12.667 171 -14c14.667 0 24.5 -1.33301 29.5 -4s10.833 -9 17.5 -19c7.33301 -11.333 10.833 -23.5 10.5 -36.5s-4.16602 -21.833 -11.499 -26.5c-9.33301 -6 -39.833 -7.5 -91.5 -4.5
s-104.167 9.16699 -157.5 18.5c-23.333 4.66699 -37.666 4.33398 -42.999 -0.999023s-9.33301 -33.333 -12 -84c-2.66699 -49.333 0 -75.666 8 -78.999c39.333 -5.33301 121 -3 245 7c42.667 2.66699 65.667 5.66699 69 9c5.33301 5.33301 15.333 5.5 30 0.5
s25.667 -12.167 33 -21.5c9.33301 -12.667 12.5 -26.334 9.5 -41.001s-10.833 -23.334 -23.5 -26.001c-12 -3.33301 -20.333 -1.66602 -25 5.00098c-2 2.66699 -3.33301 4.33398 -4 5.00098l1 -7c1.33301 -2.66699 1.66602 -4.66699 0.999023 -6s-2.16699 -2.33301 -4.5 -3
s-5.83301 -1 -10.5 -1h-19c-22 1.33301 -57.667 -0.666992 -107 -6c-45.333 -4.66699 -91.166 -6.33398 -137.499 -5.00098s-78.166 5 -95.499 11c-35.333 12.667 -53.666 35.667 -54.999 69c0 56.667 4.66699 134 14 232c1.33301 13.333 1.16602 21.5 -0.500977 24.5
s-3.66699 3.33301 -6 1s-6.5 -7.5 -12.5 -15.5c-0.666992 -1.33301 -1.33398 -2.33301 -2.00098 -3s-1.33398 -1.5 -2.00098 -2.5l-2 -3c-0.666992 -1 -1.33398 -1.83301 -2.00098 -2.5c-5.33301 -8.66699 -11.333 -16.167 -18 -22.5s-15.5 -13.5 -26.5 -21.5l-20.5 -15
c-6.66699 -6.66699 -17.667 -16 -33 -28c-18 -13.333 -35 -18.333 -51 -15c-16.667 4 -26 9 -28 15c-2 5.33301 -3.16699 13.333 -3.5 24s0 20.334 1 29.001s2.5 13 4.5 13z" />
    <glyph glyph-name="F" unicode="F" horiz-adv-x="744" 
d="M698 641c0 -6.66699 2.33594 -9.99707 7.00293 -9.99707c6 0 9.16699 -5 9.5 -15s-2 -20.833 -7 -32.5s-10.833 -19.5 -17.5 -23.5c-1.33301 -2 -18.5 -3.83301 -51.5 -5.5s-50.5 -2.83398 -52.5 -3.50098c-2 -2 -37.5 -4.83301 -106.5 -8.5
s-104.167 -6.16699 -105.5 -7.5c-5.33301 -2 -9.83301 -10.167 -13.5 -24.5s-6.33398 -32.5 -8.00098 -54.5s-2.83398 -34 -3.50098 -36l-5 -28c8 0 27.667 0.833008 59 2.5s57.666 2.33398 78.999 2.00098s38 -1.83301 50 -4.5
c16.667 -3.33301 27.834 -6.83301 33.501 -10.5s11.167 -11.167 16.5 -22.5c10.667 -22.667 11.167 -39.334 1.5 -50.001s-27.834 -13.334 -54.501 -8.00098c-30.667 1.33301 -49 2.16602 -55 2.49902s-30 -0.5 -72 -2.5l-62 -3c-5.33301 -32 -7.33301 -58.333 -6 -79
c1.33301 -43.333 -0.833984 -72.333 -6.50098 -87s-17.834 -23 -36.501 -25c-14 -0.666992 -23.667 3.66602 -29 12.999c-14.667 29.333 -19.334 74 -14.001 134c5.33301 62 9.16602 102.167 11.499 120.5s5.5 28.833 9.5 31.5c5.33301 4 7 7.66699 5 11
c-2 0 -1.66699 8.66699 1 26s5 33.5 7 48.5s1.66699 23.833 -1 26.5c-5.33301 0 -18.166 -7.33301 -38.499 -22s-30.5 -24 -30.5 -28c-26.667 -72 -49 -128.333 -67 -169c-7.33301 -13.333 -20.666 -30.666 -39.999 -51.999s-31.666 -32 -36.999 -32c-6 0 -14.333 6 -25 18
c-11.333 12 -15.333 26.333 -12 43c3.33301 18 7 28 11 30c7.33301 5.33301 18.333 21.666 33 48.999s26.334 53 35.001 77c9.33301 25.333 22.333 56 39 92c5.33301 12 16.333 26 33 42s27.667 23 33 21c6 -2.66699 11.333 0.333008 16 9c12.667 20 88.667 34 228 42
c102 6.66699 170 13.334 204 20.001c5.33301 1.33301 12.5 -0.166992 21.5 -4.5s13.5 -8.5 13.5 -12.5z" />
    <glyph glyph-name="G" unicode="G" horiz-adv-x="701" 
d="M390 117c10 0 27.5117 4.33105 52.5117 12.998s41.833 16.334 50.5 23.001c20.667 15.333 36.5 29.833 47.5 43.5s21.833 31.834 32.5 54.501c-22.667 10.667 -54 11.667 -94 3c-20.667 -4.66699 -38.167 5.66602 -52.5 30.999s-13.5 44.666 2.5 57.999
c7.33301 6.66699 32.666 10 75.999 10c28.667 0 48.167 -1.16699 58.5 -3.5s24.833 -8.83301 43.5 -19.5c28 -16 45.333 -33.167 52 -51.5s5 -44.5 -5 -78.5c-6 -19.333 -20 -43.166 -42 -71.499s-42 -47.833 -60 -58.5c-34.667 -22 -67.334 -35.833 -98.001 -41.5
s-65.334 -4.5 -104.001 3.5c-65.333 14 -104.333 31 -117 51c-6.66699 10 -16.334 22 -29.001 36c-44.667 40 -66 106.333 -64 199c3.33301 6 2 9.33301 -4 10c-4 0.666992 -6.33301 -1 -7 -5c0 -2 -10.333 -14.667 -31 -38c-20 -22 -36.333 -31.667 -49 -29
c-9.33301 2 -14.833 5.5 -16.5 10.5s-2.5 20.167 -2.5 45.5c0 24 1 40.167 3 48.5s7.33301 17.5 16 27.5c1.33301 1.33301 20.166 26.833 56.499 76.5s62.166 79.834 77.499 90.501c19.333 14.667 42.666 26.5 69.999 35.5s49.666 11.833 66.999 8.5
c15.333 -2 40.666 1 75.999 9c30.667 7.33301 54.167 11 70.5 11s36.166 -4 59.499 -12c34.667 -12.667 60 -24.667 76 -36s32.333 -29.333 49 -54c15.333 -23.333 21.666 -43.333 18.999 -60s-13.334 -24 -32.001 -22c-12 0.666992 -25.667 11.334 -41 32.001
c-22 30.667 -48.667 48.667 -80 54s-74 -0.333984 -128 -17.001c-49.333 -16 -79 -27.333 -89 -34c-18.667 -12 -33.5 -36.333 -44.5 -73s-16.833 -79.667 -17.5 -129v-70c2 -2 7 -7.66699 15 -17s13.833 -15.5 17.5 -18.5l16 -13.5c7 -6 14.167 -10.5 21.5 -13.5
s15.333 -5.5 24 -7.5c26.667 -7.33301 46 -11 58 -11z" />
    <glyph glyph-name="H" unicode="H" horiz-adv-x="859" 
d="M738 272c-6.66699 0 -16.9961 14.6719 -30.9961 44.0049s-22.667 54.666 -26 75.999c-4.66699 30.667 -6.33398 57.667 -5.00098 81c0.666992 23.333 -0.333008 38.666 -3 45.999s-9.33398 12.666 -20.001 15.999c-7.33301 2 -12.333 -1 -15 -9
c-2.66699 -8.66699 -6.33398 -34 -11.001 -76c-7.33301 -61.333 -11 -98 -11 -110c0 -14 -3.66699 -24.667 -11 -32c-19.333 -23.333 -26.333 -71.333 -21 -144c2.66699 -37.333 1.5 -60.833 -3.5 -70.5s-17.5 -12.5 -37.5 -8.5c-17.333 2.66699 -29 13 -35 31
s-9.33301 52.333 -10 103v85l-81 -2c-53.333 -0.666992 -89.166 -2.66699 -107.499 -6s-29.166 -9.66602 -32.499 -18.999c-2.66699 -5.33301 -5 -19 -7 -41s-4 -45.667 -6 -71s-3.33301 -40.333 -4 -45c-4 -22 -6.66699 -37.667 -8 -47c-2.66699 -16 -8.66699 -27 -18 -33
s-19.666 -6 -30.999 0s-21 17 -29 33c-5.33301 11.333 -8 23.166 -8 35.499s2.66699 40.833 8 85.5c8 74 12.833 121.333 14.5 142s1.5 32 -0.5 34c-2 -0.666992 -12.333 -7 -31 -19s-33.334 -19.667 -44.001 -23l-30 -9v-35c0 -23.333 -5.66699 -39.333 -17 -48
c-16 -12.667 -26 -13.667 -30 -3s-6 41.334 -6 92.001v95c22.667 -0.666992 38 0.333008 46 3s19.333 11.334 34 26.001c34 36 53 79.667 57 131c0.666992 5.33301 1.33398 11.666 2.00098 18.999s1.33398 12.166 2.00098 14.499l2.5 8.5c1 3.33301 3.16699 5.33301 6.5 6
s7.33301 1.33398 12 2.00098s11.334 1 20.001 1c9.33301 0 18.166 -1.66699 26.499 -5s14.666 -6.83301 18.999 -10.5s10.166 -9 17.499 -16l15 -14.5l-8 -87c-3.33301 -40.667 -4.83301 -65.834 -4.5 -75.501s3.83301 -16.834 10.5 -21.501
c8.66699 -6.66699 20 -8.33398 34 -5.00098c16 3.33301 85 5 207 5c6 28.667 10.833 61 14.5 97s3.5 63.333 -0.5 82c-5.33301 13.333 -4.83301 25 1.5 35s17.166 16 32.499 18c34 4 62 2 84 -6s42.333 -23.667 61 -47c16.667 -21.333 27 -38.5 31 -51.5s7 -41.5 9 -85.5
l4 -79l29 -27c33.333 -29.333 41.666 -53.666 24.999 -72.999c-7.33301 -8 -18.333 -12.333 -33 -13s-25.334 2.66602 -32.001 9.99902c-6 7.33301 -11.667 11 -17 11z" />
    <glyph glyph-name="I" unicode="I" horiz-adv-x="456" 
d="M336 701c5.33301 0.666992 12.335 -2.66406 21.002 -9.99707s14.334 -11 17.001 -11c7.33301 0 17 -6 29 -18s19.333 -22.667 22 -32c7.33301 -22 -12 -45 -58 -69c-4 -2 -11.833 -7.33301 -23.5 -16s-22.834 -16.334 -33.501 -23.001s-19.667 -10.334 -27 -11.001
c-15.333 -0.666992 -25 -6 -29 -16s-6.33301 -35.667 -7 -77c-2.66699 -127.333 -3.33398 -209.666 -2.00098 -246.999c0.666992 -55.333 -2.66602 -88.333 -9.99902 -99c-3.33301 -5.33301 -6.33301 -9 -9 -11s-5.66699 -3 -9 -3s-8.33301 1 -15 3
c-16.667 4.66699 -27 11 -31 19c-6.66699 14 -9.33398 65.333 -8.00098 154c0 13.333 0.333008 35 1 65c2 136 0.666992 209.333 -4 220c-6.66699 9.33301 -23.834 21.833 -51.501 37.5s-44.5 25.834 -50.5 30.501c-12.667 9.33301 -20.5 16.666 -23.5 21.999
s-4.5 15 -4.5 29v32c39.333 0 68.333 -0.666992 87 -2c23.333 46.667 36 71.334 38 74.001c5.33301 7.33301 14.833 10.166 28.5 8.49902s24.167 -7.16699 31.5 -16.5l2 -2c6.66699 -8.66699 11 -12 13 -10c1.33301 1.33301 3.33301 4 6 8
c7.33301 11.333 18.833 16.166 34.5 14.499s28.167 -8.83398 37.5 -21.501c10.667 -14.667 20 -22 28 -22z" />
    <glyph glyph-name="J" unicode="J" horiz-adv-x="642" 
d="M107 108c0 2.66699 3.33398 7.99902 10.001 15.999l4 6c-1.33301 -0.666992 -4.33301 -2.66699 -9 -6c-5.33301 -4 -9.83301 -5.33301 -13.5 -4s-9.16699 6.33301 -16.5 15c-9.33301 11.333 -20.666 31 -33.999 59c-8 18 -13 34 -15 48s-3 43.333 -3 88
c0 60.667 2.66699 104.667 8 132s14.666 44.666 27.999 51.999s39 12.666 77 15.999c28 1.33301 46.333 1.33301 55 0s20.667 -6 36 -14c46.667 -25.333 72 -68.333 76 -129c1.33301 -20.667 1.16602 -35.667 -0.500977 -45s-6.83398 -21.333 -15.501 -36
c-12 -21.333 -30 -39.666 -54 -54.999c-24.667 -15.333 -44 -21.666 -58 -18.999s-28.667 15.334 -44 38.001c-10.667 15.333 -16.5 25.5 -17.5 30.5s0.833008 12.167 5.5 21.5c4.66699 8.66699 9.33398 14.167 14.001 16.5s14.667 3.5 30 3.5
c14.667 0 24.667 1.16699 30 3.5s10.666 7.16602 15.999 14.499c6.66699 10 10.334 21.833 11.001 35.5s-2 23.5 -8 29.5c-6.66699 6.66699 -18.5 9.66699 -35.5 9s-28.833 -4.66699 -35.5 -12c-26 -30.667 -39.667 -69.334 -41 -116.001
c-0.666992 -39.333 5.66602 -69.666 18.999 -90.999s36 -37.666 68 -48.999c23.333 -7.33301 57.5 -15 102.5 -23s78.5 -12 100.5 -12c22.667 0 41.667 12.167 57 36.5s31.333 68.166 48 131.499c25.333 96 28 183 8 261c-6.66699 25.333 -10 40.5 -10 45.5
s3.33301 10.833 10 17.5c17.333 16 35 15 53 -3s31.667 -48.333 41 -91c5.33301 -22 8 -57.167 8 -105.5s-2.33301 -82.5 -7 -102.5l-12.5 -57.5c-7 -32.333 -14 -60 -21 -83s-13.833 -37.167 -20.5 -42.5c-2.66699 -2.66699 -11 -17.334 -25 -44.001
c-14 -27.333 -30.333 -45.666 -49 -54.999c-37.333 -18 -82 -19 -134 -3c-21.333 7.33301 -38 9.33301 -50 6c-13.333 -3.33301 -47.666 4.83398 -102.999 24.501s-83 33.5 -83 41.5z" />
    <glyph glyph-name="K" unicode="K" horiz-adv-x="728" 
d="M30 299v114.001l17 -19c8.66699 -10 14.167 -15.167 16.5 -15.5s7.5 2.5 15.5 8.5c14 14.667 15.667 23.334 5 26.001c-7.33301 0 -15.833 7 -25.5 21s-14.5 26 -14.5 36c0 10.667 8.66699 23.667 26 39c14.667 13.333 26.667 20.5 36 21.5s22.333 -3.16699 39 -12.5
c12.667 -7.33301 22.334 -17 29.001 -29s13.667 -31.667 21 -59c5.33301 -19.333 6.5 -32.333 3.5 -39s-18.167 -24.667 -45.5 -54c-17.333 -19.333 -35 -34 -53 -44c-6.66699 -4.66699 -13.334 -7.5 -20.001 -8.5s-12 -0.833008 -16 0.5s-9.83301 3.66602 -17.5 6.99902
s-13.167 5.66602 -16.5 6.99902zM171 708.001c0 -3.33301 3.33789 -3.99902 10.0049 -1.99902c4.66699 3.33301 21 -7.66699 49 -33s43.667 -38 47 -38c9.33301 -3.33301 20 -14 32 -32c8 -12 13.167 -24 15.5 -36s4.5 -38.667 6.5 -80c1.33301 -60 4.33301 -90.667 9 -92
c3.33301 -1.33301 26.166 10.5 68.499 35.5s64.166 37.5 65.499 37.5c8 3.33301 30.833 16.5 68.5 39.5s59.5 37.5 65.5 43.5c4 3.33301 10 5.83301 18 7.5s15.167 2.16699 21.5 1.5s9.5 -2.66699 9.5 -6c0 -4.66699 3.66699 -7.66699 11 -9
c6 -0.666992 10.333 -9.16699 13 -25.5s2 -27.833 -2 -34.5c-8 -10.667 -44.667 -33.667 -110 -69c-36 -20 -54.667 -30.667 -56 -32c-4.66699 -3.33301 1 -13 17 -29c19.333 -19.333 39.666 -46 60.999 -80c24.667 -38.667 45.334 -61.667 62.001 -69
c22.667 -10.667 37.167 -29.334 43.5 -56.001s-0.166992 -43.334 -19.5 -50.001c-8 -2.66699 -15 -2.83398 -21 -0.500977s-16.333 9.5 -31 21.5c-12 8.66699 -38 39.334 -78 92.001s-66.667 83 -80 91c-18 10.667 -28.333 19.334 -31 26.001c-1.33301 4 -3 6 -5 6
s-5.66699 -2 -11 -6c-2.66699 -1.33301 -7.83398 -4.66602 -15.501 -9.99902l-17.5 -12c-25.333 -15.333 -41 -29 -47 -41s-15.333 -48.667 -28 -110c-4.66699 -23.333 -14.5 -37.833 -29.5 -43.5s-29.833 -0.5 -44.5 15.5c-11.333 13.333 -17.5 34 -18.5 62
s2.83301 76 11.5 144c7.33301 52.667 9.16602 96.334 5.49902 131.001s-14.834 75 -33.501 121c-6.66699 16.667 -13.667 27.167 -21 31.5s-17.5 3.66602 -30.5 -2.00098s-31.833 -17.834 -56.5 -36.501c-17.333 -12.667 -30.333 -25 -39 -37s-17 -28.333 -25 -49v162
c42.667 32 69 50 79 54c11.333 3.33301 24.333 4.83301 39 4.5s22 -2.5 22 -6.5z" />
    <glyph glyph-name="L" unicode="L" horiz-adv-x="630" 
d="M582 127c0 -6.66699 3.00195 -10.667 9.00195 -12c6.66699 -2.66699 9.66699 -11.334 9 -26.001s-4.33398 -25.334 -11.001 -32.001c-5.33301 -4.66699 -17 -7.5 -35 -8.5s-58.333 -0.833008 -121 0.5c-68 0.666992 -110 2 -126 4s-29.333 6.66699 -40 14
c-8 4.66699 -13.333 8.66699 -16 12s-5.33398 8.5 -8.00098 15.5l-6 15.5c-2.66699 4 -5.5 5.5 -8.5 4.5s-8.16699 -5.5 -15.5 -13.5c-14.667 -15.333 -28.334 -21.166 -41.001 -17.499s-19 15.5 -19 35.5c0 9.33301 6.66699 27 20 53s29 51 47 75
c4.66699 6.66699 9.16699 17.334 13.5 32.001s6.83301 27.167 7.5 37.5s-0.666016 16.5 -3.99902 18.5c-4.66699 0 -7 -1.66699 -7 -5c0 -4 -10.667 -16.667 -32 -38c-39.333 -40 -66.333 -46.333 -81 -19c-3.33301 6.66699 -2.33301 15.334 3 26.001s20 33.667 44 69
c37.333 55.333 58.333 84.666 63 87.999c4.66699 5.33301 7.16699 10.166 7.5 14.499s-0.833984 11.333 -3.50098 21s-4.66699 17.5 -6 23.5l-5 33l-58 -87c-30.667 -46 -53 -75.5 -67 -88.5s-27.333 -16.167 -40 -9.5c-6 2.66699 -10 6.16699 -12 10.5
s-3.66699 9.5 -5 15.5s-3.33301 11.333 -6 16c-3.33301 5.33301 -2.16602 13.5 3.50098 24.5s20.167 33.833 43.5 68.5c36.667 54 56.667 82 60 84c2.66699 2.66699 6.33398 10.667 11.001 24s8.33398 21.333 11.001 24c10.667 12.667 24.667 11.667 42 -3
c8 -7.33301 17 -8.33301 27 -3c26 13.333 47.667 0 65 -40c9.33301 -20.667 17.166 -68.667 23.499 -144s9.83301 -160.333 10.5 -255c0 -18 0.666992 -29.167 2 -33.5s4.66602 -6.16602 9.99902 -5.49902c11.333 2 43.333 0.666992 96 -4c56 -3.33301 85.667 -2.33301 89 3
s13.5 5.33301 30.5 0s25.5 -11.333 25.5 -18z" />
    <glyph glyph-name="M" unicode="M" horiz-adv-x="781" 
d="M693 718c-4.66699 -4 -6.32617 -9.16602 -4.99316 -15.499s7 -6.83301 17 -1.5c12 4.66699 22.667 4 32 -2c13.333 -7.33301 17.5 -17.833 12.5 -31.5s-17.5 -25.834 -37.5 -36.501c-20.667 -11.333 -32 -24.333 -34 -39c-6.66699 -44 -14 -172 -22 -384
c-1.33301 -43.333 -3 -72.333 -5 -87s-5.66699 -25.334 -11 -32.001c-8.66699 -11.333 -15.667 -17.5 -21 -18.5s-13 2.5 -23 10.5c-8.66699 6.66699 -13.667 13.5 -15 20.5s-0.666016 26.833 2.00098 59.5c3.33301 38 7.66602 134.667 12.999 290l-46.5 -81.5l-60 -98.5
l-51.5 -83c-22.667 -36.667 -39.5 -61.167 -50.5 -73.5s-20.833 -17.833 -29.5 -16.5c-9.33301 2 -18.833 6 -28.5 12s-14.5 11 -14.5 15c0 6 -3.33301 11.333 -10 16c-6.66699 8.66699 -17.834 38.834 -33.501 90.501s-26.167 82.167 -31.5 91.5
c-8 14.667 -17.5 37.834 -28.5 69.501s-17.833 50.834 -20.5 57.501c-12 22 -19 24 -21 6c-1.33301 -12.667 -1.33301 -37 0 -73c1.33301 -31.333 1.5 -58 0.5 -80s-3.5 -48.333 -7.5 -79s-6.66699 -53 -8 -67c-2.66699 -32 -7.16699 -52.667 -13.5 -62
s-18.833 -13.333 -37.5 -12c-12.667 0.666992 -20 2.5 -22 5.5s-2.66699 11.167 -2 24.5c4 101.333 5 243.333 3 426c-14 10.667 -24 19.5 -30 26.5s-11.333 17.667 -16 32s-7 33.166 -7 56.499c-0.666992 21.333 2.33301 36.166 9 44.499s16 9.16602 28 2.49902
c10 -4.66699 15 -9.33398 15 -14.001c0 -11.333 4 -11.333 12 0c4 5.33301 8 12.333 12 21c13.333 31.333 29.666 37 48.999 17c6.66699 -6.66699 10.167 -13.5 10.5 -20.5s-2.83398 -18.5 -9.50098 -34.5c-11.333 -26 -10 -39 4 -39c3.33301 0 17.333 8 42 24
c33.333 21.333 53.666 26.333 60.999 15l2 -7c-0.666992 -4.66699 -4.66699 -12.5 -12 -23.5s-17 -24.5 -29 -40.5s-18.667 -25 -20 -27c16 -17.333 33.667 -42.833 53 -76.5s29 -57.5 29 -71.5c2.66699 -10.667 12.667 -36.667 30 -78s27.333 -71.333 30 -90
c2 -10.667 4.33301 -20.167 7 -28.5s5.16699 -14.5 7.5 -18.5s4.16602 -5.66699 5.49902 -5c4 0 23.333 27.333 58 82s68.834 113.5 102.501 176.5s50.5 103.833 50.5 122.5c0 15.333 -3.33301 35.5 -10 60.5s-13.334 41.833 -20.001 50.5
c-8.66699 11.333 -13 19.166 -13 23.499s3.66699 10.5 11 18.5c7.33301 8.66699 17.5 13 30.5 13s22.167 -4.66699 27.5 -14c5.33301 -10.667 11.666 -15 18.999 -13s17.333 11 30 27c11.333 13.333 18.666 20.833 21.999 22.5s8 -0.166016 14 -5.49902
s9.5 -13.666 10.5 -24.999s-0.833008 -19.666 -5.5 -24.999z" />
    <glyph glyph-name="N" unicode="N" horiz-adv-x="645" 
d="M503 215c3.33301 0 6.33496 7.99902 9.00195 23.999c13.333 89.333 19.666 162.333 18.999 219c-0.666992 32.667 -0.166992 52 1.5 58s6.83398 10 15.501 12c23.333 6 40.333 0.666992 51 -16s16 -47 16 -91c0 -32 -3.83301 -79 -11.5 -141
s-11.834 -106.667 -12.501 -134c-2.66699 -46 -5.33398 -72 -8.00098 -78c-2.66699 -5.33301 -11.834 -7.66602 -27.501 -6.99902s-28.167 3.66699 -37.5 9c-9.33301 6 -30.833 32.333 -64.5 79s-53.167 77.667 -58.5 93c-6 15.333 -10.667 23 -14 23c-4 0 -6 3 -6 9
s-16.5 35 -49.5 87s-53.167 81.333 -60.5 88c-5.33301 4 -8.33301 2.66699 -9 -4s0 -28 2 -64c5.33301 -91.333 7.5 -174.166 6.5 -248.499s-4.83301 -115.833 -11.5 -124.5c-4 -5.33301 -12 -8.83301 -24 -10.5s-38.667 -2.83398 -80 -3.50098
c-64 -1.33301 -99.333 -3.66602 -106 -6.99902c-4 -2 -6.66699 0.666992 -8 8c-3.33301 17.333 -5 110.666 -5 279.999v293l28 -5c14.667 -2.66699 37.167 -1.5 67.5 3.5s48.833 10.167 55.5 15.5c9.33301 9.33301 27.333 7 54 -7s52.334 -34.333 77.001 -61
c16.667 -18 40.5 -50.833 71.5 -98.5s56.5 -90.167 76.5 -127.5c24 -48.667 38.333 -73 43 -73z" />
    <glyph glyph-name="O" unicode="O" horiz-adv-x="771" 
d="M127 370c-13.333 -13.333 -21.499 -35.3311 -24.499 -65.998s1.83301 -57.334 14.5 -80.001c6.66699 -12.667 15.5 -23.5 26.5 -32.5s18.5 -11.5 22.5 -7.5c1.33301 1.33301 -5.33398 15.666 -20.001 42.999c-10 18.667 -16.167 33 -18.5 43s-2.83301 26.667 -1.5 50
c0.666992 20 1 31.667 1 35v15zM672.001 398.002c-5.33301 8.66699 -14.668 7.99805 -28.001 -2.00195c-5.33301 -4 -8.5 -10 -9.5 -18s-1.16699 -25 -0.5 -51l2 -59c12.667 18.667 23.834 41.834 33.501 69.501s10.5 47.834 2.5 60.501zM392.999 129
c34 0 60.334 5.66797 79.001 17.001s35.334 32 50.001 62c13.333 28 21.666 60.167 24.999 96.5s0.333008 63.833 -9 82.5c-8 15.333 -13 29.333 -15 42c-6.66699 27.333 -33.334 47.166 -80.001 59.499s-88.667 11.833 -126 -1.5c-14 -4 -27 -11.333 -39 -22
s-18.333 -20 -19 -28c0 -5.33301 -6 -20.666 -18 -45.999c-12.667 -25.333 -19 -54.333 -19 -87c-0.666992 -22.667 0.333008 -38.334 3 -47.001s9.66699 -21.667 21 -39c22.667 -34 44.5 -57.333 65.5 -70s48.167 -19 81.5 -19zM569 508.001
c0 -4 5.66797 -12.999 17.001 -26.999c7.33301 -8.66699 13 -13.667 17 -15s10 -0.333008 18 3c26 10 49.833 8.16699 71.5 -5.5s36.167 -36.167 43.5 -67.5c6.66699 -24.667 6.5 -51 -0.5 -79s-24.167 -70.667 -51.5 -128c-15.333 -31.333 -33 -40 -53 -26
c-11.333 7.33301 -19 10.166 -23 8.49902s-9.66699 -10.167 -17 -25.5c-18.667 -35.333 -47.5 -62.166 -86.5 -80.499s-81.833 -24.833 -128.5 -19.5c-30 3.33301 -54 9.16602 -72 17.499s-40.333 23.833 -67 46.5c-18.667 16 -30.167 25 -34.5 27s-8.5 -0.333008 -12.5 -7
c-8 -12.667 -23 -16.5 -45 -11.5s-41 16.833 -57 35.5c-12.667 14.667 -19 24.667 -19 30s-2.33301 4.33301 -7 -3c-4 -6.66699 -9 -1.66699 -15 15c-10.667 30.667 -16.334 67.667 -17.001 111c0 32.667 3.83301 59.834 11.5 81.501s23.167 48.834 46.5 81.501
c28.667 40.667 55.667 58.334 81 53.001c12.667 -2.66699 20.667 -0.333984 24 6.99902c4.66699 14 35.667 29 93 45c26.667 7.33301 56.667 10.666 90 9.99902s62.333 -5.33398 87 -14.001c18.667 -6.66699 41 -17.667 67 -33s39 -25.333 39 -30z" />
    <glyph glyph-name="P" unicode="P" horiz-adv-x="492" 
d="M310 377c10.667 0 24.0029 4.66602 40.0029 13.999s25.667 17.666 29 24.999c3.33301 8.66699 1.16602 21.334 -6.50098 38.001s-18.167 31.667 -31.5 45c-15.333 18.667 -41.5 30.834 -78.5 36.501s-67.5 2.16699 -91.5 -10.5l-30 -14c6 -74.667 9.33301 -113 10 -115
c1.33301 -1.33301 10 -5.66602 26 -12.999c13.333 -6.66699 34.166 -11.334 62.499 -14.001s44.166 -1.66699 47.499 3c2 3.33301 9.66699 5 23 5zM149.003 614.999c12.667 5.33301 33.5039 7.82715 62.5039 7.49414s54.5 -3.16602 76.5 -8.49902
c26.667 -6.66699 48.667 -16.667 66 -30s39.666 -37 66.999 -71c16.667 -20.667 27.5 -37.167 32.5 -49.5s7.83301 -28.166 8.5 -47.499c0 -22 -3.83301 -39.5 -11.5 -52.5s-21.167 -25.833 -40.5 -38.5c-12.667 -8 -32.334 -16.667 -59.001 -26s-47 -14.333 -61 -15
c-14.667 -1.33301 -38.834 0.666992 -72.501 6s-52.167 10 -55.5 14c-5.33301 6.66699 -10 8.5 -14 5.5s-5 -9.16699 -3 -18.5c2 -8.66699 4.66699 -44.667 8 -108s4.66602 -101.666 3.99902 -114.999c-0.666992 -29.333 -17.334 -39 -50.001 -29
c-18 4.66699 -29.667 11.334 -35 20.001c-2.66699 6 -6 80 -10 222c-2 100.667 -4 161.834 -6 183.501s-6.66699 37.5 -14 47.5s-11.333 16.833 -12 20.5s1.33301 9.83398 6 18.501c6.66699 10.667 15.334 19 26.001 25s39.667 19 87 39z" />
    <glyph glyph-name="Q" unicode="Q" horiz-adv-x="600" 
d="M311 554c0 -4.66699 -8.33008 -9.66797 -24.9971 -15.001c-8.66699 -2 -25.5 -11.5 -50.5 -28.5s-39.5 -26.167 -43.5 -27.5c-6.66699 0 -17.834 -10.667 -33.501 -32s-25.5 -38.666 -29.5 -51.999c-6 -22.667 -9 -50.334 -9 -83.001
c-0.666992 -60 13.5 -109.333 42.5 -148s66.5 -58 112.5 -58c34 0 46.667 5.33301 38 16l-5 5c-6.66699 5.33301 -10 14.833 -10 28.5s3.33301 23.834 10 30.501c14.667 15.333 34.334 12 59.001 -10l12.5 -11c3 -2.66699 6.16699 -4.5 9.5 -5.5
s5.66602 -1.83301 6.99902 -2.5s3.33301 0 6 2s4.66699 3.66699 6 5s4.16602 4.5 8.49902 9.5s7.83301 8.83301 10.5 11.5c14.667 18 24.5 41.167 29.5 69.5s4.5 55.833 -1.5 82.5c-29.333 128 -61.666 195.667 -96.999 203c-12.667 2 -20.334 5.33301 -23.001 10
c-2.66699 4 -7.33398 6 -14.001 6s-10 -2 -10 -6zM137.003 560.999c2.66699 0 15.501 7.17188 38.501 21.5049s36.167 21.166 39.5 20.499c5.33301 0 16 5 32 15c10.667 6.66699 18.5 10.167 23.5 10.5s12.5 -1.5 22.5 -5.5c14.667 -6 23.667 -11.333 27 -16
c3.33301 -4 5 -2.66699 5 4c3.33301 13.333 14.666 21.666 33.999 24.999s34 -0.666992 44 -12c10.667 -9.33301 17.667 -14 21 -14c22 -26 45.167 -66 69.5 -120s38.833 -98.667 43.5 -134c0.666992 -6.66699 2.5 -17.167 5.5 -31.5s4.83301 -25.166 5.5 -32.499
s0.333984 -18 -0.999023 -32c-3.33301 -8 -5.66602 -15.667 -6.99902 -23c-4 -28.667 -13.5 -56.334 -28.5 -83.001s-27.167 -38 -36.5 -34c-2.66699 0.666992 -4.83398 0.666992 -6.50098 0s-2.16699 -2.33398 -1.5 -5.00098c2 -4.66699 10.833 -10 26.5 -16
s29.5 -9.33301 41.5 -10c8 0 13.333 -4 16 -12s5.66699 -12.667 9 -14c7.33301 -2.66699 10.5 -11 9.5 -25s-5.83301 -24.667 -14.5 -32c-7.33301 -6.66699 -13.5 -10.334 -18.5 -11.001s-14.5 0.666016 -28.5 3.99902c-19.333 4 -41.333 13.333 -66 28
c-17.333 10 -28.666 15.5 -33.999 16.5s-14 -1.16699 -26 -6.5c-20.667 -9.33301 -43.834 -15.666 -69.501 -18.999s-47.167 -3 -64.5 1c-36.667 8 -71.667 26.667 -105 56s-61 66 -83 110c-12.667 24 -20.334 42.5 -23.001 55.5s-4.66699 38.833 -6 77.5
c-2.66699 56 -1.66699 88.333 3 97c10.667 21.333 18.667 38.666 24 51.999c7.33301 17.333 20.5 37.333 39.5 60s32.167 34 39.5 34z" />
    <glyph glyph-name="R" unicode="R" horiz-adv-x="547" 
d="M334 534c-18.667 5.33301 -54.5 8.16699 -107.5 8.5s-79.833 -1.83398 -80.5 -6.50098c-2 -1.33301 3.33301 -41.666 16 -120.999l46 -4c39.333 -3.33301 77.666 1.16699 114.999 13.5s59.333 27.833 66 46.5c10.667 24.667 -7.66602 45.667 -54.999 63zM471 460.001
c0 -18 -3.83203 -33.8301 -11.499 -47.4971s-15.667 -23.667 -24 -30s-19.833 -13.833 -34.5 -22.5c-19.333 -9.33301 -29 -15.666 -29 -18.999s5.83301 -13.333 17.5 -30s21.834 -29.334 30.501 -38.001c4 -4 7 -9.16699 9 -15.5s5 -11.5 9 -15.5
c6.66699 -6.66699 16.167 -21.334 28.5 -44.001s18.5 -36.667 18.5 -42c1.33301 -4.66699 5.83301 -12 13.5 -22s12.5 -20 14.5 -30c4.66699 -16.667 3 -28.334 -5 -35.001c-5.33301 -4 -6.33301 -6.66699 -3 -8c7.33301 -1.33301 9.66602 -4.33301 6.99902 -9
s-7.33398 -6.66699 -14.001 -6c-20 0 -34.5 4.16699 -43.5 12.5s-22.5 29.833 -40.5 64.5c-33.333 64.667 -60.166 107.5 -80.499 128.5s-48.833 35.833 -85.5 44.5c-38 8.66699 -61 15 -69 19c-8.66699 4.66699 -14.667 4.33398 -18 -0.999023
c-2 -2.66699 -5.16699 -47.5 -9.5 -134.5s-8.16602 -131.5 -11.499 -133.5c-8.66699 -16 -23.334 -21.833 -44.001 -17.5s-33 15.833 -37 34.5c-1.33301 5.33301 -5.16602 58.833 -11.499 160.5s-10.833 155.5 -13.5 161.5c-4 13.333 -5 44.666 -3 93.999
s5.66699 82.666 11 99.999c3.33301 9.33301 8 16.666 14 21.999s17 11.333 33 18c18.667 8 35.167 13 49.5 15s43.166 3 86.499 3c53.333 0.666992 89.666 -1.66602 108.999 -6.99902s43 -19 71 -41c44 -34 66 -77 66 -129z" />
    <glyph glyph-name="S" unicode="S" horiz-adv-x="544" 
d="M304 653c0 -16 3.1709 -27.3359 9.50391 -34.0029s18.833 -11.334 37.5 -14.001c12.667 -2 21 -1.5 25 1.5s9.33301 12.5 16 28.5c12 28.667 26 45.5 42 50.5s29.333 -3.16699 40 -24.5c4 -7.33301 6.16699 -15 6.5 -23s-0.666992 -15.833 -3 -23.5
s-4.83301 -14.5 -7.5 -20.5s-6 -12.833 -10 -20.5l-9 -17.5l-14 -24l16 -21c10.667 -14.667 16 -32.834 16 -54.501s-5.33301 -36.834 -16 -45.501s-22.834 -10.5 -36.501 -5.5s-21.834 13.833 -24.501 26.5c-3.33301 14 -9 28.833 -17 44.5s-15 24.834 -21 27.501
c-47.333 27.333 -93.333 32 -138 14c-29.333 -11.333 -46 -19 -50 -23c-5.33301 -4 -8.33301 -11.667 -9 -23s1.33301 -21.666 6 -30.999c4.66699 -8.66699 17.5 -18.834 38.5 -30.501s39.833 -19.167 56.5 -22.5c21.333 -4 53 -15.667 95 -35s70.333 -35.333 85 -48
c30.667 -26.667 52.334 -55.334 65.001 -86.001s14.667 -59.667 6 -87c-4.66699 -15.333 -17 -31.666 -37 -48.999s-43.667 -31.666 -71 -42.999c-16.667 -7.33301 -44.834 -12 -84.501 -14s-61.167 0 -64.5 6c-2 3.33301 -13.333 8.83301 -34 16.5
s-38.334 12.834 -53.001 15.501c-16 2.66699 -37.167 13.334 -63.5 32.001s-46.666 38.834 -60.999 60.501s-12.833 41.167 4.5 58.5c12.667 11.333 24.5 15.833 35.5 13.5s22.833 -12.166 35.5 -29.499c10 -13.333 18.667 -22.666 26 -27.999
s17.666 -9.66602 30.999 -12.999c12 -2 26.833 -6.66699 44.5 -14s30.834 -11.666 39.501 -12.999c8 0 12 -2 12 -6c2 -2 8.83301 -3 20.5 -3s26.167 1 43.5 3s30.666 4.33301 39.999 7c16 4.66699 29.667 12 41 22s17 19.333 17 28c0 10.667 -10.667 25.667 -32 45
s-39.333 30.666 -54 33.999c-11.333 2.66699 -28.333 9 -51 19s-41.334 16.333 -56.001 19c-18 3.33301 -54.333 23.666 -109 60.999c-19.333 12 -35 31.667 -47 59c-7.33301 17.333 -10.666 39.166 -9.99902 65.499s5 46.166 13 59.499c10 14.667 12.333 30.667 7 48
c-3.33301 10.667 -4.66602 18.334 -3.99902 23.001s3.66699 10 9 16c8 8.66699 17.667 13 29 13s20.666 -4.33301 27.999 -13c7.33301 -8 19.166 -12.667 35.499 -14s28.166 1.33398 35.499 8.00098c4.66699 4 7.66699 16.167 9 36.5s2.66602 32.166 3.99902 35.499
c2.66699 7.33301 9.83398 10.833 21.501 10.5s21.834 -4.83301 30.501 -13.5c9.33301 -9.33301 14 -23 14 -41z" />
    <glyph glyph-name="T" unicode="T" horiz-adv-x="622" 
d="M53 611c12 2.66699 62.1689 3.00488 150.502 1.00488s140.833 -4.66699 157.5 -8c26.667 -5.33301 63.334 -8 110.001 -8c34.667 -0.666992 57 -1.83398 67 -3.50098s19.667 -6.5 29 -14.5c24.667 -21.333 30 -41.333 16 -60c-6 -8.66699 -14.167 -13.5 -24.5 -14.5
s-43.833 0.166992 -100.5 3.5c-4 0 -7.5 0.166992 -10.5 0.5s-6.16699 0.5 -9.5 0.5l-84 5c2 -65.333 0 -136.833 -6 -214.5s-13.667 -125.834 -23 -144.501c-6 -8.66699 -8.5 -24 -7.5 -46s-2.5 -35.333 -10.5 -40c-8.66699 -8.66699 -19.5 -13.334 -32.5 -14.001
s-22.167 3.33301 -27.5 12c-12.667 20 -19.834 70.5 -21.501 151.5s3.16602 139.167 14.499 174.5c7.33301 24.667 14 68 20 130l-98 -2c-50.667 -0.666992 -82.667 0.666016 -96 3.99902s-24 12.666 -32 27.999c-5.33301 10 -5.83301 21.833 -1.5 35.5
s11.166 21.5 20.499 23.5z" />
    <glyph glyph-name="U" unicode="U" horiz-adv-x="791" 
d="M541 624c14.667 0 30.1631 -7.66504 46.4961 -22.998s37.166 -42.333 62.499 -81c16.667 -25.333 41.334 -56.666 74.001 -93.999c20 -22 31.833 -37.833 35.5 -47.5s1.5 -19.834 -6.5 -30.501c-10.667 -14 -26.334 -15.5 -47.001 -4.5s-43.334 32.833 -68.001 65.5
l-16 18c-1.33301 -2.66699 -2.66602 -17 -3.99902 -43c-2 -26 -8.83301 -62.833 -20.5 -110.5s-22.5 -82.5 -32.5 -104.5c-17.333 -40 -35 -68 -53 -84s-47.667 -29.667 -89 -41c-63.333 -18 -118.333 -14.667 -165 10c-24 12.667 -41.333 23.167 -52 31.5
s-20.167 22.833 -28.5 43.5s-13.666 43.834 -15.999 69.501s-5.16602 66.5 -8.49902 122.5c-4 56.667 -8 97 -12 121l-22 -36c-12 -19.333 -23.5 -31.833 -34.5 -37.5s-23.5 -5.16699 -37.5 1.5c-7.33301 3.33301 -12 7.16602 -14 11.499s-3 12.166 -3 23.499
c0 26 16.667 62.333 50 109c13.333 18 20 29.667 20 35c0 4 6.33301 14.5 19 31.5s22.667 28.5 30 34.5c6.66699 5.33301 12.5 7.83301 17.5 7.5s13.5 -3.83301 25.5 -10.5c12.667 -6.66699 20.334 -20 23.001 -40c8.66699 -68 23.334 -204 44.001 -408
c1.33301 -13.333 5.33301 -23.333 12 -30s19 -12.334 37 -17.001c29.333 -8 59.166 -7.5 89.499 1.5s52.833 24.5 67.5 46.5c7.33301 10.667 17.333 33.5 30 68.5s22 65.5 28 91.5c6.66699 33.333 9.33398 62.5 8.00098 87.5s-7.66602 68.167 -18.999 129.5
c-6.66699 33.333 -8 55.333 -4 66s15 16 33 16z" />
    <glyph glyph-name="V" unicode="V" horiz-adv-x="869" 
d="M30 533l0.00292969 70.001h70c32 0 52.5 -1 61.5 -3s17.833 -7 26.5 -15c12 -12 18 -20.667 18 -26c4 -9.33301 17.667 -34 41 -74s38 -67.667 44 -83c32.667 -73.333 49 -116.666 49 -129.999c0 -25.333 10.667 -22 32 10c2 4 4.33301 8 7 12
c6.66699 12 17 28.167 31 48.5s23.333 35.5 28 45.5c0 2.66699 14.667 26.167 44 70.5s50.333 74.5 63 90.5c19.333 24.667 33.333 40 42 46s18.667 7.66699 30 5c14.667 -3.33301 23.667 -8 27 -14c5.33301 -9.33301 19.833 -18.833 43.5 -28.5s48.5 -15.834 74.5 -18.501
c34.667 -3.33301 56.334 -10.333 65.001 -21c8 -10 11.833 -18 11.5 -24s-4.83301 -12.667 -13.5 -20c-10 -8 -27 -11.667 -51 -11c-24 1.33301 -39 4.33301 -45 9c-6.66699 4 -11.334 4.66699 -14.001 2c0 -1.33301 -8.16699 1.16699 -24.5 7.5l-49.5 18.5
c-16.667 6 -25.334 8 -26.001 6c-14.667 -18 -31.334 -39.667 -50.001 -65s-28 -39.333 -28 -42c0 -4 -6.66699 -16.333 -20 -37c-6.66699 -10.667 -22.667 -38.167 -48 -82.5l-70.5 -120.5c-21.667 -36 -35.5 -55.333 -41.5 -58c-19.333 -8.66699 -36.333 -7 -51 5
s-22 29.333 -22 52c-0.666992 43.333 -11.834 95.666 -33.501 156.999s-49.5 118 -83.5 170c-14.667 22 -24.5 35 -29.5 39s-12.833 5 -23.5 3c-12.667 -1.33301 -40.667 0.666992 -84 6z" />
    <glyph glyph-name="W" unicode="W" horiz-adv-x="779" 
d="M695 589c11.333 0 23.1709 -4.83008 35.5039 -14.4971s18.5 -18.834 18.5 -27.501c-6.66699 -16.667 -22.167 -47.167 -46.5 -91.5s-37.166 -67.833 -38.499 -70.5c-6.66699 -6.66699 -20.834 -37.667 -42.501 -93s-39.5 -106.333 -53.5 -153
c-10.667 -35.333 -20 -57.666 -28 -66.999s-20.333 -12 -37 -8c-23.333 5.33301 -45.666 44.333 -66.999 117c-12.667 43.333 -30.667 93.833 -54 151.5s-37.333 86.834 -42 87.501c-3.33301 0 -10 -24 -20 -72c-12.667 -59.333 -28.334 -121 -47.001 -185
c-6.66699 -20 -10 -35 -10 -45c0 -16 -9.33301 -27.167 -28 -33.5s-33.667 -3.16602 -45 9.50098c-5.33301 6.66699 -15.833 32.667 -31.5 78s-26.5 71.666 -32.5 78.999c-22.667 36 -43.334 79.333 -62.001 130s-29.5 92.167 -32.5 124.5s1.5 50.833 13.5 55.5
c7.33301 0 18.5 -7.33301 33.5 -22s21.167 -24.334 18.5 -29.001c-2.66699 -5.33301 -2 -10.333 2 -15c5.33301 -7.33301 11.666 -24.333 18.999 -51c5.33301 -16.667 19.666 -51.334 42.999 -104.001s37.666 -82.334 42.999 -89.001c3.33301 -4 8.66602 4.33301 15.999 25
c18.667 54 31.667 116 39 186c0.666992 8.66699 1.33398 16.334 2.00098 23.001c2.66699 46.667 7.66699 74 15 82s23.666 3.66699 48.999 -13c14 -9.33301 40 -45.333 78 -108s57 -101.334 57 -116.001l9 -21.5c4 -9.66699 7.66699 -19.334 11 -29.001
s6.33301 -19.167 9 -28.5c6 -22.667 11 -34 15 -34c3.33301 -0.666992 6.33301 4.33301 9 15c8.66699 28 35.334 86 80.001 174c37.333 75.333 60 124 68 146c6 16.667 10.833 27 14.5 31s10.167 6 19.5 6z" />
    <glyph glyph-name="X" unicode="X" horiz-adv-x="533" 
d="M425 85c0 12.667 -18.998 49.332 -56.998 109.999s-60.667 91 -68 91c-4 0 -15 -12 -33 -36c-23.333 -31.333 -66 -79.333 -128 -144c-22.667 -24 -40.167 -38.167 -52.5 -42.5s-25.833 -1.5 -40.5 8.5c-12.667 8.66699 -18 19.5 -16 32.5s10.333 23.833 25 32.5
c16 10 53.5 48 112.5 114s88.5 103 88.5 111c0 5.33301 -12.167 23.833 -36.5 55.5s-38.5 47.5 -42.5 47.5c-5.33301 0 -8.66602 -9 -9.99902 -27c-1.33301 -17.333 -4.33301 -28.5 -9 -33.5s-12.667 -6.16699 -24 -3.5c-20.667 5.33301 -33 22 -37 50s1.66699 57.333 17 88
c8.66699 18 17 30 25 36s16.833 7.16699 26.5 3.5s21.5 -12.5 35.5 -26.5c26.667 -27.333 54.334 -60.666 83.001 -99.999c9.33301 -12 16.166 -19.333 20.499 -22s8.33301 -2.33398 12 0.999023s9.5 12 17.5 26c6.66699 12.667 14.667 25 24 37s17 23 23 33
c5.33301 12 11 21.5 17 28.5s11 14.167 15 21.5c8.66699 13.333 21.5 19.333 38.5 18s29.5 -9.66602 37.5 -24.999c4 -7.33301 5.66699 -12.833 5 -16.5s-4.33398 -9.16699 -11.001 -16.5c-8 -8.66699 -26.333 -34.5 -55 -77.5s-46.334 -68.5 -53.001 -76.5
c-8.66699 -9.33301 -13.667 -18.5 -15 -27.5s-0.833008 -16 1.5 -21s7 -12.167 14 -21.5s11.5 -16 13.5 -20c15.333 -26 30.666 -50.667 45.999 -74c31.333 -50.667 51.333 -87.167 60 -109.5s9.66699 -41.833 3 -58.5c-5.33301 -8 -13.333 -11.5 -24 -10.5
s-21.5 6.16699 -32.5 15.5s-16.5 19 -16.5 29z" />
    <glyph glyph-name="Y" unicode="Y" horiz-adv-x="525" 
d="M495 549c0 -16.667 -14.8369 -48.998 -44.5039 -96.998s-58.5 -86 -86.5 -114c-11.333 -12 -18.666 -21.167 -21.999 -27.5s-4.66602 -13.833 -3.99902 -22.5c2 -10.667 -0.833008 -21.5 -8.5 -32.5s-11.167 -21.833 -10.5 -32.5c0 -18.667 -4.66699 -53 -14 -103
c-8.66699 -51.333 -19.334 -82.333 -32.001 -93c-7.33301 -6.66699 -13.166 -10.334 -17.499 -11.001s-10.166 0.666016 -17.499 3.99902c-12.667 5.33301 -20 15.666 -22 30.999s0.333008 43.333 7 84c18.667 108.667 15 177.334 -11 206.001c-20 22.667 -45.333 48 -76 76
s-50.667 44.667 -60 50c-30.667 16 -46 33.333 -46 52c0 11.333 4.16699 19 12.5 23s20 4 35 0s32.167 -12 51.5 -24c22.667 -14.667 74 -64 154 -148c7.33301 6 16.833 15.833 28.5 29.5l37 44.5c13 16 21.833 26.667 26.5 32c3.33301 3.33301 13.833 19 31.5 47
s27.834 43.667 30.501 47c6.66699 6.66699 12 10.167 16 10.5s12 -2.16699 24 -7.5s18 -13.333 18 -24z" />
    <glyph glyph-name="Z" unicode="Z" horiz-adv-x="541" 
d="M81 554c2 0.666992 4.33496 1.3418 7.00195 2.00879c16 4.66699 29 5.66699 39 3c2 -0.666992 5.33301 -1.33398 10 -2.00098l29 -7c31.333 -4 59.166 -5.66699 83.499 -5s55 2.5 92 5.5s60.5 4.5 70.5 4.5c23.333 1.33301 39.666 -7.33398 48.999 -26.001
s8.66602 -41.334 -2.00098 -68.001c-4.66699 -12 -36.5 -48.833 -95.5 -110.5s-112.5 -114.167 -160.5 -157.5c-34 -30.667 -51 -47 -51 -49c0 -2.66699 27.333 -4.33398 82 -5.00098s108.667 0.333008 162 3c32.667 1.33301 57.5 -0.833984 74.5 -6.50098
s28.833 -15.834 35.5 -30.501c7.33301 -16 5.66602 -26.333 -5.00098 -31c-12 -4.66699 -47.333 -8.33398 -106 -11.001c-81.333 -3.33301 -141.833 -4.33301 -181.5 -3s-72.167 6.33301 -97.5 15c-35.333 12 -57.833 21.333 -67.5 28s-15.5 17.334 -17.5 32.001
c-2 14 1.5 26.333 10.5 37s26.833 23.667 53.5 39c24.667 13.333 73.5 57.666 146.5 132.999s111.167 117.666 114.5 126.999c-3.33301 1.33301 -29.166 2.16602 -77.499 2.49902s-74.166 1.5 -77.499 3.5c-56 13.333 -86.667 19.666 -92 18.999
c-34 -4 -56.333 2.33301 -67 19c-6 8.66699 -9 14.334 -9 17.001s3.33301 6 10 10c12 6 24.667 10 38 12z" />
    <glyph glyph-name="grave" unicode="`" horiz-adv-x="189" 
d="M54 474c-4.66699 0 -10.3311 5.49902 -16.998 16.499s-8.66699 18.5 -6 22.5c6 6 11 9.66699 15 11c9.33301 6 29.666 -11.667 60.999 -53s48.333 -73.666 51 -96.999c-3.33301 -2 -14.333 7.33301 -33 28c-40.667 48 -64.334 72 -71.001 72z" />
    <glyph glyph-name="a" unicode="a" horiz-adv-x="405" 
d="M243 326c0 13.333 -2.66406 21.001 -7.99707 23.001c-2.66699 0.666992 -4.33398 -0.666016 -5.00098 -3.99902c-0.666992 -2 -1 -4.66699 -1 -8c-0.666992 -6 -7.83398 -30 -21.501 -72s-23.5 -70 -29.5 -84c-2.66699 -5.33301 0 -8 8 -8
c5.33301 -0.666992 15.666 -0.333984 30.999 0.999023c28.667 1.33301 43.667 2.66602 45 3.99902c0 3.33301 -3.5 27.5 -10.5 72.5s-9.83301 70.167 -8.5 75.5zM364.003 175.001c-10 0 -23 -2.66211 -39 -7.99512c-14 -4 -22 -7.66699 -24 -11s-2 -12.333 0 -27
c0.666992 -9.33301 5 -27 13 -53s12 -44.667 12 -56c0 -8 -1 -13.167 -3 -15.5s-6 -2.83301 -12 -1.5c-6.66699 0.666992 -11.667 5.33398 -15 14.001s-8.33301 29.667 -15 63l-14 75c-41.333 -8.66699 -73 -13.334 -95 -14.001
c-8.66699 -0.666992 -18.834 -11.5 -30.501 -32.5s-16.167 -36.167 -13.5 -45.5c2 -6 2.66699 -9.83301 2 -11.5s-3 -1.83398 -7 -0.500977c-6 3.33301 -19 -12.334 -39 -47.001c-28.667 -48 -46.667 -62 -54 -42c-1.33301 6.66699 4.5 25.334 17.5 56.001
s19.5 48.667 19.5 54c2.66699 13.333 6 21.333 10 24c4.66699 3.33301 6.5 8.66602 5.5 15.999s-4.5 14 -10.5 20c-5.33301 5.33301 -8 9 -8 11s3 5 9 9c3.33301 2.66699 9.33301 5.16699 18 7.5s14 7.16602 16 14.499c24 86 40 134.333 48 145c2.66699 4 2.66699 7 0 9
s-1.66699 4.66699 3 8c6 6 9 13.667 9 23c0 8.66699 4 18.334 12 29.001s15.333 16 22 16c4 0 6 -1.33301 6 -4c-0.666992 -5.33301 -13 -43.333 -37 -114c-20.667 -62 -30.334 -98 -29.001 -108c0.666992 -5.33301 1.66699 -8 3 -8s4 5 8 15c37.333 84 61 160.667 71 230
c3.33301 25.333 6.33301 41.166 9 47.499s7.33398 9.16602 14.001 8.49902c6 -0.666992 10 -2.83398 12 -6.50098s3.33301 -11.167 4 -22.5c6.66699 -118.667 17.334 -204.334 32.001 -257.001c44.667 11.333 69.667 16 75 14c5.33301 -3.33301 7.33301 -8.16602 6 -14.499
s-5 -9.5 -11 -9.5z" />
    <glyph glyph-name="b" unicode="b" horiz-adv-x="498" 
d="M266 222v-151h51c24 0 39.667 1.16699 47 3.5s16.333 8.83301 27 19.5c14 14 26 31 36 51c7.33301 16 11.833 34 13.5 54s-0.166016 33 -5.49902 39c-4.66699 4.66699 -14.834 8.66699 -30.501 12s-28.167 4.33301 -37.5 3c-17.333 -2.66699 -51 -13 -101 -31zM273 293
c0 -7.33301 0.166992 -13.165 0.5 -17.498s0.833008 -7.83301 1.5 -10.5s1.66699 -4.33398 3 -5.00098s3 -0.666992 5 0c18.667 6 31.334 10 38.001 12c38 10.667 60.333 30.667 67 60c1.33301 6 1.83301 10.833 1.5 14.5s-1.83301 6.5 -4.5 8.5s-7.66699 4.33301 -15 7
c-19.333 6.66699 -37.333 8.16699 -54 4.5s-28.334 -11.834 -35.001 -24.501c-5.33301 -10.667 -8 -27 -8 -49zM218 106.001c-7.33301 -22 -27.5049 -44.1699 -60.5049 -66.5029s-61.5 -32.833 -85.5 -31.5c-9.33301 0.666992 -18.666 3.83398 -27.999 9.50098
s-14 11.5 -14 17.5c0 5.33301 4.16699 9 12.5 11s14.5 1 18.5 -3c4.66699 -4.66699 11.334 -7 20.001 -7c9.33301 0 24.666 5.33301 45.999 16s35.666 20.334 42.999 29.001c18.667 20.667 34.334 52.167 47.001 94.5s20.334 87.166 23.001 134.499
c2.66699 46.667 5.66699 74 9 82c6 15.333 16.333 16 31 2c8.66699 -7.33301 20.334 -8.66602 35.001 -3.99902c28.667 8.66699 58.334 3 89.001 -17c8.66699 -6.66699 13.334 -16.167 14.001 -28.5s-2.66602 -23.833 -9.99902 -34.5s-10.166 -18.5 -8.49902 -23.5
s9.16699 -9.83301 22.5 -14.5c30.667 -10 46 -32 46 -66c-0.666992 -28 -8.33398 -55.5 -23.001 -82.5s-33.334 -47.833 -56.001 -62.5c-12 -7.33301 -22.333 -12 -31 -14s-23 -2.33301 -43 -1c-30 0.666992 -48 -2 -54 -8c-14 -14 -23.333 -10.667 -28 10
c-3.33301 13.333 -3.33301 32 0 56c2.66699 22.667 2 33.667 -2 33c-4.66699 -1.33301 -8.66699 -9.66602 -12 -24.999z" />
    <glyph glyph-name="c" unicode="c" horiz-adv-x="618" 
d="M338 322c0 3.33301 -2.83496 5.33105 -8.50195 5.99805s-12.167 0 -19.5 -2s-13 -5 -17 -9c-9.33301 -9.33301 -12.666 -16.666 -9.99902 -21.999c0.666992 -2 2.33398 -2.33301 5.00098 -1c1.33301 0.666992 6.33301 2.83398 15 6.50098s16.667 7.5 24 11.5
s11 7.33301 11 10zM260.998 41.998c0 -5.33301 5.16797 -12.333 15.501 -21s21.5 -15.334 33.5 -20.001c14.667 -6 33.667 -6 57 0c25.333 5.33301 56.666 17.5 93.999 36.5s64.333 35.833 81 50.5c20.667 20 35.334 28.667 44.001 26c1.33301 -0.666992 2 -2 2 -4
c0 -22.667 -32.5 -52.167 -97.5 -88.5s-118.167 -54.5 -159.5 -54.5s-74 19 -98 57s-33 84.333 -27 139c2.66699 22 2.66699 33 0 33s-19.334 -11.667 -50.001 -35c-28 -21.333 -49.5 -32.833 -64.5 -34.5s-30.167 5.5 -45.5 21.5s-20 28.333 -14 37
c2.66699 2.66699 6 4 10 4c6 0 13 -4.66699 21 -14c11.333 -12 24.333 -15.833 39 -11.5s37 18.166 67 41.499c22.667 17.333 38.834 31.333 48.501 42s18.167 24.334 25.5 41.001c11.333 26 22.333 44 33 54c15.333 14 41.5 17.333 78.5 10s61.833 -20.666 74.5 -39.999
c5.33301 -7.33301 7.66602 -12.166 6.99902 -14.499s-4.66699 -5.5 -12 -9.5c-10.667 -5.33301 -19.667 -4.33301 -27 3c-14.667 14.667 -48 6.66699 -100 -24c-18 -10.667 -30.333 -19.334 -37 -26.001s-12 -15.667 -16 -27c-11.333 -30.667 -16 -64.167 -14 -100.5
s9.33301 -56.833 22 -61.5c6 -2.66699 9 -6 9 -10z" />
    <glyph glyph-name="d" unicode="d" 
d="M487 214c0 -17.333 -3 -37.5078 -9 -60.5078s-12 -36.833 -18 -41.5c-1.33301 -1.33301 -8.66602 -11.666 -21.999 -30.999c-10.667 -16.667 -25.5 -35 -44.5 -55s-34.5 -33.667 -46.5 -41s-34.667 -10.666 -68 -9.99902c-32.667 1.33301 -49.334 5 -50.001 11
c-0.666992 5.33301 13 9.33301 41 12c36 4 59.333 8.33301 70 13s24.667 16.667 42 36c18 19.333 30.333 33.833 37 43.5s16.334 26.167 29.001 49.5c9.33301 17.333 14.833 39 16.5 65s-1.16602 47 -8.49902 63c-6.66699 14 -23.667 33.667 -51 59s-47 40 -59 44
c-18.667 4.66699 -45 6.33398 -79 5.00098c0 -4.66699 -0.166992 -57.5 -0.5 -158.5s1.16699 -153.167 4.5 -156.5c4 -15.333 5.16699 -25.666 3.5 -30.999s-6.16699 -8 -13.5 -8s-12 8 -14 24s-3 55 -3 117c-0.666992 77.333 -2.33398 129.833 -5.00098 157.5
s-7.66699 41.5 -15 41.5c-3.33301 0.666992 -31.166 -8.66602 -83.499 -27.999s-80.833 -28 -85.5 -26c-9.33301 1.33301 -16.333 5.83301 -21 13.5s-5.33398 15.834 -2.00098 24.501c3.33301 9.33301 6 11 8 5c2.66699 -7.33301 13.167 -10.166 31.5 -8.49902
s37.166 6.83398 56.499 15.501c46 20.667 88 33.667 126 39c41.333 6 72 6 92 0s45 -23.333 75 -52c26 -24.667 43.5 -46 52.5 -64s13.5 -40.333 13.5 -67z" />
    <glyph glyph-name="e" unicode="e" horiz-adv-x="490" 
d="M398 419c0 -6 -3.66895 -10.835 -11.002 -14.502s-34.333 -15.5 -81 -35.5c-22 -9.33301 -37.333 -18.333 -46 -27c-6.66699 -7.33301 -12.667 -29.166 -18 -65.499s-5.66602 -56.833 -0.999023 -61.5s24 1.33301 58 18c66 30.667 103.333 41.667 112 33
c5.33301 -5.33301 4.66602 -11.333 -2.00098 -18s-15 -10 -25 -10c-18.667 -2.66699 -66 -24 -142 -64c0 -54.667 2.33301 -87.667 7 -99c10 -27.333 48.667 -25.333 116 6c36 16.667 56 25 60 25c6 0 11.333 2.33301 16 7c4 4 7.83301 5.66699 11.5 5
s5.83398 -2.66699 6.50098 -6s-0.333008 -7 -3 -11c-4 -6 -9.33301 -9 -16 -9c-6 0 -23.333 -9.66699 -52 -29c-54.667 -35.333 -102.334 -47.666 -143.001 -36.999c-11.333 2.66699 -19.166 6.5 -23.499 11.5s-9.16602 16.167 -14.499 33.5
c-4.66699 14.667 -7.5 24.834 -8.5 30.501s-1.5 10 -1.5 13s0.833008 9.66699 2.5 20s2.83398 22.833 3.50098 37.5c3.33301 45.333 7.33301 84.666 12 117.999l-43 -43c-32 -31.333 -54.333 -51.166 -67 -59.499s-27.334 -12.833 -44.001 -13.5
c-13.333 -1.33301 -21.833 -1.33301 -25.5 0s-5.5 5 -5.5 11c0 5.33301 1.83301 9.33301 5.5 12s11.167 4.66699 22.5 6c19.333 2.66699 39.333 13 60 31c49.333 44 80.333 80.667 93 110c4 10 7.83301 17.167 11.5 21.5s7 7.16602 10 8.49902s9 3 18 5
s17.833 4.66699 26.5 8c20 5.33301 43 14.333 69 27c34.667 18 52 19.667 52 5z" />
    <glyph glyph-name="f" unicode="f" horiz-adv-x="414" 
d="M252 363c0 -4.66699 -7.33594 -7.66797 -22.0029 -9.00098c-11.333 -1.33301 -18.166 -3.66602 -20.499 -6.99902s-3.83301 -15.333 -4.5 -36c-1.33301 -27.333 0 -43 4 -47c6.66699 -1.33301 25.667 2.33398 57 11.001s51.333 12.334 60 11.001
c17.333 0 32.333 2.33301 45 7c8 5.33301 12.167 5.66602 12.5 0.999023s-2.16699 -8.33398 -7.5 -11.001c-7.33301 -3.33301 -7 -6.33301 1 -9c4.66699 -2 -3.33301 -5.33301 -24 -10l-19 -3c-14 -2 -28.5 -5.16699 -43.5 -9.5s-30.333 -9.5 -46 -15.5s-26.5 -10 -32.5 -12
c-4.66699 0 -7.33398 -2 -8.00098 -6c-2 -6.66699 -4.33301 -44 -7 -112c-2.66699 -72 -7.33398 -108 -14.001 -108c-15.333 0 -19.666 37 -12.999 111c4.66699 61.333 7.33398 111.666 8.00098 150.999c2 50 -0.666992 75 -8 75c-6 -1.33301 -14.667 -14.666 -26 -39.999
c-46.667 -100 -75.667 -153.333 -87 -160c-10 -6.66699 -17 -6.66699 -21 0c-5.33301 7.33301 -7.16602 14.5 -5.49902 21.5s5.83398 11.5 12.501 13.5c5.33301 1.33301 11.166 6.66602 17.499 15.999s12.5 20.333 18.5 33s9.66699 20 11 22
c2.66699 4.66699 8.16699 16 16.5 34l24.5 50.5c8 15.667 14.667 26.167 20 31.5c8.66699 10 20.334 19.333 35.001 28s23.334 11.667 26.001 9s19.667 2 51 14c47.333 17.333 80.333 22.333 99 15c5.33301 -2.66699 7.66602 -6 6.99902 -10
c-0.666992 -8 -10 -12.333 -28 -13c-14.667 -0.666992 -33.167 -5.66699 -55.5 -15s-33.5 -16.666 -33.5 -21.999z" />
    <glyph glyph-name="g" unicode="g" horiz-adv-x="477" 
d="M447 172c0 -6.66699 -13.002 -27.332 -39.002 -61.999c-17.333 -24 -30.5 -39.333 -39.5 -46s-27.167 -15.334 -54.5 -26.001c-63.333 -25.333 -111 -28.333 -143 -9c-21.333 10.667 -35.166 26.5 -41.499 47.5s-8.83301 49.833 -7.5 86.5
c-4 0.666992 -14.333 0.666992 -31 0c-40.667 0 -61 2.66699 -61 8c0 7.33301 3.16699 12.5 9.5 15.5s18.5 5.16699 36.5 6.5c14.667 1.33301 29.167 5.33301 43.5 12s21.5 13 21.5 19c0 9.33301 16.5 35 49.5 77s57.167 67.667 72.5 77c13.333 8 29.166 11.333 47.499 10
s34.166 -6.66602 47.499 -15.999c16 -11.333 22 -20.333 18 -27c-4 -4.66699 -13 -3.33398 -27 3.99902c-9.33301 4.66699 -22.666 5.33398 -39.999 2.00098c-27.333 -5.33301 -59.5 -32.333 -96.5 -81s-57.833 -92.334 -62.5 -131.001c-5.33301 -36.667 6.66699 -64 36 -82
c14 -8.66699 26.667 -12.834 38 -12.501s30.333 4.83301 57 13.5c32 11.333 54.167 20.666 66.5 27.999s24.5 19.333 36.5 36c12.667 18.667 16.667 30.334 12 35.001s-22.667 6.33398 -54 5.00098c-39.333 -2 -57.666 2.66699 -54.999 14
c0.666992 2 2.33398 4.33301 5.00098 7c8 8 35.833 10.333 83.5 7s71.5 -9.33301 71.5 -18z" />
    <glyph glyph-name="h" unicode="h" horiz-adv-x="700" 
d="M660 307c-8.66699 0 -18.1631 4.16895 -28.4961 12.502s-18.833 18.833 -25.5 31.5l-3 6c-7.33301 14 -12.666 39.667 -15.999 77c-2.66699 31.333 -7.66699 47 -15 47c-6.66699 0 -15.834 -3 -27.501 -9s-17.5 -10.667 -17.5 -14s-3.33301 -5 -10 -5
c-8.66699 0 -15 -6.83301 -19 -20.5s-7 -37.834 -9 -72.501l-4 -67c15.333 2 27 0 35 -6s7 -14.333 -3 -25c-4 -2.66699 -7 -7 -9 -13s-6 -8.33301 -12 -7c-2.66699 0.666992 -4.5 0.666992 -5.5 0s-1.83301 -3.16699 -2.5 -7.5s-0.833984 -10 -0.500977 -17
s0.833008 -16.833 1.5 -29.5c0.666992 -14 4.33398 -49 11.001 -105c8 -45.333 5.66699 -68 -7 -68c-5.33301 0 -10.833 5.66699 -16.5 17s-8.83398 23 -9.50098 35c0 1.33301 -2.33301 34.666 -7 99.999l-3 41c-0.666992 9.33301 -1.66699 16.833 -3 22.5
s-2.66602 9.16699 -3.99902 10.5s-3.33301 1.66602 -6 0.999023c-18 -6 -45.833 -11.667 -83.5 -17s-59.834 -8.66602 -66.501 -9.99902c-1.33301 -2 -3.66602 -21.5 -6.99902 -58.5s-5.33301 -67.167 -6 -90.5c-0.666992 -24.667 -4 -38 -10 -40
c-9.33301 -3.33301 -15 2 -17 16s-2 42.667 0 86c2 42.667 2.5 68.5 1.5 77.5s-5.16699 16.5 -12.5 22.5c-5.33301 4 -8.83301 9 -10.5 15s-1.16699 11.167 1.5 15.5s6.66699 6.5 12 6.5c6 0 9.66699 5.33301 11 16c4 91.333 3.66699 137 -1 137
c-2.66699 0 -9 -6.33301 -19 -19c-26 -32 -42.333 -50 -49 -54s-24.334 -7.33301 -53.001 -10c-30 -2.66699 -48.333 -7 -55 -13s-10.334 -22 -11.001 -48c0 -8.66699 -2.16699 -16 -6.5 -22s-8.83301 -9.5 -13.5 -10.5s-9.33398 0.833008 -14.001 5.5
c-5.33301 6.66699 -5.33301 25.334 0 56.001c4.66699 26 11 43.5 19 52.5s21.333 13.5 40 13.5c20 0 40 3.5 60 10.5s33.667 15.167 41 24.5c36 46.667 54 72.334 54 77.001c0 7.33301 5.33301 8.66602 16 3.99902c5.33301 -3.33301 10 -7.33301 14 -12
c8.66699 -10 13 -18.667 13 -26v-187c4 -4 30 -3.33301 78 2s75 10.666 81 15.999c2.66699 -2 6 41.667 10 131c0 12 0.666992 29.333 2 52l2 46c0.666992 2 3 2.83301 7 2.5s8.5 -1.5 13.5 -3.5s7.83301 -4 8.5 -6c-0.666992 -6.66699 5.66602 -5.33398 18.999 3.99902
c4.66699 3.33301 7 4.33301 7 3s6.16699 -0.166016 18.5 3.50098l37.5 11.5l18 7c3.33301 0.666992 8 -8 14 -26s9.66699 -34.667 11 -50c3.33301 -29.333 7 -50.5 11 -63.5s10.667 -24.5 20 -34.5c16.667 -18.667 22.667 -33 18 -43c-1.33301 -3.33301 -4 -5 -8 -5z" />
    <glyph glyph-name="i" unicode="i" horiz-adv-x="277" 
d="M156 411c8 -0.666992 13.6689 -3.17285 17.002 -7.50586s8 -7.16602 14 -8.49902c6 0 9.66699 -2.5 11 -7.5s0.833008 -12.667 -1.5 -23s-3.5 -16.166 -3.5 -17.499c1.33301 0.666992 4.5 2.83398 9.5 6.50098s9.5 6.66699 13.5 9s8.33301 3.5 13 3.5
s8.33398 -2 11.001 -6c7.33301 -8 8.33301 -14.667 3 -20s-21.333 -14.666 -48 -27.999l-46 -22l6 -84c7.33301 -118 7 -178.667 -1 -182c-4.66699 -1.33301 -8.33398 0.166992 -11.001 4.5s-5.33398 15 -8.00098 32s-5 38.167 -7 63.5s-4.66699 62 -8 110
c-1.33301 28 -5.5 48.167 -12.5 60.5s-21.167 24.5 -42.5 36.5c-20.667 12 -32 21.333 -34 28c-2.66699 6.66699 0.166016 12.334 8.49902 17.001s15.833 4.66699 22.5 0c10.667 -6.66699 18 -8.66699 22 -6s4.66699 10 2 22c-5.33301 20.667 -2.33301 31.334 9 32.001
c9.33301 0.666992 16.666 -6 21.999 -20c0.666992 -2 1.33398 -4.33301 2.00098 -7l7 -24c0 0.666992 1.16699 3.83398 3.5 9.50098s4 9.5 5 11.5s2.66699 4.83301 5 8.5s4.83301 6.16699 7.5 7.5s5.66699 1.66602 9 0.999023z" />
    <glyph glyph-name="j" unicode="j" horiz-adv-x="352" 
d="M280 347c0 8.66699 5.33691 11.3311 16.0039 7.99805c8 -2.66699 13 -7.66699 15 -15c2.66699 -22 2.66699 -140.667 0 -356l-23 -42c-9.33301 -18 -17.833 -30.833 -25.5 -38.5s-20.5 -16.5 -38.5 -26.5c-40.667 -21.333 -77.5 -26.666 -110.5 -15.999
s-52.833 34 -59.5 70c-0.666992 8.66699 -5 26 -13 52s-11.667 45.667 -11 59c0 12.667 4.33301 33.167 13 61.5s16.667 47.166 24 56.499c3.33301 4 15.833 6.66699 37.5 8s37.5 0 47.5 -4c7.33301 -3.33301 15.5 -14.333 24.5 -33s14.833 -37.334 17.5 -56.001
c2.66699 -18 0.5 -35.333 -6.5 -52s-15.833 -27.334 -26.5 -32.001s-21.334 -2.66699 -32.001 6c-4.66699 4.66699 -6.5 8 -5.5 10s5.83301 5.33301 14.5 10c10 4.66699 16 9.66699 18 15s2.66699 19 2 41c-0.666992 26.667 -3.66699 44.334 -9 53.001
s-17.333 14.667 -36 18c-12.667 2.66699 -20.667 2.66699 -24 0s-8 -11.667 -14 -27c-11.333 -30 -14.666 -69.167 -9.99902 -117.5s15.334 -81.166 32.001 -98.499c15.333 -16.667 39.666 -21.667 72.999 -15s57.666 21.334 72.999 44.001s24.666 44.834 27.999 66.501
s5.66602 77.834 6.99902 168.501c0 27.333 0.166992 56.166 0.5 86.499s0.666016 53.5 0.999023 69.5s0.5 24.667 0.5 26zM285.004 496.997c1.33301 2 5.33105 3.33301 11.998 4s12.834 0 18.501 -2s7.83398 -5.33301 6.50098 -10c0 -6.66699 -2.5 -13.167 -7.5 -19.5
s-10.167 -9.5 -15.5 -9.5c-4 0 -7.83301 5.16699 -11.5 15.5s-4.5 17.5 -2.5 21.5z" />
    <glyph glyph-name="k" unicode="k" horiz-adv-x="587" 
d="M280 224c8.66699 0 22.166 7.66699 40.499 23s35.833 33.333 52.5 54c42.667 54.667 71.334 82 86.001 82c20 0 18 -12.333 -6 -37c-2 -3.33301 -22.667 -25.666 -62 -66.999s-60.333 -65 -63 -71c59.333 -43.333 126.333 -74.333 201 -93
c6 -1.33301 12.167 -7.5 18.5 -18.5s9.5 -20.833 9.5 -29.5c-1.33301 -17.333 -13 -16.333 -35 3c-10.667 10.667 -36 23.167 -76 37.5s-65.333 25.5 -76 33.5c-41.333 27.333 -66.833 40.166 -76.5 38.499s-14.5 -20.167 -14.5 -55.5c0 -84.667 -9 -125.334 -27 -122.001
c-4 0.666992 -8 3 -12 7c-6.66699 6.66699 -7.33398 23.667 -2.00098 51c4.66699 28.667 4.66699 85.5 0 170.5s-10.667 140.5 -18 166.5l-12 36c-31.333 -4 -54.333 -9.5 -69 -16.5s-28 -21.167 -40 -42.5c-38 -62.667 -45.667 -107.667 -23 -135
c5.33301 -6.66699 9.83301 -10.334 13.5 -11.001s10.834 1.33301 21.501 6s17 9.33398 19 14.001s3 17 3 37s-0.833008 31.667 -2.5 35s-6.5 4.33301 -14.5 3c-9.33301 -1.33301 -15.833 -0.333008 -19.5 3s-4.16699 9.33301 -1.5 18c4.66699 11.333 16.5 15 35.5 11
s30.5 -12.667 34.5 -26c6 -23.333 5.66699 -48.5 -1 -75.5s-16.334 -42.5 -29.001 -46.5c-22.667 -6.66699 -39.167 -9.66699 -49.5 -9s-19.166 5.33398 -26.499 14.001c-13.333 15.333 -21.833 28.333 -25.5 39s-4.16699 23.667 -1.5 39c2 12 4 21.833 6 29.5
s4 13.667 6 18s5.16699 10.833 9.5 19.5l12.5 26c12.667 26 29.334 45.333 50.001 58c9.33301 6 17.5 10.333 24.5 13s15.167 5 24.5 7s16.666 3.66699 21.999 5c8 4.66699 17 5 27 1s17 -10.667 21 -20c23.333 -53.333 35.333 -113.333 36 -180
c0.666992 -28.667 3.66699 -43 9 -43z" />
    <glyph glyph-name="l" unicode="l" horiz-adv-x="293" 
d="M43 99c-3.33301 0 -5.66797 0.168945 -7.00098 0.501953s-2.16602 0.833008 -2.49902 1.5s0 1.83398 1 3.50098s2.83301 3.83398 5.5 6.50098c6 6.66699 15.167 21.334 27.5 44.001s21.166 41.667 26.499 57c4.66699 12.667 11.334 19 20.001 19
c4.66699 0 7.83398 1.5 9.50098 4.5s2.83398 9.5 3.50098 19.5c0 16 -1.5 24 -4.5 24s-7.16699 -5 -12.5 -15c-4 -5.33301 -7 -9.66602 -9 -12.999l-13.5 -23.5c-5.66699 -9.66699 -9.16699 -15.5 -10.5 -17.5c-2.66699 -10 -9.33398 -13.333 -20.001 -10
c-10.667 2.66699 -12.334 9 -5.00098 19c0.666992 0.666992 1.33398 1.66699 2.00098 3c4 4 14.5 23.333 31.5 58s27.833 54 32.5 58c4 2 6.16699 6.66699 6.5 14s-0.5 16.666 -2.5 27.999s-3 18.333 -3 21c-34 -56 -53.667 -91.333 -59 -106c0 -1.33301 -4 -6 -12 -14
c-10 -10.667 -15.667 -10.334 -17 0.999023c-1.33301 8 0.666992 18.333 6 31l14 34c3.33301 6 6 9 8 9c2.66699 1.33301 10.5 13.666 23.5 36.999s21.167 35.666 24.5 36.999c5.33301 2.66699 10 3.5 14 2.5s10.167 -4 18.5 -9s13.5 -7.83301 15.5 -8.5
c-0.666992 -24 -0.166992 -87.5 1.5 -190.5s0.5 -155.5 -3.5 -157.5h51c41.333 -0.666992 61 -4.33398 59 -11.001s-22.333 -12.667 -61 -18c-36 -5.33301 -57.333 -9.33301 -64 -12c-10.667 -5.33301 -17.834 -1.83301 -21.501 10.5s-3.83398 24.833 -0.500977 37.5
c4 14.667 6 36.667 6 66v1c-0.666992 23.333 -1.66699 35.333 -3 36c-1.33301 0 -3.33301 -2 -6 -6c-9.33301 -16.667 -21.666 -32.834 -36.999 -48.501s-26.333 -23.5 -33 -23.5z" />
    <glyph glyph-name="m" unicode="m" horiz-adv-x="591" 
d="M514 515c10.667 0 16.332 -3.33398 16.999 -10.001s-2.66602 -18.334 -9.99902 -35.001c-9.33301 -20 -14 -32.667 -14 -38c0 -4.66699 -2.33301 -7 -7 -7c-6.66699 -1.33301 -9.33398 -13 -8.00098 -35s6.33301 -56.333 15 -103c20 -98 35.333 -156.333 46 -175
c6.66699 -10.667 9 -20.167 7 -28.5s-7.66699 -12.5 -17 -12.5c-10.667 0 -20.667 13.833 -30 41.5s-20.666 77.5 -33.999 149.5c-8.66699 46.667 -17.334 82 -26.001 106c-5.33301 15.333 -9.33301 23.333 -12 24c-2 0 -4.66699 -2.66699 -8 -8
c-6.66699 -9.33301 -29.334 -60.333 -68.001 -153s-59.667 -145.667 -63 -159c-1.33301 -9.33301 -3.5 -15.333 -6.5 -18s-8.83301 -4 -17.5 -4c-13.333 0 -22.666 7.33301 -27.999 22c-8 18 -30 56.333 -66 115s-57 93.667 -63 105
c-22 -154.667 -33.333 -247.334 -34 -278.001c-0.666992 -33.333 -5.66699 -50.333 -15 -51c-4 0.666992 -8.33301 2.66699 -13 6c-6 3.33301 -8.83301 11.333 -8.5 24s4.83301 45.667 13.5 99c14 81.333 22 136.833 24 166.5s-0.666992 51.167 -8 64.5
c-3.33301 7.33301 -6 13.833 -8 19.5s-3.5 9.66699 -4.5 12s-2.83301 5.83301 -5.5 10.5s-7.33398 11.667 -14.001 21c-14.667 20.667 -20.667 33.334 -18 38.001c10 16 24.333 9.33301 43 -20c14.667 -21.333 22 -28.333 22 -21l-4 23
c-4 14.667 -4.16699 27.334 -0.5 38.001s9.83398 15.334 18.501 14.001c5.33301 -0.666992 10.166 -6.5 14.499 -17.5s10.166 -16.5 17.499 -16.5c20.667 -3.33301 23.667 -20.333 9 -51c-4.66699 -10 -7.16699 -17.833 -7.5 -23.5s1.83398 -14.834 6.50098 -27.501
c8.66699 -24 30.334 -66 65.001 -126s54.667 -90 60 -90c6.66699 0 36.667 64.667 90 194c28.667 66 45.334 102.667 50.001 110c5.33301 7.33301 7.5 12.833 6.5 16.5s-5.83301 8.83398 -14.5 15.501c-14 11.333 -19.667 21.5 -17 30.5s15.667 13.167 39 12.5
c24 0.666992 37.333 -2.33301 40 -9c4.66699 -14 11 -14 19 0l6 15c6 16 13 24 21 24z" />
    <glyph glyph-name="n" unicode="n" horiz-adv-x="450" 
d="M95 38c2 5.33301 -1.33496 9.99902 -10.002 13.999c-7.33301 4 -10.666 2.66699 -9.99902 -4v-3c2 -8.66699 6 -13.667 12 -15c4.66699 0.666992 7.33398 3.33398 8.00098 8.00098zM135.998 334.999c6 0 10.168 1.66699 12.501 5s2.16602 6.83301 -0.500977 10.5
s-6.66699 5.5 -12 5.5c-9.33301 0 -14 -3.66699 -14 -11c0 -6.66699 4.66699 -10 14 -10zM77.999 355.999c-7.33301 0 -11 -7.66797 -11 -23.001c0 -11.333 1.66699 -16.666 5 -15.999c4 2 8 9.66699 12 23c2.66699 10.667 0.666992 16 -6 16zM404.999 438.998
c6 0 9.82227 -10.0059 11.4893 -30.0059s2.83398 -77 3.50098 -171c0.666992 -91.333 0.333984 -148.166 -0.999023 -170.499s-4.33301 -34.5 -9 -36.5c-6.66699 -2.66699 -13.5 0 -20.5 8s-10.5 17.667 -10.5 29c0 10 -7.33301 24.667 -22 44
c-4 4.66699 -21.167 26.334 -51.5 65.001l-79 98c-22.333 26.667 -36.166 41.334 -41.499 44.001c-1.33301 0.666992 -2.5 -7.66602 -3.5 -24.999s-1.83301 -40 -2.5 -68c-2 -142 -5.66699 -217 -11 -225c-3.33301 -4.66699 -9 -5.33398 -17 -2.00098
c-11.333 5.33301 -23.666 6.33301 -36.999 3s-23.666 -9.66602 -30.999 -18.999c-4 -6.66699 -8.33301 -11 -13 -13s-8.5 -2.5 -11.5 -1.5s-7.5 3.16699 -13.5 6.5s-10.333 5.33301 -13 6c6 109.333 6.33301 206.333 1 291c-4 58 -3.66699 92 1 102
c4.66699 10.667 19.334 16.334 44.001 17.001c4 0 13 -0.333008 27 -1c8.66699 0 17 0.166992 25 0.5s14.167 0.333008 18.5 0s8.5 -0.166016 12.5 0.500977s7.33301 0.333984 10 -0.999023s4.83398 -2 6.50098 -2s3.83398 -1.83301 6.50098 -5.5
s4.83398 -6.33398 6.50098 -8.00098s4.83398 -6 9.50098 -13l12 -17.5c9.33301 -14.667 28.333 -40.834 57 -78.501l80.5 -102.5c25 -30.667 37.5 -45 37.5 -43c7.33301 22.667 8 93.667 2 213c-3.33301 54.667 -3.66602 86.334 -0.999023 95.001
c4 7.33301 9.66699 11 17 11z" />
    <glyph glyph-name="o" unicode="o" horiz-adv-x="607" 
d="M132 154c-4 -1.33301 -3.66699 -10 1 -26c2.66699 -6 4.66699 -9 6 -9c4.66699 1.33301 4.66699 10 0 26c-2.66699 6 -5 9 -7 9zM103 286c-3.33301 0 -10.998 -10.332 -22.998 -30.999c-8 -14.667 -13 -26.334 -15 -35.001s-2.33301 -22.667 -1 -42
c0 -10 0.5 -18.5 1.5 -25.5s3.16699 -13.333 6.5 -19s5.83301 -9.66699 7.5 -12s5.5 -6.5 11.5 -12.5l12 -12c-8 46 -8.66699 93.667 -2 143c1.33301 13.333 2.16602 24.333 2.49902 33s0.166016 13 -0.500977 13zM474.002 147.001c7.33301 0 17.5 9.33594 30.5 28.0029
s22.167 36.667 27.5 54c8 18 10.333 32.667 7 44s-8.66602 19.166 -15.999 23.499s-18 7.83301 -32 10.5c-12 -2 -24.667 -8 -38 -18c0.666992 -4.66699 3.16699 -13.834 7.5 -27.501s7.66602 -27.334 9.99902 -41.001s2.5 -25.5 0.5 -35.5
c-2.66699 -25.333 -1.66699 -38 3 -38zM365.002 355.004c-10 6 -19.999 10.002 -29.999 12.002s-27.667 2.66699 -53 2c-34.667 -0.666992 -58.334 -4.33398 -71.001 -11.001s-24.667 -22 -36 -46c-8.66699 -18.667 -13.5 -46.834 -14.5 -84.501s2.5 -69.834 10.5 -96.501
c8 -27.333 15.167 -43.833 21.5 -49.5s20.833 -8.83398 43.5 -9.50098c6.66699 -0.666992 10.667 -2.16699 12 -4.5s1.33301 -7.16602 0 -14.499c-2 -8.66699 -1.66699 -13.5 1 -14.5s13 -0.5 31 1.5c56.667 6.66699 100.667 28.334 132 65.001s42 79 32 127
c-4.66699 21.333 -15 44.5 -31 69.5s-32 42.833 -48 53.5zM546.003 328.006c6 0 12.667 -7.50293 20 -22.5029s11 -28.833 11 -41.5c0 -15.333 -7.5 -37.666 -22.5 -66.999s-30.833 -52.333 -47.5 -69c-26 -28 -43.333 -35.333 -52 -22c-3.33301 4 -15.333 -4.33301 -36 -25
c-24.667 -23.333 -47.667 -39.333 -69 -48s-47.666 -12.667 -78.999 -12c-53.333 1.33301 -87.5 2.66602 -102.5 3.99902s-24.833 4 -29.5 8c-10 6.66699 -19 11.334 -27 14.001c-14 4 -29.167 15.333 -45.5 34s-26.833 36.334 -31.5 53.001
c-12 42 -5.83301 86.833 18.5 134.5s56.5 76.834 96.5 87.501c11.333 2 25.666 8.33301 42.999 19s32 18 44 22c22.667 8 45.667 11 69 9c20 -2 42.833 -11.667 68.5 -29s44.5 -35.666 56.5 -54.999l26 13c15.333 8 26 12.167 32 12.5s15.333 -2.83398 28 -9.50098
c11.333 -6.66699 21 -10 29 -10z" />
    <glyph glyph-name="p" unicode="p" horiz-adv-x="294" 
d="M196 349c-24 0 -43.334 -3.49707 -58.001 -10.4971s-29 -19.5 -43 -37.5c-11.333 -14.667 -18.166 -25.334 -20.499 -32.001s-2.83301 -17 -1.5 -31c1.33301 -11.333 3 -40.666 5 -87.999s3.83301 -97.5 5.5 -150.5s2.83398 -83.167 3.50098 -90.5
c1.33301 -26.667 -1 -42.334 -7 -47.001c-10 -8 -16.667 -4.33301 -20 11l-6 43c0 0.666992 -4.66699 35.834 -14 105.501s-12 121.834 -8 156.501c2.66699 19.333 4 57.833 4 115.5s1 94.5 3 110.5c4 5.33301 9.33301 7.33301 16 6
c4.66699 -0.666992 7.66699 -3.83398 9 -9.50098s1.66602 -17.834 0.999023 -36.501c-2 -28 0 -42 6 -42c3.33301 0 9 4.33301 17 13c15.333 17.333 36.166 30.5 62.499 39.5s50.5 10.833 72.5 5.5c14.667 -2.66699 25.667 -11.5 33 -26.5s9.66602 -33.833 6.99902 -56.5
c-2.66699 -24.667 -13.834 -55.834 -33.501 -93.501s-36.5 -60.834 -50.5 -69.501c-18.667 -12 -33.5 -18.167 -44.5 -18.5s-21.833 4.16699 -32.5 13.5c-12 12 -17.333 21.667 -16 29c0.666992 4 1.33398 6.5 2.00098 7.5s1.83398 1.16699 3.50098 0.5s4.5 -3 8.5 -7
c9.33301 -9.33301 22.333 -12.5 39 -9.5s30.334 11.167 41.001 24.5c16 20 30 47.333 42 82s16 59.667 12 75c-2 8 -5 13 -9 15s-13.667 3 -29 3z" />
    <glyph glyph-name="q" unicode="q" horiz-adv-x="296" 
d="M123 383c0 -8.66699 -2.32812 -14.166 -6.99512 -16.499s-9 0.166992 -13 7.5c-2 4 -3.66699 6.33301 -5 7s-2.5 0.333984 -3.5 -0.999023s-2.83301 -4.33301 -5.5 -9c-6.66699 -12.667 -12.834 -35 -18.501 -67s-8.83398 -62.333 -9.50098 -91
c-1.33301 -37.333 -3 -59.333 -5 -66c-2.66699 -8.66699 0.166016 -24.334 8.49902 -47.001s16.833 -37.334 25.5 -44.001c14 -12 32.667 -15.333 56 -10c18.667 4.66699 25.334 12.334 20.001 23.001c-3.33301 8.66699 -9.5 28.667 -18.5 60s-16.5 53.333 -22.5 66
c-11.333 24.667 -14.333 39.667 -9 45c11.333 11.333 24.666 -2 39.999 -40c4.66699 -11.333 10 -25.666 16 -42.999l26 -76c2.66699 6.66699 6.66699 15.834 12 27.501s9.16602 20.667 11.499 27s5.16602 14.666 8.49902 24.999s5.5 21.5 6.5 33.5s1.5 26 1.5 42
c0 78.667 -12 130 -36 154c-14 13.333 -30.667 19.166 -50 17.499s-29 -9.83398 -29 -24.501zM123.005 433.001c0 4 11.3311 5.99805 33.998 5.99805c21.333 0 38.833 -5.83301 52.5 -17.5s25.5 -31.5 35.5 -59.5c17.333 -46.667 23.333 -96.334 18 -149.001
s-21.666 -100.667 -48.999 -144c-5.33301 -8.66699 -8 -15.667 -8 -21s2.66699 -15.666 8 -30.999s8.16602 -25 8.49902 -29s-2.16699 -8 -7.5 -12c-7.33301 -6 -13.166 -7.16699 -17.499 -3.5s-8.5 13.834 -12.5 30.501c-4 14 -7.16699 21.833 -9.5 23.5
s-9.16602 1.16699 -20.499 -1.5c-58.667 -14.667 -97.667 5 -117 59c-9.33301 26.667 -11 76 -5 148s15.667 121.333 29 148c10.667 20.667 25.667 34.334 45 41.001c10.667 4 16 8 16 12z" />
    <glyph glyph-name="r" unicode="r" horiz-adv-x="381" 
d="M165 388c-13.333 5.33301 -23.498 7.99902 -30.498 7.99902s-15.833 -2 -26.5 -6c-14.667 -6 -23.667 -16.5 -27 -31.5s-4.33301 -48.833 -3 -101.5c0.666992 -26 3.16699 -40 7.5 -42s17.5 4 39.5 18c17.333 11.333 32.166 25.833 44.499 43.5
s18.833 33.834 19.5 48.501c1.33301 22.667 0.666016 37.667 -2.00098 45s-10 13.333 -22 18zM182.002 132.999c1.33301 0 13.3301 -7.83301 35.9971 -23.5s40 -28.167 52 -37.5c12 -10 25.833 -13.333 41.5 -10s23.5 11.333 23.5 24c0 8.66699 3 14.334 9 17.001
c3.33301 2 5.33301 0.666992 6 -4c2 -14.667 -1.33301 -30.667 -10 -48c-10 -17.333 -22.5 -24.666 -37.5 -21.999s-41.5 16.667 -79.5 42c-43.333 29.333 -75 52.333 -95 69c-22.667 18.667 -35.667 28 -39 28c-2 -2 -3 -9.83301 -3 -23.5s1 -30.167 3 -49.5
s4.33301 -33.333 7 -42c2.66699 -10 -0.666016 -16.333 -9.99902 -19s-16.166 -0.833984 -20.499 5.49902s-7.83301 19.166 -10.5 38.499c-11.333 60 -19 121 -23 183c-1.33301 21.333 -2.16602 37.333 -2.49902 48s-0.166016 19.334 0.500977 26.001s1.66699 10.5 3 11.5
s3.33301 1.16699 6 0.5c4 -1.33301 7.16699 -0.666016 9.5 2.00098s5.16602 8.33398 8.49902 17.001c7.33301 23.333 22 40.5 44 51.5s47.667 9.5 77 -4.5c30.667 -14.667 43 -44.334 37 -89.001c-1.33301 -16.667 -9.33301 -37.334 -24 -62.001s-26.667 -38.667 -36 -42
c-8 -2.66699 -16 -8.33398 -24 -17.001c-5.33301 -6 -7.16602 -11 -5.49902 -15s9.16699 -12.667 22.5 -26c19.333 -19.333 30.666 -29 33.999 -29z" />
    <glyph glyph-name="s" unicode="s" horiz-adv-x="318" 
d="M103 362c-9.33301 0 -12.998 -14.999 -10.998 -44.999c2 -25.333 10.667 -45.833 26 -61.5s43.333 -33.167 84 -52.5c33.333 -15.333 56 -30 68 -44s18 -32.333 18 -55c0 -30.667 -11.333 -52 -34 -64s-60.334 -16.667 -113.001 -14
c-27.333 1.33301 -45.833 3.16602 -55.5 5.49902s-16.834 6.5 -21.501 12.5c-4.66699 5.33301 -8.16699 11.166 -10.5 17.499s-3 11.833 -2 16.5s3.5 7 7.5 7c5.33301 0 9.33301 -4.33301 12 -13c4.66699 -16.667 38.667 -24.667 102 -24
c26 0.666992 42.667 1.83398 50 3.50098s14.333 6.83398 21 15.501c10.667 12 16.167 26.833 16.5 44.5s-4.83398 31.167 -15.501 40.5c-6.66699 6 -29.334 19.333 -68.001 40c-52.667 25.333 -86.667 52.666 -102 81.999c-7.33301 14 -11.666 31 -12.999 51s1 35.667 7 47
c4.66699 8.66699 6.33398 14.334 5.00098 17.001s-7.66602 6 -18.999 10c-16 6 -24.333 12.667 -25 20c0 7.33301 7.33301 10.333 22 9c7.33301 0 15.666 -2 24.999 -6s16.333 -6.33301 21 -7s13 2 25 8c10 6 16 11.333 18 16s2.66699 14 2 28l-2 30c22 -14 34 -29 36 -45
c1.33301 -10.667 3.33301 -17.334 6 -20.001s8.66699 -3.66699 18 -3c18 1.33301 30.667 3.33301 38 6s11.5 3.33398 12.5 2.00098s0.5 -5 -1.5 -11c-2 -8 -0.666992 -22.167 4 -42.5s5.33398 -35.5 2.00098 -45.5c-4 -13.333 -7.66699 -22 -11 -26
s-5.83301 -3.33301 -7.5 2s-2.5 15 -2.5 29c0.666992 17.333 0.166992 27.833 -1.5 31.5s-7.16699 6.16699 -16.5 7.5c-12.667 1.33301 -20.334 6.33301 -23.001 15c-2 8 -12.667 10.667 -32 8c-20 -2.66699 -33 -10.334 -39 -23.001c-6 -13.333 -12.667 -20 -20 -20z" />
    <glyph glyph-name="t" unicode="t" horiz-adv-x="360" 
d="M177 411c3.33301 8.66699 6.16992 13.168 8.50293 13.501s6.16602 -3.16699 11.499 -10.5c3.33301 -4.66699 8.66602 -7.33398 15.999 -8.00098s23 0.666016 47 3.99902c24.667 3.33301 40.5 4.83301 47.5 4.5s12.5 -2.83301 16.5 -7.5
c5.33301 -10.667 6.66602 -17 3.99902 -19s-11 -3.33301 -25 -4c-4 0 -7.33301 -0.166992 -10 -0.5s-6 -0.666016 -10 -0.999023s-8 -0.833008 -12 -1.5c-37.333 -3.33301 -57 -6.66602 -59 -9.99902c0.666992 -12 2.83398 -38 6.50098 -78s5.83398 -72.333 6.50098 -97
c5.33301 -106 10.333 -168 15 -186c3.33301 -13.333 1 -25.333 -7 -36c-4.66699 -4.66699 -8.66699 -5.33398 -12 -2.00098c-4 4 -7 13.333 -9 28s-4.33301 51 -7 109c-6.66699 125.333 -11.667 197 -15 215c-4 22.667 -8.83301 35.5 -14.5 38.5s-28.167 3.5 -67.5 1.5
c-36.667 -1.33301 -59.334 -0.666016 -68.001 2.00098s-11.334 10 -8.00098 22c1.33301 6 5.83301 9.5 13.5 10.5s27.167 1.16699 58.5 0.5s50.833 -0.333984 58.5 0.999023s12.5 5 14.5 11z" />
    <glyph glyph-name="u" unicode="u" horiz-adv-x="491" 
d="M461 362c0 -13.333 -7.16797 -20 -21.501 -20s-30.166 6.66699 -47.499 20c-2 1.33301 -4 2.83301 -6 4.5s-4 3.16699 -6 4.5s-3.66699 2.66602 -5 3.99902s-2.66602 2.5 -3.99902 3.5s-2.5 1.83301 -3.5 2.5s-1.83301 1 -2.5 1l-1 1v-17.5
c0 -3 0.333008 -17.167 1 -42.5c2 -55.333 -5.33301 -108.666 -22 -159.999s-36.667 -83.333 -60 -96c-12.667 -6.66699 -29.334 -11.334 -50.001 -14.001c-40 -6 -70.333 12.667 -91 56c-10 20.667 -16.833 43.167 -20.5 67.5s-6.16699 64.833 -7.5 121.5
c-0.666992 10.667 -1.33398 25.334 -2.00098 44.001c-2 32.667 -4.66699 49.334 -8 50.001s-7.66602 -3.66602 -12.999 -12.999c-2.66699 -4.66699 -6 -11 -10 -19c-12.667 -27.333 -25.334 -41.333 -38.001 -42c-5.33301 -0.666992 -9.33301 2.66602 -12 9.99902
c-3.33301 5.33301 2.33398 19.5 17.001 42.5s21.667 36.5 21 40.5c0 19.333 14.333 22 43 8c11.333 -6 18.333 -12 21 -18c3.33301 -8.66699 7.33301 -50.334 12 -125.001c4.66699 -77.333 14.167 -130.5 28.5 -159.5s36.5 -40.5 66.5 -34.5
c18.667 3.33301 34.334 12.333 47.001 27s23.667 37 33 67c17.333 52 21.666 125.333 12.999 220c-2 20 0.333008 32 7 36c18.667 11.333 36 4.33301 52 -21c9.33301 -14 16.5 -22.333 21.5 -25s15.167 -4.33398 30.5 -5.00098c6.66699 -0.666992 11.167 -2.16699 13.5 -4.5
s3.5 -7.16602 3.5 -14.499z" />
    <glyph glyph-name="v" unicode="v" horiz-adv-x="625" 
d="M169 406c0 -5.33301 -4.83301 -11.6689 -14.5 -19.002s-18.834 -11.666 -27.501 -12.999c-11.333 -1.33301 -20.666 -3.66602 -27.999 -6.99902c-20.667 -8 -37.334 -10.5 -50.001 -7.5s-19 10.833 -19 23.5c-1.33301 9.33301 3.5 14.833 14.5 16.5s23 1.66699 36 0
s23.833 -0.5 32.5 3.5c11.333 4 23.333 6.5 36 7.5s19.334 -0.5 20.001 -4.5zM180 396.997c6.66699 0 10.668 -2.66699 12.001 -8c8 -30 17.5 -58.5 28.5 -85.5s20.333 -47.667 28 -62s20 -35.666 37 -63.999s29.167 -49.166 36.5 -62.499c0 -6 3 -11.333 9 -16
c5.33301 -4.66699 10.166 -2.83398 14.499 5.49902s17.166 38.833 38.499 91.5l26 62c12 28 21.333 51.5 28 70.5s12.334 39.833 17.001 62.5c4 19.333 7.5 31.833 10.5 37.5s7.83301 8.83398 14.5 9.50098c10.667 1.33301 19.334 -1.33398 26.001 -8.00098
c6 -6.66699 17.5 -8.5 34.5 -5.5s27.833 8.83301 32.5 17.5c5.33301 9.33301 11.333 13 18 11c5.33301 -1.33301 6 -5.66602 2 -12.999c-5.33301 -10.667 -16 -21.334 -32 -32.001s-30.333 -16.667 -43 -18s-21.5 -5.5 -26.5 -12.5s-14.833 -29.5 -29.5 -67.5
c-18 -42.667 -36.833 -92.334 -56.5 -149.001s-35.834 -99 -48.501 -127c-3.33301 -3.33301 -8.33301 -2.83301 -15 1.5s-14 11.5 -22 21.5s-15.333 21.667 -22 35c-67.333 133.333 -101 203.333 -101 210c-1.33301 8 -7 22.333 -17 43c-16.667 34.667 -16.667 52 0 52z" />
    <glyph glyph-name="w" unicode="w" horiz-adv-x="509" 
d="M462 428c0 6 1.99707 9.33594 5.99707 10.0029s7.33301 -2 10 -8c2 -4 1 -26.667 -3 -68c-6 -59.333 -12.333 -141.333 -19 -246c-1.33301 -28.667 -3 -47.5 -5 -56.5s-5.66699 -14.167 -11 -15.5c-6 -1.33301 -11.5 0.666992 -16.5 6s-19.833 24.666 -44.5 57.999
c-54.667 75.333 -87.667 124.333 -99 147c-12 24 -20.333 39.833 -25 47.5s-8.66699 10.834 -12 9.50098c-4 -1.33301 -6.66699 -5.33301 -8 -12c-2 -8 -17 -59 -45 -153c-21.333 -72.667 -38.666 -109 -51.999 -109c-12 -0.666992 -26 24 -42 74
c-18 54 -37.667 123.667 -59 209c-7.33301 25.333 -8.66602 41 -3.99902 47c4 3.33301 8.33301 4.16602 13 2.49902s9.16699 -5.66699 13.5 -12s6.5 -12.833 6.5 -19.5c0.666992 -15.333 11.5 -58 32.5 -128s33.5 -105 37.5 -105c2.66699 0 9.16699 12 19.5 36
s15.5 39 15.5 45c1.33301 8.66699 8.33301 32.334 21 71.001s19.667 62 21 70c3.33301 14.667 8.5 27.5 15.5 38.5s13.5 16.5 19.5 16.5c4.66699 -5.33301 21.334 -36 50.001 -92s46.667 -87 54 -93c5.33301 -6 16.166 -20.333 32.499 -43s28.5 -37 36.5 -43
c2.66699 -0.666992 4.5 6.16602 5.5 20.499s1.66699 29.166 2 44.499s0.833008 23.333 1.5 24c0.666992 2 2.83398 20 6.50098 54l11 100c3.66699 32.667 6.5 49.667 8.5 51c4 9.33301 6 16.666 6 21.999z" />
    <glyph glyph-name="x" unicode="x" horiz-adv-x="399" 
d="M108 411c13.333 0 28.1699 -10.1699 44.5029 -30.5029s37.833 -54.5 64.5 -102.5c10 -17.333 16.333 -27 19 -29c0.666992 -0.666992 3.16699 1.5 7.5 6.5s9.33301 12 15 21s11.5 18.833 17.5 29.5c36.667 65.333 63.667 98 81 98c10.667 0 13.667 -4.33301 9 -13
c-2.66699 -5.33301 -8.33398 -13.666 -17.001 -24.999c-12 -14.667 -26.167 -36.334 -42.5 -65.001s-26.5 -49.667 -30.5 -63c-4 -12 -7.66699 -19.333 -11 -22c-1.33301 -2.66699 -0.5 -8.16699 2.5 -16.5s7.16699 -17.666 12.5 -27.999l15.5 -30l14.5 -27
c4.66699 -8.33301 7 -12.833 7 -13.5c5.33301 -10.667 12 -16.667 20 -18c9.33301 -1.33301 15.5 -7 18.5 -17s0.833008 -18.667 -6.5 -26c-6 -5.33301 -10.333 -7.66602 -13 -6.99902s-8.33398 5.33398 -17.001 14.001c-6 4 -19.5 25.667 -40.5 65s-32.5 60.333 -34.5 63
c-2.66699 0 -14.834 -21.5 -36.501 -64.5s-32.5 -67.167 -32.5 -72.5s-4.66699 -10.5 -14 -15.5s-17.333 -6.16699 -24 -3.5s-7.33398 10.334 -2.00098 23.001c5.33301 11.333 20.333 38.666 45 81.999c29.333 52.667 44 80 44 82c0 4 -15.667 31.167 -47 81.5
s-49.333 77.5 -54 81.5c-5.33301 4.66699 -10 4 -14 -2c-4 -5.33301 -13.333 -22 -28 -50s-27 -42.333 -37 -43c-10 -1.33301 -14.5 1.16699 -13.5 7.5s7.16699 18.833 18.5 37.5c16.667 28.667 27.334 49.667 32.001 63c8 19.333 17 29 27 29z" />
    <glyph glyph-name="y" unicode="y" horiz-adv-x="356" 
d="M315 362c-8 -6 -23.665 -22.8369 -46.998 -50.5039s-37.666 -44.167 -42.999 -49.5c-10.667 -11.333 -17.167 -19.5 -19.5 -24.5s-1.5 -9.16699 2.5 -12.5c3.33301 -2.66699 7.5 -4.66699 12.5 -6s8.83301 -3.5 11.5 -6.5s4 -8.5 4 -16.5
c1.33301 -13.333 -1.5 -21.833 -8.5 -25.5s-14.167 -0.166992 -21.5 10.5c-10.667 14.667 -17 18 -19 10c-2 -10 1 -55 9 -135c4.66699 -50 -1 -75 -17 -75c-6 0 -10.333 5.33301 -13 16s-5.33398 35.667 -8.00098 75c-2 44 -8.66699 72.333 -20 85
c-8.66699 9.33301 -12.834 19.666 -12.501 30.999s4.83301 19.333 13.5 24c13.333 8 11 20 -7 36c-12.667 10.667 -32.834 33.334 -60.501 68.001s-41.5 54.334 -41.5 59.001c0 12.667 8.66699 12.334 26 -0.999023c9.33301 -6.66699 19 -16.334 29 -29.001
c23.333 -29.333 53 -60.666 89 -93.999c5.33301 6.66699 18.166 20.834 38.499 42.501l54 58.5c15.667 17.333 24.834 29 27.501 35c2 11.333 8.16699 15 18.5 11s14.5 -10.667 12.5 -20c0 -1.33301 -0.333008 -2.66602 -1 -3.99902c-2.66699 -8 -5.66699 -12 -9 -12z" />
    <glyph glyph-name="z" unicode="z" horiz-adv-x="316" 
d="M229 364c-2 0 -3.5 -3.66992 -4.5 -11.0029s-2.83301 -11 -5.5 -11c-3.33301 0.666992 -9.16602 -8.33301 -17.499 -27l-27.5 -64.5c-10 -24.333 -17.333 -39.833 -22 -46.5c-5.33301 -8.66699 -15.166 -25.834 -29.499 -51.501s-26.833 -45.834 -37.5 -60.501
c14.667 -5.33301 54 -7.33301 118 -6c50.667 2 77.667 1 81 -3c1.33301 -1.33301 2 -4.33301 2 -9c0 -7.33301 -3 -11.666 -9 -12.999s-25 -1.33301 -57 0c-49.333 1.33301 -110.666 -4 -183.999 -16c-3.33301 9.33301 -5 18.166 -5 26.499s4.33301 15.833 13 22.5
c10 8.66699 22.667 24 38 46c10.667 16 26.5 43.667 47.5 83s31.5 61.333 31.5 66c0 5.33301 5.66699 19.5 17 42.5s21 39.5 29 49.5c11.333 15.333 17 25 17 29c0 2.66699 -7 2.33398 -21 -0.999023s-31.5 -8.66602 -52.5 -15.999s-40.5 -15.333 -58.5 -24
c-41.333 -20 -62 -22.333 -62 -7c0.666992 1.33301 1 3 1 5c2 6.66699 12.333 15.334 31 26.001s35 16.334 49 17.001l76 23c61.333 18 93.666 21 96.999 9c1.33301 -3.33301 -6.33398 -16.666 -23.001 -39.999s-27.334 -36 -32.001 -38z" />
    <glyph glyph-name="uni0093" horiz-adv-x="230" 
d="M183 362c18.667 0 22.6689 -9.66797 12.002 -29.001c-6 -11.333 -10.5 -26.166 -13.5 -44.499s-2.83301 -29.5 0.5 -33.5c4.66699 -4.66699 4.66699 -10 0 -16s-10 -7.66699 -16 -5c-10.667 4 -16.834 16.667 -18.501 38s2.16602 42.333 11.499 63
c8.66699 18 16.667 27 24 27zM43.002 333.999c11.333 30.667 21.667 44.668 31 42.001c3.33301 -0.666992 6 -4 8 -10c2.66699 -6 -1 -21 -11 -45c-8 -18.667 -12.5 -36.667 -13.5 -54s1.5 -29 7.5 -35c5.33301 -5.33301 5.66602 -10.333 0.999023 -15
c-3.33301 -3.33301 -7.5 -3.33301 -12.5 0s-9.66699 9.5 -14 18.5s-7.16602 18.5 -8.49902 28.5c-2.66699 17.333 1.33301 40.666 12 69.999z" />
    <glyph glyph-name="uni0094" horiz-adv-x="258" 
d="M35 399c5.33301 4.66699 11.332 5.16699 17.999 1.5s13 -11.167 19 -22.5s10 -23.333 12 -36c2 -14 -0.5 -28.667 -7.5 -44s-15.167 -25 -24.5 -29c-9.33301 -3.33301 -14 -2.33301 -14 3c0 4 2.66699 10.667 8 20c6.66699 10.667 9.33398 23.5 8.00098 38.5
s-6 25.833 -14 32.5c-5.33301 4 -8.5 10 -9.5 18s0.5 14 4.5 18zM162.999 416c5.33301 5.33301 10.833 6.33398 16.5 3.00098s13.834 -12.333 24.501 -27c16 -22.667 24 -43 24 -61s-8 -35.667 -24 -53c-9.33301 -12 -15.333 -13.333 -18 -4
c-2.66699 10 -0.333984 18.333 6.99902 25c8 9.33301 11.167 18 9.5 26s-9.5 20.333 -23.5 37c-12.667 15.333 -20 26.666 -22 33.999s0 14 6 20z" />
    <glyph glyph-name=".null" horiz-adv-x="0" 
 />
    <glyph glyph-name="nonmarkingreturn" horiz-adv-x="333" 
 />
    </font>
</defs>
</svg>
