<?xml version="1.0" standalone="no"?>
<!DOCTYPE svg PUBLIC "-//W3C//DTD SVG 1.1//EN" "http://www.w3.org/Graphics/SVG/1.1/DTD/svg11.dtd" >
<svg>
<metadata>
Created by FontForge 20090914 at Sat Feb 27 01:01:04 2016
 By www-data
Copyright (c) 2016, root
</metadata>
<defs>
<font id="Tori" horiz-adv-x="528" >
  <font-face 
    font-family="Tori"
    font-weight="400"
    font-stretch="normal"
    units-per-em="1000"
    panose-1="2 0 5 3 0 0 0 0 0 0"
    ascent="800"
    descent="-200"
    x-height="439.999"
    cap-height="624.998"
    bbox="28.627 -200 754.571 738.176"
    underline-thickness="50"
    underline-position="-100"
    unicode-range="U+0020-U+007A"
  />
<missing-glyph horiz-adv-x="364" 
d="M33 0v666h265v-666h-265zM66 33h199v600h-199v-600z" />
    <glyph glyph-name=".notdef" horiz-adv-x="364" 
d="M33 0v666h265v-666h-265zM66 33h199v600h-199v-600z" />
    <glyph glyph-name="space" unicode=" " horiz-adv-x="268" 
 />
    <glyph glyph-name="exclam" unicode="!" horiz-adv-x="168" 
d="M101 -48c-10.667 4.66699 -15.668 -0.333008 -15.001 -15c0.666992 -10.667 2.66699 -18 6 -22c4 -2.66699 9.83301 0 17.5 8s10.834 14.667 9.50098 20c-1.33301 4.66699 -7.33301 7.66699 -18 9zM64.999 -34c13.333 14.667 26.666 19.167 39.999 13.5
s23 -19.834 29 -42.501c5.33301 -18 4.33301 -34.667 -3 -50c-8 -19.333 -18.167 -27 -30.5 -23s-25.166 19.333 -38.499 46c-7.33301 14.667 -10.833 25.334 -10.5 32.001s4.83301 14.667 13.5 24zM29.999 541c0 24.667 3.33398 36.667 10.001 36
c2 -0.666992 4.66699 -3.33398 8 -8.00098c2.66699 -12 6.66699 -43 12 -93s10.666 -105 15.999 -165s8.33301 -92.667 9 -98c2.66699 -23.333 4.5 -41.5 5.5 -54.5s1.5 -23.5 1.5 -31.5s-0.5 -13.167 -1.5 -15.5s-2.83301 -3.16602 -5.5 -2.49902
c-7.33301 2.66699 -12 17.667 -14 45c-18.667 175.333 -30 277 -34 305c-4.66699 30 -7 57.333 -7 82z" />
    <glyph glyph-name="quotedbl" unicode="&#x22;" horiz-adv-x="354" 
d="M30 451c0 16.667 0.999023 26.5 2.99902 29.5s7.66699 4.5 17 4.5c11.333 0 24.333 -6.83301 39 -20.5s25.334 -28.834 32.001 -45.501c8.66699 -21.333 10.667 -50.5 6 -87.5s-13.334 -61.167 -26.001 -72.5c-11.333 -10 -17.333 -10.667 -18 -2
c-0.666992 6.66699 2.66602 16.334 9.99902 29.001c9.33301 14.667 14.833 37.667 16.5 69s-1.16602 55 -8.49902 71c-7.33301 11.333 -11.666 14.333 -12.999 9c-1.33301 -8 -8 -15.667 -20 -23c-12.667 -8.66699 -22.167 -9.66699 -28.5 -3s-9.5 20.667 -9.5 42z
M266.999 506c-6 0 -6.99707 3.66602 -2.99707 10.999c2 6.66699 -1.33301 12.5 -10 17.5s-16.667 5.83301 -24 2.5c-4.66699 -2 -7.66699 -3.83301 -9 -5.5s-1.33301 -3.66699 0 -6s4.66602 -5.83301 9.99902 -10.5c6 -5.33301 8.33301 -8.66602 7 -9.99902
s-3.83301 -3.5 -7.5 -6.5s-5.16699 -6.5 -4.5 -10.5c-0.666992 -5.33301 1.33301 -7 6 -5c2 0.666992 6 2.33398 12 5.00098c8 4.66699 12 6 12 4c2 -4 11 -15.667 27 -35c27.333 -34.667 41 -72.667 41 -114c0 -28.667 -4.66699 -55.167 -14 -79.5s-19.333 -36.5 -30 -36.5
c-6.66699 0 -8 5.66699 -4 17c2 6 5.33301 10.667 10 14c7.33301 5.33301 12.333 25.666 15 60.999c2.66699 58.667 -8 100.667 -32 126c-7.33301 8.66699 -13.833 13.667 -19.5 15s-15.5 1 -29.5 -1l-31 -4c1.33301 44.667 6.66602 72.334 15.999 83.001
c8 6.66699 18.167 10.167 30.5 10.5s23.666 -2.83398 33.999 -9.50098s13.833 -14 10.5 -22c-4 -7.33301 -8.33301 -11 -13 -11z" />
    <glyph glyph-name="dollar" unicode="$" horiz-adv-x="384" 
d="M174 174c0 -2.66699 -2.00098 -15.834 -6.00098 -39.501s-7.66699 -47.167 -11 -70.5s-4.66602 -37.333 -3.99902 -42c0 -14 1.66699 -20.333 5 -19c5.33301 1.33301 12 19 20 53c7.33301 34.667 9 64.334 5 89.001c-4.66699 20 -7.66699 29.667 -9 29zM162.999 347
c6.66699 40 2.99902 62.3311 -11.001 66.998c-4.66699 0.666992 -7.66699 -1.16602 -9 -5.49902s-1.66602 -15.166 -0.999023 -32.499c2 -33.333 6.33301 -49.333 13 -48c3.33301 0.666992 6 7 8 19zM180.998 516.998c8.66699 17.333 14.6709 22.002 18.0039 14.002
c2.66699 -6.66699 2.33398 -20 -0.999023 -40c-5.33301 -45.333 -6.33301 -70.333 -3 -75c2 -2.66699 7.66699 -5.33398 17 -8.00098c20 -4.66699 44.667 -17.334 74 -38.001s49 -39 59 -55c9.33301 -16 11.333 -23.667 6 -23c-6.66699 2.66699 -18.334 13 -35.001 31
c-21.333 24 -34.666 36 -39.999 36c-4 0 -10.667 4 -20 12c-6.66699 6.66699 -18.834 13.5 -36.501 20.5s-28.167 9.16699 -31.5 6.5c-0.666992 -2 -3 -23.333 -7 -64c-2.66699 -44 -0.333984 -81.667 6.99902 -113c7.33301 -29.333 11.5 -62.666 12.5 -99.999
s-1.16699 -66.333 -6.5 -87c-4 -15.333 -12.333 -32 -25 -50c-7.33301 -10 -11.833 -19.5 -13.5 -28.5s-2.5 -26.833 -2.5 -53.5c0 -40 -3.33301 -60 -10 -60c-6 0 -9 21.667 -9 65c-0.666992 28.667 -1.66699 46.667 -3 54s-5 11.666 -11 12.999
c-7.33301 1.33301 -15.333 5.66602 -24 12.999s-13 13.333 -13 18c0 4 -7.33301 15 -22 33c-28.667 36.667 -37.667 74 -27 112c6 22 11.667 33 17 33c2.66699 0 2.66699 -6.66699 0 -20c-6.66699 -33.333 -2.33398 -68.666 12.999 -105.999
c14 -31.333 30.333 -52.333 49 -63c13.333 -7.33301 20 -3.33301 20 12v6c-0.666992 10 2.66602 36.667 9.99902 80c18 101.333 17 178 -3 230c-10.667 27.333 -15.334 53 -14.001 77c0.666992 16 2 25.5 4 28.5s7.33301 4.16699 16 3.5s14.167 0.833008 16.5 4.5
s4.5 13.5 6.5 29.5c3.33301 20 7.33301 37.333 12 52z" />
    <glyph glyph-name="percent" unicode="%" horiz-adv-x="563" 
d="M471 227c1.33301 0.666992 4.83301 -2.33301 10.5 -9l18 -22l18 -22c5.66699 -6.66699 9.16699 -10 10.5 -10c3.33301 0 5 -14 5 -42c0 -18.667 -1 -31.667 -3 -39s-6.66699 -14.333 -14 -21c-12 -12 -27.833 -17.833 -47.5 -17.5s-38.167 6.16602 -55.5 17.499
c-16.667 12 -29.667 19 -39 21c-7.33301 2.66699 -15.166 11.5 -23.499 26.5s-12.5 28.167 -12.5 39.5c0 16.667 11.333 37.334 34 62.001s44.667 40.667 66 48c19.333 6 29.333 9 30 9c4 1.33301 11.333 -1.5 22 -8.5s16 -12.5 16 -16.5c0 -8 -4.66699 -8 -14 0
c-22 20 -53 10 -93 -30c-29.333 -30 -43.5 -54.667 -42.5 -74s17.5 -38 49.5 -56c43.333 -23.333 75.333 -28 96 -14c7.33301 5.33301 12.166 10.833 14.499 16.5s3.5 16.5 3.5 32.5c0 18 -1.33301 30.333 -4 37s-10.667 16.667 -24 30c-27.333 28 -34.333 42 -21 42z
M219 338c0 5.33301 -5.16699 17.168 -15.5 35.501s-17.5 28.166 -21.5 29.499c-6 2.66699 -6.83301 6 -2.5 10s7.83301 2.66699 10.5 -4c4 -6.66699 8.66699 -5 14 5c10.667 21.333 9.66699 34.333 -3 39c-20 7.33301 -43.667 5.83301 -71 -4.5s-49.5 -25.333 -66.5 -45
s-21.833 -37.5 -14.5 -53.5c5.33301 -10 20.833 -20.333 46.5 -31s44.5 -14.667 56.5 -12c14 4 28.667 9.5 44 16.5s23 11.833 23 14.5zM30 364.002c0 14 1.5 24.165 4.5 30.498s9.83301 14.833 20.5 25.5c28.667 26.667 58.667 44 90 52c32 7.33301 54.833 5.5 68.5 -5.5
s14.834 -28.833 3.50098 -53.5c-5.33301 -7.33301 -3.83301 -21 4.5 -41s11.833 -32.333 10.5 -37c-1.33301 -9.33301 -11 -18.166 -29 -26.499s-38.667 -13.5 -62 -15.5c-16.667 -1.33301 -29.334 -1 -38.001 1s-20.667 7.33301 -36 16
c-18 10.667 -28.667 18.334 -32 23.001s-5 15 -5 31zM401 406c-12 -21.333 -47.667 -77.835 -107 -169.502s-97.333 -153.5 -114 -185.5c-10 -19.333 -24 -42.666 -42 -69.999s-28.667 -41 -32 -41c-9.33301 0 -7 12.333 7 37c6 10 12 18.333 18 25
c10.667 11.333 25.834 35.5 45.501 72.5s33.167 60.833 40.5 71.5c76 120 121.667 195.333 137 226c8.66699 14 20.5 31.667 35.5 53s30.833 48.333 47.5 81c28 52.667 46 82.334 54 89.001c11.333 8.66699 16.666 10.334 15.999 5.00098
c-0.666992 -4.66699 -4.66699 -14.334 -12 -29.001l-22.5 -43l-36.5 -67c-10.667 -18.667 -19 -31.667 -25 -39c-6.66699 -6.66699 -10 -12 -10 -16z" />
    <glyph glyph-name="quotesingle" unicode="'" horiz-adv-x="220" 
d="M99 461c-13.333 16 -25.0039 15 -35.0039 -3c-5.33301 -10.667 -7.16602 -17 -5.49902 -19s8.83398 -1.66699 21.501 1c14.667 2.66699 22.834 5.16699 24.501 7.5s-0.166016 6.83301 -5.49902 13.5zM189.996 402c0 -11.333 -7.99902 -30.8311 -23.999 -58.498
s-31.333 -48.834 -46 -63.501c-17.333 -17.333 -25.666 -22 -24.999 -14c2 9.33301 13 27 33 53l19 26l16.5 23c4.33301 6 6.83301 9.33301 7.5 10c4 7.33301 2.66699 20.166 -4 38.499s-14.334 30.5 -23.001 36.5c-8 5.33301 -13.5 8.5 -16.5 9.5s-5 0.666992 -6 -1
s-1.5 -6.16699 -1.5 -13.5c0 -10.667 -4 -20.667 -12 -30c-5.33301 -5.33301 -8.83301 -7.83301 -10.5 -7.5s-3.5 3.16602 -5.5 8.49902c-2.66699 8.66699 -7.33398 9 -14.001 1c-13.333 -16 -26.333 -14 -39 6c-7.33301 12 -9.83301 22 -7.5 30s10.833 16 25.5 24
c14 6.66699 27.5 9.33398 40.5 8.00098s29.833 -7 50.5 -17c28 -14.667 42 -37.667 42 -69z" />
    <glyph glyph-name="parenleft" unicode="(" horiz-adv-x="295" 
d="M238 591c0 14.667 -16.001 6.66699 -48.001 -24c-35.333 -35.333 -62.666 -70.333 -81.999 -105c-18 -35.333 -26 -55.333 -24 -60c5.33301 -0.666992 28.333 26.666 69 81.999s62.667 83.333 66 84c12.667 10.667 19 18.334 19 23.001zM219.999 606
c29.333 16.667 44.333 18.3369 45 5.00391c0.666992 -10.667 -10.666 -28 -33.999 -52c-24.667 -24 -54.5 -64.667 -89.5 -122s-64.5 -112 -88.5 -164v-102c0.666992 -68.667 6.16699 -116.334 16.5 -143.001s37.166 -62.334 80.499 -107.001c41.333 -42 60 -66 56 -72
s-26.667 12 -68 54c-40.667 41.333 -68 76.666 -82 105.999s-22.333 69.333 -25 120c-6 92 4.66699 163.333 32 214c14 25.333 18.667 39.333 14 42c-7.33301 4.66699 -8.83301 16.167 -4.5 34.5s13.833 40.166 28.5 65.499c34 56 73.667 96.333 119 121z" />
    <glyph glyph-name="parenright" unicode=")" horiz-adv-x="458" 
d="M231 -200c-6.66699 0 -10.002 0.666016 -10.002 1.99902c-0.666992 3.33301 15 15.333 47 36c38.667 26 59.667 39 63 39c4.66699 0 13.334 8.33301 26.001 25s23.334 33.667 32.001 51c10.667 20.667 17.334 46 20.001 76c4 38.667 -3.83301 88.5 -23.5 149.5
s-47.834 122.833 -84.501 185.5c-18.667 31.333 -78 98 -178 200c-40 41.333 -66.333 71.166 -79 89.499s-16.334 31.833 -11.001 40.5s20 9.83398 44 3.50098s41 -15.5 51 -27.5c4.66699 -5.33301 6.83398 -8.33301 6.50098 -9s-3.83301 0.333008 -10.5 3
c-42 16 -65.667 21.333 -71 16v-8.5c0 -2.33301 4.83301 -9.16602 14.5 -20.499s22.167 -25.166 37.5 -41.499l68 -71.5c78 -81.333 125 -135.333 141 -162c46.667 -72 79.5 -144.667 98.5 -218s20.833 -135.333 5.5 -186c-6 -20 -17.667 -41.667 -35 -65
s-33.333 -39.333 -48 -48l-44 -30c-27.333 -18.667 -47.333 -28.334 -60 -29.001z" />
    <glyph glyph-name="asterisk" unicode="*" horiz-adv-x="311" 
d="M101 590c4 0 11.5 -2.83203 22.5 -8.49902s16.5 -9.83398 16.5 -12.501c0 -1.33301 6.66699 -10 20 -26c8.66699 -9.33301 15.5 -15 20.5 -17s14.833 -1.66699 29.5 1c20 3.33301 37 7 51 11c14 3.33301 20.667 2 20 -4
c-1.33301 -9.33301 -16.666 -23.666 -45.999 -42.999c-30.667 -20.667 -46 -32.667 -46 -36s7 -15.333 21 -36c17.333 -26 19.666 -39 6.99902 -39c-2 0 -11 7.33301 -27 22c-12 11.333 -23.667 17.5 -35 18.5s-18 -3.83301 -20 -14.5c-1.33301 -8 -9.66602 -19 -24.999 -33
c-13.333 -12.667 -22.833 -17.334 -28.5 -14.001s-4.83398 13.666 2.49902 30.999c12 28.667 16.167 48.167 12.5 58.5s-16.167 15.5 -37.5 15.5c-17.333 0 -27 3.66699 -29 11c0 4 2 7.66699 6 11c10 6.66699 33.333 14.334 70 23.001c-6 47.333 -7.66699 74.333 -5 81z
" />
    <glyph glyph-name="plus" unicode="+" horiz-adv-x="479" 
d="M30 328c0 4.66699 1.66699 7.83301 5 9.5s6.83301 1.5 10.5 -0.5s5.5 -5 5.5 -9c0 -7.33301 -3.66699 -11 -11 -11c-6.66699 0 -10 3.66699 -10 11zM390 341.999c23.333 0 38.501 -0.834961 45.501 -2.50195s11.167 -5.16699 12.5 -10.5s0.333008 -8.33301 -3 -9
s-11.333 0 -24 2c-18.667 2.66699 -58.5 1 -119.5 -5s-92.167 -11.667 -93.5 -17c-1.33301 0.666992 -2.33301 -15.666 -3 -48.999c0 -6 -0.333008 -16.333 -1 -31c-2.66699 -92 -6 -138 -10 -138c-14 -4 -18.333 41.333 -13 136v4l5 85l-47 -2
c-54 -3.33301 -81 0.666992 -81 12c4 4.66699 47 8.33398 129 11.001c-2 88 0.333008 141 7 159c9.33301 20 14.666 15.667 15.999 -13c0.666992 -13.333 0.666992 -33 0 -59l-2 -85c72 8 132.667 12 182 12z" />
    <glyph glyph-name="comma" unicode="," horiz-adv-x="199" 
d="M169 44c0 -10 -2.66895 -20.8311 -8.00195 -32.498s-19.333 -37.5 -42 -77.5c-18 -31.333 -33.333 -48 -46 -50c-5.33301 1.33301 -8.33301 6 -9 14c0 9.33301 3 14 9 14s22 19.333 48 58c18 27.333 28.5 44.833 31.5 52.5s2.5 15.834 -1.5 24.501
c-5.33301 9.33301 -12.166 16.166 -20.499 20.499s-15.666 5 -21.999 2s-9.5 -9.16699 -9.5 -18.5c0.666992 -7.33301 -1.33301 -11.666 -6 -12.999c-3.33301 -0.666992 -5.66602 1.33301 -6.99902 6c-0.666992 1.33301 -1 2.66602 -1 3.99902
c-1.33301 10.667 -7.33301 13.667 -18 9c-10.667 -5.33301 -15.667 -12.333 -15 -21c0 -3.33301 2 -6.33301 6 -9c4 -4.66699 5.5 -7.66699 4.5 -9s-5.16699 -1.33301 -12.5 0c-12.667 0.666992 -19.334 7.66699 -20.001 21c-2 13.333 5 24.666 21 33.999
c24 14.667 49.667 18.667 77 12s41 -20.334 41 -41.001z" />
    <glyph glyph-name="hyphen" unicode="-" horiz-adv-x="289" 
d="M223 249c24.667 2 36.334 -0.666016 35.001 -7.99902c0 -1.33301 -1 -3 -3 -5c-4.66699 -4.66699 -19.5 -8.33398 -44.5 -11.001s-52.833 -4.83398 -83.5 -6.50098s-51 -3.5 -61 -5.5c-22 -5.33301 -34 -4.66602 -36 2.00098c-0.666992 3.33301 2.66602 7 9.99902 11
c6.66699 3.33301 29.5 7.5 68.5 12.5s77.167 8.5 114.5 10.5z" />
    <glyph glyph-name="period" unicode="." horiz-adv-x="158" 
d="M128 80c0 -4.66699 -0.328125 -8.00195 -0.995117 -10.002s-1.83398 -3 -3.50098 -3s-3.66699 1 -6 3s-5.83301 5.33301 -10.5 10c-20 20 -37.667 18.667 -53 -4c-5.33301 -8.66699 -7.83301 -14.667 -7.5 -18s4.16602 -8.33301 11.499 -15
c11.333 -8.66699 20.333 -11 27 -7c4.66699 2.66699 7.66699 7 9 13s5.66602 9.33301 12.999 10c12 0 16.333 -4.66699 13 -14c-2.66699 -6.66699 -9 -12.667 -19 -18c-11.333 -8.66699 -26.833 -8.66699 -46.5 0s-27.834 19.334 -24.501 32.001
c0 14.667 7.66699 26.334 23 35.001c13.333 8 23.166 12.333 29.499 13s15.5 -1.33301 27.5 -6s18 -11.667 18 -21z" />
    <glyph glyph-name="slash" unicode="/" horiz-adv-x="326" 
d="M296 615c-12.667 -24 -34.6641 -83.667 -65.9971 -179l-102 -303.5c-42 -122.333 -66.333 -191.833 -73 -208.5c-6.66699 -17.333 -12.667 -26 -18 -26c-4.66699 0 -7 8 -7 24s2.33301 25.333 7 28c2.66699 2.66699 3.66699 6.66699 3 12s1.33301 9 6 11
c8 4.66699 33.5 70 76.5 196s62.167 191.333 57.5 196l-6 -17c-4.66699 -10.667 -10.334 -25.667 -17.001 -45l-22 -64c-54 -162.667 -82 -236.667 -84 -222c0 6.66699 4.83301 26.5 14.5 59.5s19.167 61.167 28.5 84.5c9.33301 24 14.666 46 15.999 66
c0.666992 18 18.667 63.667 54 137s54.333 115.333 57 126c23.333 63.333 41.666 103.333 54.999 120c8 8 14.333 10.667 19 8c0.666992 -0.666992 1 -1.66699 1 -3z" />
    <glyph glyph-name="zero" unicode="0" horiz-adv-x="518" 
d="M328 468c0 8.66699 -8 22.498 -24 41.498s-30 31.167 -42 36.5c-15.333 8 -30.666 8.66699 -45.999 2c-38.667 -16 -75.167 -64.667 -109.5 -146s-52.166 -160.666 -53.499 -237.999c-0.666992 -42 2.5 -75 9.5 -99s20.167 -46.667 39.5 -68
c12.667 -14.667 24.167 -25.167 34.5 -31.5s27.5 -13.166 51.5 -20.499c26.667 -8.66699 44.334 -13.5 53.001 -14.5s23 1.16699 43 6.5c25.333 6.66699 44.666 14 57.999 22c17.333 11.333 36.5 29.333 57.5 54s36.833 47.667 47.5 69c13.333 26.667 20.5 51 21.5 73
s-3.83301 47 -14.5 75c-8 20.667 -20.5 41.334 -37.5 62.001s-55.167 61.667 -114.5 123c-42 43.333 -60.333 72 -55 86c0.666992 4.66699 4 3 10 -5c1.33301 -2 2.66602 -4.33301 3.99902 -7c9.33301 -16.667 22.333 -33 39 -49c18.667 -18 47.834 -49.667 87.501 -95
s59.5 -70 59.5 -74c0 -2.66699 7 -18.667 21 -48c13.333 -26 20 -47.833 20 -65.5s-6.33301 -40.167 -19 -67.5c-20 -42.667 -41.5 -76.334 -64.5 -101.001s-51.167 -44.667 -84.5 -60c-21.333 -10 -41.666 -15.333 -60.999 -16s-42.333 2.66602 -69 9.99902
c-64 18.667 -108.667 52.334 -134 101.001c-9.33301 18 -16.5 43.667 -21.5 77s-6.16699 63.333 -3.5 90c7.33301 76.667 27.666 151.834 60.999 225.501s67.666 119.834 102.999 138.501c16 8 31.667 12.667 47 14c19.333 0 40.166 -11.333 62.499 -34
s36.5 -46.334 42.5 -71.001c3.33301 -14 3 -20.333 -1 -19c-6 1.33301 -11.667 7.66602 -17 18.999c-0.666992 2 -1 3.33301 -1 4z" />
    <glyph glyph-name="one" unicode="1" horiz-adv-x="153" 
d="M42 611c5.33301 0 8.33301 -23.666 9 -70.999c0.666992 -36 6.16699 -99.833 16.5 -191.5s20.833 -167.167 31.5 -226.5c21.333 -116 28.666 -176 21.999 -180c-4 -2.66699 -8.16699 -0.833984 -12.5 5.49902s-6.5 13.833 -6.5 22.5c0 7.33301 -8 62 -24 164
c-34 219.333 -49.667 358 -47 416c0.666992 40.667 4.33398 61 11.001 61z" />
    <glyph glyph-name="two" unicode="2" horiz-adv-x="436" 
d="M170 200c-27.333 30.667 -50.667 48 -70 52c-10 2 -16.833 2 -20.5 0s-8.83398 -8 -15.501 -18c-12 -20 -19 -54 -21 -102s2.33301 -85.333 13 -112c4 -10 7 -15.333 9 -16s5.33301 2.33301 10 9c14.667 22.667 46.334 85 95.001 187zM391.999 -5
c0 10 2.33105 15.0029 6.99805 15.0029s7 -7 7 -21s-2.33301 -22.333 -7 -25c-14.667 -8.66699 -40.667 4.16602 -78 38.499s-70.666 75.833 -99.999 124.5c-22.667 38.667 -34.667 58 -36 58c-2.66699 0 -13.667 -20.667 -33 -62c-44 -87.333 -72.333 -134 -85 -140
c-8 -4 -14.667 2.33301 -20 19c-0.666992 4 -1.66699 8.33301 -3 13c-12 48 -16.333 95.167 -13 141.5s13.333 79.166 30 98.499c12.667 15.333 26.167 21.833 40.5 19.5s32.5 -13.5 54.5 -33.5c10.667 -10 18.334 -13.333 23.001 -10c6 5.33301 18.667 37.666 38 96.999
c12 36 19.833 64.667 23.5 86s7.16699 54.333 10.5 99c4 69.333 5.66699 105.333 5 108c-8.66699 23.333 -14.5 36.5 -17.5 39.5s-8.83301 2.5 -17.5 -1.5c-33.333 -15.333 -64.666 -78.333 -93.999 -189c-4.66699 -18 -7.33398 -33.167 -8.00098 -45.5
s0.833008 -21.5 4.5 -27.5s9.16699 -8.66699 16.5 -8c8 1.33301 12.667 -0.333984 14 -5.00098c0.666992 -1.33301 -0.833008 -3 -4.5 -5s-7.83398 -3.33301 -12.501 -4c-12.667 -1.33301 -21.5 3.83398 -26.5 15.501s-6.16699 30.5 -3.5 56.5
c2.66699 32 12 68.167 28 108.5s33.667 72.5 53 96.5c25.333 31.333 48 36 68 14c6 -6.66699 9.66699 -16.5 11 -29.5s1.66602 -43.5 0.999023 -91.5c-0.666992 -58 -4.16699 -104.167 -10.5 -138.5s-20.166 -79.5 -41.499 -135.5l-25 -64l36 -55
c36.667 -56 66 -96.167 88 -120.5s42.667 -39.5 62 -45.5c6.66699 -2 10.834 -2.5 12.501 -1.5s2.5 4.5 2.5 10.5z" />
    <glyph glyph-name="three" unicode="3" horiz-adv-x="479" 
d="M91 471c0 -3.33301 -8.66699 -6.33301 -26 -9s-28 -2.66699 -32 0c-6 6.66699 -1.66699 11 13 13c21.333 2 36.333 0.666992 45 -4zM118 469c-2.66699 1.33301 -3.66699 3.5 -3 6.5s2 5 4 6s4.33301 0.833008 7 -0.5s3.66699 -3.5 3 -6.5s-2 -5 -4 -6
s-4.33301 -0.833008 -7 0.5zM384 570c0 -32.667 -42.6592 -90.998 -127.992 -174.998c-44 -44 -65.333 -67.667 -64 -71c1.33301 -2.66699 10.333 -2 27 2c31.333 10 65.166 6.16699 101.499 -11.5s66.833 -43.834 91.5 -78.501s37 -70.334 37 -107.001
c0 -44 -19.333 -82 -58 -114c-32.667 -28 -79 -38.667 -139 -32s-107.333 27.667 -142 63c-20.667 20.667 -33.167 44.167 -37.5 70.5s-0.5 51.5 11.5 75.5c8.66699 16.667 15 25.667 19 27c5.33301 2 3 -10.667 -7 -38c-6 -17.333 -9.33301 -29.833 -10 -37.5
s0.666016 -17.5 3.99902 -29.5c11.333 -38.667 38.666 -68.834 81.999 -90.501s88.5 -29.5 135.5 -23.5s81.167 25.667 102.5 59c13.333 21.333 20.5 41.666 21.5 60.999s-3.83301 41.333 -14.5 66c-22.667 50.667 -53 85.667 -91 105
c-19.333 10.667 -47.833 16.167 -85.5 16.5s-61.5 -4.16699 -71.5 -13.5c-5.33301 -4.66699 -10.333 -7.5 -15 -8.5s-7.66699 0 -9 3s-1.33301 7.5 0 13.5c2.66699 6.66699 23.5 29.834 62.5 69.501s67.5 66.167 85.5 79.5c12 9.33301 26.667 28.833 44 58.5
s26 50.167 26 61.5c0 23.333 -33.333 27.333 -100 12c-30 -6.66699 -66.333 -19.834 -109 -39.501s-71.334 -36.167 -86.001 -49.5c-8 -8 -13.667 -10 -17 -6c-4.66699 4.66699 2.16602 13.834 20.499 27.501s42.666 28 72.999 43s59.166 26.833 86.499 35.5
c47.333 14.667 84.666 19.834 111.999 15.501s41 -17.5 41 -39.5z" />
    <glyph glyph-name="four" unicode="4" 
d="M66 150c6.66699 0 14.001 3.00098 22.001 9.00098c13.333 8 65 20.667 155 38c-4 52 -6.16699 130.667 -6.5 236s1.83398 162.333 6.50098 171c2.66699 0 5.33398 -14.833 8.00098 -44.5s5 -60.167 7 -91.5s3.66699 -48.333 5 -51
c3.33301 -17.333 2.66602 -28.333 -2.00098 -33c-5.33301 -6.66699 -5.33301 -38.667 0 -96c4.66699 -56.667 8 -86 10 -88s26 0 72 6c44.667 6 82.334 5.66699 113.001 -1c29.333 -7.33301 43.333 -13 42 -17c-0.666992 -3.33301 -4.83398 -5 -12.501 -5
s-31.5 1.66699 -71.5 5c-30 4 -75.333 -1 -136 -15c-1.33301 -12 1 -46.833 7 -104.5s8 -93.167 6 -106.5c-3.33301 -4 -7 -0.333008 -11 11s-7 27 -9 47c-1.33301 12.667 -5.33301 45 -12 97c-3.33301 25.333 -6.16602 40.666 -8.49902 45.999s-7.5 8 -15.5 8
c-17.333 0 -44 -4.66699 -80 -14s-61.333 -18 -76 -26c-20.667 -10.667 -32 -15 -34 -13c-6.66699 6.66699 -6 65 2 175c4.66699 83.333 7 131.333 7 144s-2 56.667 -6 132c-2.66699 58 -6.33398 89.333 -11.001 94s-7 8.83398 -7 12.501s2.33301 11.5 7 23.5
c1.33301 3.33301 2.83301 6.33301 4.5 9s3.16699 4.16699 4.5 4.5s2.66602 0.166016 3.99902 -0.500977c8.66699 -9.33301 14.167 -63.333 16.5 -162s1.16602 -211.667 -3.50098 -339c-1.33301 -40.667 -0.333008 -61 3 -61z" />
    <glyph glyph-name="five" unicode="5" horiz-adv-x="437" 
d="M359 555c0 -12.667 -45.3379 -15.3311 -136.005 -7.99805c-62.667 4.66699 -97 6 -103 4c-4 -2.66699 -6 -9.33398 -6 -20.001c0 -8.66699 -5.66699 -30 -17 -64s-21.333 -59 -30 -75c-6 -12 -7.16699 -20 -3.5 -24s18.167 -9.66699 43.5 -17l88 -26
c71.333 -21.333 124 -56.666 158 -105.999c36 -52.667 54 -96.834 54 -132.501s-18.333 -64.834 -55 -87.501c-38 -24 -79.667 -33.333 -125 -28s-83.666 24 -114.999 56c-12 12 -23 30 -33 54s-15.5 44.333 -16.5 61s2.5 26.334 10.5 29.001c4.66699 0 5.66699 -4 3 -12
c-6.66699 -17.333 0.333008 -43.5 21 -78.5s43 -58.5 67 -70.5c28.667 -15.333 60.834 -21.833 96.501 -19.5s65.834 12.833 90.501 31.5c17.333 12.667 28.333 26.167 33 40.5s4.33398 32.166 -0.999023 53.499c-12.667 46.667 -38 87.667 -76 123s-82.667 59 -134 71
c-32 7.33301 -63.833 16.666 -95.5 27.999s-47.5 19 -47.5 23c0 4.66699 4.33301 14.334 13 29.001c6.66699 11.333 16.167 34 28.5 68s20.5 60 24.5 78c2.66699 10.667 7.33398 20 14.001 28s14.667 10.667 24 8c0.666992 -2 38.167 -4.66699 112.5 -8
s111.833 -6.33301 112.5 -9z" />
    <glyph glyph-name="six" unicode="6" horiz-adv-x="568" 
d="M489 380c-35.333 28.667 -72.166 26.332 -110.499 -7.00098s-69.833 -90.333 -94.5 -171c-24.667 -96 -28 -158 -10 -186c68 34.667 120.333 68.334 157 101.001c48.667 44 78.667 92.167 90 144.5s0.666016 91.833 -32.001 118.5zM106 638.998
c4.66699 0 6.83398 -2.66406 6.50098 -7.99707s-4.83301 -23.666 -13.5 -54.999v-1l-1 -1v-2c-10 -38.667 -23.667 -110.667 -41 -216c-14.667 -88.667 -10 -163.834 14 -225.501s63 -99.834 117 -114.501c28 -7.33301 45.5 -9 52.5 -5s8.16699 16.333 3.5 37
c-9.33301 40 -0.333008 99.333 27 178s57 130.334 89 155.001c16.667 12.667 46.334 23.334 89.001 32.001c13.333 2.66699 29 -4.33301 47 -21c31.333 -28.667 45.166 -67.334 41.499 -116.001s-23.834 -95.334 -60.501 -140.001c-15.333 -18 -41.5 -40.5 -78.5 -67.5
s-65.833 -44.833 -86.5 -53.5c-14 -5.33301 -21 -9 -21 -11c0 -1.33301 2 -3 6 -5c9.33301 -3.33301 18.333 -2.33301 27 3c11.333 7.33301 17.666 8.33301 18.999 3c0.666992 -4 -3.66602 -9.33301 -12.999 -16c-10.667 -8.66699 -19.167 -13.167 -25.5 -13.5
s-17.833 3.16699 -34.5 10.5c-18 7.33301 -32.333 9.66602 -43 6.99902c-23.333 -6 -51 0.666992 -83 20s-57 44.666 -75 75.999c-16.667 28 -27.667 56 -33 84s-7 64.667 -5 110c3.33301 50 11.333 111 24 183s24.667 123.333 36 154c5.33301 12.667 10.333 19 15 19z" />
    <glyph glyph-name="seven" unicode="7" horiz-adv-x="690" 
d="M660 329c0 -6.66699 -25 -11.3311 -75 -13.998c-50 -2 -103 -6.16699 -159 -12.5s-86.667 -11.5 -92 -15.5c-6 -3.33301 -9 -11.666 -9 -24.999c0 -11.333 4.66699 -39.166 14 -83.499s17.333 -77.5 24 -99.5c9.33301 -30.667 10.333 -46.667 3 -48
c-5.33301 0 -12.333 10 -21 30s-13 36.333 -13 49c-1.33301 17.333 -6.5 45.833 -15.5 85.5s-14.167 68.834 -15.5 87.501c-22 -4.66699 -65.333 -7.33398 -130 -8.00098c-69.333 -0.666992 -104 0.666016 -104 3.99902c0 0.666992 1 2 3 4c2.66699 2.66699 39.667 6 111 10
s108.333 7.33301 111 10l17 7l-3 82c-3.33301 69.333 -8.83301 116 -16.5 140s-23.834 42.333 -48.501 55c-16.667 8.66699 -42 12.667 -76 12s-62 -6 -84 -16c-30 -12.667 -47 -16.334 -51 -11.001c-2 2 1.66699 5.66699 11 11l14 7c25.333 11.333 44 18.666 56 21.999
c18 4 41.333 5.66699 70 5s49 -3.66699 61 -9c14 -5.33301 28.667 -16.333 44 -33s24.666 -31 27.999 -43c1.33301 -2.66699 4.33301 -38.334 9 -107.001s9 -104 13 -106c4 -4 32.667 -3 86 3c64.667 7.33301 120.334 11.833 167.001 13.5s70.334 -0.5 71.001 -6.5z" />
    <glyph glyph-name="eight" unicode="8" horiz-adv-x="602" 
d="M48 471c0 -4 16.835 -19 50.502 -45s53.167 -39 58.5 -39c3.33301 0 13.833 -9.66699 31.5 -29s30.5 -35 38.5 -47c1.33301 -1.33301 9.66602 7 24.999 25c29.333 36 70.333 76 123 120c24.667 20.667 37 32.667 37 36c-30.667 24 -111.334 31 -242.001 21
c-22.667 -3.33301 -48.667 -10 -78 -20s-44 -17.333 -44 -22zM107.002 394c-2 -0.666992 -11.8291 6.16602 -29.4961 20.499s-27.167 21.5 -28.5 21.5c-4 0 -8.33301 6 -13 18s-6.33398 20.667 -5.00098 26c2.66699 6 15.667 14.167 39 24.5s46 18.166 68 23.499
c28 6 75.333 7.5 142 4.5s109 -8.16699 127 -15.5c12 -4.66699 20.333 -7.16699 25 -7.5s9.33398 1.83398 14.001 6.50098c3.33301 4 23.333 18.167 60 42.5s57.667 37.166 63 38.499c4.66699 0 -1.33301 -6.66699 -18 -20l-54 -42l-50 -38
c1.33301 -2 8.16602 -9.5 20.499 -22.5s21.666 -24.333 27.999 -34s8.83301 -18.5 7.5 -26.5c0 -12.667 -3.66699 -29.667 -11 -51s-13.333 -32 -18 -32s-5.66699 4.33301 -3 13c0.666992 4.66699 3.66699 14.334 9 29.001c7.33301 21.333 9.66602 37.666 6.99902 48.999
c-2.66699 10 -10.667 23 -24 39s-22.666 24 -27.999 24s-38.5 -30 -99.5 -90s-91.5 -92.333 -91.5 -97c0 -6 8 -21.333 24 -46c14 -22 27.167 -47.333 39.5 -76s20.166 -52 23.499 -70c4 -19.333 1 -38.5 -9 -57.5s-24.333 -32.5 -43 -40.5
c-16.667 -7.33301 -36.5 -11.5 -59.5 -12.5s-38.833 1.83301 -47.5 8.5c-6 4.66699 -5.33301 7.66699 2 9l26 1c42.667 0.666992 73 8.83398 91 24.501s24.667 39.5 20 71.5c-3.33301 20.667 -16 52.334 -38 95.001s-37 64 -45 64c-6 0 -17.167 -15.333 -33.5 -46
s-27.833 -58 -34.5 -82c-12 -42 -13 -75.333 -3 -100c2 -6.66699 2.66699 -10 2 -10s-4 2.33301 -10 7c-17.333 17.333 -21.333 47.666 -12 90.999s28.666 85.333 57.999 126c12 17.333 18.5 28.5 19.5 33.5s-2.5 11.833 -10.5 20.5c-8 6.66699 -17 16.334 -27 29.001
c-7.33301 9.33301 -19.833 21 -37.5 35s-28.5 21 -32.5 21z" />
    <glyph glyph-name="nine" unicode="9" 
d="M386 543c0 -44 2.00098 -65.665 6.00098 -64.998c3.33301 1.33301 8 10.666 14 27.999c11.333 33.333 11.666 64.666 0.999023 93.999c-14 37.333 -21 18.333 -21 -57zM324.001 607.002c-22.667 21.333 -51.166 27.998 -85.499 19.998s-66.5 -28.333 -96.5 -61
c-36 -38.667 -62.833 -90.667 -80.5 -156s-16.834 -107.666 2.49902 -126.999c8.66699 -8.66699 16.334 -13.167 23.001 -13.5s24.334 2.83398 53.001 9.50098c25.333 6 55 18.333 89 37s64.667 39.334 92 62.001c22.667 19.333 36.667 34 42 44s6.66602 24.667 3.99902 44
c-2 15.333 -4.16699 24.166 -6.5 26.499s-9.16602 2.83301 -20.499 1.5c-9.33301 -1.33301 -16 -1.33301 -20 0s-4.5 3.5 -1.5 6.5s9.16699 5.5 18.5 7.5c19.333 4 27.666 16 24.999 36s-15.334 41 -38.001 63zM407.002 324c0 -18.667 13.001 -70.001 39.001 -154.001
c35.333 -115.333 52.666 -176 51.999 -182c-0.666992 -2 -2.33398 -4.33301 -5.00098 -7s-6.66699 1.33301 -12 12s-12.666 31.667 -21.999 63c-4.66699 16 -11.667 38.667 -21 68s-16.5 52.5 -21.5 69.5s-10.5 38.167 -16.5 63.5s-10.667 50 -14 74
c-4.66699 43.333 -8.66699 66.666 -12 69.999c0 0.666992 -1.66699 -0.166016 -5 -2.49902s-7.66602 -5.83301 -12.999 -10.5s-10.666 -9.66699 -15.999 -15c-18 -18 -48.667 -39.5 -92 -64.5s-76.666 -40.5 -99.999 -46.5c-22 -5.33301 -43 -7.33301 -63 -6
c-14.667 1.33301 -24.334 3.33301 -29.001 6s-10 10.334 -16 23.001c-6 12 -9.33301 22.833 -10 32.5s0.666016 27.5 3.99902 53.5c7.33301 57.333 26.833 110.166 58.5 158.499s69.834 82.833 114.501 103.5c28.667 14 54.167 18.833 76.5 14.5s43.833 -18.5 64.5 -42.5
c4 -4.66699 7 -8 9 -10s3.66699 -3 5 -3s2.33301 0.666992 3 2s1.66699 3.66602 3 6.99902c6.66699 21.333 14.5 33.333 23.5 36s17.833 -4 26.5 -20c7.33301 -15.333 9.83301 -39.166 7.5 -71.499s-8.5 -60.166 -18.5 -83.499c-6.66699 -14 -10.334 -25 -11.001 -33
s0.666016 -21 3.99902 -39c4.66699 -34 7 -56 7 -66z" />
    <glyph glyph-name="colon" unicode=":" horiz-adv-x="154" 
d="M118 52c-4.66699 -8 -7 -6.33301 -7 5c0.666992 14 3 21.667 7 23c4.66699 0 7 -3 7 -9s-2.33301 -12.333 -7 -19zM67 73c6 0 9.00195 -3.66309 9.00195 -10.9961c0 -2.66699 -0.833008 -4.83398 -2.5 -6.50098s-3.16699 -1.83398 -4.5 -0.500977
c-4 2 -8.5 -1.16699 -13.5 -9.5s-7.5 -16.5 -7.5 -24.5c0 -7.33301 4.66699 -11.166 14 -11.499s15 3.16699 17 10.5c5.33301 17.333 9 26.5 11 27.5s6.66699 -3.16699 14 -12.5c7.33301 -8.66699 11.166 -14.667 11.499 -18s-2.83398 -8.33301 -9.50098 -15
c-6.66699 -10 -32 -13.333 -76 -10l2 42c0 55.333 22.667 76.666 68 63.999c8 -4.66699 9.66699 -7.33398 5 -8.00098c-2 -0.666992 -6 -1.33398 -12 -2.00098c-18 -2.66699 -28.667 -6.66699 -32 -12c2 -1.33301 4 -2.33301 6 -3zM48.002 385.004
c0 -8 3.33398 -12 10.001 -12c13.333 0 13 -7.33301 -1 -22c-5.33301 -6 -8 -9.66699 -8 -11s2.66699 -2 8 -2c10 0 17.667 3.83301 23 11.5s6.33301 16.167 3 25.5c-2 3.33301 -3 7.5 -3 12.5s0.5 9 1.5 12s0.5 5.5 -1.5 7.5s-6.66699 1.66699 -14 -1
c-10.667 -2.66699 -16.667 -2 -18 2s2.66699 8.66699 12 14c8 4 13.167 6.16699 15.5 6.5s6.16602 -1.16699 11.499 -4.5c14 -9.33301 17 -30 9 -62c-4.66699 -17.333 -11.834 -29.833 -21.501 -37.5s-19.834 -8.5 -30.501 -2.5c-7.33301 4.66699 -11.666 15.5 -12.999 32.5
s1.33398 28.167 8.00098 33.5c6 5.33301 9 4.33301 9 -3z" />
    <glyph glyph-name="semicolon" unicode=";" horiz-adv-x="327" 
d="M42 59c-4 7.33301 -4.99902 10.999 -2.99902 10.999c1.33301 0 6 -2.66699 14 -8c11.333 -8 20.666 -10.667 27.999 -8c4.66699 1.33301 8.33398 1.33301 11.001 0s3.66699 -3.66602 3 -6.99902s-3.33398 -6.33301 -8.00098 -9c-7.33301 -4 -15.333 -4 -24 0
s-15.667 11 -21 21zM91.001 72.999c-4.66699 3.33301 -1.33203 8.66602 10.001 15.999c7.33301 4.66699 10.666 5.33398 9.99902 2.00098c0 -1.33301 -1.66699 -4 -5 -8c-5.33301 -6.66699 -10.333 -10 -15 -10zM106.003 128.999
c0 -2.66699 2.16602 -4.83203 6.49902 -6.49902s5.5 -4.16699 3.5 -7.5c-3.33301 -4.66699 -10.333 -7 -21 -7s-16.667 2.66699 -18 8c-4.66699 6.66699 -9.66699 6.66699 -15 0c-4.66699 -5.33301 -5 -11 -1 -17c3.33301 -8 1.66602 -11.667 -5.00098 -11
c-8.66699 1.33301 -14.667 4.66602 -18 9.99902c-2 6 3.66699 14.667 17 26s27.333 19.333 42 24c46 14.667 87.333 7.33398 124 -21.999c43.333 -36.667 68 -80.667 74 -132c3.33301 -32 2.33301 -56 -3 -72s-17.666 -32.667 -36.999 -50
c-28.667 -25.333 -45.334 -34.666 -50.001 -27.999c-1.33301 1.33301 -1.33301 3.66602 0 6.99902c3.33301 6.66699 12.333 15 27 25c45.333 30 58 79 38 147c-5.33301 19.333 -16.166 39.166 -32.499 59.499s-32.5 34.833 -48.5 43.5
c-7.33301 3.33301 -17.666 5.83301 -30.999 7.5s-25.333 2.16699 -36 1.5s-16 -2.66699 -16 -6zM106.002 418.001c0 -6.66699 -4.6709 -6.99707 -14.0039 -0.99707s-18.166 6.5 -26.499 1.5s-13.166 -13.833 -14.499 -26.5
c-1.33301 -10.667 -0.166016 -16.334 3.50098 -17.001s11.167 2.66602 22.5 9.99902c14 10 20.667 11.333 20 4c0 -4.66699 -5 -11.334 -15 -20.001c-34.667 -25.333 -52 -20 -52 16c-0.666992 12 -0.166992 20.5 1.5 25.5s5.83398 9.83301 12.501 14.5
c12 8.66699 25.333 12.167 40 10.5s22 -7.5 22 -17.5z" />
    <glyph glyph-name="equal" unicode="=" horiz-adv-x="508" 
d="M406 248c-48.667 0 -99.335 -3 -152.002 -9c-113.333 -12 -181.666 -11.667 -204.999 1c-12 6.66699 -3.33301 15.667 26 27c0.666992 0 1.66699 0.333008 3 1c20 7.33301 31.667 8 35 2c4 -6 27.5 -6.16699 70.5 -0.5s66.5 10.167 70.5 13.5
c16.667 5.33301 47 7.5 91 6.5s75.667 -4.83301 95 -11.5c52.667 -19.333 41.334 -29.333 -33.999 -30zM169.999 436c24.667 3.33301 70.667 5.33105 138 5.99805s107 -0.333008 119 -3c10 -2.66699 14.667 -6 14 -10c-0.666992 -6.66699 -11 -9.33398 -31 -8.00098
c-6 1.33301 -66 -0.666992 -180 -6s-174.667 -6.66602 -182 -3.99902c-20 4.66699 -24 9.33398 -12 14.001c8.66699 2.66699 23.667 4.33398 45 5.00098c42 1.33301 71.667 3.33301 89 6z" />
    <glyph glyph-name="greater" unicode="&#x3e;" horiz-adv-x="452" 
d="M30 464c0 8.66699 1.5 13.168 4.5 13.501s10.5 -2.83398 22.5 -9.50098c12.667 -8 32.667 -16 60 -24c94 -30.667 156.333 -54.334 187 -71.001c20.667 -11.333 58.334 -18.333 113.001 -21c5.33301 0 6.83301 -2.33301 4.5 -7s-6.5 -7 -12.5 -7
c-10 -2 -22.5 -6.66699 -37.5 -14s-28.5 -12.666 -40.5 -15.999c-33.333 -11.333 -103 -46.333 -209 -105c-40 -21.333 -61.667 -32 -65 -32c-6.66699 0 -8.33398 4 -5.00098 12c2.66699 6 6.66699 9.66699 12 11c13.333 4.66699 44 22 92 52c14.667 10 43.5 25.5 86.5 46.5
s67.167 31.5 72.5 31.5c12 0 12.667 4.66699 2 14c-5.33301 4.66699 -12.666 9.66699 -21.999 15c-18.667 9.33301 -52.5 22 -101.5 38s-78.5 24 -88.5 24c-7.33301 0.666992 -15.833 5.66699 -25.5 15s-18.834 14.333 -27.501 15c-14.667 2.66699 -22 9 -22 19z" />
    <glyph glyph-name="question" unicode="?" horiz-adv-x="367" 
d="M216 12c12 0 19.002 4.00195 21.002 12.002c2 8.66699 6 13.334 12 14.001c2.66699 0 4 -1.66699 4 -5c0 -4.66699 -4.66699 -14.334 -14 -29.001s-15.333 -22 -18 -22c-4 0 -13.667 4.66699 -29 14c-28.667 13.333 -26.667 39.666 6 78.999
c23.333 21.333 41.666 24 54.999 8c6.66699 -8.66699 7.33398 -15.334 2.00098 -20.001c-3.33301 -2.66699 -7 -2 -11 2c-10 10 -23 8 -39 -6c-10.667 -9.33301 -14.834 -19.5 -12.501 -30.5s10.166 -16.5 23.499 -16.5zM121.002 313.002
c0 -11.333 3.50488 -30.166 10.5049 -56.499s13.833 -46.5 20.5 -60.5c6 -12.667 9 -23.834 9 -33.501s-3 -15.5 -9 -17.5c-4.66699 -1.33301 -14.5 22.167 -29.5 70.5s-22.5 80.833 -22.5 97.5c0 12 1.33301 20 4 24s10 8.33301 22 13c19.333 8 48 17.333 86 28
c42 12 69.833 25.833 83.5 41.5s20.5 41.167 20.5 76.5s-6.16699 61.5 -18.5 78.5s-34.833 29.167 -67.5 36.5c-44.667 10 -86.167 0.5 -124.5 -28.5s-56.5 -64.167 -54.5 -105.5c1.33301 -20.667 0.333008 -31.334 -3 -32.001c-1.33301 0 -4 1.66699 -8 5
c-7.33301 6 -10.666 18.667 -9.99902 38s5 37 13 53c9.33301 18.667 23.833 36.167 43.5 52.5s38.5 26.833 56.5 31.5c8.66699 2 16.5 4.16699 23.5 6.5s11.667 4 14 5s6.16602 1.5 11.499 1.5s11.166 -0.666992 17.499 -2s16.5 -3.66602 30.5 -6.99902
c32 -7.33301 55 -20.333 69 -39s22.667 -47 26 -85c1.33301 -24.667 1.16602 -41 -0.500977 -49s-7.83398 -20 -18.501 -36c-12.667 -18.667 -26.334 -32 -41.001 -40s-48 -19.667 -100 -35c-22.667 -6 -37.334 -11.167 -44.001 -15.5s-10 -9.83301 -10 -16.5z" />
    <glyph glyph-name="A" unicode="A" horiz-adv-x="570" 
d="M377 248c19.333 0 31.166 4 35.499 12s5.83301 28.667 4.5 62c-5.33301 105.333 -30.333 171.666 -75 198.999c-26 16 -56.667 15.667 -92 -1c-57.333 -29.333 -98.333 -79.666 -123 -150.999c-22.667 -60.667 -37.667 -115 -45 -163
c-2.66699 -14 -3.5 -22.167 -2.5 -24.5s4.5 -2.83301 10.5 -1.5c35.333 10.667 89.333 24.667 162 42s114.334 26 125.001 26zM443 239c0 -103.333 2.33398 -162.668 7.00098 -178.001c11.333 -25.333 19 -57 23 -95c1.33301 -10 0 -14.667 -4 -14
c-6.66699 1.33301 -12.334 10 -17.001 26c-6 18.667 -11 35.5 -15 50.5s-7 27.667 -9 38s-3.5 22.5 -4.5 36.5s-1.5 25 -1.5 33v41.5v49.5c-32 0.666992 -83.667 -6.83301 -155 -22.5s-131.333 -31.5 -180 -47.5c6 -45.333 9 -102.666 9 -171.999
c0 -33.333 -0.666992 -54.666 -2 -63.999s-4.33301 -14.333 -9 -15c-6.66699 -0.666992 -12.834 5.33301 -18.501 18s-8.5 26.334 -8.5 41.001c0 11.333 2.66699 16.666 8 15.999c3.33301 0 6 -2.66699 8 -8c0.666992 -1.33301 1.33398 -0.333008 2.00098 3
c1.33301 8 2 22.667 2 44c0.666992 40 -2.33301 55.333 -9 46c-2.66699 -4.66699 -6 -14 -10 -28c-3.33301 -12 -5.33301 -13.333 -6 -4l-1 42c0 41.333 -3 63.666 -9 66.999c-6 4.66699 -5 10 3 16c8.66699 6.66699 12.667 18.667 12 36s-5.33398 31.666 -14.001 42.999
c-6 7.33301 -9.83301 16.166 -11.5 26.499s-2.5 28.833 -2.5 55.5c0 58 4.66699 85.667 14 83c1.33301 -0.666992 2.33301 -1.33398 3 -2.00098c2 -0.666992 6 -27.667 12 -81c4.66699 -36 9.33398 -54 14.001 -54c3.33301 0 7.33301 8.33301 12 25
c18 68 42.5 124.167 73.5 168.5s72.167 74.5 123.5 90.5c9.33301 2.66699 29.666 -0.333008 60.999 -9c24 -7.33301 44.333 -28.833 61 -64.5s27.334 -81.5 32.001 -137.5c3.33301 -45.333 6.33301 -70.666 9 -75.999c0.666992 -1.33301 15.5 0.333984 44.5 5.00098
s44.5 5 46.5 1c9.33301 -9.33301 2.66602 -16.333 -20.001 -21c-7.33301 -1.33301 -16.666 -2.66602 -27.999 -3.99902z" />
    <glyph glyph-name="B" unicode="B" horiz-adv-x="744" 
d="M485 491c0 -38 -25.6631 -84.6689 -76.9961 -140.002l-42 -46c8 0 22.833 0.5 44.5 1.5s38.167 1.5 49.5 1.5s24.666 -0.833008 39.999 -2.5s27.666 -4.5 36.999 -8.5c55.333 -23.333 100.166 -63 134.499 -119s47.833 -113 40.5 -171
c-5.33301 -33.333 -21.666 -58 -48.999 -74s-64 -22 -110 -18c-74.667 7.33301 -131.334 21 -170.001 41c-19.333 10.667 -37.5 24.167 -54.5 40.5s-25.5 28.833 -25.5 37.5c0.666992 6.66699 1.33398 10 2.00098 10s3.33398 -3.33301 8.00098 -10
c16.667 -24 39.334 -43.167 68.001 -57.5s68 -26.5 118 -36.5c39.333 -8 69.666 -11.5 90.999 -10.5s42.666 7.16699 63.999 18.5c16.667 8.66699 28 21.667 34 39s7.33301 42 4 74c-6.66699 64.667 -32.5 119 -77.5 163s-96.833 66 -155.5 66
c-26 0 -55.667 -3.83301 -89 -11.5s-56.666 -16.167 -69.999 -25.5c-19.333 -13.333 -36.5 -27.166 -51.5 -41.499s-22.5 -24.166 -22.5 -29.499c0 -6 -4.66699 -8 -14 -6c-7.33301 1.33301 -11.333 -1 -12 -7c-1.33301 -6 -0.666016 -24.333 2.00098 -55
c4 -54.667 8.66699 -85.334 14 -92.001c0.666992 -1.33301 1.33398 1 2.00098 7v2c1.33301 8.66699 5.66602 15.667 12.999 21c5.33301 4.66699 8.33301 6.33398 9 5.00098s0 -6 -2 -14c-10 -38.667 -19.333 -56.334 -28 -53.001c-6 2 -11.833 14.333 -17.5 37
s-8.5 44.334 -8.5 65.001c0 15.333 -0.833008 25.5 -2.5 30.5s-5.5 8.16699 -11.5 9.5c-8.66699 3.33301 -13.334 9.16602 -14.001 17.499s2.66602 16.166 9.99902 23.499c5.33301 4 7.5 19.333 6.5 46s-6.83301 98.667 -17.5 216c-5.33301 59.333 -5.33301 89.666 0 90.999
l6 -2c3.33301 -2 7.83301 -26.333 13.5 -73s10.167 -99.667 13.5 -159c2.66699 -52.667 5.33398 -79 8.00098 -79c5.33301 3.33301 15.5 10.166 30.5 20.499l44.5 29.5c36.667 22.667 75.167 54.334 115.5 95.001s63.166 70.667 68.499 90c6.66699 21.333 9 37 7 47
s-9 20.667 -21 32c-28.667 26.667 -75.5 46.334 -140.5 59.001s-126.167 14 -183.5 4c-55.333 -9.33301 -84 -12.666 -86 -9.99902c-0.666992 0.666992 -1 2.33398 -1 5.00098c0 6 20.667 13 62 21c41.333 7.33301 86.666 10.166 135.999 8.49902s88.666 -7.5 117.999 -17.5
c92.667 -31.333 139 -66.666 139 -105.999z" />
    <glyph glyph-name="C" unicode="C" horiz-adv-x="581" 
d="M537 100c0 10 2.33691 14.9971 7.00391 14.9971c4 0 6.33301 -3.83301 7 -11.5s-0.333008 -16.334 -3 -26.001s-6 -17.167 -10 -22.5c-24.667 -29.333 -72 -51.333 -142 -66c-46.667 -9.33301 -84.334 -12.666 -113.001 -9.99902s-60.334 12.334 -95.001 29.001
c-131.333 64 -181 210.333 -149 439c11.333 78 26.666 136.333 45.999 175s46.666 65.334 81.999 80.001c36 14 66.667 9.33301 92 -14c46 -40.667 79.667 -99 101 -175c16 -63.333 22.333 -96 19 -98c-6.66699 0.666992 -13.5 4.66699 -20.5 12s-9.83301 13.333 -8.5 18
c2 6.66699 -2.33301 31.667 -13 75c-16 62.667 -43 112.334 -81 149.001c-23.333 22 -50.833 27.333 -82.5 16s-55.834 -35.333 -72.501 -72c-12 -27.333 -20.5 -52.166 -25.5 -74.499s-10.833 -61.833 -17.5 -118.5c-17.333 -146.667 -1.66602 -251.334 47.001 -314.001
c38 -48.667 82 -80.667 132 -96s109 -14.333 177 3c82 20.667 123 49.667 123 87z" />
    <glyph glyph-name="D" unicode="D" horiz-adv-x="783" 
d="M226 159c0 12.667 -4.49609 72.5 -13.4961 179.5s-13.5 166.5 -13.5 178.5c0 14 -1.66699 43.667 -5 89c-2.66699 31.333 0.666016 47 9.99902 47c7.33301 0 11.833 -1.5 13.5 -4.5s0.166992 -7.16699 -4.5 -12.5c-2.66699 -7.33301 -3.33398 -19.666 -2.00098 -36.999
s3.16602 -37.166 5.49902 -59.499s3.5 -34.5 3.5 -36.5c-0.666992 -4.66699 3.66602 -64.834 12.999 -180.501s14 -174.834 14 -177.501c0 -6 1 -10.5 3 -13.5s4.33301 -3.66699 7 -2s5 5.5 7 11.5c0.666992 2.66699 1 2 1 -2v-3c-0.666992 -4 -1 -7.33301 -1 -10
c-1.33301 -17.333 -4.66602 -28.666 -9.99902 -33.999c-4.66699 -4.66699 -10.334 0.666016 -17.001 15.999c-7.33301 17.333 -11 34.333 -11 51zM30.0039 710c3.33301 4 17.165 4.83496 41.498 2.50195s57 -8.33301 98 -18s79.5 -20.167 115.5 -31.5
c48 -15.333 101.333 -38.166 160 -68.499s109 -60.833 151 -91.5c4 -2.66699 25.333 -22.667 64 -60c36.667 -36.667 61.334 -68.334 74.001 -95.001s19 -60.334 19 -101.001c0 -39.333 -5.33301 -70 -16 -92s-29.667 -42.333 -57 -61c-25.333 -16.667 -60 -33 -104 -49
s-80.667 -26.333 -110 -31s-46.333 -2.66699 -51 6c0 6 13.333 10 40 12c39.333 4 85.5 16.667 138.5 38s88.5 41.333 106.5 60c24.667 26.667 36.834 65.167 36.501 115.5s-12.833 91.833 -37.5 124.5c-12.667 16.667 -19 26.667 -19 30c0 6.66699 -20.833 27 -62.5 61
s-81.167 62 -118.5 84c-54.667 31.333 -116.167 60.5 -184.5 87.5s-132.833 44.5 -193.5 52.5c-42 7.33301 -67.667 12.166 -77 14.499s-14 5.83301 -14 10.5z" />
    <glyph glyph-name="E" unicode="E" 
d="M85 341c-0.666992 -8.66699 -4 -10.001 -10 -4.00098c-6 6.66699 -6 11.334 0 14.001c0.666992 0.666992 1.66699 1 3 1c4.66699 0 7 -3.66699 7 -11zM92 342.999c0 2.66699 0.667969 4.83301 2.00098 6.5s2.66602 1.83398 3.99902 0.500977
c4 -2.66699 23.333 0.666016 58 9.99902c58 15.333 119.667 30 185 44c50 11.333 78 13 84 5c0.666992 -1.33301 -0.5 -2.83301 -3.5 -4.5s-7.66699 -3.5 -14 -5.5s-12.833 -3.66699 -19.5 -5c-20 -3.33301 -70.667 -15 -152 -35c-33.333 -8 -58.5 -13.833 -75.5 -17.5
s-31.167 -6.16699 -42.5 -7.5s-18.5 -1.33301 -21.5 0s-4.5 4.33301 -4.5 9zM414.001 640.998c0 -4.66699 -17.999 -9.34277 -53.999 -14.0098c-98.667 -15.333 -172.834 -44.666 -222.501 -87.999s-80.167 -110.333 -91.5 -201c-2.66699 -25.333 2 -50.666 14 -75.999
c22.667 -49.333 59.334 -85 110.001 -107s120.667 -33 210 -33c40.667 0 65.5 0.833008 74.5 2.5s17.5 6.83398 25.5 15.501c10.667 10.667 16.667 13.334 18 8.00098s-3 -14 -13 -26c-5.33301 -7.33301 -13.333 -12.166 -24 -14.499s-34 -4.16602 -70 -5.49902
c-86.667 -6 -160.334 4.5 -221.001 31.5s-103.667 67.167 -129 120.5c-8.66699 20.667 -11.667 50.334 -9 89.001c3.33301 50.667 14 93.334 32 128.001s46.333 67.334 85 98.001c16.667 13.333 42 26.5 76 39.5s68 22.833 102 29.5c22.667 4 42.667 6.33301 60 7
s26.333 -0.666016 27 -3.99902zM432.002 641.989c13.333 10.667 24.667 13.998 34 9.99805c2.66699 -1.33301 3.66699 -3.66602 3 -6.99902c-2.66699 -6 -12 -9.66699 -28 -11c-12 -1.33301 -18 -1.33301 -18 0c0 0.666992 3 3.33398 9 8.00098z" />
    <glyph glyph-name="F" unicode="F" horiz-adv-x="695" 
d="M273 550c-1.33301 3.33301 -2.33398 3.00098 -3.00098 -0.999023c-2 -12.667 -1.66699 -20.334 1 -23.001c0.666992 -0.666992 1.33398 0.333008 2.00098 3c1.33301 7.33301 1.33301 14.333 0 21zM254.999 334.001l0.00390625 -11.002c0.666992 -13.333 2 -20 4 -20
c1.33301 0 3.66602 1 6.99902 3l23 9c21.333 7.33301 62.166 14.833 122.499 22.5s112.5 12.334 156.5 14.001s69.667 -0.166016 77 -5.49902c0 -10 -22.333 -15 -67 -15c-53.333 0 -117.333 -5.83301 -192 -17.5s-118.334 -22.834 -131.001 -33.501
c-6 -5.33301 -7.66699 -33.333 -5 -84c4 -61.333 8.33301 -92 13 -92c1.33301 0 4 2.66699 8 8c6.66699 9.33301 10 12 10 8c0 -5.33301 -4.66699 -14.666 -14 -27.999c-10 -14 -17.333 -18.667 -22 -14c-4 4 -8.16699 33.5 -12.5 88.5s-5.16602 87.833 -2.49902 98.5
c3.33301 10 1 16.667 -7 20c-4.66699 2 -7.83398 4.5 -9.50098 7.5s-1.83398 5.5 -0.500977 7.5s4.33301 3 9 3c7.33301 0 11 13.667 11 41c0 21.333 2.33301 43 7 65c2 6.66699 3.66699 16.667 5 30s2.33301 27.333 3 42s1 28.667 1 42s-0.333008 24.166 -1 32.499
s-2 12.166 -4 11.499c-3.33301 -2 -28.333 -8.83301 -75 -20.5s-72.334 -19.5 -77.001 -23.5c-6.66699 -3.33301 -15 -5.66602 -25 -6.99902s-18.667 -1.5 -26 -0.5s-11 3.16699 -11 6.5s4.33301 5 13 5c13.333 2 26.333 5.66699 39 11c50 18.667 112.833 35.667 188.5 51
s144.167 24.666 205.5 27.999c77.333 5.33301 127.333 7.83301 150 7.5s35.334 -3.83301 38.001 -10.5c2.66699 -8 1 -13.667 -5 -17c-12.667 -7.33301 -18.667 -8.33301 -18 -3c0 1.33301 0.666992 3 2 5c-4 4 -25.5 5.66699 -64.5 5s-87.5 -3.5 -145.5 -8.5
s-102 -10.5 -132 -16.5c-8.66699 -1.33301 -13.667 -3 -15 -5s-0.333008 -6.33301 3 -13c5.33301 -9.33301 4.33301 -28.666 -3 -57.999c-22.667 -87.333 -33 -143.666 -31 -168.999z" />
    <glyph glyph-name="G" unicode="G" horiz-adv-x="784" 
d="M725 -29c-0.666992 20 0.170898 53.832 2.50391 101.499s1.66602 84.667 -2.00098 111s-13.167 47.5 -28.5 63.5c-10 10 -30 16.333 -60 19c-28 2 -70.5 -0.333008 -127.5 -7s-96.167 -14 -117.5 -22c-10.667 -4 -35.334 -12.5 -74.001 -25.5
s-71.334 -24.5 -98.001 -34.5s-44.334 -17.667 -53.001 -23c-12 -8 -19.667 -9.33301 -23 -4c-6 7.33301 -0.5 14.833 16.5 22.5s37.333 15.334 61 23.001s37.834 13.5 42.501 17.5c9.33301 5.33301 24.5 11 45.5 17s35.5 11 43.5 15c4 4 35.167 11.5 93.5 22.5
s89.166 17.167 92.499 18.5c2 2.66699 24.333 3.33398 67 2.00098c27.333 -0.666992 46.333 -2.33398 57 -5.00098s22.667 -8.33398 36 -17.001c18 -12 30.167 -24 36.5 -36s10.833 -35.5 13.5 -70.5s1.66699 -84.833 -3 -149.5c-2 -67.333 -0.666992 -102.333 4 -105
c5.33301 -3.33301 6 -8.83301 2 -16.5s-9.33301 -11.167 -16 -10.5c-4.66699 0.666992 -7.66699 6.33398 -9 17.001s-2 36 -2 76zM348.005 729.999c-24.667 0 -46.8311 -4.17188 -66.498 -12.5049s-42.5 -23.166 -68.5 -44.499c-50 -42 -90 -96 -120 -162
c-13.333 -28 -22.666 -55.5 -27.999 -82.5s-9.66602 -64.167 -12.999 -111.5c-4 -72 6.33301 -132.333 31 -181s67.667 -93.667 129 -135c62.667 -41.333 123.334 -58.333 182.001 -51c43.333 4.66699 96.666 20.834 159.999 48.501s97 49.167 101 64.5
c2.66699 10.667 6.33398 16 11.001 16c4 0.666992 6 -3.33301 6 -12c0 -13.333 -7.33301 -25.666 -22 -36.999s-46.334 -28.666 -95.001 -51.999c-54.667 -26 -114.667 -40 -180 -42s-117 9 -155 33c-118 75.333 -181 170.666 -189 285.999
c-2.66699 40.667 0.333008 86.334 9 137.001s20.667 92.667 36 126l13 27.5c2.66699 5.66699 5.5 11.334 8.5 17.001s5.16699 9.33398 6.5 11.001s4.16602 5.83398 8.49902 12.501l12.5 19c7.33301 11.333 26.833 32.333 58.5 63s53.5 49.334 65.5 56.001
c9.33301 4.66699 29.666 8.66699 60.999 12c63.333 6.66699 107.666 -2 132.999 -26c20.667 -18.667 40.667 -62.334 60 -131.001s24.666 -114.334 15.999 -137.001c-3.33301 -8.66699 -7 -14.334 -11 -17.001s-8.66699 -2.5 -14 0.5s-12.333 8.83301 -21 17.5
c-11.333 11.333 -15.833 18 -13.5 20s9.83301 -1.33301 22.5 -10c10.667 -8 17.334 -7.66699 20.001 1c3.33301 8.66699 2 29.5 -4 62.5s-14.333 65.5 -25 97.5c-14.667 44.667 -30.834 75.167 -48.501 91.5s-43.167 24.5 -76.5 24.5z" />
    <glyph glyph-name="H" unicode="H" horiz-adv-x="446" 
d="M376 575c6 -15.333 10.666 -46.501 13.999 -93.501s6 -99.833 8 -158.5s4 -99 6 -121c4 -32 7.33301 -103.667 10 -215c2.66699 -106 0.666992 -159 -6 -159s-11 12.5 -13 37.5s-3.33301 77.833 -4 158.5c-0.666992 56 -3.16699 115.167 -7.5 177.5
s-6.83301 112.5 -7.5 150.5c-0.666992 68.667 -6.66699 138.334 -18 209.001c-3.33301 20.667 -1.66602 30.667 5.00098 30c4.66699 -2 9 -7.33301 13 -16zM84.999 596.999c12.667 0 19 -38.999 19 -116.999c0 -38.667 5.5 -83.334 16.5 -134.001s17.167 -80 18.5 -88
c-12 22 -22.333 44 -31 66c-4 11.333 -6.66699 12.333 -8 3l-3 -88c-0.666992 -73.333 2.33301 -110 9 -110c26 6 68 20 126 42s94.667 41.333 110 58c8.66699 10.667 13 11.667 13 3c0 -7.33301 -7.33301 -17.166 -22 -29.499s-30.334 -22.166 -47.001 -29.499
c-12 -5.33301 -42.167 -17.5 -90.5 -36.5l-88.5 -34.5c-3.33301 -142 -8 -214.667 -14 -218c-3.33301 11.333 -5.66602 29.666 -6.99902 54.999s-2 56.666 -2 93.999v61h-15c-25.333 -0.666992 -38.333 0.666016 -39 3.99902c0 1.33301 1.33301 3 4 5
c6.66699 8.66699 20.667 13.667 42 15c2.66699 300.667 5.66699 460.334 9 479.001z" />
    <glyph glyph-name="I" unicode="I" horiz-adv-x="122" 
d="M30 153c-0.666992 65.333 13.333 217.665 42 456.998c0 10 3.33301 15 10 15c12 0 12 -43 0 -129c-6.66699 -42 -10 -100.333 -10 -175c-0.666992 -60.667 -2.33398 -91 -5.00098 -91c-0.666992 0 -1.33398 0.666992 -2.00098 2c-4 10.667 -7.66699 16 -11 16
c-2.66699 -1.33301 -3 -36.166 -1 -104.499s4.66699 -120.5 8 -156.5c2.66699 -23.333 3.83398 -38.166 3.50098 -44.499s-2.83301 -9.5 -7.5 -9.5c-7.33301 0 -13.666 28.667 -18.999 86c-5.33301 50 -8 94.667 -8 134z" />
    <glyph glyph-name="J" unicode="J" horiz-adv-x="727" 
d="M461 564c0 31.333 -2.33496 46.998 -7.00195 46.998c-4 -0.666992 -7 -11.667 -9 -33c-3.33301 -24 -5.66602 -44.333 -6.99902 -61c-12 -69.333 -19.667 -124 -23 -164s-5.33301 -98.333 -6 -175v-165c-35.333 -84.667 -77.333 -133.667 -126 -147
c-40 -13.333 -63.333 -14.333 -70 -3c-2 4.66699 -6.66699 7 -14 7c-8.66699 0 -20.834 6 -36.501 18s-28.5 24.667 -38.5 38c-20 28.667 -29.167 60.167 -27.5 94.5s13.834 62.166 36.501 83.499c14 14 21 18 21 12c0 -4.66699 -2.66699 -9 -8 -13
c-6 -3.33301 -13.167 -16 -21.5 -38s-12.5 -39 -12.5 -51c0 -29.333 7.66699 -55.666 23 -78.999s36.666 -40.333 63.999 -51c46.667 -18.667 78.334 -17.667 95.001 3c6 7.33301 11.667 11 17 11s15 8.66699 29 26s25.333 35.333 34 54
c6 12.667 9.83301 30.334 11.5 53.001s2.83398 72.667 3.50098 150c0.666992 86.667 3 151.334 7 194.001s13 94 27 154c4 16.667 5.83301 33 5.5 49s1.16699 31.333 4.5 46c9.33301 31.333 19.333 37.333 30 18c12 -20 16.667 -46.667 14 -80v-5
c-2 -18 -4.66699 -27.667 -8 -29c-5.33301 -2 -8 10 -8 36zM387.998 690.998c163.333 12.667 259.999 13.665 289.999 2.99805c12 -4 18.333 -9.33301 19 -16c0 -6 -5.33301 -7.66699 -16 -5c-24 6 -96.167 6 -216.5 0s-206.5 -13.667 -258.5 -23
c-44 -8 -83.5 -13.167 -118.5 -15.5s-53.833 -0.833008 -56.5 4.5c-5.33301 6.66699 -1.66602 12.667 11.001 18c12.667 4.66699 19 4.33398 19 -0.999023c0 -1.33301 -0.666992 -2.66602 -2 -3.99902c-2 -4 -0.333008 -5.66699 5 -5c2 0 5.33301 0.666992 10 2
c22.667 3.33301 54 8.33301 94 15s75.833 12 107.5 16s69.167 7.66699 112.5 11z" />
    <glyph glyph-name="K" unicode="K" horiz-adv-x="617" 
d="M67 122c2 0 8.99707 11.0049 20.9971 33.0049c8 14.667 23.5 38.5 46.5 71.5l91.5 128.5c38 52.667 59.333 82 64 88c16.667 23.333 36 47.833 58 73.5s34.667 38.5 38 38.5c1.33301 1.33301 2.33301 -0.333984 3 -5.00098c4 -17.333 4 -30.666 0 -39.999
c-1.33301 -2.66699 -3 -1.66699 -5 3c-2.66699 4 -6 5 -10 3s-11.333 -8.66699 -22 -20c-12 -13.333 -33.667 -43 -65 -89s-52 -75 -62 -87c-44 -55.333 -86.333 -119 -127 -191c-15.333 -27.333 -25.666 -51.166 -30.999 -71.499s-4.33301 -32.833 3 -37.5
c4.66699 -4 57.667 -7.66699 159 -11c238.667 -9.33301 358 -20.333 358 -33c0 -6.66699 -15.667 -8.33398 -47 -5.00098c-106 8.66699 -264.667 16.334 -476 23.001c-5.33301 -68.667 -10.666 -105.334 -15.999 -110.001c-6 0 -9 47.667 -9 143c0 20.667 3.33301 81 10 181
s12.334 176 17.001 228c11.333 125.333 12 188 2 188c-6.66699 -2.66699 -12.834 -13.834 -18.501 -33.501s-7.83398 -37.834 -6.50098 -54.501c1.33301 -17.333 0.333008 -27 -3 -29c-1.33301 -1.33301 -2.66602 0 -3.99902 4c-2 4 -3.66699 10 -5 18
c-2.66699 14 -1.33398 33 3.99902 57s11.666 40 18.999 48c8.66699 9.33301 17.334 13.5 26.001 12.5s13.667 -7.16699 15 -18.5c2 -38 2.66699 -63.833 2 -77.5s-3.16699 -40.334 -7.5 -80.001s-7.16602 -73.167 -8.49902 -100.5c-4 -52.667 -7.33301 -98.334 -10 -137.001
s-4.16699 -66.334 -4.5 -83.001s-0.166016 -26 0.500977 -28z" />
    <glyph glyph-name="L" unicode="L" horiz-adv-x="439" 
d="M67 576c-2 0.666992 -3.83594 -0.665039 -5.50293 -3.99805s-3 -8.33301 -4 -15s-2 -13.834 -3 -21.501s-1.66699 -16.5 -2 -26.5s-0.833008 -18.833 -1.5 -26.5s-1.16699 -15.834 -1.5 -24.501s-0.5 -14.667 -0.5 -18c4.66699 58 10.334 97 17.001 117
c0.666992 3.33301 1.33398 6.5 2.00098 9.5s0.833984 5.33301 0.500977 7s-0.833008 2.5 -1.5 2.5zM30.9971 223.001c0.666992 28 1.16504 69.499 1.49805 124.499s1 94.667 2 119s4.66699 56 11 95s15.5 76.167 27.5 111.5c0.666992 2.66699 2.16699 4.33398 4.5 5.00098
s4.5 0.333984 6.5 -0.999023c9.33301 -6 1 -115.333 -25 -328c-6.66699 -49.333 -10.167 -105.833 -10.5 -169.5s2.5 -103.834 8.5 -120.501c6 -16 16 -26 30 -30c12 -3.33301 48 -2.83301 108 1.5s111.333 10.166 154 17.499c34.667 6.66699 54.334 7.66699 59.001 3
c8 -8 -19.333 -17 -82 -27c-33.333 -4.66699 -77 -9.66699 -131 -15c-84.667 -8 -133 -2.33301 -145 17c-15.333 22.667 -21.666 88.334 -18.999 197.001z" />
    <glyph glyph-name="M" unicode="M" horiz-adv-x="651" 
d="M113 468c8.66699 18 12.667 34.333 12 49c-0.666992 6.66699 -1.5 10 -2.5 10s-2.83301 -3 -5.5 -9s-4 -22.667 -4 -50zM598 534c19.333 0 26.6611 -40.3271 21.9941 -120.994c-3.33301 -43.333 -8.66602 -83.833 -15.999 -121.5s-21 -92.834 -41 -165.501
c-32.667 -118 -40.334 -178.667 -23.001 -182c2.66699 -0.666992 6.33398 0.666016 11.001 3.99902c6 5.33301 9 4.33301 9 -3s-3.66699 -14 -11 -20c-5.33301 -4 -9.5 -5.5 -12.5 -4.5s-7.16699 5.16699 -12.5 12.5c-10 13.333 -14 31.666 -12 54.999s10.667 63.333 26 120
c23.333 86.667 41.833 169.667 55.5 249s17.167 122.333 10.5 129c-3.33301 3.33301 -6.33301 0.333008 -9 -9c-1.33301 -4.66699 -3.33301 -12.667 -6 -24c-14 -74.667 -33.667 -129.667 -59 -165c-40 -56.667 -94 -97.5 -162 -122.5s-126.333 -25.5 -175 -1.5
c-14.667 6.66699 -31.167 18.667 -49.5 36s-29.166 31 -32.499 41c-4.66699 12.667 -9 8.66699 -13 -12c-2 -12 -4.33301 -30 -7 -54c-2 -28.667 -7.16699 -58.834 -15.5 -90.501s-13.5 -53.5 -15.5 -65.5c-4.66699 -34.667 -8.16699 -56.5 -10.5 -65.5
s-6.16602 -13.5 -11.499 -13.5c-7.33301 0 -9.66602 7.66699 -6.99902 23c2.66699 19.333 8.66699 58.166 18 116.499s17.333 113 24 164s10.334 94.167 11.001 129.5c0 84 11 142.333 33 175c2.66699 4.66699 4.66699 7.83398 6 9.50098s2.83301 2.66699 4.5 3
s3.16699 -0.166992 4.5 -1.5s3.33301 -4 6 -8c5.33301 -6 7.5 -14.833 6.5 -26.5s-5.83301 -36.5 -14.5 -74.5c-8 -32 -13 -67.333 -15 -106c-2.66699 -30 -3.16699 -49.5 -1.5 -58.5s8.5 -22.833 20.5 -41.5c22.667 -38.667 52.834 -63.834 90.501 -75.501
s77 -10.834 118 2.49902s81.167 36.666 120.5 69.999c33.333 30 55.833 55.5 67.5 76.5s22.5 56.167 32.5 105.5c10 50.667 16.833 81.834 20.5 93.501s8.5 17.5 14.5 17.5z" />
    <glyph glyph-name="N" unicode="N" horiz-adv-x="533" 
d="M41 401c-2 -0.666992 -3.66895 0.999023 -5.00195 4.99902c-3.33301 9.33301 -2.66602 14 2.00098 14c1.33301 0 2.33301 -0.333008 3 -1c4 -2 6.33301 -5.16699 7 -9.5s-1.66602 -7.16602 -6.99902 -8.49902zM421.998 404.999c8 -21.333 13.6689 -42.332 17.002 -62.999
s7 -38 11 -52c4 -10.667 11.5 -38 22.5 -82s17.5 -69.333 19.5 -76c0.666992 -1.33301 1 -3 1 -5l2 -4c0 -1.33301 -1.66699 0 -5 4c-1.33301 1.33301 -2.33301 2.66602 -3 3.99902c-6.66699 8 -11.334 9 -14.001 3c-0.666992 -3.33301 -2 -2 -4 4c-2 4 -3.33301 9 -4 15
c-5.33301 29.333 -13.5 63.666 -24.5 102.999s-18.5 69.333 -22.5 90c-2.66699 21.333 -9.33398 44.666 -20.001 69.999c-9.33301 22.667 -15.166 49 -17.499 79s0.166992 48.667 7.5 56c6.66699 7.33301 15.5 11 26.5 11s20.833 -3.66699 29.5 -11
c7.33301 -6 9.66602 -9 6.99902 -9c-2 0 -7 0.666992 -15 2c-17.333 2.66699 -28.333 0.833984 -33 -5.49902s-5.66699 -21.166 -3 -44.499c4 -31.333 11.333 -61 22 -89zM482 77c0 20.667 3.33203 30.9971 9.99902 30.9971c7.33301 0 11 -10.333 11 -31
c0 -13.333 -1.5 -23.166 -4.5 -29.499s-9.83301 -14.166 -20.5 -23.499c-10.667 -10 -19.834 -16 -27.501 -18s-22.5 -3 -44.5 -3c-16 -1.33301 -30.167 -0.5 -42.5 2.5s-25.833 8.5 -40.5 16.5s-23.667 12.667 -27 14c-11.333 5.33301 -28.166 20 -50.499 44
s-37.5 43.667 -45.5 59c-4.66699 4.66699 -20.667 57.5 -48 158.5s-43 153.833 -47 158.5c-3.33301 -5.33301 -7.66602 -54 -12.999 -146s-8.66602 -140.333 -9.99902 -145c-4 -17.333 -6 -59 -6 -125c0 -38 -0.666992 -61.833 -2 -71.5s-4.33301 -14.5 -9 -14.5
c-3.33301 0 -5.66602 3.83301 -6.99902 11.5s-1.83301 24.334 -1.5 50.001s1.66602 60.334 3.99902 104.001s6.16602 103.834 11.499 180.501c7.33301 118 10.666 204.333 9.99902 259c-26 -25.333 -39.667 -59.666 -41 -102.999c0 -13.333 -2.33301 -20 -7 -20
c-2.66699 1.33301 -4 6.16602 -4 14.499s1.5 19.166 4.5 32.499s6.5 24.666 10.5 33.999c13.333 30.667 21 55.667 23 75c1.33301 4 5.16602 5.66699 11.499 5s11.833 -3.33398 16.5 -8.00098c5.33301 -5.33301 8 -16.333 8 -33c1.33301 -20 6.33301 -41.333 15 -64
c13.333 -38 27.833 -89.667 43.5 -155s30.5 -119 44.5 -161c6.66699 -21.333 24 -47.666 52 -78.999s52.667 -51.333 74 -60c18.667 -8.66699 42.834 -13.167 72.501 -13.5s49.834 3.5 60.501 11.5c10.667 7.33301 16 21.333 16 42z" />
    <glyph glyph-name="O" unicode="O" horiz-adv-x="623" 
d="M249 500c-17.333 35.333 -29.001 74.667 -35.001 118c-77.333 -35.333 -127.666 -97 -150.999 -185c-10.667 -36.667 -14.667 -81 -12 -133c1.33301 -42.667 5.33301 -74 12 -94s19.667 -41 39 -63c24.667 -27.333 59.167 -50.5 103.5 -69.5s86.166 -28.5 125.499 -28.5
c46 0.666992 92 8.33398 138 23.001s76.667 32 92 52c10 12.667 13.667 25.667 11 39c-3.33301 16 -13 35.167 -29 57.5s-32.667 40.166 -50 53.499c-78.667 58 -134.667 102.833 -168 134.5s-58.666 63.5 -75.999 95.5zM185.999 622.001
c42 19.333 79.1729 21.8311 111.506 7.49805s61.166 -46.5 86.499 -96.5c24 -44.667 29.333 -79.334 16 -104.001c-10.667 -20 -16.334 -17.667 -17.001 7c0 6 0.333008 12.667 1 20c1.33301 18.667 0.666016 32.334 -2.00098 41.001s-11.334 24.667 -26.001 48
c-16.667 26 -31.667 43.833 -45 53.5s-30.333 14.834 -51 15.501c-12 0.666992 -19 -0.166016 -21 -2.49902s-2.66699 -9.5 -2 -21.5c0.666992 -18 7.66699 -41 21 -69s28.666 -52 45.999 -72c19.333 -23.333 46.666 -47.666 81.999 -72.999c46 -34 88.667 -71 128 -111
s64 -71.333 74 -94c14.667 -33.333 -2 -64.666 -50 -93.999s-109.667 -46.333 -185 -51c-28.667 -1.33301 -49.5 -1.33301 -62.5 0s-31.833 6.33301 -56.5 15c-46.667 15.333 -88 37.666 -124 66.999s-58.667 59.333 -68 90c-6 22 -9.66699 56 -11 102
c-2.66699 52 1.33301 96.333 12 133c12 44 30.5 82.667 55.5 116s54.167 57.666 87.5 72.999z" />
    <glyph glyph-name="P" unicode="P" horiz-adv-x="688" 
d="M381 580c14 -4 26.668 -6.83301 38.001 -8.5s21 -3.5 29 -5.5s19 -6.66699 33 -14c9.33301 -4.66699 21.333 -10 36 -16s25 -10.5 31 -13.5s14.167 -8.5 24.5 -16.5s21.5 -18 33.5 -30c25.333 -25.333 41.333 -46.833 48 -64.5s5.33398 -36.167 -3.99902 -55.5
c-11.333 -24 -34.833 -46.5 -70.5 -67.5s-79.167 -38.167 -130.5 -51.5c-27.333 -7.33301 -59.5 -10.333 -96.5 -9s-62.167 6.66602 -75.5 15.999l-18 11c2.66699 -36 7.16699 -79.667 13.5 -131s11.166 -77.666 14.499 -78.999c4 0 10.667 11 20 33
c6.66699 14.667 11.334 22 14.001 22c5.33301 0 2.66602 -14 -8.00098 -42l-4 -8c-15.333 -34.667 -27 -45.667 -35 -33c-7.33301 11.333 -15.833 52.166 -25.5 122.499s-17.834 148.166 -24.501 233.499c-3.33301 58 -7.66602 96 -12.999 114
c-4.66699 14.667 -4 22.334 2 23.001c3.33301 0.666992 7.33301 -1.66602 12 -6.99902c6 -6.66699 11.667 -28 17 -64s7.33301 -63.333 6 -82c-2 -20.667 -0.666992 -32.334 4 -35.001c3.33301 -2 5.5 -1.5 6.5 1.5l3.5 10c1.33301 3.66699 3.33301 5.16699 6 4.5
c5.33301 0 6.33301 -7 3 -21c-4 -20.667 -3.16699 -35.334 2.5 -44.001s19.167 -16.334 40.5 -23.001c18 -5.33301 32.167 -8 42.5 -8s32.166 2.66699 65.499 8c48 8 99 24.333 153 49c13.333 6.66699 27.166 20.334 41.499 41.001s21.5 37.667 21.5 51
c0 18 -12.833 40.167 -38.5 66.5s-53.167 45.833 -82.5 58.5l-33.5 15.5c-13.667 6.33301 -21.5 9.83301 -23.5 10.5c-35.333 19.333 -103.5 30.333 -204.5 33s-169.167 -4.66602 -204.5 -21.999c-14 -6.66699 -21 -8.33398 -21 -5.00098c0 1.33301 0.333008 3 1 5
c1.33301 6.66699 8.33301 12.334 21 17.001s37.667 10.334 75 17.001c32.667 6 75.834 8.33301 129.501 7s95.167 -6 124.5 -14z" />
    <glyph glyph-name="Q" unicode="Q" horiz-adv-x="656" 
d="M379 292c0 -5.33301 5.99414 -15.3359 17.9941 -30.0029c7.33301 -7.33301 23.333 -38.833 48 -94.5s39 -86.5 43 -92.5c2.66699 -4.66699 4.66699 -7.66699 6 -9s3.33301 -2.33301 6 -3s5.33398 -0.333984 8.00098 0.999023s7 3.33301 13 6
c34.667 17.333 58.334 35.333 71.001 54s17.334 41.334 14.001 68.001c-3.33301 22 -6.33301 32.333 -9 31c-1.33301 -1.33301 -3.66602 -0.166016 -6.99902 3.50098s-6.66602 8 -9.99902 13s-5 9.16699 -5 12.5c0 6.66699 -17.5 28.834 -52.5 66.501
s-63.167 65.167 -84.5 82.5c-14.667 12 -31.667 30.5 -51 55.5s-32.333 45.167 -39 60.5c-6 20 -7.66699 30.333 -5 31c4.66699 0 10.667 -8.66699 18 -26c4 -9.33301 11.667 -21 23 -35s22 -25.833 32 -35.5s16 -13.5 18 -11.5c7.33301 7.33301 -7 34.666 -43 81.999
s-63.333 74.333 -82 81c-12.667 4 -21.667 6.16699 -27 6.5s-17.333 -1.16699 -36 -4.5c-16 -3.33301 -29.667 -8.83301 -41 -16.5s-29.333 -22.834 -54 -45.501c-24 -22 -44.667 -52 -62 -90s-28.5 -80.333 -33.5 -127s0.5 -92.667 16.5 -138
c13.333 -35.333 39 -65.666 77 -90.999s84.333 -44 139 -56c45.333 -10 108 -6 188 12c-31.333 62.667 -50.666 104.334 -57.999 125.001c-9.33301 23.333 -21.666 43 -36.999 59c-15.333 16.667 -26.833 33.334 -34.5 50.001s-8.83398 27.667 -3.50098 33
c4 4 11 2.16699 21 -5.5s15 -15.167 15 -22.5zM512.994 44.9971c-4.66699 0 -6.99902 -1.00098 -6.99902 -3.00098c-0.666992 -2.66699 3.33301 -11.667 12 -27c27.333 -49.333 45.666 -76.666 54.999 -81.999c1.33301 -0.666992 2 -0.333984 2 0.999023
c0 8 2.66699 13.667 8 17s6.66602 -3.33398 3.99902 -20.001c-3.33301 -21.333 -6 -32 -8 -32c-4 -3.33301 -10.5 0.5 -19.5 11.5s-20.5 28.833 -34.5 53.5c-14.667 26.667 -25.667 46 -33 58c-4 6.66699 -25.667 6 -65 -2c-76 -15.333 -150.333 -7.83301 -223 22.5
s-121.667 74.5 -147 132.5c-10 28 -17.167 58.667 -21.5 92s-3.16602 67.333 3.50098 102c16.667 55.333 39.334 104.333 68.001 147s60.667 73.334 96 92.001c18 8.66699 38.5 14 61.5 16s40.833 -0.333008 53.5 -7c29.333 -15.333 61 -46.666 95 -93.999
s47.667 -79.333 41 -96c-2.66699 -7.33301 7.66602 -22 30.999 -44c23.333 -22.667 47.5 -49.5 72.5 -80.5s42.5 -56.167 52.5 -75.5c16 -32 19.5 -61.833 10.5 -89.5s-30.167 -51.5 -63.5 -71.5c-23.333 -14 -38 -21 -44 -21z" />
    <glyph glyph-name="R" unicode="R" horiz-adv-x="785" 
d="M610 579c0 -19.333 -11.498 -46.502 -34.498 -81.502s-53.167 -71.5 -90.5 -109.5c-28.667 -29.333 -39 -42.666 -31 -39.999c32.667 13.333 75 23 127 29c42.667 4 79.334 -1.83301 110.001 -17.5s50.334 -38.834 59.001 -69.501c5.33301 -20 4.33301 -55 -3 -105
c-16.667 -115.333 -25 -187.666 -25 -216.999c0 -5.33301 2.33301 -6.66602 7 -3.99902c4.66699 3.33301 7 2 7 -4c-0.666992 -8 -4 -14.667 -10 -20c-14 -12 -21.333 -6 -22 18c-0.666992 13.333 0.666016 33.333 3.99902 60c16 130.667 24.667 207.5 26 230.5
s-2 41.167 -10 54.5c-8.66699 16.667 -23.334 30.167 -44.001 40.5s-43 15.5 -67 15.5c-56.667 0 -112.334 -11.833 -167.001 -35.5s-102 -56.834 -142 -99.501c-10 -10.667 -16 -18.167 -18 -22.5s-1.33301 -9.83301 2 -16.5
c6.66699 -12.667 6.33398 -16.334 -0.999023 -11.001c-10 6.66699 -21 17.334 -33 32.001c16.667 19.333 55 55 115 107c55.333 46 95 80.833 119 104.5s45 48.834 63 75.501c39.333 57.333 48.333 94.666 27 111.999c-20.667 17.333 -54.334 28.333 -101.001 33
s-87.667 1 -123 -11c-23.333 -8.66699 -52.833 -23.834 -88.5 -45.501s-63.5 -41.167 -83.5 -58.5c4 -56.667 11.333 -126.834 22 -210.501s18.667 -128.167 24 -133.5c4.66699 -9.33301 7.83398 -19.166 9.50098 -29.499s3 -24.666 4 -42.999s2.16699 -34.166 3.5 -47.499
c5.33301 -45.333 6.66602 -69.666 3.99902 -72.999c-4 -6 -8 -2 -12 12c-4 12.667 -7 29.334 -9 50.001c-1.33301 18.667 -3.33301 31.167 -6 37.5s-8 11.5 -16 15.5c-12 5.33301 -14.667 10 -8 14c6 4.66699 8.5 18.334 7.5 41.001s-3.33301 45 -7 67l-12 72
c-4.33301 26 -6.5 44.667 -6.5 56c-4 38 -7.66699 57 -11 57c-2 0 -3.5 -1.83301 -4.5 -5.5s-2.16699 -7.33398 -3.5 -11.001s-3.33301 -5.16699 -6 -4.5c-2 0 -3.33301 3.33301 -4 10s-0.166992 16.5 1.5 29.5s4.16699 28.5 7.5 46.5c2.66699 14.667 1 21.667 -5 21
c-6.66699 -0.666992 -20.667 -13 -42 -37c-49.333 -58 -76 -87 -80 -87c-2 0 -3 1.66699 -3 5c0 6.66699 11 24 33 52s44 52.667 66 74c18 18 27 30.333 27 37s5 10 15 10c9.33301 0 28.666 10.333 57.999 31c54 38.667 104 63 150 73c36 6.66699 71.167 8.16699 105.5 4.5
s63.833 -12.834 88.5 -27.501s37 -31.334 37 -50.001z" />
    <glyph glyph-name="S" unicode="S" horiz-adv-x="455" 
d="M51 190c0 -42.667 5.33496 -74.335 16.002 -95.002c17.333 -34 20 -47 8 -39c-4 2 -5.66699 1 -5 -3c0 -2 0.666992 -5 2 -9c3.33301 -11.333 4.33301 -16.666 3 -15.999c-4.66699 2 -13.334 21.667 -26.001 59c-10.667 28.667 -16.834 59.334 -18.501 92.001
s1.5 54 9.5 64c2 2 3.66699 4 5 6s2.33301 3.66699 3 5l2 1c0.666992 -20 1 -41.667 1 -65zM425.002 393.999c0.666992 -18.667 -4.16992 -30.501 -14.5029 -35.501s-22.166 -3.83301 -35.499 3.5c15.333 6.66699 24.333 12.667 27 18c3.33301 6 4.33301 14.333 3 25
c-0.666992 10.667 -3.16699 21.167 -7.5 31.5s-6.83301 16.5 -7.5 18.5c0 21.333 -25.667 56.666 -77 105.999s-82.333 68.666 -93 57.999c-3.33301 -3.33301 -1.33301 -20 6 -50c8.66699 -33.333 14 -66.5 16 -99.5s2.66699 -96.5 2 -190.5
c-1.33301 -111.333 -5.16602 -187.5 -11.499 -228.5s-19.833 -72.833 -40.5 -95.5c-15.333 -16.667 -33.833 -20.167 -55.5 -10.5s-34.167 27.167 -37.5 52.5l-3 23l15 -24c8.66699 -14.667 15.834 -24.167 21.501 -28.5s13.834 -6.5 24.501 -6.5
c23.333 0 41.666 29.667 54.999 89c7.33301 34.667 11.5 116.334 12.5 245.001s-1.83301 209.667 -8.5 243c-1.33301 8.66699 -3.66602 19.834 -6.99902 33.501s-5.33301 23 -6 28s-0.333984 14.833 0.999023 29.5c2.66699 8.66699 10.667 11.667 24 9s29 -10.667 47 -24
c100 -75.333 150 -148.666 150 -219.999z" />
    <glyph glyph-name="T" unicode="T" horiz-adv-x="640" 
d="M373 541c-24 -2 -58.3291 -7.66406 -102.996 -16.9971s-75.667 -15.333 -93 -18c-52.667 -9.33301 -83.334 -16.333 -92.001 -21c-6.66699 -3.33301 -17.5 -4 -32.5 -2s-22.5 5.33301 -22.5 10c0 4 9 7.33301 27 10c14 1.33301 64.667 11 152 29s146.666 28 177.999 30
c12.667 1.33301 45.667 7.16602 99 17.499s91 16.166 113 17.499c8.66699 0.666992 12.667 -1.66602 12 -6.99902c-1.33301 -8 -9 -15 -23 -21c-4 -1.33301 -8.16699 -3 -12.5 -5l-11 -5c-3 -1.33301 -4.83301 -2 -5.5 -2c-2 -1.33301 -3 -1 -3 1
c-0.666992 0.666992 -0.333984 2 0.999023 4c4 6 -3.66699 8.33301 -23 7c-17.333 -1.33301 -40.666 -5.33301 -69.999 -12l-53 -12c-2.66699 -20.667 -7.5 -54.5 -14.5 -101.5s-11.667 -87 -14 -120s-3.16602 -73.167 -2.49902 -120.5
c0 -27.333 0.166992 -47.833 0.5 -61.5s0.833008 -25 1.5 -34s1.5 -14.5 2.5 -16.5s2.83301 -2.66699 5.5 -2c2 0.666992 3.66699 1 5 1s2.16602 -0.666992 2.49902 -2s0.333008 -3.33301 0 -6s-0.833008 -6.33398 -1.5 -11.001c-4 -22.667 -9 -33.667 -15 -33
c-8.66699 2 -15.334 23 -20.001 63c-3.33301 27.333 -3.5 78.666 -0.5 153.999s6.83301 126.333 11.5 153c3.33301 16 6.5 34.5 9.5 55.5s5.83301 38.167 8.5 51.5c2.66699 12.667 3.16699 20.167 1.5 22.5s-7.83398 3.5 -18.501 3.5z" />
    <glyph glyph-name="U" unicode="U" horiz-adv-x="519" 
d="M292 17c36.667 0 70.3262 13.1631 100.993 39.4961s52.334 59.833 65.001 100.5s13.334 80.334 2.00098 119.001c-7.33301 26 -14.666 64.833 -21.999 116.5s-11 90.5 -11 116.5c0 36 6.33301 52.333 19 49c2.66699 -0.666992 6 -2.66699 10 -6c4 -4.66699 6 -8 6 -10
s-2.33301 -5 -7 -9c-5.33301 -4 -8.16602 -10 -8.49902 -18s0.833984 -25.333 3.50098 -52c4 -46 10.333 -89 19 -129c10.667 -53.333 16.834 -89 18.501 -107s0.166992 -36 -4.5 -54c-11.333 -55.333 -36.5 -99.333 -75.5 -132s-82.667 -47 -131 -43
s-90.166 27.333 -125.499 70c-50.667 60.667 -85.667 139 -105 235c-11.333 54.667 -16.666 122.334 -15.999 203.001c0 81.333 1.33301 124 4 128c7.33301 10.667 15 4 23 -20c4 -11.333 5.83301 -25.833 5.5 -43.5s-3.5 -54.5 -9.5 -110.5
c-2.66699 -27.333 -0.333984 -48.666 6.99902 -63.999c12 -23.333 14.667 -34.666 8 -33.999l-8 5c-5.33301 4 -8.33301 5.83301 -9 5.5s-0.333984 -3.5 0.999023 -9.5c1.33301 -3.33301 6.5 -25.333 15.5 -66s14.833 -63 17.5 -67c2 -2 9 -18.333 21 -49
c20.667 -51.333 47.334 -91.5 80.001 -120.5s68 -43.5 106 -43.5z" />
    <glyph glyph-name="V" unicode="V" horiz-adv-x="445" 
d="M30 573c0 6.66699 2.99805 10 8.99805 10c4.66699 0 10.167 -8.83301 16.5 -26.5s18.833 -57.834 37.5 -120.501l25.5 -86c10.333 -35.333 17.333 -58.833 21 -70.5l15.5 -49c6.66699 -21 12.167 -36.167 16.5 -45.5l15 -33.5c5.66699 -13 12.167 -25.833 19.5 -38.5
c46.667 121.333 99.334 249 158.001 383c18.667 42.667 31.667 64.334 39 65.001c7.33301 3.33301 11.333 -0.333984 12 -11.001c-0.666992 -9.33301 -3 -14.666 -7 -15.999c-19.333 -27.333 -48.333 -91 -87 -191c-53.333 -118 -83.666 -193 -90.999 -225
c-6.66699 -23.333 -13 -35 -19 -35c-10.667 0 -29.667 32.167 -57 96.5s-46.666 121.5 -57.999 171.5c-2.66699 14 -5.33398 21.333 -8.00098 22c-4 0.666992 -5 -7.66602 -3 -24.999c1.33301 -15.333 0 -22.333 -4 -21c-5.33301 0 -9.83301 14.667 -13.5 44l-11.5 95.5
c-4 34.333 -8.33301 55.166 -13 62.499c-8.66699 19.333 -13 34 -13 44z" />
    <glyph glyph-name="W" unicode="W" horiz-adv-x="568" 
d="M79 430c0 8 -4.99707 37.833 -14.9971 89.5s-14.333 84.834 -13 99.501c0 27.333 -2.33301 41.666 -7 42.999s-8.5 10.666 -11.5 27.999s-3.16699 29.666 -0.5 36.999c8 19.333 17 10.333 27 -27c6 -22.667 11.333 -52.334 16 -89.001
c4.66699 -38 10.167 -73.5 16.5 -106.5s11.833 -57.667 16.5 -74s12.167 -41.166 22.5 -74.499l22.5 -73c17.333 -65.333 33 -109 47 -131c2.66699 -4 4.33398 -5.33301 5.00098 -4c4 11.333 9.5 35.833 16.5 73.5s13.833 65.834 20.5 84.501
c37.333 123.333 59 219.333 65 288c2.66699 34.667 7.33398 52 14.001 52c5.33301 0 10.166 -7.16699 14.499 -21.5s7.16602 -22.166 8.49902 -23.499c5.33301 -7.33301 11.666 -24.666 18.999 -51.999s12.666 -53.333 15.999 -78c20.667 -133.333 46.334 -223 77.001 -269
c-5.33301 16.667 -8.5 35.834 -9.5 57.501s0.166992 45.667 3.5 72s6.83301 49.166 10.5 68.499s8.66699 43.166 15 71.499s10.5 47.5 12.5 57.5c5.33301 30.667 13 65.167 23 103.5s16.333 58.833 19 61.5c4.66699 4.66699 7 2.33398 7 -6.99902l-3 -31
c-16 -88.667 -32 -165.334 -48 -230.001c-8 -34 -13.333 -61.333 -16 -82s-3.66699 -50.334 -3 -89.001c1.33301 -65.333 4.66602 -102.666 9.99902 -111.999c6 -10.667 6.66699 -18.334 2 -23.001c-4 -4 -11.667 4 -23 24c-14 25.333 -29.333 61.333 -46 108
c-24 64.667 -41.333 140 -52 226c-8.66699 70 -18 105 -28 105c-3.33301 0 -6.66602 -13.333 -9.99902 -40c-2.66699 -27.333 -12.334 -71 -29.001 -131c-44.667 -161.333 -68.334 -257 -71.001 -287c-2.66699 -28 -7.66699 -42 -15 -42c-4.66699 0 -11.167 11.333 -19.5 34
s-27.5 82.667 -57.5 180c-15.333 48.667 -27.333 80.334 -36 95.001c-8.66699 13.333 -13 26 -13 38z" />
    <glyph glyph-name="X" unicode="X" horiz-adv-x="444" 
d="M398 564c6.66699 6.66699 11.668 4.33398 15.001 -6.99902c3.33301 -12.667 1 -20.334 -7 -23.001h-2c-4.66699 0 -7.83398 4 -9.50098 12s-0.5 14 3.5 18zM107.001 593c0 -6 7.66504 -17.3311 22.998 -33.998c26.667 -29.333 56.334 -87.333 89.001 -174l4.5 -13.5
c1.66699 -5 3 -9.16699 4 -12.5s2.16699 -6.83301 3.5 -10.5s2.5 -6.33398 3.5 -8.00098s2.16699 -3.33398 3.5 -5.00098s2.83301 -2.33398 4.5 -2.00098s3.5 1 5.5 2s4.33301 2.83301 7 5.5s5.66699 6 9 10c11.333 14 30.833 41.667 58.5 83s42.834 66 45.501 74
c4 10.667 8.33301 14.334 13 11.001c3.33301 -2 3.66602 -6.66699 0.999023 -14c-5.33301 -20 -22.833 -52 -52.5 -96s-57.167 -81 -82.5 -111c15.333 -53.333 30.666 -90.333 45.999 -111c12.667 -16.667 27.334 -32.667 44.001 -48s27.667 -23.333 33 -24
c4 0 8.16699 -7.16699 12.5 -21.5s4.83301 -22.833 1.5 -25.5c-2 -2 -10.5 4 -25.5 18s-31.333 31 -49 51s-30.834 36.667 -39.501 50c-16 23.333 -26.333 44.333 -31 63c-4 15.333 -7.33301 23 -10 23c-1.33301 0 -4 -2.33301 -8 -7c-76 -94.667 -125 -159 -147 -193
c-6 -8.66699 -8.83301 -13.167 -8.5 -13.5s4.5 1.5 12.5 5.5c12.667 7.33301 18.667 9 18 5s-8.66699 -12 -24 -24c-30 -24.667 -44 -30 -42 -16c2 12 15 35.667 39 71c42.667 64 95.334 131.333 158.001 202l-22 66c-34.667 97.333 -75 169.333 -121 216
c-12.667 14 -18 22.667 -16 26c2.66699 4.66699 9.83398 4.16699 21.501 -1.5s17.5 -11.167 17.5 -16.5z" />
    <glyph glyph-name="Y" unicode="Y" horiz-adv-x="451" 
d="M415 644c-5.33301 -5.33301 -7.66699 -4.33398 -7 2.99902c0 10 2.33301 15.667 7 17c2 -0.666992 3.66699 -2 5 -4c2 -5.33301 0.333008 -10.666 -5 -15.999zM29.999 695.999c0 4 3.33105 6.00195 9.99805 6.00195s17.167 -11.333 31.5 -34s23.833 -43.334 28.5 -62.001
c7.33301 -28.667 20.666 -65.834 39.999 -111.501s35 -77.5 47 -95.5c14.667 -22 25.667 -40.667 33 -56c10 -22.667 21.333 -22 34 2l74 147.5c36.667 74.333 56.334 115.166 59.001 122.499c4 10.667 9.33301 16.334 16 17.001
c2.66699 -0.666992 4.33398 -2.66699 5.00098 -6c0 -6.66699 -27 -66.667 -81 -180c-30 -62 -46.333 -98.667 -49 -110c-2.66699 -8.66699 -0.5 -53.834 6.5 -135.501s14.167 -149.167 21.5 -202.5c2 -15.333 2.83301 -25.333 2.5 -30s-2.83301 -7 -7.5 -7
c-9.33301 0 -16.666 35 -21.999 105c-2.66699 32 -7 66.333 -13 103s-10.667 57.334 -14 62.001c-2.66699 2 -3.16699 9.66699 -1.5 23s1.16699 20.666 -1.5 21.999c-10 0 -38.333 41 -85 123c-28 48 -56.333 117 -85 207c-3.33301 14 -12 31.833 -26 53.5
s-21.667 33.834 -23 36.501z" />
    <glyph glyph-name="Z" unicode="Z" horiz-adv-x="671" 
d="M489 574c0 -8.66699 -4.49512 -20.999 -13.4951 -36.999s-15.833 -24 -20.5 -24c-2.66699 0 -9 -8 -19 -24s-15.667 -24.333 -17 -25c-11.333 -11.333 -31 -35.333 -59 -72c55.333 8 116.166 15 182.499 21s98.5 6.66699 96.5 2
c4.66699 -4.66699 1.33398 -8.33398 -9.99902 -11.001c-12 -2 -41.333 -5.33301 -88 -10c-115.333 -10.667 -183.333 -22.334 -204 -35.001c-12 -7.33301 -27.833 -28 -47.5 -62s-30.834 -60.667 -33.501 -80c-2.66699 -21.333 -2.66699 -37 0 -47
c4 -19.333 21.833 -29.666 53.5 -30.999s100.834 5 207.501 19c36.667 4.66699 60.667 9.33398 72 14.001c8 4 12 3 12 -3c0 -10 -14.833 -18.333 -44.5 -25s-88.5 -14.334 -176.5 -23.001c-46 -4.66699 -78.167 -5.16699 -96.5 -1.5s-32.5 13.834 -42.5 30.501
c-8.66699 14.667 -11.667 34.334 -9 59.001c2 20 6.33301 37.5 13 52.5s21 38.833 43 71.5c8.66699 13.333 12.167 21.333 10.5 24s-10.834 2.66699 -27.501 0c-30.667 -3.33301 -59.334 -6 -86.001 -8c-32 -2 -48.333 -2 -49 0c0 1.33301 2 3.66602 6 6.99902
c8.66699 6.66699 19.334 10 32.001 10c8 0 38 4 90 12c31.333 5.33301 52 9.66602 62 12.999s17.333 8.66602 22 15.999c4 6 17.667 23 41 51s42.666 52.5 57.999 73.5s22.333 34.167 21 39.5c0 7.33301 -13.333 12.333 -40 15c-40.667 4 -97.834 5.66699 -171.501 5
s-131.834 -3.33398 -174.501 -8.00098c-2 0.666992 -3.33301 0 -4 -2s-1.16699 -4.33301 -1.5 -7s-0.666016 -5 -0.999023 -7s-1.33301 -3 -3 -3s-3.83398 1.66699 -6.50098 5c-7.33301 6 -11 7.33301 -11 4c-0.666992 -1.33301 -2.16699 -1.66602 -4.5 -0.999023
s-5.83301 2.33398 -10.5 5.00098c-18 9.33301 -13.667 16.666 13 21.999c14 2 32.667 3.33301 56 4c41.333 1.33301 63 3 65 5c2.66699 2.66699 50.667 3.33398 144 2.00098c39.333 -0.666992 69.333 -1.66699 90 -3s37.667 -3.33301 51 -6s21.666 -6 24.999 -10
s5 -9.66699 5 -17z" />
    <glyph glyph-name="a" unicode="a" horiz-adv-x="319" 
d="M235 321c-2 8.66699 -3.66895 13.333 -5.00195 14c-4 1.33301 -5.33301 -6 -4 -22c0.666992 -7.33301 2.33398 -11 5.00098 -11c0.666992 0 1.33398 0.333008 2.00098 1c4 2 4.66699 8 2 18zM103.998 130.999c11.333 0 26.333 4.83594 45 14.5029s28 17.167 28 22.5
c0 6 6 20.333 18 43c8.66699 15.333 13.667 28 15 38s1 29 -1 57c-2.66699 42.667 -7.33398 76 -14.001 100c-5.33301 25.333 -11.666 38.666 -18.999 39.999c-15.333 1.33301 -37.333 -22.834 -66 -72.501s-47.334 -96.834 -56.001 -141.501
c-5.33301 -25.333 -2.66602 -48.5 8.00098 -69.5s24.667 -31.5 42 -31.5zM278.998 103.002c-5.33301 0 -9.16895 4.49707 -11.502 13.4971s-8.16602 40.5 -17.499 94.5c-1.33301 6.66699 -2.66602 14.167 -3.99902 22.5s-2.33301 13.833 -3 16.5
c-1.33301 10 -2.5 17 -3.5 21s-2.16699 7.83301 -3.5 11.5s-2.5 4.5 -3.5 2.5s-2.5 -5.5 -4.5 -10.5s-4.33301 -12.833 -7 -23.5c-6 -24.667 -12.333 -40.334 -19 -47.001s-10.667 -13 -12 -19c-2.66699 -19.333 -6.5 -32.833 -11.5 -40.5s-14.5 -14.834 -28.5 -21.501
c-24 -11.333 -41 -17.166 -51 -17.499s-21 4.5 -33 14.5c-48.667 40.667 -49 111.334 -1 212.001c26.667 58 52.334 98.333 77.001 121c9.33301 8.66699 20.666 13.834 33.999 15.501s25.333 -0.5 36 -6.5c10 -5.33301 20.167 -21.666 30.5 -48.999
s16.833 -56.666 19.5 -87.999c8.66699 -69.333 14 -109 16 -119l8 -50c2 -12.667 3 -23.167 3 -31.5s-0.833008 -14 -2.5 -17s-4.16699 -4.5 -7.5 -4.5z" />
    <glyph glyph-name="b" unicode="b" horiz-adv-x="460" 
d="M41 211c7.33301 -4.66699 8.66699 -9.00098 4 -13.001c-6 -5.33301 -10.667 -5.66602 -14 -0.999023c-0.666992 2 -0.666992 4.66699 0 8c2.66699 6 6 8 10 6zM284.001 102.999c18.667 0 32.3242 -3.6709 40.9912 -11.0039c6.66699 -5.33301 9.83398 -8.33301 9.50098 -9
s-4.16602 -1 -11.499 -1c-4 0 -7 0.666992 -9 2s-2.66699 3 -2 5c3.33301 4.66699 3 6.83398 -1 6.50098s-15.667 -2.83301 -35 -7.5c-14.667 -4 -25.167 -5.5 -31.5 -4.5s-16.166 5.16699 -29.499 12.5c-20 11.333 -36.333 22.666 -49 33.999
c-9.33301 8.66699 -15.666 13.334 -18.999 14.001s-8.33301 -2.33301 -15 -9c-13.333 -12.667 -21.666 -9.66699 -24.999 9l-2 50c1.33301 62 -1 94.333 -7 97c-3.33301 2.66699 -12.666 -3.66602 -27.999 -18.999c-17.333 -17.333 -26.666 -23.333 -27.999 -18
c-0.666992 1.33301 -1 3.33301 -1 6c1.33301 11.333 21.333 33.666 60 66.999c-4.66699 129.333 -6.33398 203.333 -5.00098 222c0.666992 6 2.16699 10.5 4.5 13.5s5.5 4.16699 9.5 3.5c10 -2 14.667 -69 14 -201c0 -16 2.33301 -24.667 7 -26s17.334 2 38.001 10
c22.667 8.66699 55.834 4.33398 99.501 -12.999s77.5 -39.666 101.5 -66.999c14.667 -16.667 34.667 -49.667 60 -99l-13 -28c-4 -8.66699 -10.667 -17.5 -20 -26.5s-18.166 -15.5 -26.499 -19.5s-13.833 -4 -16.5 0c-2 4.66699 -7.33301 5.66699 -16 3h-2l22 16
c23.333 15.333 36.833 29.833 40.5 43.5s-0.833008 31.167 -13.5 52.5c-28.667 46 -64.5 79 -107.5 99s-84.167 23.333 -123.5 10c-10 -3.33301 -16.167 -7.16602 -18.5 -11.499s-3.5 -13.833 -3.5 -28.5c-2 -34 -3.33301 -54 -4 -60c-2 -13.333 -1.33301 -23 2 -29
s14 -17.667 32 -35c38 -35.333 78.667 -53 122 -53z" />
    <glyph glyph-name="c" unicode="c" horiz-adv-x="391" 
d="M55 288c0 -70 19.9971 -120.998 59.9971 -152.998c27.333 -22 58.833 -36 94.5 -42s66.5 -2.66699 92.5 10c28 13.333 43.667 20.666 47 21.999c8 3.33301 12 4 12 2c0 -1.33301 -1.33301 -4.33301 -4 -9c-1.33301 -6 -7.16602 -11.667 -17.499 -17
s-16.166 -9.33301 -17.499 -12c0 -4.66699 -14.167 -10.5 -42.5 -17.5s-48.166 -9.5 -59.499 -7.5c-78.667 12 -135 48.667 -169 110c-9.33301 17.333 -15.166 31.333 -17.499 42s-3.5 30.334 -3.5 59.001c0 43.333 1.66699 70.666 5 81.999
c2.66699 10 14.334 25.667 35.001 47s36.334 34 47.001 38c21.333 8 43.5 7 66.5 -3s42.5 -27.333 58.5 -52c26 -38.667 33.667 -70 23 -94c-4 -8 -8.83301 -15 -14.5 -21s-10.834 -9.66699 -15.501 -11s-8.66699 0 -12 4c-4.66699 6.66699 -2 13.334 8 20.001
c17.333 12.667 15.666 39 -5.00098 79c-14.667 28.667 -32.334 47.167 -53.001 55.5s-41.667 5.16602 -63 -9.50098s-35.833 -30.334 -43.5 -47.001s-11.5 -41.667 -11.5 -75z" />
    <glyph glyph-name="d" unicode="d" horiz-adv-x="409" 
d="M319 262c0 19.333 -0.998047 32 -2.99805 38s-7 11.667 -15 17c-10 6.66699 -19.667 10 -29 10s-26.333 -3.33301 -51 -10s-45.167 -15 -61.5 -25s-34.166 -25.667 -53.499 -47c-16.667 -18 -29.167 -36.167 -37.5 -54.5s-10.5 -33.166 -6.5 -44.499
c5.33301 -16 24.333 -25.667 57 -29s69 1 109 13c43.333 14 74.666 30.667 93.999 50l-19 -4c-18.667 -4.66699 -23.667 -1 -15 11c3.33301 4 7.66602 8.66699 12.999 14c7.33301 7.33301 12.166 14.666 14.499 21.999s3.5 20.333 3.5 39zM376.002 546
c-1.33301 -0.666992 -3.33398 2.66309 -6.00098 9.99609c-1.33301 4.66699 -3.33301 13 -6 25l-6 21c-1.33301 -1.33301 -2.5 -44.5 -3.5 -129.5s-1.16699 -155.5 -0.5 -211.5c0.666992 -52.667 -1.66602 -80.667 -6.99902 -84c-4.66699 -3.33301 -7 -12.666 -7 -27.999
c0 -30.667 -6 -46 -18 -46c-6.66699 0 -10 6 -10 18c0 7.33301 -0.666992 12 -2 14s-4.66602 2 -9.99902 0c-42 -18.667 -87.333 -32 -136 -40c-22 -3.33301 -37.833 -4.66602 -47.5 -3.99902s-21.167 3.33398 -34.5 8.00098c-68.667 26.667 -68 80.667 2 162
c14.667 16.667 27.667 29 39 37s28 17.333 50 28c8 5.33301 25.167 9.5 51.5 12.5s42.166 5.5 47.499 7.5c8 3.33301 18 2.66602 30 -2.00098c7.33301 -4 12 -5.33301 14 -4s3 6.33301 3 15c0.666992 12 2 40.333 4 85s4 84.5 6 119.5s4.33301 63.167 7 84.5
c2.66699 3.33301 6.5 4.33301 11.5 3s10 -4.66602 15 -9.99902s8.16699 -11 9.5 -17c2.66699 -13.333 4.66699 -25.666 6 -36.999s1.83301 -20.333 1.5 -27s-1.5 -10 -3.5 -10z" />
    <glyph glyph-name="e" unicode="e" horiz-adv-x="406" 
d="M270 444c-12.667 11.333 -30.499 16.166 -53.499 14.499s-47.167 -9.5 -72.5 -23.5c-11.333 -6.66699 -22.833 -20.834 -34.5 -42.501s-19.167 -43.5 -22.5 -65.5l-6 -40c28 11.333 64.667 28.833 110 52.5s71.666 38.834 78.999 45.501
c8.66699 8.66699 13 18.834 13 30.501s-4.33301 21.167 -13 28.5zM215.001 329c-0.666992 0 -7.99902 -5 -21.999 -15s-22 -14.667 -24 -14c-4 -0.666992 -13.5 -5.33398 -28.5 -14.001s-25.833 -13 -32.5 -13c-12 -1.33301 -20 -4 -24 -8
c-5.33301 -5.33301 -0.833008 -26.333 13.5 -63s28.166 -61.667 41.499 -75c35.333 -39.333 98.666 -37.666 189.999 5.00098c28 13.333 43.333 18.666 46 15.999c4 -4 -3.66699 -12 -23 -24c-40 -23.333 -79.667 -39 -119 -47c-7.33301 -1.33301 -13.666 -2 -18.999 -2
c-18.667 0 -38.834 4.66699 -60.501 14s-35.167 19 -40.5 29c-4 9.33301 -11 19.666 -21 30.999c-7.33301 8 -14.833 22.5 -22.5 43.5s-11.5 37.167 -11.5 48.5c0 10 -4.66699 16.333 -14 19c-9.33301 2 -14 5.83301 -14 11.5s4.33301 9.83398 13 12.501
c8.66699 2 14.334 14 17.001 36c5.33301 42 19 75.833 41 101.5s51.333 41.167 88 46.5c35.333 6 62 6.83301 80 2.5s29.667 -17.833 35 -40.5c4 -12 5.16699 -20.5 3.5 -25.5s-7.5 -14.167 -17.5 -27.5c-9.33301 -11.333 -22 -22.166 -38 -32.499s-28.333 -15.5 -37 -15.5z
" />
    <glyph glyph-name="f" unicode="f" horiz-adv-x="376" 
d="M315 413c-7.33301 0.666992 -9.66699 3 -7 7c3.33301 6 7.66602 8.33301 12.999 7c2.66699 -0.666992 4.33398 -3 5.00098 -7c0 -4.66699 -3.66699 -7 -11 -7zM325.999 339c0 -6 -4.33594 -10.3262 -13.0029 -12.9932s-31.334 -6.66699 -68.001 -12
c-38 -5.33301 -59.167 -10.166 -63.5 -14.499s-5.16602 -22.166 -2.49902 -53.499c4 -40.667 8 -67.334 12 -80.001c5.33301 -16.667 7.83301 -27.834 7.5 -33.501s-3.83301 -8.5 -10.5 -8.5c-14 0 -25 33.667 -33 101c-1.33301 6 -2.5 13 -3.5 21s-1.66699 13.667 -2 17
s-1.16602 7.16602 -2.49902 11.499s-2.16602 7.33301 -2.49902 9s-1.66602 3.5 -3.99902 5.5s-4.16602 3 -5.49902 3s-4.33301 0.166992 -9 0.5s-8.33398 0.166016 -11.001 -0.500977s-8 -1.33398 -16 -2.00098s-14.667 -1.33398 -20 -2.00098
c-14 -2 -25.5 -3.16699 -34.5 -3.5s-13.833 0.5 -14.5 2.5c0 2 1.16699 3.33301 3.5 4s4.83301 1.16699 7.5 1.5s5.16699 1.16602 7.5 2.49902s3.16602 3 2.49902 5c1.33301 5.33301 12.833 10.666 34.5 15.999s40.167 7 55.5 5l4 85c7.33301 124 33.666 205.667 78.999 245
c18 16 33 22.333 45 19c14 -3.33301 23.833 -9.33301 29.5 -18s14.5 -30.334 26.5 -65.001c14 -41.333 21.167 -71 21.5 -89s-5.5 -34 -17.5 -48c-10 -10.667 -15 -14.667 -15 -12c-0.666992 0.666992 -0.333984 2.66699 0.999023 6c14 38.667 10.667 85.334 -10 140.001
c-15.333 42 -26.333 64 -33 66c-9.33301 3.33301 -19.666 0.666016 -30.999 -8.00098s-22 -22.334 -32 -41.001c-24 -44 -36.667 -115.667 -38 -215c0 -14 0.166992 -24.5 0.5 -31.5s1 -12.833 2 -17.5s2.33301 -7 4 -7s3.83398 0.333008 6.50098 1
c4.66699 1.33301 41.334 6.33301 110.001 15c21.333 2.66699 32 0.333984 32 -6.99902z" />
    <glyph glyph-name="g" unicode="g" horiz-adv-x="433" 
d="M30 7c0 4 1.16699 7.00098 3.5 9.00098s4.66602 2.33301 6.99902 1s3.5 -4.33301 3.5 -9c0 -10 7.5 -21.833 22.5 -35.5s32.167 -24.5 51.5 -32.5c24.667 -10 37.334 -17.333 38.001 -22c0.666992 -3.33301 -9 -1 -29 7c-64.667 25.333 -97 52.666 -97 81.999z
M298 483.001c-7.33301 0 -14.999 1.33398 -22.999 4.00098c-9.33301 3.33301 -27.666 -3.5 -54.999 -20.5s-52.333 -37.5 -75 -61.5c-74.667 -76.667 -100 -132.334 -76 -167.001c17.333 -25.333 48.666 -38 93.999 -38s92.666 12.333 141.999 37
c20.667 10 31.334 19.667 32.001 29c-0.666992 4 -2.66699 6.66699 -6 8c-5.33301 2 -5.33301 6.33301 0 13c6 8 7.66699 36.667 5 86c-1.33301 40.667 -4.83301 69.167 -10.5 85.5s-14.834 24.5 -27.501 24.5zM330.001 230.002c-5.33301 0 -31 -12.3301 -77 -36.9971
c-8.66699 -4.66699 -34.667 -8.33398 -78 -11.001c-37.333 -2.66699 -64.5 -1 -81.5 5s-31.167 18.667 -42.5 38c-16 25.333 -18.667 52 -8 80s37 64.667 79 110c22 24 42.5 42.333 61.5 55s41.5 22.667 67.5 30c16 4.66699 32.5 5.83398 49.5 3.50098
s28.167 -7.16602 33.5 -14.499c9.33301 -13.333 18.833 -32.5 28.5 -57.5s15.5 -45.833 17.5 -62.5c2.66699 -23.333 7 -42 13 -56c8.66699 -16.667 11.334 -24.667 8.00098 -24c-2.66699 1.33301 -6.66699 5 -12 11c-9.33301 10 -15.666 14 -18.999 12
c-2.66699 -4 -6.33398 -46 -11.001 -126c-4.66699 -80.667 -4.33398 -125.334 0.999023 -134.001c12 -20.667 9.66699 -48.334 -7 -83.001c-12 -26.667 -35 -45.5 -69 -56.5s-68.333 -11.5 -103 -1.5c-5.33301 2.66699 -4 4.33398 4 5.00098c5.33301 0 15 -0.333008 29 -1
c25.333 -2 45.5 -0.5 60.5 4.5s29.833 15.5 44.5 31.5c7.33301 7.33301 12 14.666 14 21.999s2.66699 19.666 2 36.999c0 5.33301 -0.166992 25.666 -0.5 60.999s-0.833008 69 -1.5 101s-1.66699 51.333 -3 58z" />
    <glyph glyph-name="h" unicode="h" horiz-adv-x="434" 
d="M39 406c-2 0 -3.66211 1.33203 -4.99512 3.99902s-2.33301 8 -3 16s-1 19.333 -1 34s0.333008 34 1 58c1.33301 50.667 4 80.667 8 90c3.33301 7.33301 6 11.5 8 12.5s5 -0.166992 9 -3.5c6.66699 -5.33301 11.167 -18.666 13.5 -39.999s4.83301 -66.333 7.5 -135
c3.33301 -79.333 7.33301 -120 12 -122c2.66699 -0.666992 7 3.66602 13 12.999c10.667 18 27.167 36.667 49.5 56s43.166 33.666 62.499 42.999c32 16 66.833 18.833 104.5 8.5s62.834 -26.833 75.501 -49.5c5.33301 -9.33301 8.5 -22.833 9.5 -40.5
s0.5 -57.167 -1.5 -118.5c-3.33301 -100.667 -9.33301 -151 -18 -151c-1.33301 -0.666992 -3 0 -5 2c-4.66699 4.66699 -6.83398 25.5 -6.50098 62.5s2.83301 65.833 7.5 86.5c7.33301 23.333 8.66602 54.666 3.99902 93.999s-14 63.666 -28 72.999
c-16 10 -26.167 15.667 -30.5 17s-19.5 3.33301 -45.5 6c-44 4.66699 -86.333 -15.666 -127 -60.999c-26.667 -28.667 -44.5 -54.167 -53.5 -76.5s-13.167 -51.166 -12.5 -86.499c0 -39.333 -3 -59 -9 -59c-3.33301 1.33301 -7 5.33301 -11 12
c-3.33301 5.33301 -5.33301 6 -6 2c0 -2 -0.333008 -7.33301 -1 -16c0 -16.667 3 -26.334 9 -29.001c5.33301 -3.33301 6 -6.33301 2 -9c-5.33301 -3.33301 -10.333 -1.66602 -15 5.00098c-6.66699 6.66699 -10.334 18.834 -11.001 36.501s1.66602 29.167 6.99902 34.5
c7.33301 7.33301 9.66602 12.666 6.99902 15.999c-2 0.666992 -4.33301 0.333984 -7 -0.999023c-3.33301 -2 -5 -1.33301 -5 2l1 7c14 44 18 94.667 12 152c-4.66699 42 -7 80 -7 114c-0.666992 26.667 -2 40.334 -4 41.001c-0.666992 0 -2 -1.66699 -4 -5
c-6 -9.33301 -7.33301 -27.333 -4 -54c4 -27.333 3.33301 -41 -2 -41z" />
    <glyph glyph-name="i" unicode="i" horiz-adv-x="184" 
d="M121 455c6 0 10.668 -35.6631 14.001 -106.996c3.33301 -64.667 5 -115.334 5 -152.001c0 -29.333 2.33301 -44 7 -44c3.33301 0 5.5 -2.16699 6.5 -6.5s0.5 -9.33301 -1.5 -15s-4.66699 -9.83398 -8 -12.501c-2.66699 -2 -4.83398 -3 -6.50098 -3s-3.16699 1 -4.5 3
s-3 5.66699 -5 11c-5.33301 13.333 -9.83301 54.666 -13.5 123.999s-4.5 132.666 -2.5 189.999c0 8 3 12 9 12zM63.001 588.004c0.666992 5.33301 2.00098 6.33105 4.00098 2.99805c1.33301 -1.33301 2.66602 -3.33301 3.99902 -6c4 -7.33301 9.33301 -13.666 16 -18.999
c4.66699 -3.33301 5 -6.66602 1 -9.99902c-2 -2 -5 -1.33301 -9 2s-7.66699 8 -11 14s-5 11.333 -5 16zM31.002 603.002c4.66699 15.333 10.001 17.999 16.001 7.99902c2 -3.33301 3.66699 -8.33301 5 -15c2 -10.667 3.16699 -18 3.5 -22s0.166016 -6.66699 -0.500977 -8
s-2.66699 -2.66602 -6 -3.99902c-5.33301 -2 -10.333 2.5 -15 13.5s-5.66699 20.167 -3 27.5zM133.003 607.001c0 -7.33301 -1.33301 -10.832 -4 -10.499s-8.66699 5.16602 -18 14.499c-10 10 -21.667 13.333 -35 10c-11.333 -2 -18 -1.16699 -20 2.5s2 8.16699 12 13.5
c11.333 7.33301 25 7.33301 41 0s24 -17.333 24 -30z" />
    <glyph glyph-name="j" unicode="j" horiz-adv-x="384" 
d="M40 119c11.333 17.333 16.9951 22.666 16.9951 15.999c0 -2 -1 -6 -3 -12c-4.66699 -14.667 -5.66699 -38.5 -3 -71.5s7.33398 -57.5 14.001 -73.5c8.66699 -19.333 11.334 -29.166 8.00098 -29.499s-10.666 9.16699 -21.999 28.5c-11.333 20 -18.166 45.333 -20.499 76
s0.833984 52.667 9.50098 66zM267.995 413c-3.33301 0 -5.00098 -46.333 -5.00098 -139c0.666992 -101.333 -5.33301 -184.5 -18 -249.5s-30.334 -106.167 -53.001 -123.5c-6 -4 -18.167 -5.5 -36.5 -4.5s-32.5 4.16699 -42.5 9.5
c-6.66699 3.33301 -12.667 12.666 -18 27.999c-2 4.66699 -2 7 0 7s12 -3.66699 30 -11c16 -5.33301 28 -8.5 36 -9.5s14.333 0.333008 19 4s9.33398 10.834 14.001 21.501c16 36 26.833 76.333 32.5 121s9.16699 111 10.5 199c0.666992 106 5.33398 165.333 14.001 178
c22.667 34 37 20 43 -42c2 -20 3 -45.333 3 -76c0.666992 -33.333 -1 -50 -5 -50c-4.66699 2 -8.66699 25.333 -12 70s-7.33301 67 -12 67zM284.994 561c7.33301 0 12.665 -0.99707 15.998 -2.99707s4 -4.5 2 -7.5s-6.33301 -5.5 -13 -7.5
c-8 -2.66699 -17.333 -2.33398 -28 0.999023s-19.167 8.16602 -25.5 14.499s-7.83301 12.166 -4.5 17.499c0.666992 2 2.83398 2.5 6.50098 1.5s7.5 -3.16699 11.5 -6.5c8.66699 -6.66699 20.334 -10 35.001 -10zM303.993 617.003c-8 0 -10.6621 -5.99902 -7.99512 -17.999
c1.33301 -7.33301 1.16602 -12 -0.500977 -14s-6.16699 -2.66699 -13.5 -2c-10.667 1.33301 -16.834 6.5 -18.501 15.5s1.5 17.833 9.5 26.5c7.33301 8 18.166 12.167 32.499 12.5s26.166 -3.5 35.499 -11.5c10.667 -10 15 -22.667 13 -38
c-1.33301 -9.33301 -5.33301 -13.333 -12 -12c-8.66699 1.33301 -12.334 6.66602 -11.001 15.999c1.33301 6.66699 -0.5 12.5 -5.5 17.5s-12.167 7.5 -21.5 7.5z" />
    <glyph glyph-name="k" unicode="k" horiz-adv-x="483" 
d="M298 480c0 0.666992 3.66797 6.00293 11.001 16.0029s10.666 17.667 9.99902 23c0 6.66699 -0.666992 10 -2 10c-2 0.666992 -8.33301 -3 -19 -11c-11.333 -7.33301 -19.166 -15.333 -23.499 -24s-10.5 -17.334 -18.5 -26.001c-9.33301 -12 -24 -36.333 -44 -73
s-29 -56.334 -27 -59.001c1.33301 -1.33301 -1 -4 -7 -8c-4.66699 -3.33301 -15.167 -23.166 -31.5 -59.499s-24.5 -58.166 -24.5 -65.499c2 -6 14 -8.83301 36 -8.5s53.333 3.83301 94 10.5s85 15.667 133 27l34 7.5c10.667 2.33301 18.834 3.66602 24.501 3.99902
s8.83398 0.166016 9.50098 -0.500977c0 -4.66699 -12.667 -12 -38 -22s-51.333 -17.667 -78 -23c-23.333 -4 -47.833 -8.5 -73.5 -13.5s-43.167 -8.33301 -52.5 -10l-30 -5.5c-10.667 -2 -19.5 -2.5 -26.5 -1.5s-13.667 1.66699 -20 2s-17.166 1.83301 -32.499 4.5
c-5.33301 -36 -4.66602 -55.667 2.00098 -59c3.33301 -2 4.33301 -6.33301 3 -13s-4.5 -13.834 -9.5 -21.501s-9.83301 -11.834 -14.5 -12.501c-6 -0.666992 -9.33301 2.16602 -10 8.49902s0 24.833 2 55.5c16 156 20 274.333 12 355
c-6.66699 65.333 -10.334 104 -11.001 116c-0.666992 18 -3 34.167 -7 48.5s-7.66699 21.5 -11 21.5c-4 0 -7.5 -6 -10.5 -18s-3.16699 -21.333 -0.5 -28c2 -6.66699 0 -10 -6 -10c-6.66699 0 -10.334 9.16699 -11.001 27.5s1.66602 32.833 6.99902 43.5
c5.33301 10 12.833 14.333 22.5 13s16.5 -7.66602 20.5 -18.999c22 -60 34 -164.667 36 -314c0.666992 -60 2.66699 -90.333 6 -91l2 3c7.33301 20 19 45.333 35 76s27.333 49.334 34 56.001c3.33301 3.33301 5.66602 6.16602 6.99902 8.49902s1.83301 4 1.5 5
s-0.5 1.83301 -0.5 2.5s0.833008 1.83398 2.5 3.50098s4.83398 3.83398 9.50098 6.50098c10.667 7.33301 13 13.333 7 18c-2.66699 2 -4.33398 3.33301 -5.00098 4c-1.33301 2 1 1.66699 7 -1c7.33301 -2 15.833 2.5 25.5 13.5s13.167 19.833 10.5 26.5
c-1.33301 6 6 17 22 33c13.333 12.667 26 19.5 38 20.5s19 -4.16699 21 -15.5c1.33301 -6.66699 -2.83398 -20.834 -12.501 -42.501s-16.5 -32.5 -20.5 -32.5c-3.33301 0 -8 -6.66699 -14 -20c-2 -6.66699 -11.5 -20.667 -28.5 -42s-26.5 -34 -28.5 -38
c0 -2.66699 -3.66699 -9.66699 -11 -21s-15 -21.833 -23 -31.5s-12.667 -14.167 -14 -13.5c-2 2.66699 4.5 17 19.5 43s32.833 53.333 53.5 82c25.333 36 38 55.667 38 59z" />
    <glyph glyph-name="l" unicode="l" horiz-adv-x="103" 
d="M64 631c2.66699 0 4.66602 -0.999023 5.99902 -2.99902s2.33301 -7.16699 3 -15.5s0.833984 -19.333 0.500977 -33s-1.16602 -33.5 -2.49902 -59.5c-2.66699 -54 -4 -150.333 -4 -289c0 -110.667 -2 -168.667 -6 -174c-1.33301 -2 -3.33301 -2.66699 -6 -2
c-6 1.33301 -9.5 11.333 -10.5 30s-0.833008 70 0.5 154c0.666992 120 -1.66602 183.667 -6.99902 191c-6.66699 8 -9.5 28.167 -8.5 60.5s5.16699 58.833 12.5 79.5c7.33301 21.333 9.66602 34.666 6.99902 39.999c-2.66699 6 -2.33398 11 0.999023 15s8 6 14 6z" />
    <glyph glyph-name="m" unicode="m" horiz-adv-x="586" 
d="M86 199c3.33301 31.333 4.33203 47.666 2.99902 48.999s-3.66602 -1.66699 -6.99902 -9c-10.667 -24.667 -16 -46.334 -16 -65.001c0.666992 -1.33301 1 -2.66602 1 -3.99902c7.33301 -27.333 13 -23.666 17 11.001zM69.999 274c4.66699 8.66699 6 15.667 4 21
c-2 6 -3 6 -3 0l-2 -9l-3 -12c-2 -6 -2.83301 -9 -2.5 -9s2.5 3 6.5 9zM316.999 364c0 -24 1.66406 -36.998 4.99707 -38.998c4 -2 15 9 33 33c34.667 47.333 71.334 74 110.001 80c13.333 2 23 1.66699 29 -1s16.333 -11.667 31 -27l31 -33
c3.33301 -212.667 -0.666992 -321 -12 -325c-9.33301 -9.33301 -15 -4 -17 16c-1.33301 16.667 -0.666016 50.667 2.00098 102c4.66699 83.333 6.5 135.833 5.5 157.5s-6.83301 40.5 -17.5 56.5c-14 18.667 -24.667 29 -32 31
c-21.333 5.33301 -45.166 -3.16699 -71.499 -25.5s-48.833 -53.166 -67.5 -92.499c-14 -29.333 -22.667 -63.666 -26 -102.999c-6.66699 -90.667 -12 -137.667 -16 -141c-1.33301 -1.33301 -4.66602 0.666992 -9.99902 6s-8 17.666 -8 36.999s2.66699 60.666 8 123.999
c6.66699 80.667 5.66699 137.667 -3 171s-27 50 -55 50c-31.333 0 -61.333 -20.333 -90 -61c-9.33301 -13.333 -15.5 -26.833 -18.5 -40.5s-6.5 -43.5 -10.5 -89.5c-8.66699 -96.667 -20.334 -154.667 -35.001 -174c-7.33301 -8.66699 -14 -7 -20 5c-4 7.33301 -6 16 -6 26
c0 15.333 -5 31.666 -15 48.999c-22 36.667 -8.33301 103.334 41 200.001c31.333 62 50.333 90 57 84c1.33301 -1.33301 2 -4.33301 2 -9s0.833008 -7.83398 2.5 -9.50098s4.16699 -1.66699 7.5 0s7 4.83398 11 9.50098c32.667 28.667 67.667 37.667 105 27
c14.667 -2.66699 26.667 -12.834 36 -30.501s14 -38.834 14 -63.501z" />
    <glyph glyph-name="n" unicode="n" horiz-adv-x="378" 
d="M163 413c17.333 7.33301 37.999 11.0088 61.999 11.0088s44 -3.66699 60 -11c12.667 -6.66699 26 -19.667 40 -39c12.667 -18.667 20.167 -43 22.5 -73s-0.166992 -78 -7.5 -144c-5.33301 -43.333 -8 -72 -8 -86s2.33301 -22.333 7 -25c8 -4.66699 8 -10 0 -16
c-6 -3.33301 -12.333 -4.33301 -19 -3c-6 1.33301 -9.66699 4.66602 -11 9.99902s-1.66602 16.666 -0.999023 33.999c1.33301 34 5.33301 75 12 123c6.66699 50 7.5 89.5 2.5 118.5s-16.167 51.167 -33.5 66.5c-21.333 18.667 -46.333 26.667 -75 24
s-55.667 -15.334 -81 -38.001c-26.667 -23.333 -44.667 -50.833 -54 -82.5s-15.666 -84.167 -18.999 -157.5c-4 -64.667 -6.33301 -97.334 -7 -98.001c-2.66699 -2.66699 -7.33398 -2.33398 -14.001 0.999023c-4.66699 2 -7.5 9.16699 -8.5 21.5s-0.5 42.166 1.5 89.499
c2 65.333 6 120.333 12 165c5.33301 48.667 6.66602 77.667 3.99902 87c-1.33301 7.33301 2.33398 11.666 11.001 12.999c6 1.33301 9.5 0.666016 10.5 -2.00098s0.833008 -10.334 -0.5 -23.001c-3.33301 -22 -2.33301 -34 3 -36s16 6 32 24c17.333 20 37 35.333 59 46z" />
    <glyph glyph-name="o" unicode="o" horiz-adv-x="449" 
d="M343 293c5.33301 -6.66699 9.33203 -15.4971 11.999 -26.4971s7 -20.833 13 -29.5c10 -16 13.667 -24.333 11 -25s-11 8.33301 -25 27l-1 2c-10 13.333 -17 21.333 -21 24s-7.66699 1.66699 -11 -3c-12 -16.667 -17.667 -14.334 -17 6.99902l1 13
c0.666992 18 0.833984 28.333 0.500977 31s-2.5 7.5 -6.5 14.5s-7 15.833 -9 26.5c-5.33301 20.667 -11 35.667 -17 45s-15.333 16.333 -28 21c-36.667 13.333 -73.334 7.5 -110.001 -17.5s-60 -60.5 -70 -106.5c-14.667 -68 -11.667 -123.667 9 -167
c11.333 -23.333 25 -41.666 41 -54.999s39.333 -26.333 70 -39c40 -16 77.333 -20 112 -12s61.334 26.667 80.001 56c18.667 30 21 62.333 7 97c-2 6 -2.66699 9.16699 -2 9.5s5.66699 -2.5 15 -8.5c11.333 -7.33301 18.166 -15.833 20.499 -25.5s1.5 -24.834 -2.5 -45.501
c-6.66699 -29.333 -25.167 -55 -55.5 -77s-62.833 -33.333 -97.5 -34c-40 0 -88.333 16.333 -145 49c-37.333 21.333 -63 56.5 -77 105.5s-13.333 101.833 2 158.5c14.667 53.333 44.334 93 89.001 119c20.667 11.333 39.5 17.666 56.5 18.999s38.833 -1.66699 65.5 -9
c21.333 -6.66699 37.333 -16.834 48 -30.501s18.667 -35.167 24 -64.5c5.33301 -26 11.333 -42.333 18 -49z" />
    <glyph glyph-name="p" unicode="p" horiz-adv-x="510" 
d="M343 441c8.66699 -4 16.665 -7.33008 23.998 -9.99707s12.5 -4.66699 15.5 -6s7.5 -4 13.5 -8s13.667 -10 23 -18c33.333 -28.667 53 -63.5 59 -104.5s-3 -78.5 -27 -112.5c-15.333 -20.667 -26.666 -33 -33.999 -37c-79.333 -40 -147 -36.333 -203 11
c-14.667 12.667 -23.334 17.667 -26.001 15c-3.33301 -2.66699 2.66699 -45.167 18 -127.5s25 -123.5 29 -123.5s6.66699 4 8 12c0.666992 2.66699 1.33398 2 2.00098 -2c1.33301 -5.33301 1.66602 -13.333 0.999023 -24c0 -5.33301 -0.333008 -10.333 -1 -15
s-1.33398 -8.83398 -2.00098 -12.501s-1.5 -6.33398 -2.5 -8.00098s-1.83301 -2.5 -2.5 -2.5c-18.667 2.66699 -45.667 113 -81 331c-6.66699 41.333 -8.66699 75.5 -6 102.5s9.33398 40.5 20.001 40.5c4.66699 0 6.33398 -22.333 5.00098 -67
c0 -32.667 0.833008 -53 2.5 -61s6.83398 -16 15.501 -24c6.66699 -6.66699 13.667 -11.5 21 -14.5s13.333 -7.16699 18 -12.5c2 -4 14.667 -9.66699 38 -17s36 -12.666 38 -15.999s10.333 -3.66602 25 -0.999023s24.667 6 30 10c4 4 11 6 21 6c7.33301 0 16.833 5 28.5 15
s17.5 18.333 17.5 25c0 5.33301 3.66699 14.666 11 27.999c6.66699 13.333 10.167 32.166 10.5 56.499s-2.83398 44.166 -9.50098 59.499s-18.167 30.666 -34.5 45.999s-34.5 28 -54.5 38c-34.667 14.667 -86.167 21 -154.5 19s-119.5 -8.66699 -153.5 -20h-16
c0.666992 5.33301 8.33398 11.333 23.001 18c34.667 14 94 22 178 24c37.333 0.666992 62.333 0.333984 75 -0.999023s25 -5.33301 37 -12z" />
    <glyph glyph-name="q" unicode="q" horiz-adv-x="419" 
d="M290 146c0 59.333 -1.33398 100.001 -4.00098 122.001c-2 15.333 -4.16699 24.333 -6.5 27s-7.5 3 -15.5 1s-12.167 -2.33301 -12.5 -1s2.16699 6.33301 7.5 15c6.66699 10 13 50.667 19 122l-20.5 20.5c-9.66699 9.66699 -17.5 17 -23.5 22s-13.833 10.167 -23.5 15.5
s-19.834 7.5 -30.501 6.5s-22 -4.83301 -34 -11.5c-17.333 -8.66699 -30.833 -18.667 -40.5 -30s-19.5 -28 -29.5 -50c-11.333 -26.667 -18.666 -55.834 -21.999 -87.501s-1.33301 -56.5 6 -74.5c14.667 -35.333 38.334 -62 71.001 -80s69.667 -25 111 -21z
M388.999 -193.999c0 -2.66699 -1.66699 -4.33789 -5 -5.00488s-7 -0.333984 -11 0.999023s-7 3.33301 -9 6c-6 12 -17.5 56.833 -34.5 134.5s-28.167 137.834 -33.5 180.501l-61 -4c-28 -2 -47.167 -2.16699 -57.5 -0.5s-24.5 6.83398 -42.5 15.501
c-26 12.667 -43.333 22.667 -52 30s-19.334 22 -32.001 44c-11.333 18.667 -17.833 32.834 -19.5 42.501s-1.83398 29.834 -0.500977 60.501c2 42.667 8.33301 75 19 97c24.667 50 54.334 82.333 89.001 97c24.667 11.333 49.334 13.333 74.001 6s45.667 -23.333 63 -48
c7.33301 -11.333 15 -34.666 23 -69.999s10 -55.666 6 -60.999c-2 -8 -0.166992 -30.833 5.5 -68.5s8.16699 -60.167 7.5 -67.5c0.666992 -15.333 2.83398 -24.5 6.50098 -27.5s11.167 -1.5 22.5 4.5c9.33301 5.33301 13.666 6 12.999 2
c-0.666992 -5.33301 -6.66699 -11.666 -18 -18.999c-8.66699 -5.33301 -13.667 -11 -15 -17s-1 -19.333 1 -40c4 -36.667 12.667 -87.334 26 -152.001s25 -111.667 35 -141z" />
    <glyph glyph-name="r" unicode="r" horiz-adv-x="283" 
d="M75 96c-7.33301 0 -12 13 -14 39c-2 25.333 -6 40.333 -12 45c-6 4 -7.33301 14.333 -4 31c2 20.667 0.333008 55 -5 103s-8 80.333 -8 97c-3.33301 43.333 -1.66602 65 5.00098 65s11.5 -7 14.5 -21s5.5 -40.667 7.5 -80
c1.33301 -41.333 3.66602 -63.666 6.99902 -66.999c1.33301 -1.33301 2.33301 -0.666016 3 2.00098l1 7c0 10 11.333 35.667 34 77s40.667 69.666 54 84.999c15.333 18 33.333 34 54 48c27.333 17.333 41 23 41 17c0 -2.66699 -5.33301 -8.33398 -16 -17.001
c-29.333 -24.667 -56.666 -55.167 -81.999 -91.5s-43 -69.833 -53 -100.5l-9 -25c-4 -11.333 -6.33301 -18.5 -7 -21.5s-2 -8.66699 -4 -17s-3 -16 -3 -23s0.166992 -16 0.5 -27s0.833008 -25.167 1.5 -42.5c2 -36 2.66699 -58.833 2 -68.5s-3.33398 -14.5 -8.00098 -14.5z
" />
    <glyph glyph-name="s" unicode="s" horiz-adv-x="400" 
d="M163 46c-6 0 -18.1719 6.66797 -36.5049 20.001s-27.5 22 -27.5 26c0 4.66699 -5 12 -15 22c-22 19.333 -37.833 51.333 -47.5 96s-8.83398 80.334 2.49902 107.001c6.66699 16.667 12 25.667 16 27c4.66699 1.33301 3.66699 -8.33398 -3 -29.001
c-6.66699 -22.667 -7.33398 -50 -2.00098 -82c12 -72 43 -121.333 93 -148c8.66699 -4.66699 14 -6.66699 16 -6s4 5.66699 6 15c10 50.667 11.333 99.334 4 146.001c-10 64.667 -16.5 112.5 -19.5 143.5s-5.83301 78.5 -8.5 142.5l21 22c10 10 18 15.833 24 17.5
s17.333 1.5 34 -0.5c22 -3.33301 39.333 -9 52 -17s28.334 -23.667 47.001 -47c14.667 -18.667 27.5 -42.334 38.5 -71.001s14.833 -47.667 11.5 -57c-2 -5.33301 -8.66699 -9.83301 -20 -13.5s-18.666 -3.83398 -21.999 -0.500977c-3.33301 2 -0.666016 6.66699 8.00098 14
c6 4 9.16699 8.16699 9.5 12.5s-1.5 13.5 -5.5 27.5c-14 47.333 -34.167 82.833 -60.5 106.5s-54.5 31.834 -84.5 24.501c-9.33301 -2.66699 -16.166 -7.33398 -20.499 -14.001s-6.66602 -20.667 -6.99902 -42s1.33398 -48 5.00098 -80s9.83398 -78.667 18.501 -140
c12.667 -88.667 10.667 -152.667 -6 -192c-8.66699 -20 -15.667 -30 -21 -30z" />
    <glyph glyph-name="t" unicode="t" horiz-adv-x="461" 
d="M299 617c5.33301 -2 6.83301 -11.332 4.5 -27.999s-8.5 -39.334 -18.5 -68.001s-21.333 -56 -34 -82c-3.33301 -5.33301 -6.83301 -11.666 -10.5 -18.999l-9 -18.5c-2.33301 -5 -4.16602 -8.5 -5.49902 -10.5c-4.66699 -9.33301 0.666016 -15 15.999 -17
c11.333 -1.33301 32.666 -1 63.999 1c39.333 2.66699 57.333 2.33398 54 -0.999023c-3.33301 -4 -19.166 -9.16699 -47.499 -15.5s-49.833 -9.5 -64.5 -9.5c-16.667 0 -29 -4.66699 -37 -14s-16.333 -29.333 -25 -60c-15.333 -50.667 -22.5 -89.667 -21.5 -117
s10.167 -50.333 27.5 -69c10 -10.667 17.667 -17 23 -19s16 -2 32 0c28 4 57.667 12.833 89 26.5s54.333 27.5 69 41.5c13.333 13.333 21.666 18.833 24.999 16.5s0 -11.5 -10 -27.5c-10.667 -16.667 -37.667 -34.334 -81 -53.001s-79 -28 -107 -28
c-28.667 0 -51 10.5 -67 31.5s-24 50.167 -24 87.5c0 20.667 4 49.167 12 85.5s15.333 60.166 22 71.499c2 3.33301 0.333008 5 -5 5c-10 0 -39.667 -4.66699 -89 -14c-42 -6.66699 -57.333 -3.66699 -46 9c1.33301 2.66699 26.5 9.5 75.5 20.5s74.5 17.833 76.5 20.5
c4 4 11.333 20.667 22 50c24.667 65.333 40 98 46 98c4.66699 0 7 5.33301 7 16c0 6.66699 3.33301 20.667 10 42s12 35.333 16 42c2.66699 4 6.33398 6 11.001 6z" />
    <glyph glyph-name="u" unicode="u" horiz-adv-x="333" 
d="M297 554c5.33301 -1.33301 7.49805 -9.83203 6.49805 -25.499s-5.5 -46.167 -13.5 -91.5c-22 -121.333 -26 -222 -12 -302c7.33301 -42 8.33301 -66 3 -72c-9.33301 -12 -16.333 -5.33301 -21 20c-0.666992 7.33301 -1.66699 15.666 -3 24.999
c-4 35.333 -9.66699 52.666 -17 51.999c-2 0 -3.66699 -2.33301 -5 -7c-2.66699 -8.66699 -11.834 -20.834 -27.501 -36.501s-28.834 -26.167 -39.501 -31.5c-13.333 -7.33301 -30.166 -9.66602 -50.499 -6.99902s-35.166 9.33398 -44.499 20.001
c-16 17.333 -26.667 35.333 -32 54s-9 50 -11 94c-1.33301 39.333 0.333984 87.5 5.00098 144.5s9.33398 86.833 14.001 89.5c4 1.33301 9 0 15 -4c7.33301 -4.66699 10.666 -25.167 9.99902 -61.5s-4.66699 -63.833 -12 -82.5c-12.667 -28.667 -15 -70.167 -7 -124.5
s21.333 -87.5 40 -99.5c6 -4 18.667 -5.66699 38 -5s30.333 3 33 7c0.666992 1.33301 10.667 8.83301 30 22.5s28 23.167 26 28.5c-1.33301 7.33301 2.33398 21 11.001 41c9.33301 20.667 14 53.334 14 98.001c4 119.333 15.667 197.666 35 234.999
c4.66699 12.667 9.66699 19 15 19z" />
    <glyph glyph-name="v" unicode="v" horiz-adv-x="359" 
d="M287 72c0.666992 13.333 -3.66602 36.9951 -12.999 70.9951c-14 42.667 -21.833 87.334 -23.5 134.001s3.16602 83.334 14.499 110.001c10 22 17.333 33 22 33c5.33301 0 7.66602 -2.66699 6.99902 -8c-1.33301 -4 -4.66602 -12.333 -9.99902 -25
c-8 -19.333 -11.333 -50.333 -10 -93s7 -88.667 17 -138c12 -55.333 18 -88.333 18 -99s3.33301 -22 10 -34c6.66699 -13.333 10 -22.166 10 -26.499s-3.66699 -6.5 -11 -6.5c-9.33301 0 -20.666 11.333 -33.999 34c-23.333 36.667 -79 117.334 -167 242.001
c-16.667 22.667 -28.334 34 -35.001 34c-8.66699 0 -13 1 -13 3l-39 131c2 3.33301 4 5.33301 6 6s4.16699 0.333984 6.5 -0.999023s4.83301 -4 7.5 -8s5.66699 -9.33301 9 -16c6 -12.667 15.167 -28.667 27.5 -48s21.5 -35 27.5 -47c6.66699 -12 28.5 -45.5 65.5 -100.5
s57.833 -86.167 62.5 -93.5c8 -12.667 23 -30.667 45 -54z" />
    <glyph glyph-name="w" unicode="w" horiz-adv-x="545" 
d="M506 25c-8 0 -38.3281 29.3359 -90.9951 88.0029s-92.667 108 -120 148c-20 28.667 -31.833 42.667 -35.5 42s-4.16699 -16.334 -1.5 -47.001c2.66699 -31.333 7.66699 -63.666 15 -96.999s14.666 -57 21.999 -71c4 -8 6.66699 -15.167 8 -21.5s1.33301 -11.333 0 -15
s-3.66602 -5.5 -6.99902 -5.5c-6.66699 0.666992 -28.334 30.667 -65.001 90s-64.334 97.666 -83.001 114.999c-7.33301 6 -22.333 30 -45 72s-35.667 65 -39 69c-6.66699 6.66699 -14 15.834 -22 27.501s-12 19.167 -12 22.5c0 14 11 9.66699 33 -13
c20 -21.333 38 -46.666 54 -75.999c31.333 -55.333 67.333 -109.333 108 -162c14 -17.333 21.333 -24.333 22 -21c1.33301 2 -2.66699 32.667 -12 92s-13 90.666 -11 93.999c4 6 9.33301 8.16699 16 6.5s12 -6.5 16 -14.5c8.66699 -13.333 17.834 -26.333 27.501 -39
s22.834 -29 39.501 -49l34 -41l26 -31.5c7.33301 -9 13.666 -16.167 18.999 -21.5s9.66602 -9 12.999 -11s5.66602 -2.33301 6.99902 -1c3.33301 3.33301 -2.33398 23 -17.001 59c-16 40.667 -26.167 69.5 -30.5 86.5s-6.5 35.167 -6.5 54.5c0 16.667 3 35 9 55s13 35 21 45
c6 6.66699 9 8 9 4s-3 -19 -9 -45c-6.66699 -28.667 -8.66699 -53.334 -6 -74.001c4 -24.667 15.667 -62.334 35 -113.001s37.666 -91.667 54.999 -123c26.667 -46.667 36.667 -72.334 30 -77.001c-1.33301 -0.666992 -3.33301 -1 -6 -1z" />
    <glyph glyph-name="x" unicode="x" horiz-adv-x="375" 
d="M278 448c6.66699 0 8 -3.00098 4 -9.00098c-2 -3.33301 -5 -5.66602 -9 -6.99902c-8.66699 -8.66699 -22.834 -30.5 -42.501 -65.5s-32.834 -56.833 -39.501 -65.5l-29 -38l27 -27c35.333 -36 76 -54.667 122 -56c22.667 -0.666992 34 -3.66699 34 -9
s-11 -8.66602 -33 -9.99902c-45.333 -4 -87.666 11.333 -126.999 46l-37 32c-1.33301 -2 -5 -6 -11 -12c-72.667 -79.333 -108.334 -109.333 -107.001 -90c0 8 21 35 63 81c18.667 20.667 28.834 34.167 30.501 40.5s-2.16602 16.166 -11.499 29.499
c-12 16 -26.333 41 -43 75s-25 55 -25 63c0 10.667 2.33301 15.667 7 15c8 -0.666992 15.667 -11.667 23 -33c13.333 -34 36.666 -75.667 69.999 -125c15.333 16 31.833 36.667 49.5 62s29.834 45 36.501 59c12.667 24 28.667 38.667 48 44z" />
    <glyph glyph-name="y" unicode="y" horiz-adv-x="421" 
d="M254 527c4.66699 4.66699 7.33301 5.33496 8 2.00195c0.666992 -5.33301 -1 -9.33301 -5 -12h-2c-4.66699 -0.666992 -1.33398 -27.334 9.99902 -80.001c12.667 -60.667 21.334 -106.334 26.001 -137.001c3.33301 -22 6 -36.833 8 -44.5s5.16699 -15.834 9.5 -24.501
s8.5 -18.667 12.5 -30c1.33301 -4.66699 6 -18 14 -40s14 -39 18 -51c40.667 -114.667 48.334 -187.334 23.001 -218.001c-6.66699 -7.33301 -13.667 -11.666 -21 -12.999s-23.333 -1 -48 1c-43.333 2.66699 -79 9 -107 19s-59 27.667 -93 53c-34 26 -57 50.333 -69 73
c-6 10 -8 15 -6 15c2.66699 0.666992 18.334 -13 47.001 -41c43.333 -42 95.666 -75.333 156.999 -100c12.667 -4.66699 35 -7 67 -7c27.333 0 44.5 3.5 51.5 10.5s11.5 24.5 13.5 52.5c1.33301 14.667 -5.33398 45.334 -20.001 92.001s-29.667 89.667 -45 129l-23 59
c-2 2 -11.667 -0.666992 -29 -8c-42.667 -15.333 -73.667 -23.833 -93 -25.5s-37.666 2.83301 -54.999 13.5c-20 12 -37.167 37.833 -51.5 77.5s-21.5 81.834 -21.5 126.501c0 33.333 3.33301 50 10 50c7.33301 0 12.333 -2.5 15 -7.5s2 -10.167 -2 -15.5
c-3.33301 -4 -3 -23.167 1 -57.5s9 -60.166 15 -77.499c22 -64 51 -96 87 -96c12.667 0 30.5 3.33301 53.5 10s38.167 12.667 45.5 18l15 12c-13.333 93.333 -28.666 177 -45.999 251c-6.66699 25.333 -8.33398 39.666 -5.00098 42.999c6 6 12.5 5.5 19.5 -1.5
s7.83301 -13.833 2.5 -20.5c-4.66699 -4.66699 -5.33398 -7.33398 -2.00098 -8.00098c4 0 9 2.66699 15 8z" />
    <glyph glyph-name="z" unicode="z" horiz-adv-x="546" 
d="M71 299c0 4 10.0039 9.00391 30.0039 15.0039l68 23.5c33.333 11.667 57.333 19.5 72 23.5c15.333 4.66699 25 9.16699 29 13.5s8.66699 14.166 14 29.499c6.66699 21.333 11.667 45.666 15 72.999s3.66602 46.666 0.999023 57.999c-0.666992 6 -3.33398 11 -8.00098 15
s-10.5 7.66699 -17.5 11s-11.833 6 -14.5 8c-2.66699 4 -21 8.16699 -55 12.5s-56.667 5.5 -68 3.5c-21.333 -5.33301 -40 -9.33301 -56 -12l17 -8c16 -8.66699 17.667 -13 5 -13c-8.66699 -0.666992 -21.334 1.66602 -38.001 6.99902
c-24.667 7.33301 -36.334 15.333 -35.001 24c0.666992 6 8.33398 10.667 23.001 14c16 3.33301 52.833 3.5 110.5 0.5s95.167 -7.16699 112.5 -12.5c1.33301 -0.666992 3.33301 -1.33398 6 -2.00098c11.333 -3.33301 17 -5.33301 17 -6l-13 -2
c-8.66699 -0.666992 -13.334 -1.33398 -14.001 -2.00098l7 -4l15 -6c19.333 -6.66699 30.666 -16.334 33.999 -29.001c2 -9.33301 1.16699 -29.5 -2.5 -60.5s-7.83398 -55.167 -12.501 -72.5c-2.66699 -10.667 -2 -16 2 -16c3.33301 0 11.666 3 24.999 9
c21.333 9.33301 49.5 18.333 84.5 27s58.5 12.334 70.5 11.001c15.333 -1.33301 22.333 -4.33301 21 -9s-11.666 -8.66699 -30.999 -12c-18.667 -3.33301 -47.167 -11 -85.5 -23s-65.166 -22 -80.499 -30c-16 -8 -30.333 -28.667 -43 -62
c-10.667 -25.333 -17.834 -53.166 -21.501 -83.499s-2.16699 -48.5 4.5 -54.5c8.66699 -8.66699 56 6.33301 142 45c42 19.333 63 27.333 63 24c0 -1.33301 -3 -5.33301 -9 -12c-7.33301 -8 -27.666 -20 -60.999 -36s-64.333 -28.667 -93 -38
c-24.667 -7.33301 -41.5 -9.16602 -50.5 -5.49902s-15.833 14.834 -20.5 33.501c-6 24.667 3.33301 77.334 28 158.001c2 7.33301 1.33301 11 -2 11c-5.33301 -0.666992 -22.666 -6.33398 -51.999 -17.001c-38.667 -14.667 -61 -20.667 -67 -18
c-2 1.33301 -5.66699 1.33301 -11 0s-11 -3.33301 -17 -6s-11.833 -4.83398 -17.5 -6.50098s-10.5 -2 -14.5 -1s-6 4.16699 -6 9.5z" />
    <glyph glyph-name=".null" horiz-adv-x="0" 
 />
    <glyph glyph-name="nonmarkingreturn" horiz-adv-x="333" 
 />
    </font>
</defs>
</svg>
