<?xml version="1.0" standalone="no"?>
<!DOCTYPE svg PUBLIC "-//W3C//DTD SVG 1.1//EN" "http://www.w3.org/Graphics/SVG/1.1/DTD/svg11.dtd" >
<svg>
<metadata>
Created by FontForge 20090914 at Sat Feb 27 01:00:05 2016
 By www-data
Copyright (c) 2016, root
</metadata>
<defs>
<font id="WishIKnew" horiz-adv-x="566" >
  <font-face 
    font-family="Wish I Knew"
    font-weight="400"
    font-stretch="normal"
    units-per-em="1000"
    panose-1="2 0 5 3 0 0 0 0 0 0"
    ascent="800"
    descent="-200"
    x-height="410.997"
    cap-height="645.501"
    bbox="29.0762 -199.286 849.526 796.391"
    underline-thickness="50"
    underline-position="-100"
    unicode-range="U+0020-U+0094"
  />
<missing-glyph horiz-adv-x="364" 
d="M33 0v666h265v-666h-265zM66 33h199v600h-199v-600z" />
    <glyph glyph-name=".notdef" horiz-adv-x="364" 
d="M33 0v666h265v-666h-265zM66 33h199v600h-199v-600z" />
    <glyph glyph-name="space" unicode=" " horiz-adv-x="391" 
 />
    <glyph glyph-name="exclam" unicode="!" horiz-adv-x="204" 
d="M31 -3c0 10.667 4.66699 23.332 14 37.999s18.333 23.667 27 27c20.667 7.33301 39 5 55 -7s22 -27.333 18 -46c-3.33301 -16 -12 -29.167 -26 -39.5s-28 -14.166 -42 -11.499c-12 2 -22.667 7 -32 15s-14 16 -14 24zM76 513.998
c6.66699 9.33301 18.5 14.166 35.5 14.499s31.833 -4.16699 44.5 -13.5c8.66699 -6 13.667 -13.333 15 -22s2.33301 -34 3 -76c0.666992 -25.333 0.166992 -48.833 -1.5 -70.5s-3.66699 -38.5 -6 -50.5s-5.83301 -28.833 -10.5 -50.5s-8.33398 -40.167 -11.001 -55.5
s-12.5 -27.5 -29.5 -36.5s-33.167 -10.833 -48.5 -5.5c-36.667 11.333 -45.667 50.333 -27 117c10.667 40.667 18.334 96.334 23.001 167.001c2 44 6.33301 71.333 13 82z" />
    <glyph glyph-name="dollar" unicode="$" horiz-adv-x="554" 
d="M287 161c-4.66699 0 -5.33105 -7.33301 -1.99805 -22c6 -31.333 9 -66 9 -104c1.33301 -27.333 3.66602 -41 6.99902 -41c6 0 5 41.333 -3 124c-2.66699 28.667 -6.33398 43 -11.001 43zM264.003 258c6.66699 0 7.66602 7.66602 2.99902 22.999
c-4.66699 17.333 -10.667 45.333 -18 84s-11 61.334 -11 68.001s-1 11.167 -3 13.5s-4.83301 2.5 -8.5 0.5s-7.5 -6 -11.5 -12c-5.33301 -8.66699 -8.16602 -16 -8.49902 -22s2.5 -20 8.5 -42c12 -46.667 21.167 -77.167 27.5 -91.5s13.5 -21.5 21.5 -21.5zM220.002 674.999
c15.333 16.667 33.665 18.667 54.998 6s32.666 -29 33.999 -49c0 -10 3.16699 -16.167 9.5 -18.5s14.5 -0.5 24.5 5.5c8.66699 5.33301 20.5 3.83301 35.5 -4.5s23.833 -18.166 26.5 -29.499c3.33301 -9.33301 -4.16699 -20.166 -22.5 -32.499s-36.166 -20.5 -53.499 -24.5
c3.33301 -40 11.833 -93.5 25.5 -160.5s22.167 -112.5 25.5 -136.5l59 -46c56.667 -44.667 85 -79.667 85 -105c0 -13.333 -6.66699 -33.333 -20 -60c-13.333 -28 -32 -51.333 -56 -70c-17.333 -12.667 -27.5 -21.834 -30.5 -27.501s-4.16699 -17.167 -3.5 -34.5
c2 -41.333 -11 -65.333 -39 -72c-20.667 -5.33301 -36 -4 -46 4s-16.333 24 -19 48c-2.66699 22 -7.66699 33 -15 33c-6.66699 0 -10 -10.667 -10 -32s-4.33301 -38 -13 -50c-6 -9.33301 -11.667 -14.833 -17 -16.5s-17 -2.16699 -35 -1.5l-39 2l-2 39
c-0.666992 18.667 -2.33398 30.167 -5.00098 34.5s-11 9.5 -25 15.5c-20 8 -32.333 12 -37 12c-7.33301 0 -15.333 6.16699 -24 18.5s-12 22.5 -10 30.5c5.33301 20.667 26.333 32.334 63 35.001c19.333 1.33301 31 3.16602 35 5.49902s7.33301 9.5 10 21.5
c4.66699 17.333 4.16699 46.666 -1.5 87.999s-12.167 65 -19.5 71c-8 5.33301 -14.667 8 -20 8c-11.333 0 -28.666 8.83301 -51.999 26.5s-40.333 34.834 -51 51.501c-7.33301 12 -11.166 30.5 -11.499 55.5s3.5 45.167 11.5 60.5c6.66699 14 22.334 35.667 47.001 65
c8 9.33301 10.667 22.333 8 39c-2.66699 17.333 -8.5 41.333 -17.5 72s-15.5 50 -19.5 58c-5.33301 10.667 -5.16602 20.667 0.500977 30s14.5 14 26.5 14c14 0 27.667 -6.83301 41 -20.5s24.666 -31.167 33.999 -52.5c1.33301 -3.33301 2.83301 -7.33301 4.5 -12
s3 -8 4 -10l3.5 -7c1.33301 -2.66699 2.5 -4.33398 3.5 -5.00098s2.33301 -1.33398 4 -2.00098s3.5 -0.5 5.5 0.5s4.33301 2.33301 7 4l10 6.5c8 6 12.5 11.833 13.5 17.5s-0.166992 19.5 -3.5 41.5c-2.66699 20.667 -3.66699 34.334 -3 41.001s3.66699 13 9 19z" />
    <glyph glyph-name="percent" unicode="%" horiz-adv-x="648" 
d="M611 224c-0.666992 -19.333 -9.49902 -42.3301 -26.499 -68.9971s-39 -47.834 -66 -63.501s-52.167 -16.834 -75.5 -3.50098c-17.333 10 -27.5 19.5 -30.5 28.5s-0.5 23.167 7.5 42.5c7.33301 14.667 9.66602 28.667 6.99902 42c-2.66699 12 3 24.167 17 36.5
s33 22.166 57 29.499c32.667 10 59.167 11 79.5 3s30.5 -23.333 30.5 -46zM150.001 335.003c-20 0 -36.9971 7 -50.9971 21c-15.333 15.333 -23.5 29 -24.5 41s5.16699 28 18.5 48c15.333 22.667 34.166 44.667 56.499 66s37.166 32 44.499 32c4.66699 0 9.66699 2 15 6
s10.333 5.33301 15 4c1.33301 0 5 -0.833008 11 -2.5s11 -2.83398 15 -3.50098c12 -2.66699 22 -11.667 30 -27s10.667 -30.666 8 -45.999c-6.66699 -33.333 -31 -69 -73 -107c-15.333 -14 -26.833 -22.833 -34.5 -26.5s-17.834 -5.5 -30.501 -5.5zM569.004 626.003
c12.667 0 23.9971 -4.50195 33.9971 -13.502s15 -18.833 15 -29.5c0 -9.33301 -4.5 -21.833 -13.5 -37.5s-16.167 -23.5 -21.5 -23.5c-4.66699 0 -7 -2.66699 -7 -8c-7.33301 -13.333 -26.333 -37.166 -57 -71.499s-47.667 -53.5 -51 -57.5l-42.5 -46.5l-40 -43.5l-38.5 -44
l-51 -61l-51 -80c-70 -113.333 -117 -170.666 -141 -171.999c-35.333 -3.33301 -58.333 4.66699 -69 24c-5.33301 10.667 -5.66602 21 -0.999023 31s19.667 31 45 63c29.333 38 54.333 72.333 75 103c66.667 99.333 159.334 210 278.001 332
c48.667 50 80.334 85.333 95.001 106c14 19.333 28 29 42 29z" />
    <glyph glyph-name="ampersand" unicode="&#x26;" horiz-adv-x="534" 
d="M297 158c0.666992 4 -12.835 18.834 -40.502 44.501s-43.5 37.5 -47.5 35.5c-7.33301 0 -19.666 -9.33301 -36.999 -28c-12.667 -13.333 -21.5 -27.666 -26.5 -42.999s-7.5 -36.333 -7.5 -63c0 -13.333 1 -21 3 -23s9 -3 21 -3
c28.667 1.33301 56.834 9.66602 84.501 24.999s44.5 33.666 50.5 54.999zM163.998 417.001c3.33301 -4 6.33105 -10.999 8.99805 -20.999s7.33398 -18 14.001 -24l15 -15c42.667 26 67 42.333 73 49c2.66699 5.33301 0.833984 18.5 -5.49902 39.5s-11.833 31.167 -16.5 30.5
c-5.33301 1.33301 -18 -0.333984 -38 -5.00098c-17.333 -4.66699 -31.833 -13.167 -43.5 -25.5s-14.167 -21.833 -7.5 -28.5zM362.996 256.002c4 5.33301 7.16504 10.9971 9.49805 16.9971s5 11 8 15s8.5 9 16.5 15c10 8 17.667 12.333 23 13
s13.666 -0.666016 24.999 -3.99902c17.333 -5.33301 27.333 -12 30 -20c2 -6 -2.5 -27 -13.5 -63s-19.5 -57.667 -25.5 -65c-3.33301 -4 -2.16602 -9.5 3.50098 -16.5s21.167 -22.833 46.5 -47.5c21.333 -20 24.333 -38 9 -54c-14 -15.333 -33.667 -19 -59 -11
c-9.33301 2.66699 -18.333 7.33398 -27 14.001c-19.333 15.333 -32 23.333 -38 24s-15.333 -5.66602 -28 -18.999c-6 -6.66699 -15.667 -13.334 -29 -20.001s-28 -13.167 -44 -19.5s-26.667 -10.833 -32 -13.5c-6.66699 -4.66699 -23.334 -7.66699 -50.001 -9
s-49.334 -0.333008 -68.001 3c-37.333 7.33301 -62.666 21.833 -75.999 43.5s-16.666 53.834 -9.99902 96.501c6 38.667 12.333 65.334 19 80.001s19.334 31.334 38.001 50.001l34 34c-14 16 -29.5 37.833 -46.5 65.5s-25.167 46.834 -24.5 57.501
c0 11.333 7.33301 27.166 22 47.499s30 36.166 46 47.499c60 36 114 46.333 162 31c23.333 -7.33301 41 -16.5 53 -27.5s22 -28.833 30 -53.5c6.66699 -20.667 10.167 -34.834 10.5 -42.501s-2.16699 -17.834 -7.5 -30.501c-12.667 -32 -31.667 -55 -57 -69
c-13.333 -6.66699 -22 -12.667 -26 -18c-5.33301 -8.66699 9.33398 -24.667 44.001 -48c10.667 -7.33301 17.5 -11.166 20.5 -11.499s6.83301 2.5 11.5 8.5z" />
    <glyph glyph-name="quotesingle" unicode="'" horiz-adv-x="168" 
d="M85 376c-25.333 -1.33301 -40.9971 4.16797 -46.9971 16.501s-8 33.5 -6 63.5c4 23.333 4.66699 40.333 2 51c-6 25.333 0.333008 43.833 19 55.5s39.334 10.167 62.001 -4.5c9.33301 -5.33301 15.666 -9.83301 18.999 -13.5s4.66602 -8.83398 3.99902 -15.501
c-0.666992 -5.33301 -2.33398 -29 -5.00098 -71c-2 -35.333 -5.83301 -57.833 -11.5 -67.5s-17.834 -14.5 -36.501 -14.5z" />
    <glyph glyph-name="parenleft" unicode="(" horiz-adv-x="312" 
d="M200 583c3.33301 15.333 17.3311 23 41.998 23c15.333 0 26.333 -6.33301 33 -19c5.33301 -12.667 7.66602 -21.167 6.99902 -25.5s-6.33398 -12.833 -17.001 -25.5c-41.333 -49.333 -77.666 -139.666 -108.999 -270.999c-9.33301 -31.333 -14.333 -78.666 -15 -141.999
c0 -44.667 2.5 -80.167 7.5 -106.5s15.167 -57.833 30.5 -94.5c30.667 -72.667 32.334 -112.334 5.00098 -119.001c-9.33301 -2.66699 -23.666 -3 -42.999 -1s-31.666 4.66699 -36.999 8c-4 2.66699 -13.333 22.5 -28 59.5s-26 69.5 -34 97.5
c-9.33301 37.333 -12.5 92.166 -9.5 164.499s10.167 122.833 21.5 151.5c55.333 140.667 98.333 231.334 129 272.001c11.333 15.333 17 24.666 17 27.999z" />
    <glyph glyph-name="parenright" unicode=")" horiz-adv-x="249" 
d="M118 -193c8 0.666992 9.66699 4.66797 5 12.001c-4 6 -7.33301 7.33301 -10 4c-1.33301 -0.666992 -2 -2.33398 -2 -5.00098c0 -7.33301 2.33301 -11 7 -11zM39 638.001c13.333 16 31.167 18.834 53.5 8.50098s37.833 -28.5 46.5 -54.5c2 -6.66699 9 -27 21 -61
s22.5 -65.5 31.5 -94.5s14.833 -51.5 17.5 -67.5c7.33301 -42.667 10.5 -119.667 9.5 -231s-5.83301 -198 -14.5 -260c-3.33301 -24.667 -16 -44.834 -38 -60.501s-43.333 -20.167 -64 -13.5c-14 4 -21.5 10.5 -22.5 19.5s2.5 33.5 10.5 73.5
c5.33301 26 10.333 69.333 15 130s7 112.667 7 156c-0.666992 64 -4.66699 118 -12 162s-23.333 106.667 -48 188c-13.333 45.333 -20.5 71.833 -21.5 79.5s1.83301 16.167 8.5 25.5z" />
    <glyph glyph-name="plus" unicode="+" horiz-adv-x="413" 
d="M271 394v-50.001h36c34.667 -1.33301 58.167 -10.666 70.5 -27.999s7.83301 -34.333 -13.5 -51c-3.33301 -3.33301 -7.5 -6 -12.5 -8s-11.333 -3.33301 -19 -4s-14.5 -0.833984 -20.5 -0.500977s-13.667 0.833008 -23 1.5s-16.333 1 -21 1l-4 -47
c-1.33301 -25.333 -4 -41.333 -8 -48s-14.667 -12.667 -32 -18c-26.667 -8.66699 -47.667 -3.66699 -63 15c-4 5.33301 -6 16.666 -6 33.999s2 32.666 6 45.999c2 6.66699 -7.33301 13 -28 19c-52 16 -84.667 31.667 -98 47c-6 6.66699 -6 17 0 31
c9.33301 24.667 38 30.334 86 17.001c26 -7.33301 40.333 -9.66602 43 -6.99902c4 2.66699 6.66699 19.667 8 51c1.33301 24.667 4.33301 42 9 52s9.66699 16.167 15 18.5s17.333 4.83301 36 7.5c4 0 11.667 -5 23 -15c7.33301 -6.66699 11.833 -13.667 13.5 -21
s2.5 -21.666 2.5 -42.999z" />
    <glyph glyph-name="comma" unicode="," horiz-adv-x="182" 
d="M35 98c10 14.667 23.999 20.834 41.999 18.501s33.667 -10.5 47 -24.5c11.333 -12.667 19.5 -32 24.5 -58s4.5 -46.333 -1.5 -61c-9.33301 -21.333 -23.666 -36 -42.999 -44s-37 -6 -53 6c-6 5.33301 -9.33301 10.166 -10 14.499s1 13.5 5 27.5
c6 21.333 8.66699 37.333 8 48s-5 22.667 -13 36c-6 10 -9.5 17.167 -10.5 21.5s0.5 9.5 4.5 15.5z" />
    <glyph glyph-name="hyphen" unicode="-" horiz-adv-x="283" 
d="M59 244c9.33301 2 21.166 3.00098 35.499 3.00098s22.833 -1 25.5 -3c1.33301 -2.66699 13.333 -2.66699 36 0c35.333 4 63.333 -3.66699 84 -23c18 -18 18 -34.667 0 -50c-6 -5.33301 -14.333 -8.83301 -25 -10.5s-31.667 -2.16699 -63 -1.5
c-38.667 0.666992 -66.167 3.16699 -82.5 7.5s-28.166 12.166 -35.499 23.499c-6 9.33301 -6.16699 19.833 -0.5 31.5s14.167 19.167 25.5 22.5z" />
    <glyph glyph-name="period" unicode="." horiz-adv-x="173" 
d="M74 106c0 2 0.333008 3.49805 1 4.49805s2.16699 1.33301 4.5 1s5.33301 -1.16602 9 -2.49902l16.5 -6c10 -4 18.833 -10.333 26.5 -19s11.5 -16.667 11.5 -24c0 -2 -7 -10 -21 -24s-27.333 -19.667 -40 -17c-30.667 8.66699 -47.667 22.334 -51 41.001
c-2.66699 11.333 -0.5 21.833 6.5 31.5s14.833 13.5 23.5 11.5s13 -1 13 3z" />
    <glyph glyph-name="slash" unicode="/" horiz-adv-x="339" 
d="M249 536c40 0 60.001 -15.3311 60.001 -45.998c-0.666992 -15.333 -4.83398 -33 -12.501 -53s-12.5 -35.667 -14.5 -47c-4.66699 -22.667 -9.33398 -41.334 -14.001 -56.001s-8.66699 -25.334 -12 -32.001s-8.83301 -16.834 -16.5 -30.501s-14.834 -27.167 -21.501 -40.5
c-46.667 -96 -75.167 -152.5 -85.5 -169.5s-23.166 -29.5 -38.499 -37.5c-11.333 -6 -23.333 -6.66699 -36 -2c-29.333 10.667 -36.333 28.334 -21 53.001c7.33301 12.667 16.833 32.834 28.5 60.501s19.834 46.5 24.501 56.5c30.667 60.667 55.667 119.667 75 177
c5.33301 16 9.66602 23.667 12.999 23c0.666992 0 1.33398 -0.666992 2.00098 -2c0 -0.666992 0.333008 -1.66699 1 -3c0 1.33301 -0.333008 3.66602 -1 6.99902c-2 8 0.833008 28 8.5 60s15.167 54.667 22.5 68c5.33301 9.33301 18 14 38 14z" />
    <glyph glyph-name="zero" unicode="0" horiz-adv-x="475" 
d="M186 426c0 -6 -3.66699 -16.334 -11 -31.001c-20 -38.667 -30.333 -89.5 -31 -152.5s8.66602 -106.5 27.999 -130.5c8.66699 -10.667 21.5 -15.667 38.5 -15s31.5 6.66699 43.5 18c6.66699 6.66699 12.834 13.667 18.501 21s10.834 16.166 15.501 26.499l11.5 25.5
c3 6.66699 6.16699 17.167 9.5 31.5l7 30.5c1.33301 6 3.66602 17.833 6.99902 35.5s5.33301 28.834 6 33.501c4.66699 23.333 7 39.5 7 48.5s-2.33301 22.167 -7 39.5c-8 24 -17 41 -27 51c-22 20.667 -43.333 25.334 -64 14.001
c-12.667 -7.33301 -24.5 -15.833 -35.5 -25.5s-16.5 -16.5 -16.5 -20.5zM161 539.999c0.666992 4.66699 16.498 10.332 47.498 16.999s58.167 10.667 81.5 12c3.33301 1.33301 15.333 -5.33398 36 -20.001s38.334 -29 53.001 -43c23.333 -22 41.166 -48.667 53.499 -80
s15.5 -57.666 9.5 -78.999c-2 -5.33301 -5.66699 -23.5 -11 -54.5s-9.66602 -49.167 -12.999 -54.5c-3.33301 -2 -5.66602 -12.667 -6.99902 -32c-0.666992 -12.667 -4.66699 -30.5 -12 -53.5s-13.333 -36.5 -18 -40.5c-2.66699 -2.66699 -8.66699 -12.667 -18 -30
c-13.333 -25.333 -36.333 -44.5 -69 -57.5s-68.667 -17.5 -108 -13.5c-32 2.66699 -56.667 9.66699 -74 21s-34.666 31.666 -51.999 60.999l-30 51c0 112.667 5.66699 184.334 17 215.001c13.333 36 28.166 69.333 44.499 100s30.5 50 42.5 58
c14 10.667 23 18.334 27 23.001z" />
    <glyph glyph-name="one" unicode="1" horiz-adv-x="251" 
d="M152 537c12.667 14 28 17 46 9s25.333 -21.333 22 -40c-2 -7.33301 -5.16699 -46 -9.5 -116s-7.16602 -109.667 -8.49902 -119c-0.666992 -2 -2.5 -14.833 -5.5 -38.5s-6.16699 -45.5 -9.5 -65.5s-6 -32.333 -8 -37c-4 -10.667 -6 -17.334 -6 -20.001
c-0.666992 -6 -6 -11.5 -16 -16.5s-20.667 -7.83301 -32 -8.5c-14.667 0 -25.834 5.16699 -33.501 15.5s-9.16699 22.833 -4.5 37.5c10 32 21 103 33 213c4 39.333 -0.666992 49 -14 29c-0.666992 -1.33301 -1.33398 -2.33301 -2.00098 -3
c-6 -9.33301 -16.333 -15.333 -31 -18s-26 -0.333984 -34 6.99902c-9.33301 8.66699 -10.666 18.834 -3.99902 30.501s32 42.834 76 93.501l15.5 18l16 18.5c4.33301 5 7.5 8.5 9.5 10.5z" />
    <glyph glyph-name="two" unicode="2" horiz-adv-x="515" 
d="M183 115c-3.33301 1.33301 -5.83301 0 -7.5 -4s-4.83398 -5.66699 -9.50098 -5c-6 0 -12 -3.66699 -18 -11s-5.66699 -11 1 -11c6.66699 1.33301 15.334 6 26.001 14c11.333 8 14 13.667 8 17zM440 64c0 -4 6.66797 -14 20.001 -30c27.333 -31.333 33 -54.333 17 -69
c-7.33301 -6.66699 -16.5 -11.334 -27.5 -14.001s-17.833 -2 -20.5 2c-3.33301 4.66699 -8 5.33398 -14 2.00098c-6 -2.66699 -14.167 1.66602 -24.5 12.999s-24.833 32.333 -43.5 63c-15.333 24.667 -27.166 40.167 -35.499 46.5s-15.5 5.83301 -21.5 -1.5
c-7.33301 -10 -20.5 -21.5 -39.5 -34.5s-34.5 -21.167 -46.5 -24.5c-52 -15.333 -90 -17 -114 -5c-11.333 6.66699 -20.666 10 -27.999 10c-5.33301 0 -12 6.83301 -20 20.5s-12 25.167 -12 34.5c0 31.333 16.667 56.833 50 76.5s80.333 31.834 141 36.501
c12.667 1.33301 22.167 7.83301 28.5 19.5s13.166 36.167 20.499 73.5c10 53.333 12.833 91.833 8.5 115.5s-17.166 39.834 -38.499 48.501c-9.33301 3.33301 -24.833 4 -46.5 2s-37.167 -5.66699 -46.5 -11c-13.333 -6.66699 -29.833 -8.33398 -49.5 -5.00098
s-32.5 10 -38.5 20c-4.66699 8 -2.66699 17.667 6 29c10 12.667 43.333 24.667 100 36c11.333 2.66699 30.666 2.16699 57.999 -1.5s49.666 -8.5 66.999 -14.5c48 -16.667 77 -42 87 -76c16 -56.667 8 -137.334 -24 -242.001c-2.66699 -9.33301 0.333008 -16.666 9 -21.999
c7.33301 -4 22.166 -20 44.499 -48s33.5 -44.667 33.5 -50z" />
    <glyph glyph-name="three" unicode="3" horiz-adv-x="485" 
d="M393 231c7.33301 0 18.166 -11.8359 32.499 -35.5029s21.833 -42.167 22.5 -55.5c2 -76.667 -29 -123 -93 -139c-19.333 -4.66699 -49.333 -7.33398 -90 -8.00098s-75.667 1 -105 5c-21.333 3.33301 -38.333 10 -51 20s-17 20.333 -13 31c4 14 15 23 33 27s48 4 90 0
c32 -3.33301 54 -4.66602 66 -3.99902s23 3.33398 33 8.00098c6.66699 3.33301 11.667 6.83301 15 10.5s5.5 6.66699 6.5 9s2.16699 6.83301 3.5 13.5l3 15c2 6.66699 -4 18.334 -18 35.001c-13.333 16 -36.666 29.333 -69.999 40c-27.333 8 -45.333 17 -54 27
s-9.33398 22.667 -2.00098 38c2.66699 6.66699 6.83398 11.334 12.501 14.001s16.834 4.66699 33.501 6c24.667 2 43.5 7.83301 56.5 17.5s25.167 27.167 36.5 52.5l18 40c-1.33301 3.33301 -5 10.666 -11 21.999l-14.5 27c-3.66699 6.66699 -8.16699 13.834 -13.5 21.501
s-10.333 12.834 -15 15.501c-25.333 16 -68.333 16 -129 0c-71.333 -17.333 -114.666 -18.333 -129.999 -3c-8.66699 8 -13.834 17.667 -15.501 29s0.833008 19 7.5 23c8 4.66699 35.333 11.667 82 21c79.333 16.667 141.666 19.667 186.999 9s82 -36.667 110 -78
c30.667 -46.667 43 -83.334 37 -110.001c-4 -16.667 -11.333 -36.167 -22 -58.5s-21 -39.833 -31 -52.5c-18 -22 -20.667 -33 -8 -33z" />
    <glyph glyph-name="four" unicode="4" horiz-adv-x="458" 
d="M174 482c0.666992 -20 -10.0029 -74 -32.0029 -162l-11 -46l1 1c0 -5.33301 29 -7.66602 87 -6.99902c58 1.33301 87.667 3 89 5c8.66699 56.667 15.334 119.667 20.001 189c2.66699 46 21 69 55 69c18.667 0 31 -6.5 37 -19.5s8.33301 -37.167 7 -72.5
c-8 -120 -16 -195.333 -24 -226c-4 -16.667 -6 -42.5 -6 -77.5s2 -65.833 6 -92.5c3.33301 -26 2 -41.333 -4 -46c-4.66699 -3.33301 -6.5 -6.16602 -5.5 -8.49902s1.16699 -4.33301 0.5 -6s-3.66699 -2.83398 -9 -3.50098c-10.667 -1.33301 -19.667 -2 -27 -2
s-13.166 0.166992 -17.499 0.5s-8.33301 1.66602 -12 3.99902s-6.33398 4.16602 -8.00098 5.49902s-4.16699 4 -7.5 8s-6 7 -8 9c-0.666992 4 -4 66.667 -10 188h-92c-92 0.666992 -147.333 11.334 -166 32.001c-5.33301 6 -7.66602 12.333 -6.99902 19
s4.33398 22.667 11.001 48c23.333 82.667 35.666 145 36.999 187c1.33301 34.667 6.66602 55.667 15.999 63c8.66699 6.66699 19.334 9.5 32.001 8.5s23.334 -5.5 32.001 -13.5c10.667 -10.667 16 -28.667 16 -54z" />
    <glyph glyph-name="five" unicode="5" horiz-adv-x="412" 
d="M329 490c-10 0 -34.835 -3.99121 -74.502 -11.9912s-65.167 -11.667 -76.5 -11c-10 1.33301 -17.833 -0.833984 -23.5 -6.50098s-9.16699 -12.334 -10.5 -20.001s-2.66602 -18 -3.99902 -31s-2.66602 -22.5 -3.99902 -28.5l-4 -27l52 5
c34.667 3.33301 66.834 0.5 96.501 -8.5s52.5 -23.167 68.5 -42.5c10.667 -12.667 16.834 -22.834 18.501 -30.501s1.5 -27.834 -0.5 -60.501c-2.66699 -46 -7.33398 -76.333 -14.001 -91c-4.66699 -11.333 -14.334 -24.5 -29.001 -39.5s-25 -22.5 -31 -22.5
c-4.66699 0 -7.66699 -2 -9 -6c-2 -4.66699 -14.167 -12.834 -36.5 -24.501s-39.833 -18.834 -52.5 -21.501c-33.333 -6 -69.666 1.66699 -108.999 23s-58 43.333 -56 66c0.666992 14 7.66699 23.333 21 28c10 3.33301 20.5 3.16602 31.5 -0.500977
s30.5 -13.834 58.5 -30.501c15.333 -9.33301 29.166 -12.833 41.499 -10.5s27.166 11.166 44.499 26.499c45.333 40 60 85 44 135c-5.33301 16.667 -16.5 27 -33.5 31s-44.167 2.33301 -81.5 -5c-30.667 -6 -53.5 -8.16699 -68.5 -6.5s-27.833 7.83398 -38.5 18.501
c-6.66699 6.66699 -10.5 15.667 -11.5 27s-0.833008 41 0.5 89c2.66699 68.667 6.66699 108.667 12 120c4 8.66699 10 14 18 16s31.333 4 70 6c56.667 3.33301 96.667 9.33301 120 18c55.333 19.333 92.333 19.666 111 0.999023c14.667 -14.667 17.334 -30.5 8.00098 -47.5
s-25.333 -25.833 -48 -26.5z" />
    <glyph glyph-name="six" unicode="6" horiz-adv-x="495" 
d="M197 115c7.33301 -6 13.0039 -10.501 17.0039 -13.501s8 -6.16699 12 -9.5s7.66699 -4.83301 11 -4.5s6.16602 0 8.49902 -1s5.66602 0.166992 9.99902 3.5s7.5 5.5 9.5 6.5s6.66699 4.66699 14 11l17 14.5c17.333 15.333 29.5 28 36.5 38s12.833 23 17.5 39
c15.333 48.667 12.666 76.334 -8.00098 83.001c-33.333 10 -68.333 7.66699 -105 -7c-7.33301 -2.66699 -15.166 -5.66699 -23.499 -9s-16 -6.16602 -23 -8.49902s-11.167 -3.83301 -12.5 -4.5c-20.667 -7.33301 -32.334 -14 -35.001 -20s-0.333984 -20.667 6.99902 -44
c8 -28.667 23.667 -53.334 47 -74.001zM241.004 0.999023c-24.667 0 -56.6699 12.002 -96.0029 36.002s-65.666 48.333 -78.999 73c-12 22.667 -21.5 51.167 -28.5 85.5s-7.83301 66.5 -2.5 96.5c16.667 92.667 38 157.167 64 193.5s69.667 61.166 131 74.499
c76.667 16 142 0 196 -48c11.333 -10.667 17.333 -19 18 -25s-4 -14.333 -14 -25c-9.33301 -10 -21.666 -15.333 -36.999 -16s-27.333 3.66602 -36 12.999c-6 6 -15.333 13 -28 21c-18.667 9.33301 -43.5 9.66602 -74.5 0.999023s-53.833 -23 -68.5 -43
c-8.66699 -12 -17 -30.833 -25 -56.5s-10 -40.5 -6 -44.5c5.33301 -3.33301 24 0.666992 56 12c74.667 24.667 138.667 23 192 -5c40.667 -21.333 61.334 -50.666 62.001 -87.999c0.666992 -18 -2.83301 -40.167 -10.5 -66.5s-15.167 -42.833 -22.5 -49.5
c-8 -6.66699 -11.333 -12.667 -10 -18c2 -6 -12.5 -22.5 -43.5 -49.5s-56.5 -45.167 -76.5 -54.5c-24 -11.333 -44.333 -17 -61 -17z" />
    <glyph glyph-name="seven" unicode="7" horiz-adv-x="486" 
d="M414 622c16.667 -6 25.8281 -14.6719 27.4951 -26.0049s-1.16602 -23.333 -8.49902 -36c-25.333 -44 -45.333 -91.667 -60 -143c-14.667 -49.333 -23 -76.666 -25 -81.999c-2 -6.66699 -1.33301 -10.667 2 -12s14.333 -2 33 -2c42 0 66 -10 72 -30
c5.33301 -16 -4.66699 -30.333 -30 -43c-14 -7.33301 -31.333 -12.333 -52 -15c-24 -2 -39.333 -5.66699 -46 -11c-4 -3.33301 -8.33301 -19.5 -13 -48.5s-7 -57.5 -7 -85.5c0 -5.33301 -0.166992 -10.166 -0.5 -14.499s-1.33301 -8 -3 -11s-3 -5.66699 -4 -8
s-3.16699 -4.5 -6.5 -6.5s-5.5 -3.33301 -6.5 -4s-4 -1.66699 -9 -3s-8 -2 -9 -2s-4.66699 -0.5 -11 -1.5s-10.166 -1.5 -11.499 -1.5c-10.667 0 -18.167 1.33301 -22.5 4s-9.16602 8.66699 -14.499 18c-5.33301 10.667 -7.83301 30.167 -7.5 58.5s3.83301 57.5 10.5 87.5
c3.33301 14.667 3.83301 24.834 1.5 30.501s-9.5 10.167 -21.5 13.5c-23.333 6.66699 -35 17.334 -35 32.001c0 11.333 5.5 21 16.5 29s24.167 12 39.5 12c13.333 0 21.666 1.33301 24.999 4s6.66602 11.334 9.99902 26.001c1.33301 6.66699 9.33301 34.667 24 84
c12.667 40.667 17.334 62.667 14.001 66c-3.33301 2 -11.666 0.666992 -24.999 -4c-74 -26 -139.333 -25.333 -196 2c-32.667 15.333 -42.334 33.333 -29.001 54c16 24 38 30 66 18c40.667 -18 113.334 -4.33301 218.001 41c4 2 10.333 5 19 9s14.334 6.33301 17.001 7
s7.33398 1.5 14.001 2.5s13.167 0.666992 19.5 -1s14.5 -4.16699 24.5 -7.5z" />
    <glyph glyph-name="eight" unicode="8" horiz-adv-x="436" 
d="M317 240c-6 8.66699 -33.1689 14.499 -81.502 17.499s-75.5 0.833008 -81.5 -6.5c-14 -17.333 -22.5 -42.5 -25.5 -75.5s1.5 -54.167 13.5 -63.5c6.66699 -5.33301 22.334 -6.83301 47.001 -4.5s43.334 7.16602 56.001 14.499c18.667 9.33301 29 14.333 31 15
c14 8.66699 26.833 23.834 38.5 45.501s12.5 40.834 2.5 57.501zM206.998 487.999c0 -4.66699 -3.33398 -6.99805 -10.001 -6.99805c-7.33301 0 -17.833 -6.83301 -31.5 -20.5s-22.834 -26.5 -27.501 -38.5c-4 -3.33301 -5 -9.5 -3 -18.5s4.16699 -16.333 6.5 -22
s5.83301 -13 10.5 -22s7.66699 -15.167 9 -18.5c2 0 6.83301 0.333008 14.5 1s12.334 1.16699 14.001 1.5s5.66699 1 12 2s10.5 1.83301 12.5 2.5s5.33301 1.66699 10 3s8.16699 3 10.5 5s5 4.16699 8 6.5s5.83301 5.16602 8.5 8.49902c29.333 34.667 48 64.5 56 89.5
s3.33301 40.833 -14 47.5c-11.333 4.66699 -21 7 -29 7c-9.33301 -0.666992 -21.166 -4.33398 -35.499 -11.001s-21.5 -12 -21.5 -16zM196.997 590.001c15.333 5.33301 30.0029 7.83301 44.0029 7.5s22 -3.16602 24 -8.49902c2 -6 11 -11 27 -15
c17.333 -4 36.5 -12.5 57.5 -25.5s34.833 -24.833 41.5 -35.5c10 -18 11.167 -39.333 3.5 -64s-27.167 -61 -58.5 -109c-4.66699 -7.33301 -7.33398 -12 -8.00098 -14s-0.333984 -3.83301 0.999023 -5.5s5 -3.5 11 -5.5c9.33301 -4 21.666 -14 36.999 -30
s24.666 -29.333 27.999 -40c2.66699 -81.333 -35.666 -143.333 -114.999 -186c-103.333 -50 -181.333 -45.333 -234 14c-18.667 22 -27.5 51.167 -26.5 87.5s12.167 74.166 33.5 113.499l18 34l-21 41c-10 20 -15.667 33.333 -17 40s0 18.334 4 35.001
c7.33301 31.333 26.5 64.166 57.5 98.499s61.833 56.833 92.5 67.5z" />
    <glyph glyph-name="nine" unicode="9" horiz-adv-x="487" 
d="M304 472c0.666992 4 4.50293 18.334 11.5029 43.001s10.167 42.667 9.5 54c0 38.667 10 61 30 67c13.333 3.33301 26.666 3.16602 39.999 -0.500977s22.333 -9.83398 27 -18.501c4.66699 -5.33301 8.16699 -40.833 10.5 -106.5s4.5 -101.167 6.5 -106.5
c3.33301 -25.333 6.33301 -70.833 9 -136.5s4.66699 -107.167 6 -124.5c2.66699 -48.667 3.5 -77.667 2.5 -87s-5.5 -16.666 -13.5 -21.999c-11.333 -8.66699 -27.833 -12.834 -49.5 -12.501s-34.834 4.83301 -39.501 13.5c-2 0 -4.33301 25.833 -7 77.5l-8 154.5
c-2.66699 51.333 -5.33398 76.333 -8.00098 75c-4 0 -13.667 -7 -29 -21c-24.667 -23.333 -54.5 -38 -89.5 -44s-68.167 -2.83301 -99.5 9.5s-54 31.833 -68 58.5c-10 18.667 -15 45.167 -15 79.5s5.33301 62.833 16 85.5c6.66699 15.333 25.334 40 56.001 74
s52 53.667 64 59c2 0.666992 14.667 8 38 22c15.333 9.33301 33.666 14.833 54.999 16.5s36.666 -1.16602 45.999 -8.49902c8 -6 13.333 -14 16 -24s1.33398 -17 -3.99902 -21c-8.66699 -5.33301 -22.667 -10.666 -42 -15.999c-22 -5.33301 -49.333 -25 -82 -59
c-46 -48.667 -69 -87.667 -69 -117c0 -14 4.16699 -31 12.5 -51s15.833 -31 22.5 -33c18 -6 40 -0.333008 66 17s44.333 38.666 55 63.999c8.66699 18 15 27 19 27c3.33301 0 5 4 5 12z" />
    <glyph glyph-name="colon" unicode=":" horiz-adv-x="203" 
d="M168 67c0 -14 -4.83496 -28.332 -14.502 -42.999s-20.167 -23.667 -31.5 -27c-10 -2.66699 -24.167 -1.66699 -42.5 3s-29.5 10 -33.5 16c-3.33301 6 -5.66602 20.833 -6.99902 44.5s-0.666016 37.834 2.00098 42.501c4 5.33301 15 11.666 33 18.999
c16.667 6.66699 27 10.167 31 10.5s13.667 -1.83398 29 -6.50098c13.333 -4 22.333 -10 27 -18s7 -21.667 7 -41zM80.998 434.001c8.66699 2 21.1641 1.83105 37.4971 -0.501953s28.5 -5.5 36.5 -9.5c16 -8.66699 21.333 -26.667 16 -54s-17.666 -46.333 -36.999 -57
c-10.667 -5.33301 -18.667 -8.16602 -24 -8.49902s-15 1.83398 -29 6.50098c-21.333 7.33301 -35.666 15.833 -42.999 25.5s-9.66602 23.5 -6.99902 41.5c4 31.333 20.667 50 50 56z" />
    <glyph glyph-name="semicolon" unicode=";" horiz-adv-x="199" 
d="M66 115c16 2.66699 27.5029 3.16602 34.5029 1.49902s15.833 -6.83398 26.5 -15.501c19.333 -15.333 32.166 -43.666 38.499 -84.999s4.16602 -79.666 -6.50098 -114.999c-3.33301 -12 -7 -19.833 -11 -23.5s-11.667 -7.16699 -23 -10.5
c-45.333 -8.66699 -66 1.33301 -62 30c6 52.667 8.83301 86 8.5 100s-3.5 24.333 -9.5 31c-8.66699 8.66699 -14.834 20.834 -18.501 36.501s-3.5 27.167 0.5 34.5c6.66699 9.33301 14 14.666 22 15.999zM169.003 396.999c0 -21.333 -10.3311 -43.667 -30.998 -67
c-8.66699 -10.667 -21.834 -16.5 -39.501 -17.5s-33.5 2.66699 -47.5 11s-21 18.833 -21 31.5c0 20.667 13.167 42 39.5 64s52.166 25 77.499 9c14.667 -6.66699 22 -17 22 -31z" />
    <glyph glyph-name="equal" unicode="=" horiz-adv-x="503" 
d="M433 245c0 -8.66699 -6.16797 -18.835 -18.501 -30.502s-24.166 -18.5 -35.499 -20.5c-15.333 -3.33301 -31 -7 -47 -11c-24 -6 -65.167 -9.66699 -123.5 -11s-93.833 0.666992 -106.5 6c-12 4.66699 -19.167 10.334 -21.5 17.001s-0.833008 17 4.5 31
c8 21.333 54 32 138 32c22 -1.33301 51 2.33398 87 11.001s60.667 13 74 13c13.333 -3.33301 24.833 -8.5 34.5 -15.5s14.5 -14.167 14.5 -21.5zM365.999 446.999c26.667 6.66699 51.833 5.83301 75.5 -2.5s34.167 -20.166 31.5 -35.499
c-3.33301 -17.333 -20.333 -30.333 -51 -39s-83.667 -14.334 -159 -17.001c-49.333 -2.66699 -90 -7.66699 -122 -15c-25.333 -6 -47.833 -7.5 -67.5 -4.5s-32.667 9.5 -39 19.5s-5.83301 23 1.5 39c6 12 32 22.833 78 32.5s95.333 14.834 148 15.501
c55.333 1.33301 90 3.66602 104 6.99902z" />
    <glyph glyph-name="greater" unicode="&#x3e;" horiz-adv-x="456" 
d="M261 193c-16 -8 -30.499 -13.499 -43.499 -16.499s-25.167 -7.16699 -36.5 -12.5c-17.333 -8.66699 -36.833 -9.33398 -58.5 -2.00098s-32.5 18.666 -32.5 33.999c0 22 21 39.333 63 52c26.667 8.66699 54.167 22.5 82.5 41.5s42.5 33.167 42.5 42.5
c0 4.66699 -15.667 10.667 -47 18c-82.667 20 -138.167 37.167 -166.5 51.5s-39.166 30.833 -32.499 49.5c2.66699 8.66699 6.33398 14.334 11.001 17.001s13.667 4.66699 27 6c10.667 2 20.667 2 30 0s19.166 -5.16699 29.499 -9.5s17.5 -7.16602 21.5 -8.49902
c57.333 -12.667 131.333 -32.334 222 -59.001c18.667 -4.66699 32.667 -11.667 42 -21s12.666 -19.666 9.99902 -30.999c-2.66699 -13.333 -24.834 -39.333 -66.501 -78s-74.167 -63.334 -97.5 -74.001z" />
    <glyph glyph-name="question" unicode="?" horiz-adv-x="407" 
d="M288 33c-3.33301 -4.66699 -6.49707 -13.668 -9.49707 -27.001s-7.5 -23 -13.5 -29c-8 -14.667 -24.833 -20.167 -50.5 -16.5s-42.834 11.167 -51.501 22.5c-9.33301 9.33301 -14.333 15.833 -15 19.5s2 10.834 8 21.501c3.33301 5.33301 7.16602 17.666 11.499 36.999
s11.833 31.333 22.5 36c14 6.66699 29 9.33398 45 8.00098s28.333 -6.33301 37 -15c8.66699 -9.33301 14.667 -20.333 18 -33s2.66602 -20.667 -2.00098 -24zM329.003 561.999c0 -2 6.49902 -9.66406 19.499 -22.9971s19.167 -21.333 18.5 -24c0 -4 1.66699 -7.66699 5 -11
c4 -4 5.5 -18.833 4.5 -44.5s-4.16699 -46.167 -9.5 -61.5c-2.66699 -9.33301 -9.16699 -22.5 -19.5 -39.5s-16.5 -29.5 -18.5 -37.5c0 -7.33301 -10.833 -18.5 -32.5 -33.5s-37.834 -22.5 -48.501 -22.5c-6.66699 0 -10 -13 -10 -39c0 -27.333 -1.66699 -45.833 -5 -55.5
s-10.666 -16.834 -21.999 -21.501s-27 -2.33398 -47 6.99902c-13.333 6 -21.666 11.333 -24.999 16s-6 14.334 -8 29.001c-6 46.667 -5 79.667 3 99s26 33 54 41c18.667 4.66699 33.5 12.667 44.5 24s20.167 27 27.5 47c12.667 35.333 11.334 64.333 -3.99902 87
c-4.66699 8 -9.83398 12.667 -15.501 14s-18.5 1 -38.5 -1c-27.333 -2.66699 -51.666 -12.334 -72.999 -29.001c-20.667 -16 -37.334 -23 -50.001 -21c-13.333 1.33301 -24.833 5.66602 -34.5 12.999s-14.5 15.333 -14.5 24c0 11.333 10.167 26.333 30.5 45
s39.833 31 58.5 37c28.667 8.66699 67 11.5 115 8.5s79.667 -12.167 95 -27.5z" />
    <glyph glyph-name="at" unicode="@" horiz-adv-x="803" 
d="M404 349c-15.333 0 -32.665 -10 -51.998 -30c-20.667 -21.333 -31.334 -35 -32.001 -41c-1.33301 -3.33301 -3.5 -7.16602 -6.5 -11.499s-5.33301 -8.83301 -7 -13.5s-2.83398 -11.334 -3.50098 -20.001c-2 -17.333 1.66699 -36.666 11 -57.999
s19.666 -33.666 30.999 -36.999c8.66699 -2.66699 20.5 1.5 35.5 12.5s27.833 24.833 38.5 41.5c6.66699 11.333 10.334 20.666 11.001 27.999s-0.333008 22.666 -3 45.999c-3.33301 31.333 -7 49 -11 53c-2 2 -0.666992 7.33301 4 16c3.33301 6 4 9.83301 2 11.5
s-8 2.5 -18 2.5zM468.001 375c0 -9.33301 8.66406 -16.9971 25.9971 -22.9971s31.666 -20 42.999 -42s13.333 -44 6 -66c-3.33301 -16 -4.5 -27.667 -3.5 -35s5.83301 -19.666 14.5 -36.999c8.66699 -18.667 17 -30.334 25 -35.001s16.333 -3 25 5s18.667 23.333 30 46
c28.667 58.667 43 125.334 43 200.001c1.33301 36.667 -2.5 66.834 -11.5 90.501s-21.667 40.667 -38 51s-37.5 16.166 -63.5 17.499s-52.5 -0.833984 -79.5 -6.50098s-58.5 -14.167 -94.5 -25.5c-48 -15.333 -92 -42.166 -132 -80.499s-71 -82.166 -93 -131.499
c-23.333 -58.667 -35 -115.167 -35 -169.5s11.667 -101.833 35 -142.5s54.333 -63.667 93 -69c53.333 -7.33301 137 13 251 61c61.333 26.667 103.666 32.667 126.999 18c10 -6 13.333 -15.667 10 -29c-1.33301 -6.66699 -7 -13.167 -17 -19.5s-28.333 -15.833 -55 -28.5
c-108 -50.667 -195 -76 -261 -76c-46 0 -79.833 2.83301 -101.5 8.5s-48.167 18.167 -79.5 37.5c-28 17.333 -52 49.166 -72 95.499s-30 93.166 -30 140.499c0 18 3.5 45.667 10.5 83s12.833 58.333 17.5 63c2.66699 4.66699 5.5 13.667 8.5 27s7.83301 24 14.5 32
c54 79.333 81 118 81 116l4 3c2.66699 2.66699 8.33398 8 17.001 16l20 18c21.333 20 48.333 39.167 81 57.5s57.334 27.833 74.001 28.5c5.33301 0 9.33301 0.5 12 1.5s3.66699 2.16699 3 3.5s1 3 5 5c4 1.33301 10 2.66602 18 3.99902
c8.66699 1.33301 24.667 4.66602 48 9.99902s40.333 8.66602 51 9.99902c13.333 2.66699 38.666 2.83398 75.999 0.500977s63.333 -5.5 78 -9.5c16 -4.66699 37.5 -19 64.5 -43s43.833 -43.667 50.5 -59c9.33301 -24 11.333 -73.5 6 -148.5s-15.333 -130.5 -30 -166.5
c-9.33301 -24.667 -22.166 -48.5 -38.499 -71.5s-31.166 -38.833 -44.499 -47.5c-15.333 -10 -38.333 -13.667 -69 -11c-42.667 4 -76.667 18.667 -102 44c-4 4 -9.16699 5.33301 -15.5 4s-18.166 -6.66602 -35.499 -15.999c-19.333 -10 -33.666 -16 -42.999 -18
s-25 -2.33301 -47 -1c-34 2.66699 -60.333 10.5 -79 23.5s-35 34.833 -49 65.5c-8.66699 19.333 -13.5 44.166 -14.5 74.499s2.5 53.166 10.5 68.499c8.66699 16 27 37.333 55 64s50.333 43.667 67 51c27.333 12 56.333 13.667 87 5s46 -22.667 46 -42z" />
    <glyph glyph-name="A" unicode="A" horiz-adv-x="591" 
d="M261 453c-4.66699 0 -8.16797 -3.66699 -10.501 -11s-8.83301 -32.666 -19.5 -75.999c-3.33301 -16.667 -9 -38.834 -17 -66.501s-13 -47.5 -15 -59.5c103.333 12 165 20.333 185 25c6.66699 3.33301 -4.66602 26 -33.999 68c-27.333 37.333 -48 67.333 -62 90
c-12.667 20 -21.667 30 -27 30zM521.999 229c-1.33301 -6.66699 5.16602 -36.001 19.499 -88.001s20.833 -80.667 19.5 -86c-2.66699 -6.66699 -9.5 -12.334 -20.5 -17.001s-22.5 -6.33398 -34.5 -5.00098c-18.667 2 -32 8.33301 -40 19s-16.667 33.334 -26 68.001l-19 65
c-14.667 2 -54.5 -1.5 -119.5 -10.5s-104.833 -12.833 -119.5 -11.5c-6 1.33301 -11.5 -1 -16.5 -7s-12.833 -20.667 -23.5 -44c-15.333 -33.333 -28.833 -54 -40.5 -62s-27.5 -7.33301 -47.5 2c-16 8 -24 16 -24 24c0 7.33301 9.33301 30.333 28 69
c28 58.667 48 106.334 60 143.001s25.333 88.667 40 156c4 15.333 7.66699 23 11 23c4 0 5.33301 3 4 9c0 10.667 3 28 9 52c4 18.667 7.83301 31.167 11.5 37.5s10.167 11.5 19.5 15.5c12.667 6 27.334 7.33301 44.001 4c13.333 -3.33301 22 -6.33301 26 -9
s9.66699 -10 17 -22c10.667 -16 41.5 -57.333 92.5 -124s84.167 -114.667 99.5 -144c8.66699 -16 15.667 -25.667 21 -29c6 -3.33301 9 -12.666 9 -27.999z" />
    <glyph glyph-name="B" unicode="B" horiz-adv-x="620" 
d="M305 553c-31.333 9.33301 -62.0029 12.167 -92.0029 8.5s-51.667 -13.167 -65 -28.5c-4 -5.33301 -5.5 -10.5 -4.5 -15.5s5.5 -14.833 13.5 -29.5c9.33301 -16 14.833 -30.5 16.5 -43.5s2.5 -46.5 2.5 -100.5c-1.33301 -176 4 -267.667 16 -275
c24.667 -16 63.334 -22 116.001 -18s94.334 16.333 125.001 37c33.333 22 53.333 62.667 60 122c1.33301 18 1.33301 30.167 0 36.5s-5.66602 13.166 -12.999 20.499c-10.667 10.667 -32.334 19 -65.001 25c-54.667 10 -85 25 -91 45
c-2.66699 9.33301 0.833008 18.333 10.5 27s22.834 14.334 39.501 17.001c20 2.66699 33.667 7.5 41 14.5s11.333 18.833 12 35.5c0 18.667 -6.33301 35.667 -19 51c-28.667 36 -63 59.667 -103 71zM210.997 626.001c71.333 0 136.499 -16.333 195.499 -49
s96.833 -73.334 113.5 -122.001c10.667 -31.333 8.33398 -64.333 -6.99902 -99c-2.66699 -8 6.33301 -19 27 -33c21.333 -15.333 35.5 -32 42.5 -50s9.16699 -42.667 6.5 -74c-2.66699 -28 -10.167 -56.833 -22.5 -86.5s-25.833 -51.5 -40.5 -65.5
c-34 -32 -88.167 -53.667 -162.5 -65s-139.5 -5.33301 -195.5 18c-41.333 16 -64.333 22.333 -69 19s-7 -1.66602 -7 5.00098s-3 11.334 -9 14.001s-9.33301 42.667 -10 120c-3.33301 181.333 -14.333 296.333 -33 345c-6.66699 15.333 -10 27.666 -10 36.999
c0 8.66699 7.16699 19.167 21.5 31.5s32.833 23.833 55.5 34.5c19.333 8.66699 35 14.167 47 16.5s31 3.5 57 3.5z" />
    <glyph glyph-name="C" unicode="C" 
d="M503 559c0 -22.667 -17.3389 -31.9971 -52.0059 -27.9971c-20.667 3.33301 -31 3 -31 -1c0.666992 -4.66699 -7.66602 -6.33398 -24.999 -5.00098c-10 2 -14.667 4.66699 -14 8c1.33301 2.66699 -1 4.66699 -7 6c-17.333 2.66699 -40.333 -0.666016 -69 -9.99902
c-49.333 -16 -91.5 -50.5 -126.5 -103.5s-50.5 -105.833 -46.5 -158.5c1.33301 -24.667 3.83301 -41.334 7.5 -50.001s11.167 -17 22.5 -25c12 -8.66699 35.333 -13 70 -13s67.334 4.33301 98.001 13c29.333 8.66699 60.833 15.667 94.5 21s55.5 7.33301 65.5 6
c12 -1.33301 23.333 -7.83301 34 -19.5s14.334 -21.834 11.001 -30.501c-5.33301 -15.333 -35.666 -27.333 -90.999 -36c-52.667 -10 -88.334 -17.333 -107.001 -22c-66.667 -15.333 -127 -15 -181 1s-91.667 45 -113 87c-9.33301 19.333 -13.666 45 -12.999 77
c0 27.333 1 47 3 59c4 19.333 10.833 40.333 20.5 63s16.5 34 20.5 34s6 3 6 9c0 14.667 22 41.334 66 80.001s79.333 62.334 106 71.001c9.33301 2.66699 18.833 6.66699 28.5 12s20.167 8.66602 31.5 9.99902c14.667 1.33301 36.834 1.66602 66.501 0.999023
s51.167 -2.33398 64.5 -5.00098c14.667 -3.33301 28.334 -10.333 41.001 -21s19 -20.667 19 -30z" />
    <glyph glyph-name="D" unicode="D" horiz-adv-x="625" 
d="M194 369c0 -11.333 5 -38.333 15 -81s14.333 -72.334 13 -89.001c0 -20.667 1 -33.5 3 -38.5s8 -9.5 18 -13.5c20.667 -8.66699 54.667 -8.66699 102 0s84.333 21.334 111 38.001c20.667 13.333 34.167 38 40.5 74s3.16602 70.667 -9.50098 104
c-27.333 72.667 -72.666 113 -135.999 121c-20.667 2.66699 -51.334 4.5 -92.001 5.5s-66.334 0.833008 -77.001 -0.5c-9.33301 -1.33301 -14.166 -5 -14.499 -11s3.83398 -21.333 12.501 -46c8 -20.667 12.667 -41.667 14 -63zM126 140c-8.66699 0 -17.667 23.667 -27 71
s-15.666 101.333 -18.999 162c-2.66699 36.667 -5.33398 60.334 -8.00098 71.001s-10 24.334 -22 41.001c-12 18 -18.5 29.333 -19.5 34s1.5 10.334 7.5 17.001c8.66699 10 20 16.667 34 20c15.333 4.66699 60.5 5.66699 135.5 3s129.5 -7 163.5 -13
c54.667 -10 95.334 -26.333 122.001 -49c28 -22.667 40.667 -40.667 38 -54c-1.33301 -4.66699 -1.66602 -7.33398 -0.999023 -8.00098l2 3c4.66699 10.667 10.667 9.66699 18 -3c2.66699 -4 6 -10 10 -18c30.667 -62 40.5 -119.833 29.5 -173.5
s-37.5 -92.834 -79.5 -117.501c-58 -34.667 -128.667 -53.334 -212 -56.001c-46.667 -1.33301 -81.834 1.66699 -105.501 9s-39.834 20 -48.501 38c-7.33301 15.333 -13.333 23 -18 23z" />
    <glyph glyph-name="E" unicode="E" horiz-adv-x="493" 
d="M445 311c1.33301 -2.66699 -0.834961 -6.50293 -6.50195 -11.5029s-12.334 -9 -20.001 -12s-12.834 -3.16699 -15.501 -0.5c0 4.66699 -7.33301 5.66699 -22 3c-34 -3.33301 -76.167 -10 -126.5 -20s-80.5 -18.667 -90.5 -26c-2 -5.33301 -2.83301 -18.333 -2.5 -39
s1.83301 -42.167 4.5 -64.5s5.33398 -32.5 8.00098 -30.5c2 1.33301 36.167 1.83301 102.5 1.5s100.5 -0.5 102.5 -0.5c48 0 72 -9.33301 72 -28c-0.666992 -19.333 -11 -32 -31 -38s-63.667 -9.33301 -131 -10c-66 0 -106.667 -2.33301 -122 -7
c-14 -5.33301 -29.667 -7.5 -47 -6.5s-29 4.5 -35 10.5c-5.33301 5.33301 -9 18.833 -11 40.5s-3.66699 66.834 -5 135.501c-2.66699 84 -6.16699 143.333 -10.5 178s-11.166 57.334 -20.499 68.001c-7.33301 4.66699 -9.83301 12.167 -7.5 22.5s6 20.166 11 29.499
s9.16699 15.333 12.5 18c5.33301 4 16.166 4.66699 32.499 2s24.5 -6.33398 24.5 -11.001s9 -5.66699 27 -3c16.667 2.66699 59.667 13 129 31s110 29.333 122 34c30 12 52 10 66 -6c8 -8.66699 10.333 -16.667 7 -24s-13.333 -15.333 -30 -24
c-22 -11.333 -69.5 -28.166 -142.5 -50.499s-118.833 -34.166 -137.5 -35.499c-6 -0.666992 -9.5 -2.16699 -10.5 -4.5s-0.833008 -7.16602 0.5 -14.499c0.666992 -2 3 -16 7 -42s7.66699 -41 11 -45c4.66699 -3.33301 20 -1.33301 46 6c48 12.667 105.667 20 173 22
c24.667 0.666992 40.834 0.333984 48.501 -0.999023s14.167 -5 19.5 -11c10 -12.667 13.667 -22.334 11 -29.001c-1.33301 -2.66699 -3.66602 -3 -6.99902 -1c-1.33301 1.33301 -2.66602 1.33301 -3.99902 0s-2 -3.33301 -2 -6z" />
    <glyph glyph-name="F" unicode="F" horiz-adv-x="423" 
d="M195 563c18.667 4.66699 32.6719 7.99902 42.0049 9.99902s16.666 3 21.999 3s8.66602 -0.5 9.99902 -1.5s2 -2.83301 2 -5.5c0 -8 1.66699 -8 5 0c4.66699 11.333 18.334 12.666 41.001 3.99902s35.667 -20 39 -34c0.666992 -6 -0.833008 -11.167 -4.5 -15.5
s-12.167 -10.166 -25.5 -17.499c-20.667 -11.333 -32.667 -16.333 -36 -15c-1.33301 1.33301 -23.5 -1.16699 -66.5 -7.5s-66.5 -10.833 -70.5 -13.5c-2.66699 -1.33301 -2.66699 -18 0 -50c1.33301 -23.333 3 -37 5 -41s8.33301 -6.33301 19 -7
c9.33301 -0.666992 22 1.33301 38 6c7.33301 3.33301 27.333 5.33301 60 6s58 -0.333008 76 -3c14 -2 26 -10.667 36 -26s6.66699 -28.333 -10 -39c-12.667 -8.66699 -47 -13.334 -103 -14.001c-48.667 -1.33301 -80.334 -2.66602 -95.001 -3.99902s-22.667 -4.33301 -24 -9
c-0.666992 -1.33301 -2.83398 -16.166 -6.50098 -44.499s-7.83398 -55.666 -12.501 -81.999s-8.66699 -38.5 -12 -36.5c-9.33301 -6 -24.333 -8.16699 -45 -6.5s-34 6.16699 -40 13.5c-6 6.66699 -9 15 -9 25s3 40 9 90c3.33301 32 5 88.333 5 169
c0.666992 62.667 1.66699 101.167 3 115.5s5 23.833 11 28.5c8.66699 6 20.167 9 34.5 9s25.166 -3.33301 32.499 -10c4.66699 -4.66699 11 -6.83398 19 -6.50098s25 3.5 51 9.5z" />
    <glyph glyph-name="G" unicode="G" horiz-adv-x="659" 
d="M395 271c0 7.33301 -4.16699 16.3281 -12.5 26.9951s-15.166 16 -20.499 16c-0.666992 0 -2.5 0.333008 -5.5 1s-6.83301 1.66699 -11.5 3s-9 2.33301 -13 3c-21.333 6 -33.5 18.5 -36.5 37.5s5.5 30.833 25.5 35.5c10 2 46.167 4.5 108.5 7.5
s99.166 5.83301 110.499 8.5c25.333 4.66699 45.333 3.66699 60 -3c15.333 -7.33301 24.333 -13.166 27 -17.499s1.66699 -11.166 -3 -20.499c-10.667 -20.667 -31 -32.667 -61 -36c-9.33301 -0.666992 -17.666 -2.83398 -24.999 -6.50098s-15.666 -5.5 -24.999 -5.5
c-8.66699 0 -13.667 -1.16699 -15 -3.5s-1.33301 -8.16602 0 -17.499c4 -27.333 -2.83301 -57.666 -20.5 -90.999s-42.834 -63.666 -75.501 -90.999c-67.333 -56.667 -134.333 -76 -201 -58c-46.667 12.667 -82.334 30.667 -107.001 54s-43 56 -55 98
c-6.66699 24 -9.5 57.833 -8.5 101.5s5.5 77.167 13.5 100.5c14 41.333 36.333 81.5 67 120.5s63.334 67.833 98.001 86.5c7.33301 4 13.333 8.33301 18 13s9.16699 8.33398 13.5 11.001s11.833 5.33398 22.5 8.00098c44.667 12.667 88 8.33398 130 -12.999
c46 -22.667 67 -51.667 63 -87c-0.666992 -13.333 -8 -22.333 -22 -27c-24.667 -8.66699 -41 1 -49 29c-4.66699 14.667 -13.667 23.334 -27 26.001c-24.667 4.66699 -45.334 3.66699 -62.001 -3s-38 -22.334 -64 -47.001c-36 -34.667 -61 -66.834 -75 -96.501
s-21.667 -68.167 -23 -115.5c-1.33301 -44 0.666992 -76 6 -96s17.333 -39.333 36 -58c12 -12 21.667 -19.833 29 -23.5s17 -5.83398 29 -6.50098c36 -2 71.667 14.667 107 50c36 36 54 64.667 54 86z" />
    <glyph glyph-name="H" unicode="H" horiz-adv-x="567" 
d="M377 544c-6 17.333 -4.00293 30.667 5.99707 40s22.833 13.333 38.5 12s28.834 -6.33301 39.501 -15c6 -6 13.167 -26.833 21.5 -62.5s14.833 -75.834 19.5 -120.501c4.66699 -37.333 11.667 -61.333 21 -72c17.333 -18.667 18.333 -40 3 -64
c-6 -4.66699 -9 -20.5 -9 -47.5s1.16699 -51.5 3.5 -73.5s4.5 -40 6.5 -54c2 -12 2.16699 -21 0.5 -27s-6.16699 -12.667 -13.5 -20s-14 -12 -20 -14s-15 -2.33301 -27 -1c-18.667 1.33301 -31.334 6.33301 -38.001 15c-4 0 -8 18.333 -12 55s-6.33301 73.667 -7 111
c-94 1.33301 -165.667 11 -215 29c-17.333 7.33301 -27.666 9.33301 -30.999 6c-1.33301 -14 1.16699 -48 7.5 -102s9.5 -88.333 9.5 -103c1.33301 -26 1.33301 -43 0 -51s-5 -14.667 -11 -20c-10.667 -9.33301 -23.667 -14.666 -39 -15.999s-27.666 1.66699 -36.999 9
c-8 6.66699 -13.5 17 -16.5 31s-6.16699 47 -9.5 99c-2.66699 29.333 -7.5 87 -14.5 173s-12.833 152.333 -17.5 199c-7.33301 56 -8 88.333 -2 97c4 6 14.5 9.5 31.5 10.5s30.5 -1.16699 40.5 -6.5c12 -6 19.667 -13 23 -21s6 -25.333 8 -52
c8.66699 -92 15.334 -142.333 20.001 -151c4 -6 11 -9.66699 21 -11c16 -2.66699 39.667 -10 71 -22c33.333 -13.333 85.333 -19.333 156 -18l-6 72c-3.33301 40 -6.83301 78 -10.5 114s-7.5 60 -11.5 72z" />
    <glyph glyph-name="I" unicode="I" horiz-adv-x="234" 
d="M87 71c-1.33301 16 -6.83008 57.833 -16.4971 125.5s-13.834 109.167 -12.501 124.5c-0.666992 29.333 -5.33398 80.333 -14.001 153s-13.334 123.334 -14.001 152.001l23 11c14.667 6 25.5 8.83301 32.5 8.5s17.833 -3.83301 32.5 -10.5c16 -7.33301 25 -18 27 -32
c4.66699 -27.333 12.667 -101.5 24 -222.5s20 -201.5 26 -241.5c6.66699 -47.333 9.66699 -78.333 9 -93s-6 -27 -16 -37c-6.66699 -6 -12 -9.5 -16 -10.5s-10.667 -0.5 -20 1.5s-16.333 3.33301 -21 4c-14 1.33301 -22.333 2.66602 -25 3.99902c-4 0.666992 -8 8 -12 22
s-6.33301 27.667 -7 41z" />
    <glyph glyph-name="J" unicode="J" horiz-adv-x="726" 
d="M405 502c0 -6.66699 3 -17.667 9 -33c9.33301 -28.667 14.333 -69.167 15 -121.5s-3.66602 -100.166 -12.999 -143.499c-2.66699 -14 -10.5 -33.667 -23.5 -59s-24.167 -43.666 -33.5 -54.999c-20 -24 -42.5 -38.5 -67.5 -43.5s-63.833 -2.83301 -116.5 6.5
c-87.333 16 -134.666 34.667 -141.999 56c-2.66699 8 -3.5 14 -2.5 18s5.16699 8.66699 12.5 14c9.33301 8 20.166 12.167 32.499 12.5s31.5 -2.83398 57.5 -9.50098c24.667 -6.66699 52.5 -11.334 83.5 -14.001s48.833 -2.33398 53.5 0.999023c12 9.33301 23.333 29 34 59
s17.334 62 20.001 96c3.33301 36.667 0.166016 82.667 -9.50098 138s-19.834 86.333 -30.501 93c-4.66699 3.33301 -29 5 -73 5c-36 0 -61.833 3 -77.5 9s-24.5 16.333 -26.5 31s5.83301 24.5 23.5 29.5s52.834 7.5 105.501 7.5c65.333 0 113.333 -2.33301 144 -7
c53.333 -8 104 -10.333 152 -7s83 11.666 105 24.999c9.33301 5.33301 16.666 8 21.999 8s12.666 -3.33301 21.999 -10c20 -14 20.333 -30.667 1 -50c-17.333 -19.333 -46.166 -33.666 -86.499 -42.999s-84.833 -12.666 -133.5 -9.99902c-38 1.33301 -57 0.333008 -57 -3z
" />
    <glyph glyph-name="K" unicode="K" horiz-adv-x="535" 
d="M173 369c2.66699 0.666992 37.167 35.168 103.5 103.501s101.5 102.5 105.5 102.5c13.333 6.66699 27.166 9.66699 41.499 9s25.5 -5 33.5 -13c10 -9.33301 11.667 -19.333 5 -30s-31 -37 -73 -79c-46.667 -46.667 -70 -73 -70 -79c0 -7.33301 3.33301 -14.333 10 -21
c8 -8 25 -39.333 51 -94c21.333 -42.667 37.833 -71.834 49.5 -87.501s27.834 -29.834 48.501 -42.501c22 -14 30.5 -27.667 25.5 -41s-21.833 -21.333 -50.5 -24c-35.333 -3.33301 -65.833 6 -91.5 28s-53.167 63 -82.5 123c-27.333 55.333 -42.666 83 -45.999 83
c-9.33301 -2.66699 -30 -17.667 -62 -45c2 -15.333 4.33301 -41.333 7 -78s4 -56 4 -58c1.33301 -19.333 0 -33 -4 -41s-12.667 -14.667 -26 -20c-14.667 -5.33301 -30.5 -5.16602 -47.5 0.500977s-28.167 14.5 -33.5 26.5c-6.66699 14.667 -13.334 83 -20.001 205
c-1.33301 27.333 -4.66602 72.333 -9.99902 135c-6.66699 72 -10.167 115.667 -10.5 131s2.16699 25.666 7.5 30.999c6.66699 6.66699 18.5 10.334 35.5 11.001s31.5 -2 43.5 -8c9.33301 -4 15.666 -12.333 18.999 -25s10 -52.667 20 -120l3 -21
c6 -41.333 10.667 -62 14 -62z" />
    <glyph glyph-name="L" unicode="L" horiz-adv-x="504" 
d="M30 24c0 13.333 2.33496 29.333 7.00195 48c18 76.667 30.167 141 36.5 193s7.5 110 3.5 174c0 1.33301 -3 13 -9 35s-10 39.833 -12 53.5s-1.33301 25.834 2 36.501c2.66699 6 6.5 9.83301 11.5 11.5s14.167 2.16699 27.5 1.5
c18.667 -0.666992 31.5 -5.33398 38.5 -14.001s15.5 -29.334 25.5 -62.001c27.333 -92.667 26 -200.334 -4 -323.001c-8.66699 -32.667 -13.334 -55.334 -14.001 -68.001c-2 -16 -1.33301 -24 2 -24c1.33301 0 3.66602 0.666992 6.99902 2c28.667 12 100 23.333 214 34
c50.667 4.66699 82 5.5 94 2.5s16 -13.167 12 -30.5c-2 -9.33301 -6 -15.666 -12 -18.999s-21.667 -8.66602 -47 -15.999c-21.333 -5.33301 -57.833 -11.666 -109.5 -18.999s-93.167 -17 -124.5 -29c-99.333 -33.333 -149 -29 -149 13z" />
    <glyph glyph-name="M" unicode="M" horiz-adv-x="816" 
d="M682 140c0.666992 4.66699 -3.83594 17.8291 -13.5029 39.4961s-14.5 34.834 -14.5 39.501c0.666992 3.33301 0.333984 6.5 -0.999023 9.5s-3.16602 5.83301 -5.49902 8.5s-3.83301 4.66699 -4.5 6c-1.33301 8.66699 -15 41.334 -41 98.001c-20.667 42.667 -31 67 -31 73
c0 4.66699 -2.66699 10.5 -8 17.5s-8.33301 12.167 -9 15.5c-6.66699 28 -13.334 42.333 -20.001 43c-3.33301 0 -5 -4.66699 -5 -14c0 -8 -5.66699 -57.333 -17 -148c-8 -64.667 -26.333 -97 -55 -97c-16 0 -29.5 3.5 -40.5 10.5s-22.833 19.5 -35.5 37.5
c-7.33301 9.33301 -14 17.166 -20 23.499s-9.66699 8.83301 -11 7.5c-10 -6 -37.333 34.333 -82 121c-7.33301 14.667 -12.666 22 -15.999 22c-4 0 -9.66699 -15.667 -17 -47c-4 -18 -12.333 -43.667 -25 -77s-20.667 -55.666 -24 -66.999
c-4 -18.667 -18.333 -53.667 -43 -105c-12 -25.333 -27.5 -41.5 -46.5 -48.5s-36.833 -3.5 -53.5 10.5c-8 6 -12.167 10.333 -12.5 13s2.16699 7 7.5 13c6.66699 7.33301 21 34 43 80s37.667 82.667 47 110c34 98 52 195 54 291
c19.333 -2.66699 31.333 -2.33398 36 0.999023c6 2 13.667 2.5 23 1.5s18 -3.5 26 -7.5s11.667 -8 11 -12c-1.33301 -4.66699 11.334 -33.667 38.001 -87c19.333 -37.333 40.166 -72.666 62.499 -105.999s36.833 -50 43.5 -50c7.33301 0 14.333 25.333 21 76
c1.33301 14.667 6 42.167 14 82.5s12.667 67.5 14 81.5c2.66699 28.667 5.5 46.167 8.5 52.5s8.83301 8.83301 17.5 7.5c5.33301 -0.666992 18 0.5 38 3.5s31.667 1.5 35 -4.5c0.666992 -0.666992 14.5 -37.167 41.5 -109.5s41.167 -108.833 42.5 -109.5
c38 -73.333 64.667 -133.666 80 -180.999c2.66699 -12.667 9.5 -32 20.5 -58s18.5 -41.667 22.5 -47c6 -7.33301 9 -13.666 9 -18.999s-3.66699 -11 -11 -17c-10.667 -8.66699 -24.667 -14 -42 -16s-29.666 0.666992 -36.999 8c-9.33301 8 -14 16 -14 24z" />
    <glyph glyph-name="N" unicode="N" horiz-adv-x="687" 
d="M537 722c5.33301 2 8.82715 -0.830078 10.4941 -8.49707s3.83398 -11.834 6.50098 -12.501c6 -2 16.667 -20.5 32 -55.5s29 -72.5 41 -112.5c16.667 -54.667 26.334 -109.334 29.001 -164.001c4 -53.333 -0.666992 -104 -14 -152
c0 -2.66699 -2.66699 -9.83398 -8 -21.501s-7.66602 -18.5 -6.99902 -20.5c-6.66699 -26.667 -21.667 -52.5 -45 -77.5s-48.333 -43.5 -75 -55.5c-36.667 -16.667 -78.667 -25.834 -126 -27.501s-84.333 4.5 -111 18.5c-22.667 12 -46.5 31.5 -71.5 58.5
s-44.167 53.833 -57.5 80.5c-7.33301 -59.333 -16.333 -100.666 -27 -123.999c-6 -12 -11.167 -19.333 -15.5 -22s-13.166 -4 -26.499 -4c-23.333 0 -36.666 5.33301 -39.999 16s-0.333008 39.667 9 87c22.667 117.333 34 200 34 248c0 20.667 -3 54.834 -9 102.501
s-11 78.834 -15 93.501c-2 6 -1.5 10.833 1.5 14.5s10.833 8.5 23.5 14.5c38 18.667 63.333 20 76 4c6 -8.66699 10.667 -37 14 -85c5.33301 -69.333 24 -158 56 -266c5.33301 -17.333 16.333 -40 33 -68s30.667 -46.333 42 -55
c6.66699 -5.33301 11.334 -8.83301 14.001 -10.5s7.66699 -5 15 -10s13.666 -8.5 18.999 -10.5s11.833 -4.16699 19.5 -6.5s15.167 -3.33301 22.5 -3s15 1.5 23 3.5c36 10.667 64.333 28 85 52s37.334 59.667 50.001 107c14 52.667 14.667 115.167 2 187.5
s-36 143.166 -70 212.499c-18 36 -26.333 54.667 -25 56s11 5.66602 29 12.999c16.667 6.66699 27 10.334 31 11.001s7.66699 -1.33301 11 -6s8 -5.33398 14 -2.00098z" />
    <glyph glyph-name="O" unicode="O" horiz-adv-x="682" 
d="M384 606c-26.667 1.33301 -50.835 -2.99902 -72.502 -12.999s-37.5 -16 -47.5 -18c-25.333 -3.33301 -56.666 -36 -93.999 -98c-15.333 -26.667 -25.5 -50 -30.5 -70s-6.83301 -45.333 -5.5 -76c0.666992 -59.333 16.667 -103.666 48 -132.999s76 -52 134 -68
c23.333 -6 52.5 -7.33301 87.5 -4s60.5 9.33301 76.5 18c26 15.333 46.333 50.166 61 104.499s17.667 108.166 9 161.499c-6.66699 44.667 -19.5 85.5 -38.5 122.5s-38.167 59.167 -57.5 66.5c-11.333 4.66699 -34.666 7 -69.999 7zM583.999 119.001
c-2 0 -10.9961 -6.6709 -26.9961 -20.0039c-16 -14 -40.333 -25.667 -73 -35c-20.667 -6.66699 -38.334 -10.667 -53.001 -12s-38.667 -1.66602 -72 -0.999023c-42.667 1.33301 -77.5 5.83301 -104.5 13.5s-56.833 20.834 -89.5 39.501
c-108 63.333 -151.333 152.666 -130 267.999c6 33.333 17.667 67.833 35 103.5s34.666 61.5 51.999 77.5c5.33301 5.33301 15.333 18.333 30 39c13.333 18 27.666 31 42.999 39s38.333 14 69 18c7.33301 0.666992 24.833 2.83398 52.5 6.50098s49.5 6.33398 65.5 8.00098
s34.667 2.5 56 2.5s38 -2 50 -6c43.333 -12.667 85.333 -59.667 126 -141c16.667 -34 26.667 -57.667 30 -71s5.66602 -38 6.99902 -74c2.66699 -51.333 -1 -97.666 -11 -138.999c-6.66699 -26.667 -16.167 -52.667 -28.5 -78s-21.5 -38 -27.5 -38z" />
    <glyph glyph-name="P" unicode="P" horiz-adv-x="683" 
d="M154 527c0 -3.33301 14.167 -48.833 42.5 -136.5s43.833 -133.834 46.5 -138.501c5.33301 -10.667 44.833 -13.5 118.5 -8.5s127.167 14.167 160.5 27.5c38 14 49.333 56.333 34 127c-4.66699 24.667 -16.167 46.834 -34.5 66.501s-40.833 34.5 -67.5 44.5
c-27.333 10.667 -84 17 -170 19c-86.667 1.33301 -130 1 -130 -1zM108 585c48.667 3.33301 126.998 1.99805 234.998 -4.00195c144.667 -8 236.334 -45 275.001 -111c15.333 -24.667 25.166 -46.667 29.499 -66s5.83301 -43.666 4.5 -72.999
c-3.33301 -41.333 -14.166 -70.666 -32.499 -87.999s-55.833 -33 -112.5 -47c-24 -6 -61.167 -12 -111.5 -18s-92.166 -9.33301 -125.499 -10c-5.33301 0 -8.66602 -4 -9.99902 -12s-2 -28.667 -2 -62c1.33301 -53.333 5 -92.333 11 -117
c8 -31.333 11.667 -53.666 11 -66.999c-1.33301 -12 -15.333 -20.167 -42 -24.5s-46.334 -1.83301 -59.001 7.5c-6 5.33301 -11 16.166 -15 32.499s-11 55.5 -21 117.5c-8 48.667 -15 82.334 -21 101.001c-8 27.333 -16.167 68.5 -24.5 123.5s-12.833 94.5 -13.5 118.5
c-0.666992 64 -11.667 108.333 -33 133c-19.333 22 -25 37.667 -17 47s32.667 15.666 74 18.999z" />
    <glyph glyph-name="Q" unicode="Q" horiz-adv-x="690" 
d="M402 607c2 -14 -8.5 -25.666 -31.5 -34.999s-37.833 -10.333 -44.5 -3c-2 4 -8 8 -18 12c-10.667 2.66699 -27.667 -9.33301 -51 -36c-23.333 -27.333 -35 -43.333 -35 -48c0.666992 -3.33301 -2.66602 -7.16602 -9.99902 -11.499s-10.333 -7.5 -9 -9.5
c2 -2 -2.33301 -11.333 -13 -28c-11.333 -16.667 -24.333 -43.667 -39 -81c-9.33301 -23.333 -15.333 -42.333 -18 -57s-4 -34.334 -4 -59.001c-0.666992 -36 2.83301 -62.167 10.5 -78.5s22.167 -29.833 43.5 -40.5c14 -6.66699 24.833 -10.334 32.5 -11.001
s23.167 1 46.5 5c33.333 4.66699 50 9.66699 50 15c0 4 1.66699 6 5 6c14.667 -2 27.667 1 39 9c6 4 8.5 8.5 7.5 13.5s-7.5 16.5 -19.5 34.5c-13.333 20 -20.333 34.833 -21 44.5s5 16.5 17 20.5c24.667 12 59 -9 103 -63l20 21c38 39.333 66.667 84 86 134
s24.666 94.333 15.999 133c-5.33301 25.333 -18.5 48.833 -39.5 70.5s-45.833 37.167 -74.5 46.5c-32.667 11.333 -49 10 -49 -4zM408 92.001c-3.33301 0 -20.667 -5.99707 -52 -17.9971c-44 -17.333 -92.5 -25 -145.5 -23s-92.833 16.333 -119.5 43
c-18 16.667 -31 31.834 -39 45.501s-14.333 32.167 -19 55.5c-7.33301 34.667 -3.83301 79.667 10.5 135s33.166 97.666 56.499 126.999c16 20 24 31.333 24 34c0 6.66699 13.833 26.667 41.5 60s50.167 57.666 67.5 72.999c19.333 16.667 32.666 26.334 39.999 29.001
s23 3.66699 47 3c32.667 -1.33301 53.667 0.333984 63 5.00098c12.667 4.66699 31 6.66699 55 6s45 -3.66699 63 -9c32 -10.667 64.5 -32.834 97.5 -66.501s52.167 -63.834 57.5 -90.501c3.33301 -15.333 4.5 -35.333 3.5 -60s-3.5 -43.334 -7.5 -56.001
c-26.667 -88.667 -67.667 -157 -123 -205c-17.333 -15.333 -26.666 -27.333 -27.999 -36s3.33398 -21.334 14.001 -38.001c6 -8 14.667 -22.833 26 -44.5s20.666 -36.5 27.999 -44.5c14.667 -16 20.334 -31.333 17.001 -46s-15 -25 -35 -31
c-10.667 -3.33301 -19.5 -1.83301 -26.5 4.5s-24.5 28.833 -52.5 67.5c-40 53.333 -61.333 80 -64 80z" />
    <glyph glyph-name="R" unicode="R" horiz-adv-x="634" 
d="M595 161c4.66699 0 7.66504 -2.16699 8.99805 -6.5s1 -9.33301 -1 -15s-5.33301 -10.5 -10 -14.5c-8.66699 -7.33301 -21.667 -12.333 -39 -15c-14 -2 -25.667 -0.333008 -35 5s-31 23 -65 53l-33.5 30.5c-10.333 9 -23.833 19.5 -40.5 31.5s-28.667 20.333 -36 25
l-51.5 33.5l-54.5 35.5c-16 10 -25.167 19.333 -27.5 28s1.5 18.667 11.5 30c8 10 21 15 39 15c68.667 0 106 26 112 78c2.66699 20.667 0.5 37.834 -6.5 51.501s-21.5 29.167 -43.5 46.5c-32.667 25.333 -65.834 42 -99.501 50s-60.5 5.66699 -80.5 -7
c-9.33301 -6 -14.666 -11.833 -15.999 -17.5s-0.666016 -20.5 2.00098 -44.5c2 -24 7.33301 -60.5 16 -109.5s14.667 -78.5 18 -88.5c3.33301 -11.333 6.33301 -31 9 -59s4.66699 -46.333 6 -55c2 -19.333 2.5 -31.666 1.5 -36.999s-5.5 -11 -13.5 -17
c-12 -9.33301 -27.5 -13.833 -46.5 -13.5s-30.833 5.16602 -35.5 14.499c-2.66699 -0.666992 -7 20.166 -13 62.499s-13.5 99.833 -22.5 172.5s-13.833 112.667 -14.5 120c-5.33301 42 -6.33301 67 -3 75c3.33301 8.66699 14.833 20 34.5 34s37.5 23.333 53.5 28
c37.333 8 77.333 8 120 0s84.167 -24.667 124.5 -50s69.833 -54 88.5 -86c17.333 -31.333 20.833 -64.666 10.5 -99.999s-30.166 -61 -59.499 -77l-34 -21c40.667 -28.667 88 -64.334 142 -107.001s79 -66 75 -70c-1.33301 -6 1.66699 -9 9 -9z" />
    <glyph glyph-name="S" unicode="S" horiz-adv-x="514" 
d="M135 619c56.667 48.667 94.001 78.3291 112.001 88.9961c23.333 13.333 50 23.333 80 30c6.66699 0 15 -4.66699 25 -14s15 -17 15 -23c-0.666992 -11.333 -8 -22 -22 -32s-25.333 -12.667 -34 -8c-6 3.33301 -17.667 0.666016 -35 -8.00098
c-16 -8.66699 -41.333 -29.667 -76 -63s-56.334 -57.666 -65.001 -72.999c-6 -11.333 -8.83301 -18.666 -8.5 -21.999s4.5 -8.66602 12.5 -15.999c20 -19.333 70.333 -32.666 151 -39.999c72 -6 122.167 -19.167 150.5 -39.5s42.833 -53.166 43.5 -98.499
c0.666992 -33.333 -7.5 -72.666 -24.5 -117.999s-35.167 -76.333 -54.5 -93c-26.667 -23.333 -57.167 -40.5 -91.5 -51.5s-82.5 -18.833 -144.5 -23.5c-26.667 -2 -61.667 -5.66699 -105 -11c-19.333 -2.66699 -30.333 -0.666992 -33 6c-4 11.333 2 23.833 18 37.5
s35 22.5 57 26.5c38 7.33301 68 12 90 14c26.667 2 56.167 7.5 88.5 16.5s53.166 17.833 62.499 26.5c17.333 15.333 32.833 45.5 46.5 90.5s17.5 79.167 11.5 102.5c-3.33301 12 -14.833 21.833 -34.5 29.5s-52.167 14.167 -97.5 19.5c-52 6.66699 -86.667 12 -104 16
s-35.666 10.667 -54.999 20c-38 19.333 -60.667 42.666 -68 69.999c-4 14 2 33.5 18 58.5s39.667 52.167 71 81.5z" />
    <glyph glyph-name="T" unicode="T" horiz-adv-x="664" 
d="M333 161c-18 0 -30.334 2.00293 -37.001 6.00293c-4.66699 2.66699 -8.66699 28.334 -12 77.001c-10 172.667 -27.333 255.334 -52 248.001c-32.667 -10 -69.5 -15 -110.5 -15s-67.167 5.33301 -78.5 16c-22 19.333 -16.667 35 16 47c16.667 6 39.334 10 68.001 12
c23.333 1.33301 42.5 3.16602 57.5 5.49902s26.167 4.5 33.5 6.5s19.5 5.66699 36.5 11l49.5 15l51.5 15.5c19 5.66699 31.333 9.5 37 11.5l27.5 10c12.667 4.66699 25.334 9.66699 38.001 15l55 23c24.667 11.333 41.667 21.333 51 30c9.33301 8 20.333 12.667 33 14
s22.334 -1.33398 29.001 -8.00098c6 -6 8.66699 -12.833 8 -20.5s-4.33398 -12.834 -11.001 -15.501c-7.33301 -2.66699 -9.66602 -6 -6.99902 -10c4 -6 -3.16699 -15.333 -21.5 -28s-45.333 -27 -81 -43s-76.5 -32 -122.5 -48
c-28.667 -10.667 -45.334 -17.334 -50.001 -20.001c-3.33301 -3.33301 -0.333008 -20 9 -50c8.66699 -28.667 14.167 -52.5 16.5 -71.5s5.16602 -55.833 8.49902 -110.5c2.66699 -54.667 1.66699 -88.834 -3 -102.501s-17.667 -20.5 -39 -20.5z" />
    <glyph glyph-name="U" unicode="U" horiz-adv-x="655" 
d="M535 675c18.667 0 36.0039 -7.99805 52.0039 -23.998c28.667 -28.667 40.667 -72.667 36 -132c-2.66699 -27.333 -12 -77.666 -28 -150.999s-27.333 -116 -34 -128c-23.333 -44 -42.333 -75.333 -57 -94s-25.667 -26 -33 -22c-4 3.33301 -5 2.66602 -3 -2.00098
c5.33301 -8.66699 -9.16699 -24.167 -43.5 -46.5s-67.5 -37.833 -99.5 -46.5c-19.333 -4.66699 -42.5 -6 -69.5 -4s-50.167 7 -69.5 15c-36.667 15.333 -70.667 46.333 -102 93c-12 18 -21 34.333 -27 49s-12.333 36.667 -19 66
c-4.66699 18.667 -7.33398 58.334 -8.00098 119.001s1 97 5 109c6 17.333 10 42.666 12 75.999c2.66699 36 9 57.333 19 64c18.667 13.333 41.667 14.333 69 3c11.333 -4 17.333 -12.5 18 -25.5s-2.66602 -42.5 -9.99902 -88.5c-13.333 -84 -13.333 -162 0 -234
c8.66699 -44.667 27.667 -83.334 57 -116.001s59 -49 89 -49c20.667 0 46 11.167 76 33.5s54.667 48.166 74 77.499c16.667 26.667 33.667 74 51 142s26 121.333 26 160c-0.666992 40.667 -3.83398 66.834 -9.50098 78.501s-17.834 16.5 -36.501 14.5
c-7.33301 -0.666992 -13.333 1.66602 -18 6.99902s-7 12.333 -7 21c0 6 6.66699 12.5 20 19.5s22.666 8.83301 27.999 5.5c3.33301 -3.33301 7 -2.33301 11 3c3.33301 4.66699 13.666 7 30.999 7z" />
    <glyph glyph-name="V" unicode="V" horiz-adv-x="636" 
d="M600 626c-4 0 -7.99707 -4.99414 -11.9971 -14.9941c-78.667 -188.667 -129.334 -316.334 -152.001 -383.001c-11.333 -33.333 -26 -68.5 -44 -105.5s-32.333 -60.167 -43 -69.5c-11.333 -9.33301 -30 -14 -56 -14s-43.667 4.66699 -53 14
c-19.333 21.333 -45.333 85 -78 191c-40.667 135.333 -76 232 -106 290c-17.333 32.667 -26 52 -26 58c0 5.33301 7.66699 11.166 23 17.499s29.333 9.5 42 9.5c13.333 0 25.5 -4.5 36.5 -13.5s16.5 -18.833 16.5 -29.5c0 -8 2 -12 6 -12
c8.66699 -6.66699 27.5 -46.834 56.5 -120.501s51.167 -133.834 66.5 -180.501c12 -35.333 20 -54.333 24 -57c4 1.33301 9 8.83301 15 22.5s12 28.667 18 45s10 26.166 12 29.499c11.333 31.333 24.5 65.166 39.5 101.499l52 124.5l42.5 101c11.333 26 28 43.667 50 53
c9.33301 4 21.166 5.5 35.499 4.5s24.166 -4.16699 29.499 -9.5c4 -4 7 -10.167 9 -18.5s2.66699 -16 2 -23s-2.66699 -10.5 -6 -10.5z" />
    <glyph glyph-name="W" unicode="W" horiz-adv-x="879" 
d="M214 12c-48 0 -84.833 13.333 -110.5 40s-45.5 72 -59.5 136c-9.33301 42.667 -14 115.334 -14 218.001c0 98 3 150.667 9 158c2.66699 3.33301 8.66699 0.666016 18 -8.00098c4.66699 -5.33301 7 -7 7 -5c0 1.33301 -0.333008 3.33301 -1 6s-0.333984 5 0.999023 7
s2.66602 2.66699 3.99902 2c24 -3.33301 39 -9.66602 45 -18.999c6 -8 8.66699 -38.333 8 -91c-2 -8 -2.16699 -22 -0.5 -42s2.33398 -32.333 2.00098 -37s0.833984 -15.834 3.50098 -33.501s4.16699 -28.167 4.5 -31.5s2.16602 -13.833 5.49902 -31.5
s5.33301 -28.5 6 -32.5c16 -88 39 -140.667 69 -158c8 -5.33301 14.333 -7.66602 19 -6.99902s12.667 6 24 16c14.667 12 29.667 32.833 45 62.5s26 58.834 32 87.501c3.33301 24 10.833 40.833 22.5 50.5s29.167 14.5 52.5 14.5c36 0 54.333 -20.333 55 -61
c0.666992 -44.667 8.16699 -83.834 22.5 -117.501s32.5 -55.167 54.5 -64.5c15.333 -6.66699 32.333 -9.33398 51 -8.00098s35 6.33301 49 15c31.333 19.333 58.666 61 81.999 125c21.333 60.667 29.333 129.334 24 206.001c-7.33301 108.667 -30.666 168.667 -69.999 180
c-16 4 -24.333 11 -25 21c-1.33301 8 1 13.5 7 16.5s20.667 5.83301 44 8.5c1.33301 0 11.666 1.66699 30.999 5c6 0.666992 14.833 -2.83301 26.5 -10.5s22.167 -16.834 31.5 -27.501c32.667 -36 52.167 -94.167 58.5 -174.5s-2.16699 -156.833 -25.5 -229.5
c-7.33301 -20.667 -20.166 -47.667 -38.499 -81s-32.833 -56 -43.5 -68c-30 -32.667 -75.167 -53.667 -135.5 -63s-109.166 -3 -146.499 19c-32 18 -56.333 41.667 -73 71c-2.66699 5.33301 -6 7.33301 -10 6s-11.667 -7.33301 -23 -18
c-40.667 -34.667 -86.667 -52 -138 -52z" />
    <glyph glyph-name="X" unicode="X" horiz-adv-x="650" 
d="M281 481c4 0 17.4971 16.001 40.4971 48.001s36.5 53.333 40.5 64c4.66699 12.667 17.334 18.834 38.001 18.501s37.667 -7.16602 51 -20.499c14 -14 11.333 -32.667 -8 -56l-58 -76c-22 -29.333 -34.5 -47.333 -37.5 -54s-1.5 -14 4.5 -22
c16 -24 55.833 -74.167 119.5 -150.5s103.167 -121.5 118.5 -135.5c16.667 -15.333 26.334 -25.166 29.001 -29.499s1.66699 -9.83301 -3 -16.5c-7.33301 -10 -12.333 -13.333 -15 -10c-3.33301 2 -5 1 -5 -3s-9.33301 -9 -28 -15
c-24 -7.33301 -43.833 -4.66602 -59.5 8.00098s-54.167 56.334 -115.5 131.001l-121 148c-101.333 -146.667 -157.666 -220.667 -168.999 -222c-8 -2.66699 -16 -1.33398 -24 3.99902c-2 2 -3.83301 3.33301 -5.5 4s-3 0.666992 -4 0s-1.5 -1.66699 -1.5 -3
c0 -7.33301 -7 -7.33301 -21 0c-6 3.33301 -10.667 6.66602 -14 9.99902c-4.66699 6 -3.66699 16.333 3 31s17 30 31 46c12 14 52.333 68.667 121 164c3.33301 5.33301 7.66602 11.666 12.999 18.999c8.66699 11.333 12.667 19.166 12 23.499s-6 13.166 -16 26.499
c-1.33301 1.33301 -2.16602 2.33301 -2.49902 3s-1 1.66699 -2 3s-1.83301 2.33301 -2.5 3c-12.667 14.667 -33.167 44.334 -61.5 89.001s-48.5 78.667 -60.5 102c-9.33301 17.333 -13.5 29.666 -12.5 36.999s7.16699 13 18.5 17c45.333 17.333 78 7.66602 98 -29.001
c16 -28.667 37.167 -62 63.5 -100s41.5 -57 45.5 -57z" />
    <glyph glyph-name="Y" unicode="Y" horiz-adv-x="594" 
d="M98 654c10 0 17.5049 -0.332031 22.5049 -0.999023s9.5 -1.16699 13.5 -1.5s7 -2.16602 9 -5.49902s3.66699 -5.83301 5 -7.5s3.16602 -6.33398 5.49902 -14.001s4.5 -13.834 6.5 -18.501c7.33301 -23.333 17.666 -45.5 30.999 -66.5s34 -48.167 62 -81.5l46 -54
c32 68 69.333 127.667 112 179c7.33301 10.667 18 23 32 37s25.333 23.667 34 29c9.33301 6.66699 17 10.334 23 11.001s16.667 -0.333008 32 -3c13.333 -2.66699 22.666 -8.33398 27.999 -17.001s5.33301 -18 0 -28c-8 -13.333 -25.333 -33.666 -52 -60.999
c-40.667 -42 -77.334 -102 -110.001 -180c-8.66699 -19.333 -13.5 -33 -14.5 -41s0.166992 -18 3.5 -30c5.33301 -18 4.66602 -34.333 -2.00098 -49s-9.66699 -75.334 -9 -182.001c0.666992 -91.333 -1.66602 -143.666 -6.99902 -156.999
c-4 -12.667 -14.667 -19.667 -32 -21c-2 0 -9.33301 -0.333008 -22 -1c-22.667 -1.33301 -36.334 0.666992 -41.001 6c-8.66699 9.33301 -13 45.333 -13 108v80c0.666992 98 -0.833008 156.333 -4.5 175s-19.167 45 -46.5 79c-47.333 62 -79 94 -95 96
c-21.333 2.66699 -37 26.667 -47 72c-8 30 -15 49.333 -21 58c-10.667 15.333 -16.167 27.166 -16.5 35.499s4.16699 18.833 13.5 31.5c8.66699 10.667 15.667 17.167 21 19.5s16.333 3.5 33 3.5z" />
    <glyph glyph-name="Z" unicode="Z" horiz-adv-x="656" 
d="M265 332c-2 -0.666992 3.3291 6.16797 15.9961 20.501l41.5 48.5c15 18 23.5 30.333 25.5 37c0 4.66699 2 7.66699 6 9c3.33301 2 13.833 15.5 31.5 40.5s27.834 38.5 30.501 40.5l7 9c4.66699 6 7.66699 10.667 9 14c3.33301 6 4.16602 9.66699 2.49902 11
s-7.5 2 -17.5 2c-110 -10 -204.667 -25 -284 -45c-58.667 -16.667 -88.667 -8.33398 -90 24.999c0 11.333 13 23.166 39 35.499s54.667 20.166 86 23.499l76 11l91 13c28 4 54.667 7.33301 80 10c18 1.33301 35.333 4.33301 52 9s36.334 6.66699 59.001 6
c18 -0.666992 29.833 -2.16699 35.5 -4.5s10.834 -7.5 15.501 -15.5s6.66699 -14 6 -18s-4 -10.333 -10 -19c-10.667 -20 -29.667 -48.5 -57 -85.5s-46.666 -60.167 -57.999 -69.5c-3.33301 -1.33301 -5 -3.66602 -5 -6.99902c2 -2 -12.167 -20 -42.5 -54l-100 -111
c-36.333 -40 -58.5 -66.333 -66.5 -79c-9.33301 -12.667 -20 -26.334 -32 -41.001s-19.667 -25 -23 -31c2.66699 -2.66699 73.334 12.333 212.001 45c71.333 17.333 128.666 21.333 171.999 12c16.667 -3.33301 28.167 -6.66602 34.5 -9.99902s10.833 -8.66602 13.5 -15.999
c5.33301 -12 7 -22 5 -30s-9 -17.333 -21 -28c-14.667 -14.667 -29.667 -21 -45 -19c-6.66699 0.666992 -10 4 -10 10c0 12 -13.333 18 -40 18c-12.667 0 -79.334 -14 -200.001 -42c-88 -20.667 -151.833 -32.667 -191.5 -36s-65.167 1.33398 -76.5 14.001
c-9.33301 9.33301 -13.166 17.666 -11.499 24.999s9.5 18 23.5 32c12.667 12 30.334 32.667 53.001 62c8.66699 14.667 35 45.5 79 92.5s70.333 75.5 79 85.5z" />
    <glyph glyph-name="a" unicode="a" horiz-adv-x="618" 
d="M282 374c0 17.333 -14 15.3369 -42 -5.99609c-34 -26 -61 -57.333 -81 -94l-6 -11c-11.333 -22.667 -18.833 -47.5 -22.5 -74.5s-1.83398 -43.5 5.49902 -49.5c4 -2.66699 8.33301 -2.83398 13 -0.500977s12 8.83301 22 19.5c17.333 17.333 34.333 39.666 51 66.999
c12.667 19.333 25.834 46.166 39.501 80.499s20.5 57.166 20.5 68.499zM533 61.0039c17.333 0 24.0098 -3.00195 20.0098 -9.00195c-4 -5.33301 -3 -6.33301 3 -3c5.33301 4 12.666 2 21.999 -6c6 -5.33301 9.16699 -9.5 9.5 -12.5s-1.83398 -8.16699 -6.50098 -15.5
c-10.667 -16 -28.334 -25.833 -53.001 -29.5s-52.667 -0.5 -84 9.5c-23.333 7.33301 -48.333 22.833 -75 46.5s-46.334 47.834 -59.001 72.501c-12 23.333 -23.333 36 -34 38c-4.66699 -0.666992 -7.33398 -3.66699 -8.00098 -9c0 -5.33301 -8.83301 -16.833 -26.5 -34.5
s-29.834 -26.834 -36.501 -27.501c-4.66699 -0.666992 -14.667 -4 -30 -10c-8.66699 -3.33301 -23.667 -3.5 -45 -0.5s-38.666 7.83301 -51.999 14.5c-32.667 16.667 -48.834 46.334 -48.501 89.001s17.166 88.334 50.499 137.001c42 62 88.333 101.333 139 118
c13.333 4 23.166 6.33301 29.499 7s15.166 -0.166016 26.499 -2.49902s22 -3.83301 32 -4.5c18 -2.66699 31.167 -5 39.5 -7s16.666 -4.83301 24.999 -8.5s13.333 -8.66699 15 -15s2.33398 -14.333 2.00098 -24s-2.16602 -22.5 -5.49902 -38.5
c-8.66699 -40 -8.83398 -79 -0.500977 -117s24.166 -70.667 47.499 -98c21.333 -24.667 38.5 -40.834 51.5 -48.501s30.167 -11.5 51.5 -11.5z" />
    <glyph glyph-name="b" unicode="b" horiz-adv-x="605" 
d="M216 275l-0.00195312 -123.003c16 0.666992 29.5 0.833984 40.5 0.500977s21.5 -2.16602 31.5 -5.49902s23.667 -9.33301 41 -18c31.333 -17.333 49 -26 53 -26c3.33301 0 13.333 14.333 30 43s27.334 50.334 32.001 65.001c13.333 39.333 15.333 77 6 113
s-26.666 58.667 -51.999 68c-12.667 4.66699 -40 8.16699 -82 10.5s-69.667 1.83301 -83 -1.5c-8 -2 -12.833 -8.5 -14.5 -19.5s-2.5 -46.5 -2.5 -106.5zM574.998 281.997c0 -23.333 -7.33594 -54.167 -22.0029 -92.5s-31.667 -70.833 -51 -97.5
c-17.333 -23.333 -34.333 -39.666 -51 -48.999s-39.334 -14.666 -68.001 -15.999c-23.333 -1.33301 -40.333 -0.833008 -51 1.5s-26.667 9.16602 -48 20.499l-49 26l-16 -15c-11.333 -10.667 -29.666 -16.334 -54.999 -17.001s-43 4 -53 14c-14 14 -29.333 103.333 -46 268
c-6 55.333 -13 110.333 -21 165c-11.333 67.333 -15.666 104.333 -12.999 111c1.33301 4 7.33301 8.33301 18 13c28 11.333 52.667 7 74 -13c3.33301 -2 6.5 -6.5 9.5 -13.5s5.5 -16 7.5 -27l5.5 -31c1.66699 -9.66699 3.33398 -21.167 5.00098 -34.5
s2.83398 -22.333 3.50098 -27l107 5c58.667 2.66699 105 1.5 139 -3.5s64.667 -15.167 92 -30.5c20.667 -11.333 39.667 -33.5 57 -66.5s26 -63.167 26 -90.5z" />
    <glyph glyph-name="c" unicode="c" horiz-adv-x="525" 
d="M400 454c0 -6.66699 -5.99609 -16.333 -17.9961 -29s-21 -19 -27 -19c-8.66699 0 -26.667 -12.667 -54 -38s-49.333 -49.333 -66 -72c-57.333 -82 -73 -143.667 -47 -185c6 -9.33301 22 -13.666 48 -12.999s56 6.33398 90 17.001c87.333 26 140.666 27 159.999 3
c6 -7.33301 9.16699 -12.833 9.5 -16.5s-1.83398 -8.83398 -6.50098 -15.501c-7.33301 -9.33301 -14.333 -14 -21 -14c-7.33301 1.33301 -11 -1 -11 -7c0 -10 -26 -23 -78 -39c-22.667 -7.33301 -52.334 -13.833 -89.001 -19.5s-60.667 -7.5 -72 -5.5c-12 2 -27 4 -45 6
c-32.667 4.66699 -61.167 16 -85.5 34s-41.5 40.667 -51.5 68c-10 26.667 -7.33301 62.167 8 106.5s40.666 90.166 75.999 137.499c26.667 36 49.667 62.833 69 80.5s41.333 32.167 66 43.5c56 26.667 98 28 126 4c12.667 -9.33301 19 -18.333 19 -27z" />
    <glyph glyph-name="d" unicode="d" horiz-adv-x="509" 
d="M308 147c1.33301 30 -0.333984 60.499 -5.00098 91.499s-11.667 53.167 -21 66.5c-5.33301 2 -15.666 -4.66699 -30.999 -20s-29.666 -33.666 -42.999 -54.999c-9.33301 -14.667 -18.5 -35.5 -27.5 -62.5s-12.5 -44.167 -10.5 -51.5
c3.33301 -8.66699 9.66602 -12.5 18.999 -11.5s30.333 7.83301 63 20.5zM284 426.999c5.33301 0 8.33301 4.00195 9 12.002s0 27 -2 57c-2 35.333 -8.66699 83 -20 143c-10 51.333 -12 80.333 -6 87c6.66699 8 19.167 11.667 37.5 11s31.166 -5.33398 38.499 -14.001
c5.33301 -6.66699 15.666 -28.334 30.999 -65.001c18 -46.667 31.833 -93.667 41.5 -141s18.834 -117 27.501 -209c8.66699 -86 15 -130.667 19 -134c4.66699 -3.33301 9.33398 -11 14.001 -23c4 -8.66699 5.66699 -14.834 5 -18.501s-4.33398 -8.5 -11.001 -14.5
c-14.667 -14 -60 -37 -136 -69c-52.667 -21.333 -96 -33.333 -130 -36c-69.333 -5.33301 -119.666 8.33398 -150.999 41.001c-10 10 -16.167 18.5 -18.5 25.5s-3.16602 20.167 -2.49902 39.5c0.666992 32.667 11.167 69 31.5 109s46.166 75.667 77.499 107
c22 22 48.5 42.833 79.5 62.5s52.833 29.5 65.5 29.5z" />
    <glyph glyph-name="e" unicode="e" horiz-adv-x="557" 
d="M166 356l183 -0.00195312c13.333 15.333 25.166 36 35.499 62s15.833 50.333 16.5 73c0.666992 26.667 -8.16602 42.334 -26.499 47.001s-44.5 3.33398 -78.5 -3.99902c-17.333 -2 -41.833 -24.333 -73.5 -67s-50.5 -79.667 -56.5 -111zM420 285.998
c-8 -6 -27.6709 -10.0029 -59.0039 -12.0029s-61.666 -2.5 -90.999 -1.5s-54 0.833008 -74 -0.5h-48c0.666992 -60 15 -99.333 43 -118s87.333 -29.667 178 -33c64 -0.666992 97 -4 99 -10c1.33301 -5.33301 5.33301 -8 12 -8c12.667 0 16.667 -8 12 -24
c-4.66699 -12.667 -13 -24 -25 -34c-10.667 -9.33301 -51.667 -13.166 -123 -11.499s-121 7.5 -149 17.5c-62 22 -105.167 47.667 -129.5 77s-36.166 70.333 -35.499 123c0.666992 30.667 5.33398 64.834 14.001 102.501s17.667 62.167 27 73.5
c6 7.33301 11.333 16.666 16 27.999c3.33301 6.66699 17.833 26.5 43.5 59.5s46.834 58.5 63.501 76.5c2.66699 2.66699 17.334 9 44.001 19c26 10 62.667 13.667 110 11c43.333 -2 76.666 -7.83301 99.999 -17.5s43 -25.5 59 -47.5c8.66699 -12 14.167 -22.667 16.5 -32
s3.5 -25 3.5 -47c-0.666992 -39.333 -11 -77.166 -31 -113.499s-45.333 -62.166 -76 -77.499z" />
    <glyph glyph-name="f" unicode="f" 
d="M468 296c0 -12.667 -42.999 -22.333 -128.999 -29c-27.333 -2 -43.166 -4 -47.499 -6s-5.5 -7.66699 -3.5 -17l15 -80c8 -43.333 8.33301 -71.166 1 -83.499s-28 -18.833 -62 -19.5c-20 0 -33.5 4.16699 -40.5 12.5s-11.5 25.5 -13.5 51.5
c-2.66699 42.667 -8.16699 79.334 -16.5 110.001s-17.5 46.334 -27.5 47.001c-75.333 10 -113.333 25 -114 45c0 8 5.66699 17.667 17 29c4.66699 4 9.33398 8.33301 14.001 13c5.33301 5.33301 9.83301 8.5 13.5 9.5s11.5 1.83301 23.5 2.5h3.5h3.5
c19.333 1.33301 28.333 4 27 8c-9.33301 62.667 -16 97 -20 103c-4.66699 8 -3.33398 12 3.99902 12c6.66699 0 6.66699 3.66699 0 11c-8 9.33301 -10 35 -6 77s11.667 74.667 23 98c8.66699 17.333 20.834 34.166 36.501 50.499s27.834 24.5 36.501 24.5
c5.33301 0 8.66602 2.33301 9.99902 7c12 12 38 19.667 78 23s69.667 0.666016 89 -8.00098l38.5 -16l26 -10.5c4.33301 -1.66699 9.66602 -4.16699 15.999 -7.5s11.666 -6.5 15.999 -9.5s10.5 -7.83301 18.5 -14.5c13.333 -9.33301 18.333 -16.333 15 -21
c-0.666992 -2 -0.666992 -3.5 0 -4.5s2.33398 -1.16699 5.00098 -0.5c2 0.666992 4.5 -0.833008 7.5 -4.5s5.5 -8.16699 7.5 -13.5c4.66699 -13.333 3 -23.666 -5 -30.999s-23 -12.333 -45 -15c-14.667 -1.33301 -24.667 -1.16602 -30 0.500977s-11 6.16699 -17 13.5
c-10.667 12 -23.334 21.333 -38.001 28c-44 20.667 -73.833 32 -89.5 34s-30.5 -4.33301 -44.5 -19c-12.667 -12.667 -22.334 -18.334 -29.001 -17.001c-3.33301 0.666992 -5.16602 0.666992 -5.49902 0s0.833984 -2 3.50098 -4c6 -4 5.33301 -18.667 -2 -44
c-8 -22 -10.333 -51.333 -7 -88s8.16602 -70.834 14.499 -102.501s12.166 -53.5 17.499 -65.5c2 -2 15.167 -4.33301 39.5 -7s46.166 -4.33398 65.499 -5.00098s30 0 32 2c-2 3.33301 -0.333008 5.33301 5 6l38 4c42 3.33301 65.667 -3.66699 71 -21
c6 -18.667 2 -34.667 -12 -48c-12 -10.667 -17.667 -14 -17 -10c0 2 0.666992 5 2 9c2.66699 8 1.33398 10 -3.99902 6c-5.33301 -3.33301 -8 -8.33301 -8 -15z" />
    <glyph glyph-name="g" unicode="g" horiz-adv-x="418" 
d="M189 335c16 0 26.6699 4.33105 32.0029 12.998s7.66602 25 6.99902 49c-1.33301 24.667 0.666992 49.334 6 74.001c3.33301 19.333 2.66602 30 -2.00098 32s-16.334 -4 -35.001 -18c-16 -12.667 -30.5 -31.167 -43.5 -55.5s-17.833 -42.166 -14.5 -53.499
c8 -27.333 24.667 -41 50 -41zM363.003 278.998c-1.33301 0 -1.16699 -1.16797 0.5 -3.50098s4.5 -5.83301 8.5 -10.5c13.333 -14.667 18.333 -46 15 -94s-14 -92 -32 -132c-13.333 -30 -32.166 -54.167 -56.499 -72.5s-50.5 -27.833 -78.5 -28.5
c-22 -1.33301 -32 -3.33301 -30 -6c1.33301 -2.66699 -5.16699 -4.33398 -19.5 -5.00098s-30.833 -0.333984 -49.5 0.999023s-33.334 3.33301 -44.001 6c-26.667 5.33301 -40 17.333 -40 36c0 19.333 32.333 29 97 29c43.333 0 65 1.66699 65 5c0 2 7 5.66699 21 11
c21.333 8 37.333 37.833 48 89.5s9.66699 94.167 -3 127.5l-13 33l-63 2c-38.667 1.33301 -68 6 -88 14s-37.333 23 -52 45c-23.333 32.667 -25.166 69.667 -5.49902 111s57.834 80.333 114.501 117c26 16.667 49.167 25.834 69.5 27.501s46.166 -3.16602 77.499 -14.499
c18 -6.66699 29.667 -12 35 -16s9 -11 11 -21c5.33301 -18 5.83301 -53 1.5 -105s-3.16602 -87.333 3.50098 -106c2 -7.33301 3.66699 -14.166 5 -20.499s2.16602 -11 2.49902 -14s0.166016 -4.83301 -0.500977 -5.5z" />
    <glyph glyph-name="h" unicode="h" horiz-adv-x="674" 
d="M30 693c4 29.333 25.666 44.001 64.999 44.001c17.333 0 31.5 -4.83301 42.5 -14.5s18.333 -20.167 22 -31.5s7.83398 -26.833 12.501 -46.5s8.66699 -34.167 12 -43.5c4.66699 -14 8 -31.833 10 -53.5s5 -39.5 9 -53.5l9 -34h98c30.667 0 55 -1 73 -3
s30.167 -4.16699 36.5 -6.5s16.666 -7.33301 30.999 -15s26.833 -13.834 37.5 -18.501c32.667 -16 58.667 -39 78 -69s39.333 -78.667 60 -146s24 -99.333 10 -96h-6l2 -1c4.66699 -1.33301 6.33398 -8 5.00098 -20c-1.33301 -6.66699 -4 -8.66699 -8 -6
c-3.33301 2 -8 -0.166992 -14 -6.5s-11.667 -5.5 -17 2.5c-5.33301 4.66699 -8.5 6.83398 -9.5 6.50098s-0.5 -3.5 1.5 -9.5c2 -5.33301 2.66699 -8.5 2 -9.5s-3.66699 -0.5 -9 1.5c-24 9.33301 -38 10 -42 2c-2.66699 -3.33301 -2.66699 -5 0 -5
c0.666992 0 1.33398 0.333008 2.00098 1c5.33301 2.66699 12 2 20 -2c7.33301 -4 3 -6 -13 -6c-12.667 -0.666992 -20.834 0.333008 -24.501 3s-8.16699 10.334 -13.5 23.001c-4 10 -13.833 39.667 -29.5 89s-25.5 79 -29.5 89c-12.667 28.667 -32.5 53 -59.5 73
s-55.167 31 -84.5 33c-24.667 1.33301 -39.5 0.833008 -44.5 -1.5s-7.5 -9.5 -7.5 -21.5c0 -27.333 7.16699 -69 21.5 -125s27.166 -92.333 38.499 -109c10.667 -14.667 5 -32.334 -17 -53.001c-6.66699 -6.66699 -24.5 -10.834 -53.5 -12.501s-49.167 0.5 -60.5 6.5
c-9.33301 5.33301 -16.666 15.333 -21.999 30s-17 60.334 -35 137.001c-58.667 231.333 -91.667 390.666 -99 477.999z" />
    <glyph glyph-name="i" unicode="i" horiz-adv-x="221" 
d="M136 -18c0 -2.66699 -4.32812 -4.33008 -12.9951 -4.99707s-18.834 -0.166992 -30.501 1.5s-21.5 4.16699 -29.5 7.5c-12.667 4.66699 -20.334 11.334 -23.001 20.001c-3.33301 11.333 -6.33301 73.666 -9 186.999s-2.33398 172.666 0.999023 177.999
c3.33301 8 16.666 14.833 39.999 20.5s39 5.16699 47 -1.5c1.33301 -2 5.66602 -2.33301 12.999 -1c10.667 4 19.667 -5.33301 27 -28c8.66699 -26.667 14 -66.334 16 -119.001c1.33301 -40 3.66602 -87 6.99902 -141c2.66699 -41.333 3.5 -67.5 2.5 -78.5
s-4.5 -19.833 -10.5 -26.5c-7.33301 -8.66699 -15.666 -12.334 -24.999 -11.001c-8.66699 2.66699 -13 1.66699 -13 -3zM62.0049 575.004c6.66699 0 10.665 2.33398 11.998 7.00098c2.66699 4.66699 11.334 8.33398 26.001 11.001s23.667 5.33398 27 8.00098
c5.33301 5.33301 10.166 5.83301 14.499 1.5s7.83301 -6.5 10.5 -6.5c10 -0.666992 18.667 -5.83398 26 -15.501s11.333 -22.167 12 -37.5c1.33301 -14.667 1 -24.334 -1 -29.001s-8.33301 -10.334 -19 -17.001c-20 -12.667 -45.167 -16.667 -75.5 -12
s-50.166 14.667 -59.499 30c-2 6 0.833008 17.5 8.5 34.5s13.834 25.5 18.501 25.5z" />
    <glyph glyph-name="j" unicode="j" horiz-adv-x="442" 
d="M317 399c0.666992 -3.33301 2.16797 -5.32617 4.50098 -5.99316s5.66602 -1 9.99902 -1s8.16602 -1 11.499 -3c26.667 -8.66699 47 -63.334 61 -164.001s12 -177.334 -6 -230.001c-7.33301 -22.667 -14 -37.834 -20 -45.501s-17.667 -17.167 -35 -28.5
c-10.667 -7.33301 -21.167 -11.833 -31.5 -13.5s-28.166 -2.83398 -53.499 -3.50098c-41.333 0 -68.666 1 -81.999 3c-56 10 -90 19.333 -102 28c-4.66699 2.66699 -8.16699 3.33398 -10.5 2.00098s-4.5 -1.5 -6.5 -0.5s-3.66699 4.5 -5 10.5
c-2 9.33301 -5.33301 11.666 -10 6.99902s-8.33398 -3.33398 -11.001 3.99902c-4 9.33301 3 22 21 38c12 11.333 21.333 17.833 28 19.5s18.667 1.5 36 -0.5c14.667 -2 39.167 -4.33301 73.5 -7s55.166 -4.33398 62.499 -5.00098c10.667 52 16 97.333 16 136
c0 26.667 -3.66699 60.5 -11 101.5s-14.666 69.5 -21.999 85.5c-14 30 -7.66699 52 19 66c8.66699 4.66699 18 8.16699 28 10.5s18.333 3.16602 25 2.49902s10 -2.66699 10 -6zM247.001 637.007c0 4 4.33301 10.667 13 20s16 15.333 22 18c18 6.66699 36.333 7 55 1
s30.667 -16.333 36 -31c8 -26 -6.33301 -46 -43 -60l-30 -12c-2.66699 3.33301 -8.5 10 -17.5 20s-16.833 19.167 -23.5 27.5s-10.667 13.833 -12 16.5z" />
    <glyph glyph-name="k" unicode="k" horiz-adv-x="499" 
d="M293 525c-0.666992 2 0.5 3.99902 3.5 5.99902s6.33301 3.66699 10 5s7 2.83301 10 4.5s4.5 3.5 4.5 5.5c0 4.66699 11.333 14.167 34 28.5s37.667 21.5 45 21.5c10.667 0 20 -4 28 -12c8.66699 -8 13 -7.66699 13 1c0 6 0.666992 9 2 9s5.33301 -3 12 -9
c10.667 -9.33301 15.334 -20 14.001 -32c-2 -4 -4.33301 -6.33301 -7 -7c-4 0 -5.33301 -3 -4 -9c2 -5.33301 -3 -11.666 -15 -18.999c-13.333 -8.66699 -37 -32.834 -71 -72.501s-51 -63.167 -51 -70.5c0 -3.33301 0.5 -5.83301 1.5 -7.5s2.5 -2.16699 4.5 -1.5
c10 4 27.5 -10.333 52.5 -43s47.167 -71.834 66.5 -117.501s26 -81.834 20 -108.501c-3.33301 -9.33301 -13.166 -18 -29.499 -26s-29.5 -10.667 -39.5 -8c-15.333 4 -29 14.167 -41 30.5s-29.333 48.166 -52 95.499c-38.667 80.667 -61 117.334 -67 110.001
c-0.666992 -1.33301 -1 -3.33301 -1 -6c0 -6 -3.66699 -7.33301 -11 -4c-6 2 -8 1 -6 -3c0.666992 -2.66699 0 -4.5 -2 -5.5s-4.5 -1.66699 -7.5 -2s-5.16699 -1.33301 -6.5 -3s-1 -4.16699 1 -7.5c1.33301 -4.66699 4 -39.667 8 -105c2 -46 2.66699 -73.5 2 -82.5
s-4.66699 -15.5 -12 -19.5c-8.66699 -4.66699 -23.834 -8 -45.501 -10s-33.834 -1 -36.501 3c-0.666992 2.66699 -7 3.33398 -19 2.00098c-18.667 -3.33301 -30.667 2.66699 -36 18s-10.666 59 -15.999 131c-10 141.333 -16.333 261.333 -19 360
c1.33301 0.666992 5.16602 3.5 11.499 8.5s11.166 8.66699 14.499 11s8 4.5 14 6.5s11.333 2.33301 16 1c6 -1.33301 17.333 -3.66602 34 -6.99902c25.333 -5.33301 41 -32 47 -80c7.33301 -62.667 15.666 -94 24.999 -94c4 0 8.33301 4 13 12
c0.666992 2.66699 15.334 19.334 44.001 50.001s43.334 48 44.001 52z" />
    <glyph glyph-name="l" unicode="l" horiz-adv-x="281" 
d="M190 -63c0.666992 -7.33301 -2 -10.6641 -8 -9.99707c-3.33301 0.666992 -5.33301 3 -6 7c0 4.66699 -5.33301 5.66699 -16 3s-22.334 1.33301 -35.001 12c-22 19.333 -37.5 50.166 -46.5 92.499s-16.167 116.833 -21.5 223.5c-5.33301 103.333 -14 207.333 -26 312
c-2.66699 21.333 -1 35.666 5 42.999c5.33301 6 18.833 9.16699 40.5 9.5s36.167 -2.5 43.5 -8.5c24.667 -20 41.834 -54.667 51.501 -104s18.167 -149.333 25.5 -300c4.66699 -82.667 9 -135 13 -157s12.667 -41 26 -57c10.667 -12.667 16 -24.334 16 -35.001
s-5.33301 -17 -16 -19c-9.33301 -1.33301 -16 -5 -20 -11s-7.33301 -5.66699 -10 1c-2.66699 6 -6 8.83301 -10 8.5s-6 -3.83301 -6 -10.5z" />
    <glyph glyph-name="m" unicode="m" horiz-adv-x="694" 
d="M578 274c0 -6 2.33691 -9.00293 7.00391 -9.00293c9.33301 0 22.166 -20.5 38.499 -61.5s28.166 -83.167 35.499 -126.5c4 -25.333 5.5 -40.833 4.5 -46.5s-5.83301 -13.167 -14.5 -22.5c-12 -12 -22 -18 -30 -18s-13 -2 -15 -6c-3.33301 -4.66699 -11 -5.5 -23 -2.5
s-20.667 7.83301 -26 14.5c-4 4.66699 -10 20.5 -18 47.5s-15.833 55.167 -23.5 84.5s-12.5 46.333 -14.5 51c-5.33301 16 -15.666 32.167 -30.999 48.5s-27 23.5 -35 21.5c-7.33301 -1.33301 -17.666 -14.666 -30.999 -39.999s-21.333 -47.666 -24 -66.999
c-3.33301 -15.333 -6.33301 -22.666 -9 -21.999c-0.666992 1.33301 -2.33398 1.83301 -5.00098 1.5s-5 -1.5 -7 -3.5c-8 -6.66699 -21.667 -10.334 -41 -11.001s-35.333 2 -48 8l-24 12v60c-0.666992 32 -3.83398 53 -9.50098 63s-17.834 15 -36.501 15
c-15.333 0 -28.5 -14.833 -39.5 -44.5s-16.833 -66.167 -17.5 -109.5c-0.666992 -32 -4.83398 -52 -12.501 -60s-25.834 -11.333 -54.501 -10l-41 2c-9.33301 108 2.33398 188 35.001 240c11.333 20.667 22 35 32 43s25 14 45 18c34.667 8.66699 75 5.66699 121 -9
c32 -9.33301 50.667 -16.666 56 -21.999c6 -4 18.667 -1 38 9c40 20.667 79 25 117 13c19.333 -6 41 -16.333 65 -31s36 -24.667 36 -30z" />
    <glyph glyph-name="n" unicode="n" horiz-adv-x="515" 
d="M459 -24c-4 0 -7.00391 -0.5 -9.00391 -1.5s-2.66699 -2.5 -2 -4.5c3.33301 -5.33301 -0.666992 -9.33301 -12 -12c-6.66699 -2 -14.667 -3 -24 -3c-13.333 0 -23.166 7 -29.499 21s-12.166 43 -17.499 87c-10 78.667 -29 142.334 -57 191.001
c-6.66699 12 -12.167 19.667 -16.5 23s-10.833 4.33301 -19.5 3c-11.333 -1.33301 -24.833 -9.83301 -40.5 -25.5s-27.834 -33.167 -36.501 -52.5c-8.66699 -17.333 -11.334 -47.666 -8.00098 -90.999c3.33301 -44 7.66602 -68 12.999 -72
c5.33301 -3.33301 6.66602 -8.66602 3.99902 -15.999c-3.33301 -7.33301 -12.666 -15.833 -27.999 -25.5s-27.333 -14.5 -36 -14.5c-13.333 0 -27 3.5 -41 10.5s-21.667 14.167 -23 21.5c-7.33301 24 -13.166 79.167 -17.499 165.5s-12.166 139.5 -23.499 159.5
c-6.66699 9.33301 -7 19 -1 29s15.667 17 29 21c4.66699 1.33301 9.5 2.5 14.5 3.5s9.33301 2 13 3s5.83398 1.5 6.50098 1.5c6 0.666992 15.167 -5.5 27.5 -18.5s19.833 -24.167 22.5 -33.5c2.66699 -10.667 6.66699 -16.334 12 -17.001c6 0 23 6.66699 51 20
c30.667 14.667 56.334 23.167 77.001 25.5s39.667 -1.16699 57 -10.5c14.667 -8 29.5 -20.833 44.5 -38.5s20.833 -29.167 17.5 -34.5c-2 -4 -0.666992 -4.66699 4 -2c3.33301 2 7.66602 -0.833008 12.999 -8.5s11 -18.667 17 -33s11.667 -29.833 17 -46.5
s9.83301 -33.834 13.5 -51.501s5.83398 -32.5 6.50098 -44.5c0.666992 -15.333 1.83398 -27.333 3.50098 -36s3 -14.334 4 -17.001s1 -8.5 0 -17.5s-3.5 -23.167 -7.5 -42.5c-2 -10.667 -8 -16 -18 -16z" />
    <glyph glyph-name="o" unicode="o" horiz-adv-x="534" 
d="M212 356c-12 0 -24.168 -21.666 -36.501 -64.999s-17.5 -82.333 -15.5 -117c1.33301 -23.333 6.5 -46.833 15.5 -70.5s18.833 -40.167 29.5 -49.5c7.33301 -6.66699 17 -6.83398 29 -0.500977s31.667 21.833 59 46.5c42.667 40.667 73.334 92.667 92.001 156
c4 14.667 5.66699 24.334 5 29.001s-5 11 -13 19c-11.333 11.333 -40 22.666 -86 33.999c-40.667 12 -67 18 -79 18zM342.999 394.001c10.667 -3.33301 23.165 -6.5 37.498 -9.5s30.833 -7.83301 49.5 -14.5c22.667 -8.66699 40.667 -21 54 -37s20 -33.333 20 -52
c0 -17.333 -6.66699 -45.833 -20 -85.5s-26 -68.834 -38 -87.501c-14 -22 -35.667 -46.333 -65 -73s-54 -44.667 -74 -54c-19.333 -8.66699 -48.5 -13.167 -87.5 -13.5s-67.833 3.83398 -86.5 12.501c-34 16 -59.833 41.167 -77.5 75.5s-26.167 74.833 -25.5 121.5
c1.33301 62.667 9.33301 116.167 24 160.5s34 73.833 58 88.5c12.667 8 26.667 11.833 42 11.5s38 -5.16602 68 -14.499c14.667 -4.66699 34.834 -9.33398 60.501 -14.001s45.834 -9.66699 60.501 -15z" />
    <glyph glyph-name="p" unicode="p" horiz-adv-x="601" 
d="M434 234c0 18.667 -8.5 36.999 -25.5 54.999s-40.167 33.333 -69.5 46c-18.667 7.33301 -43.334 13 -74.001 17s-47.667 3.66699 -51 -1c-0.666992 -10.667 2.16602 -32.5 8.49902 -65.5s9.83301 -53.833 10.5 -62.5c4 -30 8 -52 12 -66
c3.33301 -13.333 6.33301 -21 9 -23s9.33398 -1.66699 20.001 1c11.333 2.66699 20.5 5.33398 27.5 8.00098s15.333 6.5 25 11.5s19.834 9.83301 30.501 14.5c22 10 40.333 21.167 55 33.5s22 22.833 22 31.5zM102 435.999c18 9.33301 56.8311 11.1602 116.498 5.49316
s109.167 -16.167 148.5 -31.5c10 -4 24.5 -9 43.5 -15s32 -10.5 39 -13.5s16.667 -9 29 -18s25.166 -20.5 38.499 -34.5c35.333 -37.333 53.333 -70.666 54 -99.999s-15.666 -59.333 -48.999 -90c-24 -21.333 -59.667 -42.166 -107 -62.499s-87.333 -31.833 -120 -34.5
l-45 -5v-46c0.666992 -33.333 0.5 -52.666 -0.5 -57.999s-5.83301 -12 -14.5 -20c-6.66699 -6 -13.334 -9.66699 -20.001 -11s-18.334 -1.66602 -35.001 -0.999023c-27.333 2.66699 -45.333 6.33398 -54 11.001c-12.667 6.66699 -23.167 25.167 -31.5 55.5
s-17.5 83.5 -27.5 159.5c-10 72.667 -19 124.334 -27 155.001c-1.33301 6.66699 -3.16602 15 -5.49902 25s-3.66602 16.333 -3.99902 19s-0.166016 6.5 0.500977 11.5s2.83398 8.66699 6.50098 11s9.16699 4.83301 16.5 7.5c9.33301 2.66699 15 5.83398 17 9.50098
s2 10.5 0 20.5c-2.66699 13.333 -2 23 2 29s13.667 13 29 21z" />
    <glyph glyph-name="q" unicode="q" horiz-adv-x="616" 
d="M171 206c0 -8.66699 1.33301 -13.999 4 -15.999s9.33398 -3 20.001 -3c17.333 0 36.666 10.167 57.999 30.5s39.333 46.166 54 77.499c16 32 26 55.333 30 70c2.66699 10.667 1.16699 16.667 -4.5 18s-18.167 -0.666992 -37.5 -6c-21.333 -6.66699 -47.333 -31 -78 -73
s-46 -74.667 -46 -98zM30 213.001c0 14.667 6.50195 34.8311 19.502 60.498s27.5 46.834 43.5 63.501c21.333 22.667 34.333 38.667 39 48c6.66699 12.667 22 29.834 46 51.501s41 33.5 51 35.5c17.333 4.66699 33.333 7 48 7s32.334 -4.66699 53.001 -14
c14.667 -6 25.667 -5.33301 33 2c12.667 12.667 35.167 15 67.5 7s50.5 -20.333 54.5 -37c2 -10 -0.666992 -34 -8 -72c-12.667 -54.667 -18.834 -116.834 -18.501 -186.501s6.83301 -124.5 19.5 -164.5l11 -35h34c13.333 0.666992 23.166 -0.166016 29.499 -2.49902
s12.833 -7.16602 19.5 -14.499c8 -10 12.667 -18.667 14 -26c0 -10.667 -5.16699 -23.5 -15.5 -38.5s-21.166 -25.833 -32.499 -32.5c-16.667 -9.33301 -40.334 -12.333 -71.001 -9c-17.333 0.666992 -33.166 5.33398 -47.499 14.001s-24.5 17 -30.5 25s-14 20 -24 36
c-7.33301 15.333 -15.833 41.166 -25.5 77.499s-14.834 63.166 -15.501 80.499c-0.666992 16 -3.33398 24.833 -8.00098 26.5s-15.667 -1.83301 -33 -10.5c-14 -7.33301 -35 -11.833 -63 -13.5s-53.667 -0.166992 -77 4.5c-31.333 6.66699 -58 21.5 -80 44.5
s-33 47.167 -33 72.5z" />
    <glyph glyph-name="r" unicode="r" horiz-adv-x="551" 
d="M462 406c7.33301 0 19.667 -8.66699 37 -26c10.667 -10.667 17.5 -20.167 20.5 -28.5s2.16699 -15.666 -2.5 -21.999s-13.334 -12.5 -26.001 -18.5c-14 -6.66699 -25.833 -8.83398 -35.5 -6.50098s-21.834 10.166 -36.501 23.499c-8 7.33301 -24.167 13.666 -48.5 18.999
s-45.166 7 -62.499 5c-27.333 -2.66699 -45.166 -6.16699 -53.499 -10.5s-15.833 -13.166 -22.5 -26.499c-7.33301 -15.333 -11.5 -41.166 -12.5 -77.499s1.83301 -69.5 8.5 -99.5c6 -26 9.66699 -51.667 11 -77c1.33301 -17.333 1.16602 -28.666 -0.500977 -33.999
s-6.16699 -10 -13.5 -14c-17.333 -8.66699 -39 -11.334 -65 -8.00098s-41.667 11 -47 23c-9.33301 27.333 -25 90 -47 188l-36 161c-1.33301 8 3.33398 14.833 14.001 20.5s22.667 8.5 36 8.5s25.666 -3 36.999 -9c8.66699 -4.66699 20 -2.33398 34 6.99902
c16 10.667 38.333 19.5 67 26.5s57.334 10.167 86.001 9.5c23.333 0.666992 51 -2.16602 83 -8.49902s51.333 -12.833 58 -19.5c4 -4 9.66699 -6 17 -6z" />
    <glyph glyph-name="s" unicode="s" horiz-adv-x="478" 
d="M288 46c7.33301 0 14.499 11.5 21.499 34.5s9.5 43.833 7.5 62.5c-3.33301 26 -9.83301 42.167 -19.5 48.5s-34.167 10.5 -73.5 12.5c-57.333 3.33301 -100.666 11.5 -129.999 24.5s-49.333 33.167 -60 60.5c-5.33301 14 -6 23.333 -2 28c78 102.667 153 170 225 202
c31.333 13.333 55.833 20 73.5 20s33.5 -6.66699 47.5 -20c18 -16.667 24.667 -32 20 -46s-19.334 -23.333 -44.001 -28c-27.333 -6 -60.166 -25.667 -98.499 -59s-61.833 -59 -70.5 -77c-2.66699 -8 0 -13 8 -15c8.66699 -2 36.667 -2.66699 84 -2
c53.333 0.666992 96.166 -16.5 128.499 -51.5s46.5 -79.167 42.5 -132.5c-11.333 -127.333 -81.333 -174 -210 -140c-25.333 6.66699 -49.166 10 -71.499 10s-37.166 -3 -44.499 -9c-4 -4 -12 -6.66699 -24 -8c-24.667 -4 -32.334 12 -23.001 48
c4.66699 18.667 15.667 32.334 33 41.001c36 17.333 80 19.666 132 6.99902c28 -7.33301 44 -11 48 -11z" />
    <glyph glyph-name="t" unicode="t" horiz-adv-x="414" 
d="M74 598c-9.33301 21.333 -0.334961 36.665 26.998 45.998s51.333 7.66602 72 -5.00098c14.667 -7.33301 24.834 -19.5 30.501 -36.5s11.167 -50.833 16.5 -101.5c7.33301 -65.333 11.666 -98.666 12.999 -99.999s10.166 0.833984 26.499 6.50098s31.5 12.167 45.5 19.5
c9.33301 4.66699 23.333 6.33398 42 5.00098c11.333 -0.666992 19 -2.33398 23 -5.00098s7.66699 -8 11 -16c3.33301 -8.66699 4 -15.5 2 -20.5s-9 -12.833 -21 -23.5c-25.333 -22 -64.333 -44 -117 -66c2 -36 8.66699 -83 20 -141c8 -40.667 10.833 -67 8.5 -79
s-12.5 -21 -30.5 -27c-13.333 -4.66699 -32.166 -5 -56.499 -1s-39.833 9.66699 -46.5 17c-10 18.667 -21 87 -33 205c-15.333 1.33301 -31.166 5.83301 -47.499 13.5s-25.833 15.167 -28.5 22.5c-2.66699 6.66699 0.5 15.334 9.5 26.001s19.833 18.667 32.5 24
c10 4 16.333 7.83301 19 11.5s3.33398 9.5 2.00098 17.5c-0.666992 4.66699 -3.16699 38.5 -7.5 101.5s-8.5 98.5 -12.5 106.5z" />
    <glyph glyph-name="u" unicode="u" horiz-adv-x="473" 
d="M320 390c30 0 53.8262 -8.00391 71.4932 -24.0039s30.834 -41.667 39.501 -77c4.66699 -17.333 7.33398 -38 8.00098 -62s-0.666016 -40 -3.99902 -48c-3.33301 -8.66699 -2.33301 -13 3 -13s6.33301 -2.66699 3 -8c-3.33301 -4 -5.66602 -10.667 -6.99902 -20
c-7.33301 -48.667 -29.166 -85.834 -65.499 -111.501s-84.5 -38.167 -144.5 -37.5c-46 0.666992 -85 12.834 -117 36.501s-51.667 55.5 -59 95.5l-6.5 33.5c-2.33301 12.333 -3.83301 21 -4.5 26s-1.66699 11.5 -3 19.5s-2.16602 16 -2.49902 24
s-0.666016 17.833 -0.999023 29.5s-0.5 27.167 -0.5 46.5c0 41.333 0.833008 67 2.5 77s6.16699 17.667 13.5 23c11.333 8.66699 28.5 12.334 51.5 11.001s39.5 -7 49.5 -17c6.66699 -7.33301 10.834 -16.166 12.501 -26.499s2.5 -32.166 2.5 -65.499
c1.33301 -60 5.33301 -103.667 12 -131c2 -16 7.83301 -32.667 17.5 -50s18.834 -28 27.501 -32c19.333 -8.66699 36.666 -10.167 51.999 -4.5s26.666 17.834 33.999 36.501c7.33301 18 11.833 33.833 13.5 47.5s2.83398 41.167 3.50098 82.5v81l-27 10
c-26.667 10.667 -36.334 21.667 -29.001 33c6.66699 10 24.667 15 54 15z" />
    <glyph glyph-name="v" unicode="v" horiz-adv-x="524" 
d="M291 -3c-30.667 0 -53 4.33594 -67 13.0029s-27.333 27 -40 55c-73.333 157.333 -118.333 239.333 -135 246c-7.33301 2 -12.833 8.66699 -16.5 20s-3.83398 22.666 -0.500977 33.999c4 18.667 28.667 30.667 74 36c26.667 3.33301 49 -2.33398 67 -17.001
s38.333 -43.667 61 -87c16 -30.667 25.333 -46 28 -46c4 6.66699 8.66699 18.167 14 34.5s10.833 34.333 16.5 54s9.83398 33.167 12.501 40.5c5.33301 12.667 9.16602 26 11.499 40s7.5 26.333 15.5 37c10 14 14.667 21.667 14 23c-2 10 2.5 15.833 13.5 17.5
s17.5 3.83398 19.5 6.50098c10 8 25.333 11.5 46 10.5s37.334 -3.83301 50.001 -8.5c3.33301 -1.33301 4.33301 -4 3 -8s-1.83301 -7.16699 -1.5 -9.5s2.83301 -2.5 7.5 -0.5c6.66699 2.66699 10 0.333984 10 -6.99902c-0.666992 -6.66699 -4.33398 -16.667 -11.001 -30
c-15.333 -26.667 -33.166 -79.834 -53.499 -159.501s-32.833 -138.834 -37.5 -177.501c-6 -44.667 -16 -75.334 -30 -92.001s-37.667 -25 -71 -25z" />
    <glyph glyph-name="w" unicode="w" horiz-adv-x="711" 
d="M666 434c2.66699 -0.666992 4.66797 1.16699 6.00098 5.5s1.66602 9 0.999023 14s-1.66699 7.83301 -3 8.5l-7 -16c-0.666992 -7.33301 0.333008 -11.333 3 -12zM343.001 82.001c-3.33301 0 -5.66602 -10.335 -6.99902 -31.002c-1.33301 -22 -7 -36.5 -17 -43.5
s-29.333 -10.833 -58 -11.5c-30.667 0 -49.334 2.66699 -56.001 8c-10 7.33301 -26.667 33.666 -50 78.999s-42 84.666 -56 117.999c-4 8 -10.333 24.667 -19 50l-24.5 70c-7.66699 21.333 -13.167 33 -16.5 35c-4.66699 4 -7.5 9.83301 -8.5 17.5s0.5 13.834 4.5 18.501
c11.333 14.667 31.166 23.834 59.499 27.501s49.166 -0.166016 62.499 -11.499c6.66699 -5.33301 16.834 -22.833 30.501 -52.5s20.5 -48.5 20.5 -56.5l1 -2c8 -31.333 14 -43 18 -35c0.666992 2 1.33398 4.33301 2.00098 7c2 5.33301 5.5 26.5 10.5 63.5
s9.83301 58.167 14.5 63.5c9.33301 15.333 30.666 24.333 63.999 27s54 -2.66602 62 -15.999c4 -7.33301 11.667 -28.333 23 -63s19 -61 23 -79c6.66699 -30.667 18.667 -60.667 36 -90c6 -10 10 -14 12 -12c6.66699 6.66699 20.334 54.667 41.001 144
c11.333 51.333 19 80.666 23 87.999c1.33301 2.66699 3.66602 17.334 6.99902 44.001c0.666992 13.333 9.66699 26.833 27 40.5s35 20.167 53 19.5c26.667 -6 42.667 -13.333 48 -22c5.33301 -6 7.83301 -13.333 7.5 -22s-4.16602 -29 -11.499 -61
c-14 -66 -25.333 -117.333 -34 -154c-14 -63.333 -25 -107 -33 -131s-17.333 -42 -28 -54c-24 -26.667 -59.833 -39 -107.5 -37s-82.5 17 -104.5 45c-10 12.667 -16.333 19 -19 19z" />
    <glyph glyph-name="x" unicode="x" horiz-adv-x="519" 
d="M419 494c0 -4 3.66895 -8.50098 11.002 -13.501s10.666 -10.167 9.99902 -15.5c0 -9.33301 -5 -23 -15 -41s-21 -33.333 -33 -46c-10.667 -10.667 -18 -20 -22 -28s-10.333 -16.667 -19 -26c-14 -15.333 -24.667 -29.666 -32 -42.999
c-6 -10.667 -8.66699 -18.167 -8 -22.5s5.66699 -13.166 15 -26.499c14.667 -20 27.334 -40.667 38.001 -62c27.333 -52 46.5 -86.833 57.5 -104.5s20.833 -28.834 29.5 -33.501c24.667 -13.333 37.334 -29 38.001 -47c0 -6 -1.83301 -10.333 -5.5 -13
s-10.5 -5.66699 -20.5 -9c-39.333 -10.667 -74.333 -9 -105 5c-16 8 -31.333 20.667 -46 38s-33.334 45.666 -56.001 84.999l-33 55c-3.33301 -6.66699 -10.5 -19 -21.5 -37s-19.167 -32.667 -24.5 -44c-11.333 -20 -24.666 -33.667 -39.999 -41
c-19.333 -10 -41.333 -13.167 -66 -9.5s-38.334 11.834 -41.001 24.501c-1.33301 6.66699 1.16699 16.667 7.5 30s11.833 20 16.5 20c2 0 3.5 1.5 4.5 4.5s1.5 6.33301 1.5 10s0.666992 7 2 10s3 4.16699 5 3.5c3.33301 0 5.66602 -2.5 6.99902 -7.5s4 -7.16699 8 -6.5
c5.33301 0 5 3.33301 -1 10c-8.66699 10.667 -3.66699 23.667 15 39c2.66699 4 9.66699 15.667 21 35s20 32.666 26 39.999c9.33301 12.667 13.666 25.167 12.999 37.5s-7 26.833 -19 43.5c-8.66699 12.667 -22.5 39.167 -41.5 79.5s-28.5 63.833 -28.5 70.5
c0 21.333 19.333 32 58 32c25.333 0 44.333 -4.5 57 -13.5s24.667 -26.833 36 -53.5c13.333 -30.667 22.666 -46 27.999 -46c4.66699 0 15.834 13.167 33.501 39.5s28.167 45.166 31.5 56.499c2.66699 10.667 10 19.334 22 26.001c11.333 6.66699 19.5 10.334 24.5 11.001
s16.833 -0.333008 35.5 -3c17.333 -4 26 -8.33301 26 -13z" />
    <glyph glyph-name="y" unicode="y" horiz-adv-x="524" 
d="M407 554c10.667 0 25.1738 -4.99609 43.5068 -14.9961s29.166 -18.667 32.499 -26c4 -8 7.33301 -113 10 -315c2 -112 -0.333008 -180 -7 -204c-4.66699 -17.333 -11.834 -34 -21.501 -50s-17.167 -24 -22.5 -24c-2.66699 0 -14.334 -7 -35.001 -21
c-43.333 -30 -119.333 -45 -228 -45c-48.667 -0.666992 -83.334 1.33301 -104.001 6s-34.334 13.667 -41.001 27c-8.66699 14.667 -3 24.667 17 30c14 4 40.667 7.33301 80 10c121.333 8 187.333 19.333 198 34c6.66699 7.33301 11.334 10.666 14.001 9.99902
c1.33301 0 2.5 1.16699 3.5 3.5s2 8.16602 3 17.499s2 22.333 3 39s2.16699 40 3.5 70l4 101c-12 -2 -24.333 -5.33301 -37 -10s-25.334 -8 -38.001 -10s-29.667 -2 -51 0c-36.667 2.66699 -66 10 -88 22c-66 38.667 -98.667 109 -98 211c0 28.667 1 47.167 3 55.5
s6.66699 15.5 14 21.5c18.667 14 43.334 14 74.001 0c14 -6.66699 23.167 -14.834 27.5 -24.501s7.16602 -26.834 8.49902 -51.501c0.666992 -44.667 10.167 -80.667 28.5 -108s41.166 -39.666 68.499 -36.999c10 0.666992 22.667 9.66699 38 27s25.666 34 30.999 50
c6 17.333 9.16699 42.166 9.5 74.499s-2.16699 51.833 -7.5 58.5c-6.66699 8.66699 -7.5 19.167 -2.5 31.5s13.833 21.833 26.5 28.5c16 8.66699 29.333 13 40 13z" />
    <glyph glyph-name="z" unicode="z" horiz-adv-x="585" 
d="M472 392c0 -8.66699 -6.99805 -25.498 -20.998 -50.498s-28.333 -46.167 -43 -63.5c-30 -36.667 -59.667 -70.334 -89 -101.001s-46.333 -46 -51 -46c-4 0 -9 -3.5 -15 -10.5s-7.66699 -11.833 -5 -14.5c5.33301 -5.33301 49.333 -4.66602 132 2.00098
c100.667 9.33301 156.667 6 168 -10c6.66699 -9.33301 8.66699 -18.5 6 -27.5s-9 -16.167 -19 -21.5c-15.333 -7.33301 -55.333 -14.666 -120 -21.999s-124.334 -11.333 -179.001 -12c-68 -0.666992 -115 3.66602 -141 12.999c-22 8.66699 -36 17 -42 25
s-5.16699 17.5 2.5 28.5s23.5 26.167 47.5 45.5c31.333 24 65 53.333 101 88c22.667 22 46 48 70 78s36 48.333 36 55c0 4 -24.333 7.33301 -73 10c-94 6.66699 -157 25 -189 55c-10.667 10 -16.5 16.667 -17.5 20s1.16699 9.33301 6.5 18c8 11.333 19.667 19.333 35 24
c16 4.66699 26.5 6.66699 31.5 6s17.833 -4.66699 38.5 -12c18 -6.66699 52.333 -13.334 103 -20.001s80.667 -8.33398 90 -5.00098c5.33301 2 24 0.666992 56 -4c25.333 -3.33301 45.166 -9.33301 59.499 -18s21.5 -18.667 21.5 -30z" />
    <glyph glyph-name="uni0093" horiz-adv-x="281" 
d="M157 227c0 5.33301 -2.33398 7.50098 -7.00098 6.50098s-7.66699 0.5 -9 4.5c-2 6 -8.66699 4 -20 -6c-16.667 -14.667 -36 -17.834 -58 -9.50098s-33 22.5 -33 42.5c0 12.667 3.66699 38.667 11 78c4.66699 24 8.83398 40.833 12.501 50.5s9.5 17.834 17.5 24.501
c24 20.667 48 21.334 72 2.00098c10 -8.66699 27.333 -11.667 52 -9c14.667 1.33301 25.334 1.16602 32.001 -0.500977s12.5 -6.83398 17.5 -15.501s7.16699 -21.667 6.5 -39s-1 -41 -1 -71c-0.666992 -27.333 -4.16699 -46 -10.5 -56s-17.833 -15.333 -34.5 -16
c-20.667 0 -33.834 0.833008 -39.501 2.5s-8.5 5.5 -8.5 11.5z" />
    <glyph glyph-name="uni0094" horiz-adv-x="297" 
d="M267 308c0 -12.667 -2.66699 -23.002 -8 -31.002c-6.66699 -7.33301 -18.167 -12 -34.5 -14s-27.5 0.333008 -33.5 7c-3.33301 3.33301 -7.5 11.5 -12.5 24.5s-8.83301 25.333 -11.5 37s-3 17.5 -1 17.5s-2 6.33301 -12 19c-4 5.33301 -5 8.33301 -3 9
c4 0 2.66699 4 -4 12c-4 4.66699 -5.5 8.83398 -4.5 12.501s5.83301 8.83398 14.5 15.501c10 8.66699 22.5 14 37.5 16s26.5 0.333008 34.5 -5c5.33301 -2.66699 13 -20.167 23 -52.5s15 -54.833 15 -67.5zM82 271.998c-15.333 0 -25.832 3.49902 -31.499 10.499
s-8.5 19.833 -8.5 38.5c0 19.333 -2.66699 39 -8 59c-10.667 26 0 44.667 32 56c22 4.66699 38.333 3.33398 49 -3.99902c15.333 -11.333 23.666 -43 24.999 -95c0 -19.333 -5.5 -35 -16.5 -47s-24.833 -18 -41.5 -18z" />
    <glyph glyph-name=".null" horiz-adv-x="0" 
 />
    <glyph glyph-name="nonmarkingreturn" horiz-adv-x="333" 
 />
    </font>
</defs>
</svg>
