<?xml version="1.0" standalone="no"?>
<!DOCTYPE svg PUBLIC "-//W3C//DTD SVG 1.1//EN" "http://www.w3.org/Graphics/SVG/1.1/DTD/svg11.dtd" >
<!--
2016-3-15: Created.
-->
<svg>
<metadata>
Created by FontForge 20110222 at Tue Mar 15 20:28:31 2016
 By app
Copyright (c) 2016, Metaflop (http://www.metaflop.com), Simon Egli, Marco Mueller, Alexis Reigel, with Reserved Font Name Bespoke. Dual licensed under the GPL v3 (http://www.gnu.org/copyleft/gpl.html) and the OFL v1.1 (http://scripts.sil.org/OFL_web).
</metadata>
<defs>
<font id="Bespoke-LaaDCX2ge-" horiz-adv-x="822" >
  <font-face 
    font-family="Bespoke"
    font-weight="500"
    font-stretch="normal"
    units-per-em="1000"
    panose-1="2 0 6 3 0 0 0 0 0 0"
    ascent="800"
    descent="-200"
    x-height="640"
    cap-height="780"
    bbox="-183 -604 1600 1100"
    underline-thickness="50"
    underline-position="-100"
    unicode-range="U+0020-FB04"
  />
    <missing-glyph />
    <glyph glyph-name="guillemotleft" unicode="&#x3c;&#x3c;" horiz-adv-x="813" 
d="M175 320l232 -320h-98l-231 320l231 320h98zM504 320l231 -320h-97l-231 320l231 320h97z" />
    <glyph glyph-name="endash" unicode="&#x2d;&#x2d;" horiz-adv-x="813" 
d="M52 294v51h709v-51h-709z" />
    <glyph glyph-name="emdash" unicode="&#x2013;&#x2d;" horiz-adv-x="1419" 
d="M52 294v51h1315v-51h-1315z" />
    <glyph glyph-name="quotedblleft" unicode="&#x2018;&#x2018;" horiz-adv-x="796" 
d="M131 527l154 253h70l-131 -253h-93zM584 780h69l-130 -253h-94z" />
    <glyph glyph-name="fi" unicode="fi" horiz-adv-x="813" 
d="M61 589v51h141v161c0 28 7 57 30 72c30 19 75 19 114 19h245c39 0 84 0 114 -19c22 -14 29 -41 30 -68l-87 -2c0 12 -3 23 -12 30c-12 8 -29 8 -45 8h-245c-16 0 -33 0 -45 -8c-10 -7 -12 -20 -12 -32v-161h420v-640h-86v589h-334v-589h-87v589h-141z" />
    <glyph glyph-name="quotedblright" unicode="&#x2019;&#x2019;" horiz-adv-x="796" 
d="M143 527l130 253h94l-155 -253h-69zM572 780h93l-155 -253h-69z" />
    <glyph glyph-name="fl" unicode="fl" horiz-adv-x="856" 
d="M61 589v51h142v181c0 22 6 45 24 56c24 15 59 15 90 15h119c31 0 66 0 90 -15c16 -10 23 -28 24 -47l-87 -7c-1 15 -12 18 -27 18h-119c-16 0 -28 -3 -28 -20v-181h156v-51h-156v-589h-86v589h-142zM666 0v880h87v-880h-87z" />
    <glyph glyph-name="guillemotright" unicode="&#x3e;&#x3e;" horiz-adv-x="813" 
d="M407 320l-232 -320h-97l231 320l-231 320h97zM735 320l-231 -320h-97l231 320l-231 320h97z" />
    <glyph glyph-name="macron" unicode="&#xaf;" horiz-adv-x="363" 
d="M-39 660v45h441v-45h-441z" />
    <glyph glyph-name="k" unicode="k" horiz-adv-x="753" 
d="M112 880h87v-622l457 382h79l-316 -264l316 -376h-128l-262 314l-146 -122v-192h-87v880z" />
    <glyph glyph-name="Aacute" unicode="&#xc1;" horiz-adv-x="960" 
d="M17 0l436 780h54l436 -780h-99l-124 221h-520l-123 -221h-60zM559 994h128l-186 -156h-94zM692 272l-232 414l-231 -414h463z" />
    <glyph glyph-name="n" unicode="n" 
d="M640 0v540c0 28 -2 61 -27 61h-306c-32 0 -67 -1 -92 -16c-19 -12 -25 -34 -25 -56v-529h-86v640h86v-3c35 15 77 15 117 15h306c33 0 68 -2 90 -26c24 -25 24 -62 24 -97v-529h-87z" />
    <glyph glyph-name="w" unicode="w" horiz-adv-x="1116" 
d="M9 640h98l292 -543l129 240l-163 303h99l114 -211l113 211h60l-143 -267l148 -276l292 543h59l-344 -640h-54l-151 281l-151 -281h-54z" />
    <glyph glyph-name="questiondown" unicode="&#xbf;" horiz-adv-x="744" 
d="M380 432h87v-302h-196c-23 0 -46 -7 -57 -27c-15 -28 -15 -69 -15 -105v-397c0 -36 0 -76 15 -104c11 -20 34 -28 57 -28c101 0 219 0 298 28c46 16 80 56 80 104v37h86v-37c0 -51 0 -107 -33 -145c-30 -35 -79 -38 -125 -38h-306c-46 0 -95 3 -125 38
c-33 38 -34 94 -34 145v397c0 51 1 107 34 145c30 35 79 38 125 38h109v251zM424 665c17 0 34 0 46 -12s12 -29 12 -46s0 -34 -12 -46s-29 -12 -46 -12s-34 0 -46 12s-12 29 -12 46s0 34 12 46s29 12 46 12z" />
    <glyph glyph-name="Iacute" unicode="&#xcd;" horiz-adv-x="364" 
d="M138 0v780h87v-780h-87zM261 994h127l-185 -156h-94z" />
    <glyph glyph-name="Rcaron" unicode="&#x158;" horiz-adv-x="874" 
d="M121 0v780h492c59 0 126 0 172 -26c33 -19 45 -59 45 -98v-220c0 -39 -12 -79 -45 -98c-46 -26 -113 -27 -172 -27h-10l262 -311h-119l-249 311h-289v-311h-87zM530 994h99l-165 -156h-133l-164 156h99l132 -104zM208 729v-367h405c35 0 76 1 103 16c20 11 28 35 28 58
v220c0 23 -8 47 -28 58c-27 15 -68 15 -103 15h-405z" />
    <glyph glyph-name="Nacute" unicode="&#x143;" horiz-adv-x="1081" 
d="M121 0v780h54l698 -670v670h87v-780h-54l-698 670v-670h-87zM620 994h127l-185 -156h-95z" />
    <glyph glyph-name="Ncaron" unicode="&#x147;" horiz-adv-x="1081" 
d="M121 0v780h54l698 -670v670h87v-780h-54l-698 670v-670h-87zM673 994h98l-164 -156h-133l-164 156h98l132 -104z" />
    <glyph glyph-name="lslash" unicode="&#x142;" horiz-adv-x="398" 
d="M156 508v372h86v-330l138 67v-90l-138 -67v-460h-86v418l-139 -67v90z" />
    <glyph glyph-name="adieresis" unicode="&#xe4;" horiz-adv-x="813" 
d="M70 527c2 33 10 65 33 89c32 33 82 36 128 36h317c46 0 95 -3 127 -36c33 -35 34 -86 34 -134v-482h-76c-25 -12 -56 -12 -85 -12h-317c-44 0 -94 0 -128 24c-28 20 -34 56 -34 91v191c0 35 6 71 34 91c34 24 84 24 128 24h317c25 0 52 -8 75 -8v81c0 32 0 69 -16 94
c-12 19 -36 25 -59 25h-317c-23 0 -47 -6 -59 -25c-10 -15 -14 -35 -15 -55zM234 936c17 0 35 0 47 -12s13 -31 13 -48s-1 -35 -13 -47s-30 -13 -47 -13s-36 1 -48 13s-13 30 -13 47s1 36 13 48s31 12 48 12zM545 936c17 0 35 0 47 -12s13 -31 13 -48s-1 -35 -13 -47
s-30 -13 -47 -13s-36 1 -48 13s-12 30 -12 47s0 36 12 48s31 12 48 12zM548 358h-317c-21 0 -43 0 -59 -13c-14 -12 -16 -32 -16 -51v-191c0 -19 2 -39 16 -51c16 -13 38 -13 59 -13h317c21 0 43 0 59 13c14 12 16 32 16 51v191c0 19 -2 39 -16 51c-16 13 -38 13 -59 13z
" />
    <glyph glyph-name="Idieresis" unicode="&#xcf;" horiz-adv-x="364" 
d="M138 0v780h87v-780h-87zM26 955c17 0 36 0 48 -12s12 -31 12 -48s0 -35 -12 -47s-31 -13 -48 -13s-35 1 -47 13s-13 30 -13 47s1 36 13 48s30 12 47 12zM337 955c17 0 36 0 48 -12s13 -31 13 -48s-1 -35 -13 -47s-31 -13 -48 -13s-35 1 -47 13s-13 30 -13 47s1 36 13 48
s30 12 47 12z" />
    <glyph glyph-name="Zdotaccent" unicode="&#x17b;" horiz-adv-x="882" 
d="M43 729v51h796v-54l-679 -675h679v-51h-796v54l679 675h-679zM441 955c17 0 36 0 48 -12s12 -31 12 -48s0 -35 -12 -47s-31 -13 -48 -13s-35 1 -47 13s-13 30 -13 47s1 36 13 48s30 12 47 12z" />
    <glyph glyph-name="ucircumflex" unicode="&#xfb;" 
d="M718 640v-640h-77c-24 -11 -54 -12 -82 -12h-305c-44 0 -93 0 -126 26c-28 22 -33 61 -33 97v529h87v-529c0 -21 1 -43 15 -57s37 -15 57 -15h305c20 0 43 1 57 15s15 36 15 57v529h87zM406 923l-132 -104h-98l164 156h133l164 -156h-98z" />
    <glyph glyph-name="dcaron" unicode="&#x10f;" horiz-adv-x="891" 
d="M778 0h-86v2c-25 -12 -57 -14 -86 -14h-364c-49 0 -102 1 -137 34c-34 32 -36 82 -36 129v337c0 47 2 97 36 129c35 33 88 35 137 35h364c29 0 61 -3 86 -15v243h86v-880zM986 880h93l-156 -253h-69zM606 601h-364c-25 0 -53 -4 -68 -24c-18 -24 -18 -58 -18 -89v-337
c0 -31 0 -64 18 -88c15 -20 43 -24 68 -24h364c25 0 53 4 68 24c18 24 18 57 18 88v337c0 31 0 65 -18 89c-15 20 -43 24 -68 24z" />
    <glyph glyph-name="Ecircumflex" unicode="&#xca;" horiz-adv-x="804" 
d="M121 0v780h623v-51h-536v-329h493v-51h-493v-298h536v-51h-623zM432 942l-132 -104h-98l164 156h133l164 -156h-98z" />
    <glyph glyph-name="Lacute" unicode="&#x139;" horiz-adv-x="796" 
d="M121 0v780h87v-729h536v-51h-623zM243 994h128l-185 -156h-95z" />
    <glyph glyph-name="ffl" unicode="&#xfb04;" horiz-adv-x="1202" 
d="M61 589v51h140v181c0 22 6 45 24 56c24 15 60 15 91 15h117c31 0 66 0 90 -15c16 -10 22 -28 23 -47l-86 -7c-1 15 -12 18 -27 18h-117c-16 0 -28 -3 -28 -20v-181h307v181c0 22 6 45 24 56c24 15 59 15 90 15h117c31 0 66 0 90 -15c16 -10 23 -28 24 -47l-86 -7
c-1 15 -13 18 -28 18h-117c-16 0 -27 -3 -27 -20v-181h159v-51h-159v-589h-87v589h-307v-589h-87v589h-140zM1012 0v880h87v-880h-87z" />
    <glyph glyph-name="nacute" unicode="&#x144;" 
d="M640 0v540c0 28 -2 61 -27 61h-306c-32 0 -67 -1 -92 -16c-19 -12 -25 -34 -25 -56v-529h-86v640h86v-3c35 15 77 15 117 15h306c33 0 68 -2 90 -26c24 -25 24 -62 24 -97v-529h-87zM494 975h128l-185 -156h-95z" />
    <glyph glyph-name="Oacute" unicode="&#xd3;" horiz-adv-x="1211" 
d="M684 994h128l-185 -156h-95zM905 741h-599c-40 0 -84 -1 -112 -29s-29 -71 -29 -111v-422c0 -40 1 -83 29 -111s72 -29 112 -29h599c40 0 84 1 112 29s29 71 29 111v422c0 40 -1 83 -29 111s-72 29 -112 29zM905 792c64 0 132 0 180 -40c42 -36 48 -95 48 -151v-422
c0 -56 -6 -115 -48 -151c-48 -40 -116 -40 -180 -40h-599c-64 0 -132 0 -180 40c-42 36 -48 95 -48 151v422c0 56 6 115 48 151c48 40 116 40 180 40h599z" />
    <glyph glyph-name="q" unicode="q" horiz-adv-x="882" 
d="M778 -570h-86v572c-25 -12 -57 -14 -86 -14h-364c-49 0 -102 1 -137 34c-34 32 -36 82 -36 129v337c0 47 2 97 36 129c35 33 88 35 137 35h364c29 0 61 -3 86 -15v3h86v-1210zM606 601h-364c-25 0 -53 -4 -68 -24c-18 -24 -18 -58 -18 -89v-337c0 -31 0 -64 18 -88
c15 -20 43 -24 68 -24h364c25 0 53 4 68 24c18 24 18 57 18 88v337c0 31 0 65 -18 89c-15 20 -43 24 -68 24z" />
    <glyph glyph-name="uring" unicode="&#x16f;" 
d="M718 640v-640h-77c-24 -11 -54 -12 -82 -12h-305c-44 0 -93 0 -126 26c-28 22 -33 61 -33 97v529h87v-529c0 -21 1 -43 15 -57s37 -15 57 -15h305c20 0 43 1 57 15s15 36 15 57v529h87zM466 958h-119c-8 0 -16 0 -22 -5c-5 -5 -6 -12 -6 -19v-73c0 -7 1 -14 6 -19
c6 -5 14 -6 22 -6h119c8 0 17 1 23 6c5 5 5 12 5 19v73c0 7 0 14 -5 19c-6 5 -15 5 -23 5zM466 992c24 0 50 0 68 -12c14 -10 18 -28 18 -46v-73c0 -18 -4 -36 -18 -46c-18 -12 -44 -13 -68 -13h-119c-24 0 -50 1 -68 13c-14 10 -18 28 -18 46v73c0 18 4 36 18 46
c18 12 44 12 68 12h119z" />
    <glyph glyph-name="Abreve" unicode="&#x102;" horiz-adv-x="960" 
d="M17 0l436 780h54l436 -780h-99l-124 221h-520l-123 -221h-60zM598 900c25 0 55 0 55 26v77h69v-77c0 -22 -7 -45 -26 -56c-26 -15 -64 -15 -98 -15h-235c-34 0 -73 0 -99 15c-19 11 -26 34 -26 56v77h69v-77c0 -26 31 -26 56 -26h235zM692 272l-232 414l-231 -414h463z
" />
    <glyph glyph-name="AE" unicode="&#xc6;" horiz-adv-x="1393" 
d="M17 0l640 780h675v-51h-545v-329h512v-51h-512v-298h545v-51h-631v255h-401v9l-217 -264h-66zM334 306h367v447z" />
    <glyph glyph-name="Scaron" unicode="&#x160;" horiz-adv-x="900" 
d="M822 614h-87v62c0 20 -3 40 -19 51c-19 14 -49 14 -74 14h-393c-25 0 -55 0 -74 -14c-16 -11 -19 -31 -19 -51v-195c0 -20 3 -41 19 -52c19 -14 49 -14 74 -14h393c49 0 104 0 142 -24c29 -19 38 -56 38 -92v-195c0 -36 -9 -73 -38 -92c-38 -24 -93 -24 -142 -24h-393
c-49 0 -104 0 -142 24c-29 19 -38 56 -38 92v62h87v-62c0 -20 3 -40 19 -51c19 -14 49 -14 74 -14h393c25 0 55 0 74 14c16 11 19 31 19 51v195c0 20 -3 41 -19 52c-17 12 -41 13 -64 13h-403c-49 0 -104 1 -142 25c-29 19 -38 56 -38 92v195c0 36 9 73 38 92
c38 24 93 24 142 24h393c49 0 104 0 142 -24c29 -19 38 -56 38 -92v-62zM578 975h98l-164 -156h-133l-164 156h98l133 -104z" />
    <glyph glyph-name="Ccaron" unicode="&#x10c;" horiz-adv-x="1168" 
d="M1133 472h-87v129c0 40 -1 83 -29 111s-72 29 -112 29h-599c-40 0 -84 -1 -112 -29s-29 -71 -29 -111v-422c0 -40 1 -83 29 -111s72 -29 112 -29h599c40 0 84 1 112 29s29 71 29 111v129h87v-129c0 -56 -6 -115 -48 -151c-48 -40 -116 -40 -180 -40h-599
c-64 0 -132 0 -180 40c-42 36 -48 95 -48 151v422c0 56 6 115 48 151c48 40 116 40 180 40h599c64 0 132 0 180 -40c42 -36 48 -95 48 -151v-129zM738 994h98l-164 -156h-133l-164 156h98l133 -104z" />
    <glyph glyph-name="seven" unicode="7" 
d="M69 729v51h666v-54l-454 -726h-99l455 729h-568z" />
    <glyph glyph-name="ecaron" unicode="&#x11b;" horiz-adv-x="856" 
d="M565 975h98l-164 -156h-133l-164 156h98l132 -104zM244 -12c-49 0 -102 0 -138 34c-34 32 -37 82 -37 129v337c0 47 3 97 37 129c36 34 89 35 138 35h377c49 0 102 -1 138 -35c34 -32 37 -82 37 -129v-194h-640v-152c0 -28 1 -57 18 -79c16 -20 44 -24 70 -24h377
c26 0 54 4 70 24c17 22 18 51 18 79v95h87v-86c0 -47 -3 -97 -37 -129c-36 -34 -89 -34 -138 -34h-377zM709 345v152c0 28 -1 58 -18 80c-16 20 -44 24 -70 24h-377c-26 0 -54 -4 -70 -24c-17 -22 -18 -52 -18 -80v-152h553z" />
    <glyph glyph-name="two" unicode="2" 
d="M69 610v66c0 35 7 72 35 92c35 24 85 24 131 24h335c46 0 95 0 130 -24c28 -20 35 -57 35 -92v-195c0 -35 -7 -72 -35 -92c-35 -24 -84 -25 -130 -25h-335c-23 0 -48 -1 -63 -18c-16 -18 -16 -44 -16 -69v-226h561v-51h-648v277c0 41 4 83 35 109c35 29 85 29 131 29h335
c22 0 45 0 62 14c15 12 17 33 17 52v195c0 19 -2 39 -17 51c-17 14 -40 14 -62 14h-335c-22 0 -46 0 -63 -14c-15 -12 -16 -32 -16 -51v-65z" />
    <glyph glyph-name="six" unicode="6" horiz-adv-x="848" 
d="M787 642h-87v25c0 21 -2 45 -18 59c-18 15 -43 15 -67 15h-365c-24 0 -49 0 -67 -15c-16 -14 -18 -38 -18 -59v-203c26 10 56 10 85 10h365c48 0 100 0 136 -27c30 -22 36 -63 36 -101v-230c0 -38 -6 -79 -36 -101c-36 -27 -88 -27 -136 -27h-365c-48 0 -100 0 -136 27
c-30 22 -36 63 -36 101v551c0 37 6 77 36 99c36 26 88 26 136 26h365c48 0 100 0 136 -26c30 -22 36 -62 36 -99v-25zM250 39h365c24 0 49 0 67 16c16 15 18 39 18 61v230c0 22 -2 46 -18 61c-18 16 -43 16 -67 16h-365c-24 0 -49 0 -67 -16c-16 -15 -18 -39 -18 -61v-230
c0 -22 2 -46 18 -61c18 -16 43 -16 67 -16z" />
    <glyph glyph-name="breve" unicode="&#x2d8;" horiz-adv-x="363" 
d="M59 686h245c24 0 51 1 51 25v77h69v-77c0 -22 -7 -45 -26 -56c-26 -15 -65 -15 -99 -15h-235c-34 0 -72 0 -98 15c-19 11 -27 34 -27 56v77h70v-77c0 -24 26 -25 50 -25z" />
    <glyph glyph-name="aacute" unicode="&#xe1;" horiz-adv-x="813" 
d="M70 527c2 33 10 65 33 89c32 33 82 36 128 36h317c46 0 95 -3 127 -36c33 -35 34 -86 34 -134v-482h-76c-25 -12 -56 -12 -85 -12h-317c-44 0 -94 0 -128 24c-28 20 -34 56 -34 91v191c0 35 6 71 34 91c34 24 84 24 128 24h317c25 0 52 -8 75 -8v81c0 32 0 69 -16 94
c-12 19 -36 25 -59 25h-317c-23 0 -47 -6 -59 -25c-10 -15 -14 -35 -15 -55zM468 975h128l-185 -156h-95zM548 358h-317c-21 0 -43 0 -59 -13c-14 -12 -16 -32 -16 -51v-191c0 -19 2 -39 16 -51c16 -13 38 -13 59 -13h317c21 0 43 0 59 13c14 12 16 32 16 51v191
c0 19 -2 39 -16 51c-16 13 -38 13 -59 13z" />
    <glyph glyph-name="X" unicode="X" horiz-adv-x="856" 
d="M21 780h114l304 -333l320 333h76l-359 -373l372 -407h-114l-316 346l-333 -346h-76l372 387z" />
    <glyph glyph-name="S" unicode="S" horiz-adv-x="900" 
d="M822 614h-87v62c0 20 -3 40 -19 51c-19 14 -49 14 -74 14h-393c-25 0 -55 0 -74 -14c-16 -11 -19 -31 -19 -51v-195c0 -20 3 -41 19 -52c19 -14 49 -14 74 -14h393c49 0 104 0 142 -24c29 -19 38 -56 38 -92v-195c0 -36 -9 -73 -38 -92c-38 -24 -93 -24 -142 -24h-393
c-49 0 -104 0 -142 24c-29 19 -38 56 -38 92v62h87v-62c0 -20 3 -40 19 -51c19 -14 49 -14 74 -14h393c25 0 55 0 74 14c16 11 19 31 19 51v195c0 20 -3 41 -19 52c-17 12 -41 13 -64 13h-403c-49 0 -104 1 -142 25c-29 19 -38 56 -38 92v195c0 36 9 73 38 92
c38 24 93 24 142 24h393c49 0 104 0 142 -24c29 -19 38 -56 38 -92v-62z" />
    <glyph glyph-name="icircumflex" unicode="&#xee;" horiz-adv-x="329" 
d="M121 0v640h87v-640h-87zM164 923l-132 -104h-98l164 156h133l164 -156h-98z" />
    <glyph glyph-name="uhungarumlaut" unicode="&#x171;" 
d="M718 640v-640h-77c-24 -11 -54 -12 -82 -12h-305c-44 0 -93 0 -126 26c-28 22 -33 61 -33 97v529h87v-529c0 -21 1 -43 15 -57s37 -15 57 -15h305c20 0 43 1 57 15s15 36 15 57v529h87zM205 819l140 156h123l-172 -156h-91zM605 975h122l-171 -156h-91z" />
    <glyph glyph-name="Uring" unicode="&#x16e;" horiz-adv-x="1028" 
d="M912 780v-661c0 -39 -7 -81 -39 -103c-39 -28 -97 -28 -148 -28h-423c-51 0 -108 0 -147 28c-32 22 -39 64 -39 103v661h87v-661c0 -24 3 -48 21 -63c21 -17 50 -17 78 -17h423c28 0 58 0 79 17c18 15 21 39 21 63v661h87zM574 977h-120c-8 0 -16 0 -22 -5
c-5 -5 -6 -12 -6 -19v-73c0 -7 1 -14 6 -19c6 -5 14 -6 22 -6h120c8 0 16 1 22 6c5 5 6 12 6 19v73c0 7 -1 14 -6 19c-6 5 -14 5 -22 5zM574 1011c24 0 49 0 67 -12c14 -10 18 -28 18 -46v-73c0 -18 -4 -36 -18 -46c-18 -12 -43 -13 -67 -13h-120c-24 0 -50 1 -68 13
c-14 10 -18 28 -18 46v73c0 18 4 36 18 46c18 12 44 12 68 12h120z" />
    <glyph glyph-name="u" unicode="u" 
d="M718 640v-640h-77c-24 -11 -54 -12 -82 -12h-305c-44 0 -93 0 -126 26c-28 22 -33 61 -33 97v529h87v-529c0 -21 1 -43 15 -57s37 -15 57 -15h305c20 0 43 1 57 15s15 36 15 57v529h87z" />
    <glyph glyph-name="Eogonek" unicode="&#x118;" horiz-adv-x="804" 
d="M121 0v780h623v-51h-536v-329h493v-51h-493v-298h536v-51h-4l-132 -163c-30 -24 -47 -61 -47 -99v-212c0 -32 0 -71 33 -71h141c33 0 33 39 33 71v109h69v-109c0 -31 0 -65 -21 -88c-20 -22 -51 -23 -81 -23h-141c-30 0 -61 1 -81 23c-21 23 -22 57 -22 88v212
c0 63 40 119 100 140l99 122h-569z" />
    <glyph glyph-name="visiblespace" unicode="&#x2420;" horiz-adv-x="692" 
d="M35 0h86v-202h450v202h86v-253h-622v253z" />
    <glyph glyph-name="sterling" unicode="&#xa3;" horiz-adv-x="830" 
d="M78 349v51h138v268c0 36 4 75 31 98c30 26 73 26 114 26h246c41 0 85 0 115 -26c27 -23 30 -62 30 -98v-63h-87v63c0 20 0 43 -12 58c-11 13 -29 15 -46 15h-246c-17 0 -35 -2 -46 -15c-12 -15 -12 -38 -12 -58v-268h346v-51h-346v-233c0 -23 -4 -46 -15 -65h464v-51
h-555c-34 -6 -71 -6 -106 -6h-13v57c37 0 80 0 109 14c19 9 29 30 29 51v233h-138z" />
    <glyph glyph-name="j" unicode="j" horiz-adv-x="363" 
d="M-100 -486c4 -25 15 -45 41 -45h188c42 0 44 52 44 95v1076h87v-1065c0 -44 -1 -91 -28 -124c-24 -29 -65 -33 -103 -33h-188c-38 0 -80 4 -104 33c-10 12 -16 25 -20 40zM198 936c17 0 36 0 48 -12s12 -31 12 -48s0 -35 -12 -47s-31 -13 -48 -13s-35 1 -47 13
s-13 30 -13 47s1 36 13 48s30 12 47 12z" />
    <glyph glyph-name="eth" unicode="&#xf0;" horiz-adv-x="908" 
d="M599 601h-350c-27 0 -57 -3 -74 -24c-19 -24 -19 -58 -19 -89v-337c0 -31 0 -64 19 -88c17 -21 47 -24 74 -24h393c27 0 57 3 74 24c19 24 19 57 19 88c0 163 -49 319 -136 450zM562 652c-11 15 -24 28 -36 42l-172 -42h208zM662 652c37 -1 75 -8 99 -35
c31 -34 31 -83 31 -129h-38c44 -105 68 -219 68 -337c0 -47 -3 -97 -38 -129c-37 -34 -91 -34 -142 -34h-393c-51 0 -105 0 -142 34c-35 32 -38 82 -38 129v337c0 47 3 97 38 129c37 34 91 35 142 35h32v34l204 50c-60 57 -129 106 -206 144h142c56 -35 107 -76 152 -122
l242 60v-52l-203 -50c18 -21 34 -42 50 -64zM733 533c-3 22 -13 44 -30 55c11 -18 21 -36 30 -55z" />
    <glyph glyph-name="asterisk" unicode="*" horiz-adv-x="804" 
d="M359 780h87v-156l203 58v-93l-160 -45l160 -154h-126l-121 116l-120 -116h-126l160 154l-160 45v93l203 -58v156z" />
    <glyph glyph-name="at" unicode="@" horiz-adv-x="1159" 
d="M656 520h-209c-14 0 -29 0 -39 -10c-10 -11 -10 -27 -10 -42v-156c0 -15 0 -31 10 -42c10 -10 25 -10 39 -10h209c14 0 29 0 39 10c10 11 10 27 10 42v156c0 15 0 31 -10 42c-10 10 -25 10 -39 10zM656 571c16 0 33 -3 49 -3v3h87v-311h155c20 0 43 0 58 9
c12 7 15 21 15 35v297c0 40 -1 83 -29 111s-72 29 -112 29h-599c-40 0 -84 -1 -112 -29s-29 -71 -29 -111v-422c0 -40 1 -83 29 -111s72 -29 112 -29h599c40 0 84 1 112 29s29 71 29 111v33c-24 -3 -49 -3 -73 -3h-242v3c-16 -3 -33 -3 -49 -3h-219c-35 0 -70 1 -97 21
c-24 18 -29 51 -29 82v156c0 31 5 64 29 82c27 20 62 21 97 21h219zM280 -12c-64 0 -132 0 -180 40c-42 36 -48 95 -48 151v422c0 56 6 115 48 151c48 40 116 40 180 40h599c64 0 132 0 180 -40c42 -36 48 -95 48 -151v-297c0 -15 -2 -29 -7 -42h7v-83
c0 -56 -6 -115 -48 -151c-48 -40 -116 -40 -180 -40h-599z" />
    <glyph glyph-name="Ocircumflex" unicode="&#xd4;" horiz-adv-x="1211" 
d="M905 741h-599c-40 0 -84 -1 -112 -29s-29 -71 -29 -111v-422c0 -40 1 -83 29 -111s72 -29 112 -29h599c40 0 84 1 112 29s29 71 29 111v422c0 40 -1 83 -29 111s-72 29 -112 29zM905 792c64 0 132 0 180 -40c42 -36 48 -95 48 -151v-422c0 -56 -6 -115 -48 -151
c-48 -40 -116 -40 -180 -40h-599c-64 0 -132 0 -180 40c-42 36 -48 95 -48 151v422c0 56 6 115 48 151c48 40 116 40 180 40h599zM606 942l-133 -104h-98l164 156h133l164 -156h-98z" />
    <glyph glyph-name="Eacute" unicode="&#xc9;" horiz-adv-x="804" 
d="M121 0v780h623v-51h-536v-329h493v-51h-493v-298h536v-51h-623zM511 994h128l-185 -156h-95z" />
    <glyph glyph-name="uacute" unicode="&#xfa;" 
d="M718 640v-640h-77c-24 -11 -54 -12 -82 -12h-305c-44 0 -93 0 -126 26c-28 22 -33 61 -33 97v529h87v-529c0 -21 1 -43 15 -57s37 -15 57 -15h305c20 0 43 1 57 15s15 36 15 57v529h87zM485 975h128l-185 -156h-95z" />
    <glyph glyph-name="agrave" unicode="&#xe0;" horiz-adv-x="813" 
d="M70 527c2 33 10 65 33 89c32 33 82 36 128 36h317c46 0 95 -3 127 -36c33 -35 34 -86 34 -134v-482h-76c-25 -12 -56 -12 -85 -12h-317c-44 0 -94 0 -128 24c-28 20 -34 56 -34 91v191c0 35 6 71 34 91c34 24 84 24 128 24h317c25 0 52 -8 75 -8v81c0 32 0 69 -16 94
c-12 19 -36 25 -59 25h-317c-23 0 -47 -6 -59 -25c-10 -15 -14 -35 -15 -55zM183 975h127l152 -156h-94zM548 358h-317c-21 0 -43 0 -59 -13c-14 -12 -16 -32 -16 -51v-191c0 -19 2 -39 16 -51c16 -13 38 -13 59 -13h317c21 0 43 0 59 13c14 12 16 32 16 51v191
c0 19 -2 39 -16 51c-16 13 -38 13 -59 13z" />
    <glyph glyph-name="t" unicode="t" horiz-adv-x="467" 
d="M27 589v51h163v240h87v-240h164v-51h-164v-589h-87v589h-163z" />
    <glyph glyph-name="Q" unicode="Q" horiz-adv-x="1211" 
d="M905 741h-599c-40 0 -84 -1 -112 -29s-29 -71 -29 -111v-422c0 -40 1 -83 29 -111s72 -29 112 -29h599c21 0 42 0 62 4l-256 195h132l191 -145c12 26 12 56 12 86v422c0 40 -1 83 -29 111s-72 29 -112 29zM905 792c64 0 132 0 180 -40c42 -36 48 -95 48 -151v-422
c0 -49 -5 -100 -34 -136l57 -43h-124c-39 -12 -84 -12 -127 -12h-599c-64 0 -132 0 -180 40c-42 36 -48 95 -48 151v422c0 56 6 115 48 151c48 40 116 40 180 40h599z" />
    <glyph glyph-name="semicolon" unicode=";" horiz-adv-x="415" 
d="M181 128h104l-203 -320h-77zM233 640c17 0 34 -1 46 -13s12 -28 12 -45s0 -34 -12 -46s-29 -12 -46 -12s-33 0 -45 12s-13 29 -13 46s1 33 13 45s28 13 45 13z" />
    <glyph glyph-name="IJ" unicode="&#x132;" horiz-adv-x="1047" 
d="M934 780v-676c0 -35 -5 -72 -33 -92c-33 -24 -81 -24 -124 -24h-300c-43 0 -91 0 -124 24c-28 20 -33 57 -33 92v159h87v-159c0 -19 0 -38 14 -51c15 -13 36 -14 56 -14h300c20 0 41 1 56 14c14 13 15 32 15 51v676h86zM138 0v780h87v-780h-87z" />
    <glyph glyph-name="Lslash" unicode="&#x141;" horiz-adv-x="813" 
d="M761 0h-623v275l-103 -46v88l103 46v417h87v-377l329 148v-88l-329 -148v-264h536v-51z" />
    <glyph glyph-name="ij" unicode="&#x133;" horiz-adv-x="796" 
d="M156 640h86v-640h-86v640zM692 640v-1065c0 -44 0 -91 -29 -124c-26 -30 -69 -33 -109 -33h-217c-40 0 -83 3 -109 33c-10 12 -18 25 -22 40l83 24c2 -9 4 -17 7 -24c7 -15 24 -22 41 -22h217c17 0 34 7 41 22c9 19 10 45 10 70v1079h87zM636 927c17 0 35 0 47 -12
s13 -31 13 -48s-1 -35 -13 -47s-30 -13 -47 -13s-36 1 -48 13s-12 30 -12 47s0 36 12 48s31 12 48 12zM212 927c17 0 35 0 47 -12s13 -31 13 -48s-1 -35 -13 -47s-30 -13 -47 -13s-36 1 -48 13s-12 30 -12 47s0 36 12 48s31 12 48 12z" />
    <glyph glyph-name="four" unicode="4" horiz-adv-x="856" 
d="M636 209v-209h-87v209h-479v54l512 517h54v-520h151v-51h-151zM549 260v379l-375 -379h375z" />
    <glyph glyph-name="J" unicode="J" horiz-adv-x="761" 
d="M649 780v-676c0 -35 -7 -72 -35 -92c-35 -24 -85 -24 -131 -24h-335c-46 0 -96 0 -131 24c-28 20 -34 57 -34 92v159h86v-159c0 -19 2 -39 17 -51c17 -14 40 -14 62 -14h335c22 0 45 0 62 14c15 12 17 32 17 51v676h87z" />
    <glyph glyph-name="three" unicode="3" 
d="M52 621v55c0 35 7 72 35 92c35 24 84 24 130 24h335c46 0 96 0 131 -24c28 -20 35 -57 35 -92v-195c0 -35 -6 -71 -31 -93c24 -21 31 -56 31 -89v-195c0 -35 -7 -72 -35 -92c-35 -24 -85 -24 -131 -24h-335c-46 0 -95 0 -130 24c-28 20 -35 57 -35 92v55h87v-55
c0 -19 1 -39 16 -51c17 -14 40 -14 62 -14h335c22 0 46 0 63 14c15 12 16 32 16 51v195c0 19 -1 40 -16 52c-4 4 -9 6 -14 8c-16 -1 -33 -1 -49 -1v6h-241v51h241c22 0 46 0 63 14c15 12 16 33 16 52v195c0 19 -1 39 -16 51c-17 14 -41 14 -63 14h-335c-22 0 -45 0 -62 -14
c-15 -12 -16 -32 -16 -51v-54z" />
    <glyph glyph-name="cedilla" unicode="&#xb8;" horiz-adv-x="346" 
d="M277 -262c0 32 -1 71 -34 71h-206l103 211h66l-83 -171h120c30 0 61 -1 81 -23c21 -23 22 -57 22 -88v-212c0 -31 -1 -65 -22 -88c-20 -22 -51 -23 -81 -23h-140c-30 0 -61 1 -81 23c-10 11 -16 25 -19 40l68 13c3 -20 11 -36 32 -36h140c33 0 34 39 34 71v212z" />
    <glyph glyph-name="Odieresis" unicode="&#xd6;" horiz-adv-x="1211" 
d="M450 955c17 0 35 0 47 -12s13 -31 13 -48s-1 -35 -13 -47s-30 -13 -47 -13s-36 1 -48 13s-12 30 -12 47s0 36 12 48s31 12 48 12zM761 955c17 0 36 0 48 -12s12 -31 12 -48s0 -35 -12 -47s-31 -13 -48 -13s-35 1 -47 13s-13 30 -13 47s1 36 13 48s30 12 47 12zM905 741
h-599c-40 0 -84 -1 -112 -29s-29 -71 -29 -111v-422c0 -40 1 -83 29 -111s72 -29 112 -29h599c40 0 84 1 112 29s29 71 29 111v422c0 40 -1 83 -29 111s-72 29 -112 29zM905 792c64 0 132 0 180 -40c42 -36 48 -95 48 -151v-422c0 -56 -6 -115 -48 -151
c-48 -40 -116 -40 -180 -40h-599c-64 0 -132 0 -180 40c-42 36 -48 95 -48 151v422c0 56 6 115 48 151c48 40 116 40 180 40h599z" />
    <glyph glyph-name="Z" unicode="Z" horiz-adv-x="882" 
d="M43 729v51h796v-54l-679 -675h679v-51h-796v54l679 675h-679z" />
    <glyph glyph-name="hungarumlaut" unicode="&#x2dd;" horiz-adv-x="363" 
d="M-19 624l139 156h123l-172 -156h-90zM380 780h122l-171 -156h-91z" />
    <glyph glyph-name="guilsinglright" unicode="&#x203a;" horiz-adv-x="476" 
d="M398 320l-223 -320h-97l223 320l-223 320h97z" />
    <glyph glyph-name="quotedblbase" unicode="&#x201e;" horiz-adv-x="796" 
d="M143 -156l130 254h94l-155 -254h-69zM572 98h93l-155 -254h-69z" />
    <glyph glyph-name="o" unicode="o" horiz-adv-x="865" 
d="M621 601h-377c-26 0 -54 -4 -70 -24c-17 -22 -18 -52 -18 -80v-355c0 -28 1 -57 18 -79c16 -20 44 -24 70 -24h377c26 0 54 4 70 24c17 22 18 51 18 79v355c0 28 -1 58 -18 80c-16 20 -44 24 -70 24zM621 652c49 0 102 -1 138 -35c34 -32 37 -82 37 -129v-337
c0 -47 -3 -97 -37 -129c-36 -34 -89 -34 -138 -34h-377c-49 0 -102 0 -138 34c-34 32 -37 82 -37 129v337c0 47 3 97 37 129c36 34 89 35 138 35h377z" />
    <glyph glyph-name="caron" unicode="&#x2c7;" horiz-adv-x="363" 
d="M314 780h98l-164 -156h-133l-164 156h98l133 -104z" />
    <glyph glyph-name="O" unicode="O" horiz-adv-x="1211" 
d="M905 741h-599c-40 0 -84 -1 -112 -29s-29 -71 -29 -111v-422c0 -40 1 -83 29 -111s72 -29 112 -29h599c40 0 84 1 112 29s29 71 29 111v422c0 40 -1 83 -29 111s-72 29 -112 29zM905 792c64 0 132 0 180 -40c42 -36 48 -95 48 -151v-422c0 -56 -6 -115 -48 -151
c-48 -40 -116 -40 -180 -40h-599c-64 0 -132 0 -180 40c-42 36 -48 95 -48 151v422c0 56 6 115 48 151c48 40 116 40 180 40h599z" />
    <glyph glyph-name="H" unicode="H" horiz-adv-x="1038" 
d="M121 0v780h87v-380h622v380h87v-780h-87v349h-622v-349h-87z" />
    <glyph glyph-name="Eng" unicode="&#x14a;" horiz-adv-x="1081" 
d="M121 0v780h54l698 -670v670h87v-1205c0 -44 0 -91 -29 -124c-27 -30 -70 -33 -111 -33h-228c-41 0 -84 3 -111 33c-11 13 -18 28 -22 44l86 9c7 -22 23 -35 47 -35h228c17 0 34 7 42 22c11 22 11 55 11 84v457l-665 638v-670h-87z" />
    <glyph glyph-name="eogonek" unicode="&#x119;" horiz-adv-x="856" 
d="M289 -474c0 -32 0 -71 33 -71h141c33 0 33 39 33 71v109h70v-109c0 -31 -1 -65 -22 -88c-20 -22 -51 -23 -81 -23h-141c-30 0 -61 1 -81 23c-21 23 -21 57 -21 88v212c0 63 39 119 99 140l89 110h-164c-49 0 -102 0 -138 34c-34 32 -37 82 -37 129v337c0 47 3 97 37 129
c36 34 89 35 138 35h377c49 0 102 -1 138 -35c34 -32 37 -82 37 -129v-194h-640v-152c0 -28 1 -57 18 -79c16 -20 44 -24 70 -24h205l2 2l1 -2h169c26 0 54 4 70 24c17 22 18 51 18 79v95h87v-86c0 -47 -3 -97 -37 -129c-36 -34 -89 -34 -138 -34h-163l-122 -151
c-30 -24 -47 -61 -47 -99v-212zM709 345v152c0 28 -1 58 -18 80c-16 20 -44 24 -70 24h-377c-26 0 -54 -4 -70 -24c-17 -22 -18 -52 -18 -80v-152h553z" />
    <glyph glyph-name="quoteleft" unicode="&#x2018;" horiz-adv-x="441" 
d="M254 780h69l-131 -253h-94z" />
    <glyph glyph-name="E" unicode="E" horiz-adv-x="804" 
d="M121 0v780h623v-51h-536v-329h493v-51h-493v-298h536v-51h-623z" />
    <glyph glyph-name="F" unicode="F" horiz-adv-x="778" 
d="M121 0v780h623v-51h-536v-329h493v-51h-493v-349h-87z" />
    <glyph glyph-name="numbersign" unicode="#" horiz-adv-x="934" 
d="M35 248v51h203l46 182h-215v51h227l62 248h88l-62 -248h237l62 248h87l-62 -248h192v-51h-204l-46 -182h215v-51h-227l-62 -248h-88l62 248h-237l-62 -248h-87l62 248h-191zM563 299l45 182h-237l-45 -182h237z" />
    <glyph glyph-name="section" unicode="&#xa7;" 
d="M254 -582c-44 0 -93 0 -126 28c-29 25 -33 66 -33 105v77h87v-77c0 -23 0 -48 15 -65c14 -16 36 -17 57 -17h305c21 0 43 1 57 17c15 17 15 42 15 65v244c0 23 0 48 -15 65c-14 16 -36 17 -57 17h-305c-44 0 -93 0 -126 26c-28 22 -33 60 -33 96v212c0 35 5 73 32 95
c-29 26 -32 70 -32 109v244c0 39 4 80 33 105c33 28 82 28 126 28h305c44 0 93 0 126 -28c29 -25 33 -66 33 -105v-77h-87v77c0 23 0 48 -15 65c-14 16 -36 17 -57 17h-305c-21 0 -43 -1 -57 -17c-15 -17 -15 -42 -15 -65v-244c0 -23 0 -48 15 -65c14 -16 36 -17 57 -17h305
c44 0 93 0 126 -26c28 -22 33 -60 33 -96v-212c0 -35 -5 -73 -32 -95c29 -26 32 -70 32 -109v-244c0 -39 -4 -80 -33 -105c-33 -28 -82 -28 -126 -28h-305zM600 -67c26 10 31 37 31 66v212c0 20 -1 42 -15 56c-15 14 -37 15 -57 15h-305v-6c-13 0 -27 1 -41 1
c-26 -10 -31 -37 -31 -66v-212c0 -20 1 -42 15 -56c15 -14 37 -15 57 -15h305v6c13 0 27 -1 41 -1z" />
    <glyph glyph-name="V" unicode="V" horiz-adv-x="910" 
d="M14 780h98l361 -680l361 680h62l-414 -780h-54z" />
    <glyph glyph-name="parenright" unicode=")" horiz-adv-x="476" 
d="M311 -307v845c0 82 -2 186 -41 246l41 51c16 -13 31 -29 41 -48c42 -75 46 -163 46 -249v-845c0 -86 -4 -174 -46 -249c-10 -19 -25 -35 -41 -48l-41 51c39 60 41 164 41 246z" />
    <glyph glyph-name="quoteright" unicode="&#x2019;" horiz-adv-x="441" 
d="M242 780h94l-156 -253h-70z" />
    <glyph glyph-name="Lcaron" unicode="&#x13d;" horiz-adv-x="796" 
d="M121 0v780h87v-729h536v-51h-623zM536 780h94l-156 -253h-70z" />
    <glyph glyph-name="Icircumflex" unicode="&#xce;" horiz-adv-x="364" 
d="M138 0v780h87v-780h-87zM182 942l-133 -104h-98l164 156h133l165 -156h-99z" />
    <glyph glyph-name="a" unicode="a" horiz-adv-x="813" 
d="M70 527c2 33 10 65 33 89c32 33 82 36 128 36h317c46 0 95 -3 127 -36c33 -35 34 -86 34 -134v-482h-76c-25 -12 -56 -12 -85 -12h-317c-44 0 -94 0 -128 24c-28 20 -34 56 -34 91v191c0 35 6 71 34 91c34 24 84 24 128 24h317c25 0 52 -8 75 -8v81c0 32 0 69 -16 94
c-12 19 -36 25 -59 25h-317c-23 0 -47 -6 -59 -25c-10 -15 -14 -35 -15 -55zM548 358h-317c-21 0 -43 0 -59 -13c-14 -12 -16 -32 -16 -51v-191c0 -19 2 -39 16 -51c16 -13 38 -13 59 -13h317c21 0 43 0 59 13c14 12 16 32 16 51v191c0 19 -2 39 -16 51
c-16 13 -38 13 -59 13z" />
    <glyph glyph-name="ohungarumlaut" unicode="&#x151;" horiz-adv-x="865" 
d="M231 819l140 156h123l-172 -156h-91zM631 975h122l-171 -156h-91zM621 601h-377c-26 0 -54 -4 -70 -24c-17 -22 -18 -52 -18 -80v-355c0 -28 1 -57 18 -79c16 -20 44 -24 70 -24h377c26 0 54 4 70 24c17 22 18 51 18 79v355c0 28 -1 58 -18 80c-16 20 -44 24 -70 24z
M621 652c49 0 102 -1 138 -35c34 -32 37 -82 37 -129v-337c0 -47 -3 -97 -37 -129c-36 -34 -89 -34 -138 -34h-377c-49 0 -102 0 -138 34c-34 32 -37 82 -37 129v337c0 47 3 97 37 129c36 34 89 35 138 35h377z" />
    <glyph glyph-name="l" unicode="l" horiz-adv-x="294" 
d="M104 0v880h86v-880h-86z" />
    <glyph glyph-name="ffi" unicode="&#xfb03;" horiz-adv-x="1202" 
d="M626 865c25 27 79 27 122 27h234c39 0 82 0 112 -19c22 -14 29 -41 30 -68l-87 -2c0 11 -2 23 -11 30c-12 8 -29 8 -44 8h-234c-15 0 -31 0 -43 -8c-10 -7 -12 -20 -12 -32v-161h406v-640h-87v589h-319v-589h-87v589h-318v-589h-87v589h-140v51h140v169c0 26 7 52 28 66
c27 17 67 17 102 17h182c40 0 91 0 113 -27zM288 640h318v165h-50v4c0 10 -1 19 -9 25c-9 7 -22 7 -34 7h-182c-12 0 -25 0 -34 -7c-8 -6 -9 -15 -9 -25v-169z" />
    <glyph glyph-name="eng" unicode="&#x14b;" 
d="M640 -442v982c0 28 -2 61 -27 61h-306c-32 0 -67 -1 -92 -16c-19 -12 -25 -34 -25 -56v-529h-86v640h86v-3c35 15 77 15 117 15h306c33 0 68 -2 90 -26c24 -25 24 -62 24 -97v-954c0 -44 0 -91 -27 -124c-23 -29 -63 -33 -100 -33h-171c-37 0 -77 4 -100 33
c-10 13 -16 28 -20 44l86 6c4 -18 15 -32 34 -32h171c38 0 40 48 40 89z" />
    <glyph glyph-name="Yacute" unicode="&#xdd;" horiz-adv-x="900" 
d="M9 780h111l350 -433l351 433h70l-398 -492v-288h-87v288zM529 994h127l-185 -156h-94z" />
    <glyph glyph-name="dcroat" unicode="&#x111;" horiz-adv-x="908" 
d="M778 0h-86v2c-25 -12 -57 -14 -86 -14h-364c-49 0 -102 1 -137 34c-34 32 -36 82 -36 129v337c0 47 2 97 36 129c35 33 88 35 137 35h364c29 0 61 -3 86 -15v42h-268v51h268v150h86v-150h113v-51h-113v-679zM606 601h-364c-25 0 -53 -4 -68 -24c-18 -24 -18 -58 -18 -89
v-337c0 -31 0 -64 18 -88c15 -20 43 -24 68 -24h364c25 0 53 4 68 24c18 24 18 57 18 88v337c0 31 0 65 -18 89c-15 20 -43 24 -68 24z" />
    <glyph glyph-name="aogonek" unicode="&#x105;" horiz-adv-x="813" 
d="M70 527c2 33 10 65 33 89c32 33 82 36 128 36h317c46 0 95 -3 127 -36c33 -35 34 -86 34 -134v-472l4 -10l-132 -163c-30 -24 -47 -61 -47 -99v-212c0 -32 0 -71 33 -71h141c33 0 33 39 33 71v109h69v-109c0 -31 0 -65 -21 -88c-20 -22 -51 -23 -81 -23h-141
c-30 0 -61 1 -81 23c-21 23 -21 57 -21 88v212c0 63 39 119 99 140l99 122h-30c-25 -12 -56 -12 -85 -12h-317c-44 0 -94 0 -128 24c-28 20 -34 56 -34 91v191c0 35 6 71 34 91c34 24 84 24 128 24h317c25 0 52 -8 75 -8v81c0 32 0 69 -16 94c-12 19 -36 25 -59 25h-317
c-23 0 -47 -6 -59 -25c-10 -15 -14 -35 -15 -55zM548 358h-317c-21 0 -43 0 -59 -13c-14 -12 -16 -32 -16 -51v-191c0 -19 2 -39 16 -51c16 -13 38 -13 59 -13h317c21 0 43 0 59 13c14 12 16 32 16 51v191c0 19 -2 39 -16 51c-16 13 -38 13 -59 13z" />
    <glyph glyph-name="lcaron" unicode="&#x13e;" horiz-adv-x="294" 
d="M104 0v880h86v-880h-86zM398 880h93l-156 -253h-69z" />
    <glyph glyph-name="Eth" unicode="&#xd0;" horiz-adv-x="1159" 
d="M838 0h-648v364h-129v51h129v365h648c65 0 136 0 185 -39c43 -34 50 -93 50 -148v-406c0 -55 -7 -114 -50 -148c-49 -39 -120 -39 -185 -39zM277 51h561c42 0 86 0 117 28c29 26 31 69 31 108v406c0 39 -2 82 -31 108c-31 28 -75 28 -117 28h-561v-314h354v-51h-354v-313
z" />
    <glyph glyph-name="zcaron" unicode="&#x17e;" horiz-adv-x="640" 
d="M43 589v51h554v-54l-441 -535h441v-51h-554v54l441 535h-441zM452 975h99l-164 -156h-133l-165 156h99l132 -104z" />
    <glyph glyph-name="rcaron" unicode="&#x159;" horiz-adv-x="569" 
d="M104 0v640h82c21 10 47 12 72 12h288c44 0 91 -2 122 -32c31 -29 33 -74 33 -117v-50h-87v50c0 27 0 57 -14 77c-12 17 -34 21 -54 21h-288c-20 0 -41 -4 -53 -21c-14 -20 -15 -50 -15 -77v-503h-86zM468 975h98l-164 -156h-133l-164 156h98l133 -104z" />
    <glyph glyph-name="gbreve" unicode="&#x11f;" horiz-adv-x="882" 
d="M778 640v-1031c0 -54 0 -111 -36 -151c-33 -37 -86 -40 -136 -40h-364c-50 0 -104 3 -137 40c-36 40 -36 97 -36 151v77h87v-77c0 -38 0 -82 18 -111c14 -22 41 -29 68 -29h364c27 0 54 7 68 29c18 29 18 73 18 111v405c-25 -12 -57 -14 -86 -14h-364
c-49 0 -101 1 -137 34c-34 31 -36 81 -36 127v330c0 46 2 96 36 127c36 33 88 34 137 34h364c29 0 61 -2 86 -14v2h86zM541 881c25 0 56 0 56 26v77h69v-77c0 -22 -7 -45 -26 -56c-26 -15 -65 -15 -99 -15h-235c-34 0 -72 0 -98 15c-19 11 -26 34 -26 56v77h69v-77
c0 -26 30 -26 55 -26h235zM606 601h-364c-25 0 -53 -3 -68 -23c-18 -23 -18 -57 -18 -87v-330c0 -30 0 -64 18 -87c15 -20 43 -23 68 -23h364c25 0 53 3 68 23c18 23 18 57 18 87v330c0 30 0 64 -18 87c-15 20 -43 23 -68 23z" />
    <glyph glyph-name="exclamdown" unicode="&#xa1;" horiz-adv-x="467" 
d="M190 -570v1002h87v-1002h-87zM234 665c17 0 33 0 45 -12s13 -29 13 -46s-1 -34 -13 -46s-28 -12 -45 -12s-34 0 -46 12s-12 29 -12 46s0 34 12 46s29 12 46 12z" />
    <glyph glyph-name="acircumflex" unicode="&#xe2;" horiz-adv-x="813" 
d="M70 527c2 33 10 65 33 89c32 33 82 36 128 36h317c46 0 95 -3 127 -36c33 -35 34 -86 34 -134v-482h-76c-25 -12 -56 -12 -85 -12h-317c-44 0 -94 0 -128 24c-28 20 -34 56 -34 91v191c0 35 6 71 34 91c34 24 84 24 128 24h317c25 0 52 -8 75 -8v81c0 32 0 69 -16 94
c-12 19 -36 25 -59 25h-317c-23 0 -47 -6 -59 -25c-10 -15 -14 -35 -15 -55zM548 358h-317c-21 0 -43 0 -59 -13c-14 -12 -16 -32 -16 -51v-191c0 -19 2 -39 16 -51c16 -13 38 -13 59 -13h317c21 0 43 0 59 13c14 12 16 32 16 51v191c0 19 -2 39 -16 51
c-16 13 -38 13 -59 13zM390 923l-133 -104h-99l165 156h133l164 -156h-98z" />
    <glyph glyph-name="iacute" unicode="&#xed;" horiz-adv-x="329" 
d="M121 0v640h87v-640h-87zM243 975h128l-185 -156h-95z" />
    <glyph glyph-name="dotlessi" unicode="&#x131;" horiz-adv-x="329" 
d="M121 0v640h87v-640h-87z" />
    <glyph glyph-name="Ohungarumlaut" unicode="&#x150;" horiz-adv-x="1211" 
d="M404 838l140 156h123l-172 -156h-91zM804 994h122l-171 -156h-91zM905 741h-599c-40 0 -84 -1 -112 -29s-29 -71 -29 -111v-422c0 -40 1 -83 29 -111s72 -29 112 -29h599c40 0 84 1 112 29s29 71 29 111v422c0 40 -1 83 -29 111s-72 29 -112 29zM905 792
c64 0 132 0 180 -40c42 -36 48 -95 48 -151v-422c0 -56 -6 -115 -48 -151c-48 -40 -116 -40 -180 -40h-599c-64 0 -132 0 -180 40c-42 36 -48 95 -48 151v422c0 56 6 115 48 151c48 40 116 40 180 40h599z" />
    <glyph glyph-name="aring" unicode="&#xe5;" horiz-adv-x="813" 
d="M70 527c2 33 10 65 33 89c32 33 82 36 128 36h317c46 0 95 -3 127 -36c33 -35 34 -86 34 -134v-482h-76c-25 -12 -56 -12 -85 -12h-317c-44 0 -94 0 -128 24c-28 20 -34 56 -34 91v191c0 35 6 71 34 91c34 24 84 24 128 24h317c25 0 52 -8 75 -8v81c0 32 0 69 -16 94
c-12 19 -36 25 -59 25h-317c-23 0 -47 -6 -59 -25c-10 -15 -14 -35 -15 -55zM548 358h-317c-21 0 -43 0 -59 -13c-14 -12 -16 -32 -16 -51v-191c0 -19 2 -39 16 -51c16 -13 38 -13 59 -13h317c21 0 43 0 59 13c14 12 16 32 16 51v191c0 19 -2 39 -16 51
c-16 13 -38 13 -59 13zM449 958h-120c-8 0 -16 0 -22 -5c-5 -5 -6 -12 -6 -19v-73c0 -7 1 -14 6 -19c6 -5 14 -6 22 -6h120c8 0 16 1 22 6c5 5 6 12 6 19v73c0 7 -1 14 -6 19c-6 5 -14 5 -22 5zM449 992c24 0 50 0 68 -12c14 -10 18 -28 18 -46v-73c0 -18 -4 -36 -18 -46
c-18 -12 -44 -13 -68 -13h-120c-24 0 -49 1 -67 13c-14 10 -18 28 -18 46v73c0 18 4 36 18 46c18 12 43 12 67 12h120z" />
    <glyph glyph-name="U" unicode="U" horiz-adv-x="1028" 
d="M912 780v-661c0 -39 -7 -81 -39 -103c-39 -28 -97 -28 -148 -28h-423c-51 0 -108 0 -147 28c-32 22 -39 64 -39 103v661h87v-661c0 -24 3 -48 21 -63c21 -17 50 -17 78 -17h423c28 0 58 0 79 17c18 15 21 39 21 63v661h87z" />
    <glyph glyph-name="ocircumflex" unicode="&#xf4;" horiz-adv-x="865" 
d="M621 601h-377c-26 0 -54 -4 -70 -24c-17 -22 -18 -52 -18 -80v-355c0 -28 1 -57 18 -79c16 -20 44 -24 70 -24h377c26 0 54 4 70 24c17 22 18 51 18 79v355c0 28 -1 58 -18 80c-16 20 -44 24 -70 24zM621 652c49 0 102 -1 138 -35c34 -32 37 -82 37 -129v-337
c0 -47 -3 -97 -37 -129c-36 -34 -89 -34 -138 -34h-377c-49 0 -102 0 -138 34c-34 32 -37 82 -37 129v337c0 47 3 97 37 129c36 34 89 35 138 35h377zM432 923l-132 -104h-98l164 156h133l164 -156h-98z" />
    <glyph glyph-name="backslash" unicode="\" horiz-adv-x="649" 
d="M509 -39l-474 858h104l475 -858h-105z" />
    <glyph glyph-name="zacute" unicode="&#x17a;" horiz-adv-x="640" 
d="M43 589v51h554v-54l-441 -535h441v-51h-554v54l441 535h-441zM399 975h128l-186 -156h-94z" />
    <glyph glyph-name="yacute" unicode="&#xfd;" horiz-adv-x="727" 
d="M9 640h97l275 -535l275 535h62l-623 -1210h-61l299 581zM442 975h128l-185 -156h-95z" />
    <glyph glyph-name="P" unicode="P" horiz-adv-x="882" 
d="M121 0v780h492c59 0 126 0 172 -27c34 -20 45 -63 45 -103v-237c0 -40 -11 -82 -45 -102c-46 -27 -113 -28 -172 -28h-405v-283h-87zM208 729v-395h405c36 0 76 0 103 17c21 12 28 37 28 62v237c0 25 -7 50 -28 62c-27 17 -67 17 -103 17h-405z" />
    <glyph glyph-name="plus" unicode="+" horiz-adv-x="848" 
d="M380 640h87v-295h311v-51h-311v-294h-87v294h-311v51h311v295z" />
    <glyph glyph-name="greater" unicode="&#x3e;" horiz-adv-x="848" 
d="M667 320l-598 248v92l709 -294v-92l-709 -295v93z" />
    <glyph glyph-name="Atilde" unicode="&#xc3;" horiz-adv-x="960" 
d="M17 0l436 780h54l436 -780h-99l-124 221h-520l-123 -221h-60zM307 842h-69c0 33 7 69 34 87c35 23 85 23 130 23c56 0 100 -53 156 -53c26 0 55 1 75 14c16 11 20 31 20 50h69c0 -33 -7 -68 -34 -86c-35 -23 -85 -23 -130 -23c-56 0 -100 52 -156 52c-26 0 -55 0 -75 -13
c-16 -11 -20 -32 -20 -51zM692 272l-232 414l-231 -414h463z" />
    <glyph glyph-name="sacute" unicode="&#x15b;" horiz-adv-x="692" 
d="M640 501h-87v49c0 15 -2 31 -14 40c-14 11 -34 11 -52 11h-282c-18 0 -38 0 -52 -11c-12 -9 -14 -25 -14 -40v-154c0 -15 2 -31 14 -40c14 -11 34 -11 52 -11h282c42 0 89 0 121 -21c25 -17 32 -50 32 -81v-153c0 -31 -7 -64 -32 -81c-32 -21 -79 -21 -121 -21h-282
c-42 0 -89 0 -121 21c-25 17 -32 50 -32 81v48h87v-48c0 -15 2 -31 14 -40c14 -11 34 -11 52 -11h282c18 0 38 0 52 11c12 9 14 25 14 40v153c0 15 -2 32 -14 41s-28 10 -44 10h-290c-42 0 -89 1 -121 22c-25 17 -32 49 -32 80v154c0 31 7 63 32 80c32 21 79 22 121 22h76
l144 148h128l-176 -148h110c42 0 89 -1 121 -22c25 -17 32 -49 32 -80v-49z" />
    <glyph glyph-name="percent" unicode="%" horiz-adv-x="1419" 
d="M225 -39l847 858h122l-848 -858h-121zM468 729h-197c-14 0 -27 -2 -36 -12c-10 -12 -10 -28 -10 -43v-165c0 -15 0 -31 10 -43c9 -10 22 -11 36 -11h197c14 0 28 1 37 11c10 12 10 28 10 43v165c0 15 0 31 -10 43c-9 10 -23 12 -37 12zM468 780c37 0 77 0 105 -22
c24 -19 28 -53 28 -84v-165c0 -31 -4 -64 -28 -83c-28 -22 -68 -22 -105 -22h-197c-37 0 -77 0 -105 22c-24 19 -28 52 -28 83v165c0 31 4 65 28 84c28 22 68 22 105 22h197zM1147 325h-197c-14 0 -27 -1 -36 -11c-10 -12 -10 -28 -10 -43v-165c0 -15 0 -31 10 -43
c9 -10 22 -12 36 -12h197c14 0 28 2 37 12c10 12 10 28 10 43v165c0 15 0 31 -10 43c-9 10 -23 11 -37 11zM1147 376c37 0 77 0 105 -22c24 -19 28 -52 28 -83v-165c0 -31 -4 -65 -28 -84c-28 -22 -68 -22 -105 -22h-197c-37 0 -77 0 -105 22c-24 19 -28 53 -28 84v165
c0 31 4 64 28 83c28 22 68 22 105 22h197z" />
    <glyph glyph-name="eacute" unicode="&#xe9;" horiz-adv-x="856" 
d="M511 975h128l-185 -156h-95zM244 -12c-49 0 -102 0 -138 34c-34 32 -37 82 -37 129v337c0 47 3 97 37 129c36 34 89 35 138 35h377c49 0 102 -1 138 -35c34 -32 37 -82 37 -129v-194h-640v-152c0 -28 1 -57 18 -79c16 -20 44 -24 70 -24h377c26 0 54 4 70 24
c17 22 18 51 18 79v95h87v-86c0 -47 -3 -97 -37 -129c-36 -34 -89 -34 -138 -34h-377zM709 345v152c0 28 -1 58 -18 80c-16 20 -44 24 -70 24h-377c-26 0 -54 -4 -70 -24c-17 -22 -18 -52 -18 -80v-152h553z" />
    <glyph glyph-name="T" unicode="T" horiz-adv-x="796" 
d="M18 729v51h760v-51h-337v-729h-86v729h-337z" />
    <glyph glyph-name="zero" unicode="0" horiz-adv-x="900" 
d="M632 741h-364c-27 0 -58 -1 -72 -24c-13 -21 -14 -64 -14 -101v-452c0 -37 1 -80 14 -101c14 -23 45 -24 72 -24h364c27 0 57 1 71 24c15 24 15 76 15 116v422c0 40 0 92 -15 116c-14 23 -44 24 -71 24zM632 792c52 0 114 0 143 -33s29 -102 29 -158v-422
c0 -56 0 -125 -29 -158s-91 -33 -143 -33h-364c-52 0 -114 0 -143 33s-30 102 -30 158v422c0 56 1 125 30 158s91 33 143 33h364z" />
    <glyph glyph-name="dotlessj" unicode="&#x237;" horiz-adv-x="363" 
d="M-100 -486c4 -25 15 -45 41 -45h188c42 0 44 52 44 95v1076h87v-1065c0 -44 -1 -91 -28 -124c-24 -29 -65 -33 -103 -33h-188c-38 0 -80 4 -104 33c-10 12 -16 25 -20 40z" />
    <glyph glyph-name="odieresis" unicode="&#xf6;" horiz-adv-x="865" 
d="M277 936c17 0 35 0 47 -12s13 -31 13 -48s-1 -35 -13 -47s-30 -13 -47 -13s-36 1 -48 13s-12 30 -12 47s0 36 12 48s31 12 48 12zM588 936c17 0 36 0 48 -12s12 -31 12 -48s0 -35 -12 -47s-31 -13 -48 -13s-35 1 -47 13s-13 30 -13 47s1 36 13 48s30 12 47 12zM621 601
h-377c-26 0 -54 -4 -70 -24c-17 -22 -18 -52 -18 -80v-355c0 -28 1 -57 18 -79c16 -20 44 -24 70 -24h377c26 0 54 4 70 24c17 22 18 51 18 79v355c0 28 -1 58 -18 80c-16 20 -44 24 -70 24zM621 652c49 0 102 -1 138 -35c34 -32 37 -82 37 -129v-337c0 -47 -3 -97 -37 -129
c-36 -34 -89 -34 -138 -34h-377c-49 0 -102 0 -138 34c-34 32 -37 82 -37 129v337c0 47 3 97 37 129c36 34 89 35 138 35h377z" />
    <glyph glyph-name="Germandbls" horiz-adv-x="1678" 
d="M758 614h-87v62c0 19 -2 39 -17 51c-17 14 -42 14 -65 14h-351c-23 0 -48 0 -65 -14c-15 -12 -17 -32 -17 -51v-195c0 -19 2 -40 17 -52c17 -14 42 -14 65 -14h351c46 0 98 0 134 -24c29 -20 35 -57 35 -92v-195c0 -35 -6 -72 -35 -92c-36 -24 -88 -24 -134 -24h-351
c-46 0 -97 0 -133 24c-29 20 -36 57 -36 92v62h87v-62c0 -19 2 -39 17 -51c17 -14 42 -14 65 -14h351c23 0 48 0 65 14c15 12 17 32 17 51v195c0 19 -2 40 -17 52s-36 13 -56 13h-360c-46 0 -97 1 -133 25c-29 20 -36 57 -36 92v195c0 35 7 72 36 92c36 24 87 24 133 24h351
c46 0 98 0 134 -24c29 -20 35 -57 35 -92v-62zM1600 614h-86v62c0 19 -3 39 -18 51c-17 14 -42 14 -65 14h-350c-23 0 -49 0 -66 -14c-15 -12 -17 -32 -17 -51v-195c0 -19 2 -40 17 -52c17 -14 43 -14 66 -14h350c46 0 98 0 134 -24c29 -20 35 -57 35 -92v-195
c0 -35 -6 -72 -35 -92c-36 -24 -88 -24 -134 -24h-350c-46 0 -98 0 -134 24c-29 20 -36 57 -36 92v62h87v-62c0 -19 2 -39 17 -51c17 -14 43 -14 66 -14h350c23 0 48 0 65 14c15 12 18 32 18 51v195c0 19 -3 40 -18 52s-36 13 -56 13h-359c-46 0 -98 1 -134 25
c-29 20 -36 57 -36 92v195c0 35 7 72 36 92c36 24 88 24 134 24h350c46 0 98 0 134 -24c29 -20 35 -57 35 -92v-62z" />
    <glyph glyph-name="K" unicode="K" horiz-adv-x="917" 
d="M121 780h87v-405c77 54 155 108 232 162l348 243h93l-407 -285l407 -495h-120l-363 442l-190 -133v-309h-87v780z" />
    <glyph glyph-name="dotaccent" unicode="&#x2d9;" horiz-adv-x="311" 
d="M156 741c17 0 35 -1 47 -13s13 -30 13 -47s-1 -36 -13 -48s-30 -12 -47 -12s-36 0 -48 12s-12 31 -12 48s0 35 12 47s31 13 48 13z" />
    <glyph glyph-name="egrave" unicode="&#xe8;" horiz-adv-x="856" 
d="M226 975h128l152 -156h-95zM244 -12c-49 0 -102 0 -138 34c-34 32 -37 82 -37 129v337c0 47 3 97 37 129c36 34 89 35 138 35h377c49 0 102 -1 138 -35c34 -32 37 -82 37 -129v-194h-640v-152c0 -28 1 -57 18 -79c16 -20 44 -24 70 -24h377c26 0 54 4 70 24
c17 22 18 51 18 79v95h87v-86c0 -47 -3 -97 -37 -129c-36 -34 -89 -34 -138 -34h-377zM709 345v152c0 28 -1 58 -18 80c-16 20 -44 24 -70 24h-377c-26 0 -54 -4 -70 -24c-17 -22 -18 -52 -18 -80v-152h553z" />
    <glyph glyph-name="equal" unicode="=" horiz-adv-x="848" 
d="M69 422v51h709v-51h-709zM69 166v51h709v-51h-709z" />
    <glyph glyph-name="M" unicode="M" horiz-adv-x="1341" 
d="M121 0v780h54l495 -720l496 720h54v-780h-87v633l-436 -633h-54l-435 633v-633h-87z" />
    <glyph glyph-name="less" unicode="&#x3c;" horiz-adv-x="848" 
d="M180 320l598 -248v-93l-709 295v92l709 294v-92z" />
    <glyph glyph-name="G" unicode="G" horiz-adv-x="1237" 
d="M1133 0h-87v11c-40 -23 -93 -23 -141 -23h-599c-64 0 -132 0 -180 40c-42 36 -48 95 -48 151v422c0 56 6 115 48 151c48 40 116 40 180 40h599c64 0 132 0 180 -40c42 -36 48 -95 48 -151v-120h-87v120c0 40 -1 83 -29 111s-72 29 -112 29h-599c-40 0 -84 -1 -112 -29
s-29 -71 -29 -111v-422c0 -40 1 -83 29 -111s72 -29 112 -29h599c39 0 82 0 112 24c26 20 29 55 29 88v198h-441v51h528v-400z" />
    <glyph glyph-name="ydieresis" unicode="&#xff;" horiz-adv-x="727" 
d="M9 640h97l275 -535l275 535h62l-623 -1210h-61l299 581zM208 936c17 0 35 0 47 -12s13 -31 13 -48s-1 -35 -13 -47s-30 -13 -47 -13s-36 1 -48 13s-13 30 -13 47s1 36 13 48s31 12 48 12zM519 936c17 0 36 0 48 -12s12 -31 12 -48s0 -35 -12 -47s-31 -13 -48 -13
s-36 1 -48 13s-12 30 -12 47s0 36 12 48s31 12 48 12z" />
    <glyph glyph-name="ograve" unicode="&#xf2;" horiz-adv-x="865" 
d="M226 975h128l152 -156h-95zM621 601h-377c-26 0 -54 -4 -70 -24c-17 -22 -18 -52 -18 -80v-355c0 -28 1 -57 18 -79c16 -20 44 -24 70 -24h377c26 0 54 4 70 24c17 22 18 51 18 79v355c0 28 -1 58 -18 80c-16 20 -44 24 -70 24zM621 652c49 0 102 -1 138 -35
c34 -32 37 -82 37 -129v-337c0 -47 -3 -97 -37 -129c-36 -34 -89 -34 -138 -34h-377c-49 0 -102 0 -138 34c-34 32 -37 82 -37 129v337c0 47 3 97 37 129c36 34 89 35 138 35h377z" />
    <glyph glyph-name="Idotaccent" unicode="&#x130;" horiz-adv-x="364" 
d="M138 0v780h87v-780h-87zM182 955c17 0 35 0 47 -12s13 -31 13 -48s-1 -35 -13 -47s-30 -13 -47 -13s-36 1 -48 13s-12 30 -12 47s0 36 12 48s31 12 48 12z" />
    <glyph glyph-name="edieresis" unicode="&#xeb;" horiz-adv-x="856" 
d="M277 936c17 0 35 0 47 -12s13 -31 13 -48s-1 -35 -13 -47s-30 -13 -47 -13s-36 1 -48 13s-12 30 -12 47s0 36 12 48s31 12 48 12zM588 936c17 0 36 0 48 -12s12 -31 12 -48s0 -35 -12 -47s-31 -13 -48 -13s-35 1 -47 13s-13 30 -13 47s1 36 13 48s30 12 47 12zM244 -12
c-49 0 -102 0 -138 34c-34 32 -37 82 -37 129v337c0 47 3 97 37 129c36 34 89 35 138 35h377c49 0 102 -1 138 -35c34 -32 37 -82 37 -129v-194h-640v-152c0 -28 1 -57 18 -79c16 -20 44 -24 70 -24h377c26 0 54 4 70 24c17 22 18 51 18 79v95h87v-86c0 -47 -3 -97 -37 -129
c-36 -34 -89 -34 -138 -34h-377zM709 345v152c0 28 -1 58 -18 80c-16 20 -44 24 -70 24h-377c-26 0 -54 -4 -70 -24c-17 -22 -18 -52 -18 -80v-152h553z" />
    <glyph glyph-name="ccaron" unicode="&#x10d;" horiz-adv-x="839" 
d="M565 975h98l-164 -156h-133l-164 156h98l132 -104zM244 -12c-49 0 -102 0 -138 34c-34 32 -37 82 -37 129v337c0 47 3 97 37 129c36 34 89 35 138 35h377c49 0 102 -1 138 -35c34 -32 37 -82 37 -129v-102h-87v111c0 28 -1 58 -18 80c-16 20 -44 24 -70 24h-377
c-26 0 -54 -4 -70 -24c-17 -22 -18 -52 -18 -80v-355c0 -28 1 -57 18 -79c16 -20 44 -24 70 -24h377c26 0 54 4 70 24c17 22 18 51 18 79v112h87v-103c0 -47 -3 -97 -37 -129c-36 -34 -89 -34 -138 -34h-377z" />
    <glyph glyph-name="parenleft" unicode="(" horiz-adv-x="476" 
d="M78 -307v845c0 88 9 178 61 249c14 20 32 36 52 48l35 -56c-53 -54 -61 -157 -61 -241v-845c0 -84 8 -187 61 -241l-35 -56c-20 12 -38 28 -52 48c-52 71 -61 161 -61 249z" />
    <glyph glyph-name="e" unicode="e" horiz-adv-x="856" 
d="M244 -12c-49 0 -102 0 -138 34c-34 32 -37 82 -37 129v337c0 47 3 97 37 129c36 34 89 35 138 35h377c49 0 102 -1 138 -35c34 -32 37 -82 37 -129v-194h-640v-152c0 -28 1 -57 18 -79c16 -20 44 -24 70 -24h377c26 0 54 4 70 24c17 22 18 51 18 79v95h87v-86
c0 -47 -3 -97 -37 -129c-36 -34 -89 -34 -138 -34h-377zM709 345v152c0 28 -1 58 -18 80c-16 20 -44 24 -70 24h-377c-26 0 -54 -4 -70 -24c-17 -22 -18 -52 -18 -80v-152h553z" />
    <glyph glyph-name="acute" unicode="&#xb4;" horiz-adv-x="346" 
d="M191 780h128l-185 -156h-95z" />
    <glyph glyph-name="OE" unicode="&#x152;" horiz-adv-x="1453" 
d="M782 741h-500c-34 0 -71 -3 -93 -29c-23 -27 -24 -65 -24 -102v-440c0 -37 1 -75 24 -102c22 -26 59 -29 93 -29h500c34 0 71 3 93 29s24 63 24 98v448c0 35 -2 72 -24 98s-59 29 -93 29zM782 792c40 0 81 -1 117 -14v2h494v-51h-407v-329h363v-51h-363v-298h407v-51
h-494v2c-36 -13 -77 -14 -117 -14h-500c-58 0 -119 1 -161 40c-40 37 -43 96 -43 151v422c0 55 3 114 43 151c42 39 103 40 161 40h500z" />
    <glyph glyph-name="thorn" unicode="&#xfe;" horiz-adv-x="882" 
d="M104 -570v1350h86v-143c25 12 57 15 86 15h365c49 0 101 -2 136 -35c34 -32 36 -82 36 -129v-337c0 -47 -2 -97 -36 -129c-35 -33 -87 -34 -136 -34h-365c-29 0 -61 2 -86 14v-572h-86zM641 601h-365c-25 0 -52 -4 -67 -24c-18 -24 -19 -58 -19 -89v-337
c0 -31 1 -64 19 -88c15 -20 42 -24 67 -24h365c25 0 52 4 67 24c18 24 18 57 18 88v337c0 31 0 65 -18 89c-15 20 -42 24 -67 24z" />
    <glyph glyph-name="atilde" unicode="&#xe3;" horiz-adv-x="813" 
d="M70 527c2 33 10 65 33 89c32 33 82 36 128 36h317c46 0 95 -3 127 -36c33 -35 34 -86 34 -134v-482h-76c-25 -12 -56 -12 -85 -12h-317c-44 0 -94 0 -128 24c-28 20 -34 56 -34 91v191c0 35 6 71 34 91c34 24 84 24 128 24h317c25 0 52 -8 75 -8v81c0 32 0 69 -16 94
c-12 19 -36 25 -59 25h-317c-23 0 -47 -6 -59 -25c-10 -15 -14 -35 -15 -55zM216 823h-69c0 33 8 69 35 87c32 21 76 22 118 22h11c56 0 100 -52 156 -52c26 0 55 1 75 14c16 11 20 31 20 50h69c0 -33 -7 -68 -34 -86c-35 -23 -85 -23 -130 -23c-56 0 -100 52 -156 52
c-26 0 -55 0 -75 -13c-16 -11 -20 -32 -20 -51zM548 358h-317c-21 0 -43 0 -59 -13c-14 -12 -16 -32 -16 -51v-191c0 -19 2 -39 16 -51c16 -13 38 -13 59 -13h317c21 0 43 0 59 13c14 12 16 32 16 51v191c0 19 -2 39 -16 51c-16 13 -38 13 -59 13z" />
    <glyph glyph-name="m" unicode="m" horiz-adv-x="1254" 
d="M588 0v541c0 27 -1 60 -24 60h-270c-28 0 -60 -1 -82 -16c-18 -12 -22 -34 -22 -56v-529h-86v640h86v-1c31 13 69 13 104 13h270c32 0 67 -2 88 -26c34 26 82 26 126 26h271c32 0 66 -2 87 -26c23 -26 23 -62 23 -97v-529h-87v546c0 26 -2 55 -23 55h-271
c-28 0 -59 -1 -81 -16c-18 -12 -22 -34 -22 -56v-529h-87z" />
    <glyph glyph-name="p" unicode="p" horiz-adv-x="882" 
d="M104 -570v1210h86v-3c25 12 57 15 86 15h365c49 0 101 -2 136 -35c34 -32 36 -82 36 -129v-337c0 -47 -2 -97 -36 -129c-35 -33 -87 -34 -136 -34h-365c-29 0 -61 2 -86 14v-572h-86zM641 601h-365c-25 0 -52 -4 -67 -24c-18 -24 -19 -58 -19 -89v-337
c0 -31 1 -64 19 -88c15 -20 42 -24 67 -24h365c25 0 52 4 67 24c18 24 18 57 18 88v337c0 31 0 65 -18 89c-15 20 -42 24 -67 24z" />
    <glyph glyph-name="guilsinglleft" unicode="&#x2039;" horiz-adv-x="476" 
d="M175 320l223 -320h-97l-223 320l223 320h97z" />
    <glyph glyph-name="z" unicode="z" horiz-adv-x="640" 
d="M43 589v51h554v-54l-441 -535h441v-51h-554v54l441 535h-441z" />
    <glyph glyph-name="Zacute" unicode="&#x179;" horiz-adv-x="882" 
d="M43 729v51h796v-54l-679 -675h679v-51h-796v54l679 675h-679zM520 994h128l-186 -156h-94z" />
    <glyph glyph-name="Edieresis" unicode="&#xcb;" horiz-adv-x="804" 
d="M121 0v780h623v-51h-536v-329h493v-51h-493v-298h536v-51h-623zM277 955c17 0 35 0 47 -12s13 -31 13 -48s-1 -35 -13 -47s-30 -13 -47 -13s-36 1 -48 13s-12 30 -12 47s0 36 12 48s31 12 48 12zM588 955c17 0 36 0 48 -12s12 -31 12 -48s0 -35 -12 -47s-31 -13 -48 -13
s-35 1 -47 13s-13 30 -13 47s1 36 13 48s30 12 47 12z" />
    <glyph glyph-name="Dcaron" unicode="&#x10e;" horiz-adv-x="1090" 
d="M121 0v780h648c65 0 136 0 185 -39c43 -34 49 -93 49 -148v-406c0 -55 -6 -114 -49 -148c-49 -39 -120 -39 -185 -39h-648zM599 994h99l-164 -156h-133l-165 156h99l132 -104zM208 51h561c42 0 86 0 117 28c29 26 31 69 31 108v406c0 39 -2 82 -31 108
c-31 28 -75 28 -117 28h-561v-678z" />
    <glyph glyph-name="ccedilla" unicode="&#xe7;" horiz-adv-x="839" 
d="M536 -262c0 32 0 71 -33 71h-206l87 179h-140c-49 0 -102 0 -138 34c-34 32 -37 82 -37 129v337c0 47 3 97 37 129c36 34 89 35 138 35h377c49 0 102 -1 138 -35c34 -32 37 -82 37 -129v-102h-87v111c0 28 -1 58 -18 80c-16 20 -44 24 -70 24h-377c-26 0 -54 -4 -70 -24
c-17 -22 -18 -52 -18 -80v-355c0 -28 1 -57 18 -79c16 -20 44 -24 70 -24h377c26 0 54 4 70 24c17 22 18 51 18 79v112h87v-103c0 -47 -3 -97 -37 -129c-36 -34 -89 -34 -138 -34h-172l-67 -139h121c30 0 61 -1 81 -23c21 -23 21 -57 21 -88v-212c0 -31 0 -65 -21 -88
c-20 -22 -51 -23 -81 -23h-141c-30 0 -61 1 -81 23c-10 11 -15 25 -18 40l67 13c3 -20 11 -36 32 -36h141c33 0 33 39 33 71v212z" />
    <glyph glyph-name="Scedilla" unicode="&#x15e;" horiz-adv-x="900" 
d="M822 614h-87v62c0 20 -3 40 -19 51c-19 14 -49 14 -74 14h-393c-25 0 -55 0 -74 -14c-16 -11 -19 -31 -19 -51v-195c0 -20 3 -41 19 -52c19 -14 49 -14 74 -14h393c49 0 104 0 142 -24c29 -19 38 -56 38 -92v-195c0 -36 -9 -73 -38 -92c-38 -24 -93 -24 -142 -24h-180
l-67 -139h121c30 0 61 -1 81 -23c21 -23 21 -57 21 -88v-212c0 -31 0 -65 -21 -88c-20 -22 -51 -23 -81 -23h-141c-30 0 -61 1 -81 23c-10 11 -15 25 -18 40l67 13c3 -20 11 -36 32 -36h141c33 0 33 39 33 71v212c0 32 0 71 -33 71h-206l87 179h-148c-49 0 -104 0 -142 24
c-29 19 -38 56 -38 92v62h87v-62c0 -20 3 -40 19 -51c19 -14 49 -14 74 -14h393c25 0 55 0 74 14c16 11 19 31 19 51v195c0 20 -3 41 -19 52c-17 12 -41 13 -64 13h-403c-49 0 -104 1 -142 25c-29 19 -38 56 -38 92v195c0 36 9 73 38 92c38 24 93 24 142 24h393
c49 0 104 0 142 -24c29 -19 38 -56 38 -92v-62z" />
    <glyph glyph-name="Racute" unicode="&#x154;" horiz-adv-x="874" 
d="M121 0v780h492c59 0 126 0 172 -26c33 -19 45 -59 45 -98v-220c0 -39 -12 -79 -45 -98c-46 -26 -113 -27 -172 -27h-10l262 -311h-119l-249 311h-289v-311h-87zM477 994h127l-185 -156h-94zM208 729v-367h405c35 0 76 1 103 16c20 11 28 35 28 58v220c0 23 -8 47 -28 58
c-27 15 -68 15 -103 15h-405z" />
    <glyph glyph-name="b" unicode="b" horiz-adv-x="891" 
d="M112 0v880h87v-243c25 12 57 15 86 15h364c49 0 102 -2 137 -35c34 -32 36 -82 36 -129v-337c0 -47 -2 -97 -36 -129c-35 -33 -88 -34 -137 -34h-364c-29 0 -61 2 -86 14v-2h-87zM649 601h-364c-25 0 -53 -4 -68 -24c-18 -24 -18 -58 -18 -89v-337c0 -31 0 -64 18 -88
c15 -20 43 -24 68 -24h364c25 0 53 4 68 24c18 24 18 57 18 88v337c0 31 0 65 -18 89c-15 20 -43 24 -68 24z" />
    <glyph glyph-name="one" unicode="1" horiz-adv-x="588" 
d="M294 0v672l-225 -102v93l258 117h54v-780h-87z" />
    <glyph glyph-name="perthousandzero" horiz-adv-x="597" 
d="M407 325h-217c-15 0 -31 0 -41 -11c-9 -9 -10 -23 -10 -36v-179c0 -13 1 -27 10 -36c10 -11 26 -12 41 -12h217c15 0 31 1 41 12c9 9 10 23 10 36v179c0 13 -1 27 -10 36c-10 11 -26 11 -41 11zM407 376c38 0 80 0 109 -22c25 -19 29 -52 29 -83v-165
c0 -31 -4 -65 -29 -84c-29 -22 -71 -22 -109 -22h-217c-38 0 -80 0 -109 22c-25 19 -29 53 -29 84v165c0 31 4 64 29 83c29 22 71 22 109 22h217z" />
    <glyph glyph-name="R" unicode="R" horiz-adv-x="874" 
d="M121 0v780h492c59 0 126 0 172 -26c33 -19 45 -59 45 -98v-220c0 -39 -12 -79 -45 -98c-46 -26 -113 -27 -172 -27h-10l262 -311h-119l-249 311h-289v-311h-87zM208 729v-367h405c35 0 76 1 103 16c20 11 28 35 28 58v220c0 23 -8 47 -28 58c-27 15 -68 15 -103 15h-405z
" />
    <glyph glyph-name="ecircumflex" unicode="&#xea;" horiz-adv-x="856" 
d="M244 -12c-49 0 -102 0 -138 34c-34 32 -37 82 -37 129v337c0 47 3 97 37 129c36 34 89 35 138 35h377c49 0 102 -1 138 -35c34 -32 37 -82 37 -129v-194h-640v-152c0 -28 1 -57 18 -79c16 -20 44 -24 70 -24h377c26 0 54 4 70 24c17 22 18 51 18 79v95h87v-86
c0 -47 -3 -97 -37 -129c-36 -34 -89 -34 -138 -34h-377zM709 345v152c0 28 -1 58 -18 80c-16 20 -44 24 -70 24h-377c-26 0 -54 -4 -70 -24c-17 -22 -18 -52 -18 -80v-152h553zM432 923l-132 -104h-98l164 156h133l164 -156h-98z" />
    <glyph glyph-name="Otilde" unicode="&#xd5;" horiz-adv-x="1211" 
d="M433 842h-70c0 33 8 69 35 87c35 23 85 23 130 23c56 0 99 -53 155 -53c26 0 55 1 75 14c16 11 20 31 20 50h70c0 -33 -8 -68 -35 -86c-35 -23 -85 -23 -130 -23c-56 0 -99 52 -155 52c-26 0 -55 0 -75 -13c-16 -11 -20 -32 -20 -51zM905 741h-599c-40 0 -84 -1 -112 -29
s-29 -71 -29 -111v-422c0 -40 1 -83 29 -111s72 -29 112 -29h599c40 0 84 1 112 29s29 71 29 111v422c0 40 -1 83 -29 111s-72 29 -112 29zM905 792c64 0 132 0 180 -40c42 -36 48 -95 48 -151v-422c0 -56 -6 -115 -48 -151c-48 -40 -116 -40 -180 -40h-599
c-64 0 -132 0 -180 40c-42 36 -48 95 -48 151v422c0 56 6 115 48 151c48 40 116 40 180 40h599z" />
    <glyph glyph-name="ampersand" unicode="&#x26;" horiz-adv-x="1073" 
d="M865 621h-87v55c0 19 -3 40 -18 51c-19 14 -46 14 -70 14h-376c-24 0 -51 0 -70 -14c-15 -11 -19 -32 -19 -51v-195c0 -38 53 -46 98 -52c98 -14 244 -14 367 -14h326v-51h-151v-364h-551c-48 0 -102 0 -139 24c-29 19 -37 55 -37 90v188c0 35 8 71 37 90c7 5 14 8 22 11
c-34 17 -59 42 -59 78v195c0 35 8 73 37 92c37 24 91 24 139 24h376c48 0 101 0 138 -24c29 -19 37 -57 37 -92v-55zM778 364h-88v-6c-90 0 -189 6 -280 6h-96c-24 0 -51 0 -70 -13c-15 -11 -19 -30 -19 -49v-188c0 -19 4 -39 19 -50c19 -13 46 -13 70 -13h464v313z" />
    <glyph glyph-name="Ucircumflex" unicode="&#xdb;" horiz-adv-x="1028" 
d="M912 780v-661c0 -39 -7 -81 -39 -103c-39 -28 -97 -28 -148 -28h-423c-51 0 -108 0 -147 28c-32 22 -39 64 -39 103v661h87v-661c0 -24 3 -48 21 -63c21 -17 50 -17 78 -17h423c28 0 58 0 79 17c18 15 21 39 21 63v661h87zM514 942l-132 -104h-99l164 156h133l165 -156
h-99z" />
    <glyph glyph-name="underscore" unicode="_" horiz-adv-x="813" 
d="M52 -194v51h709v-51h-709z" />
    <glyph glyph-name="Tcaron" unicode="&#x164;" horiz-adv-x="796" 
d="M18 729v51h760v-51h-337v-729h-86v729h-337zM530 994h99l-165 -156h-133l-164 156h99l132 -104z" />
    <glyph glyph-name="hyphen" unicode="-" horiz-adv-x="502" 
d="M69 294v51h363v-51h-363z" />
    <glyph glyph-name="N" unicode="N" horiz-adv-x="1081" 
d="M121 0v780h54l698 -670v670h87v-780h-54l-698 670v-670h-87z" />
    <glyph glyph-name="braceleft" unicode="{" horiz-adv-x="528" 
d="M285 835l38 -62c-13 -19 -20 -43 -20 -67v-506c0 -31 -8 -62 -27 -84c19 -22 27 -54 27 -85v-506c0 -24 7 -48 20 -67l-38 -62c-44 27 -69 76 -69 129v506c0 36 -54 41 -100 41h-38v87h38c46 0 100 5 100 41v506c0 53 25 102 69 129z" />
    <glyph glyph-name="Udieresis" unicode="&#xdc;" horiz-adv-x="1028" 
d="M912 780v-661c0 -39 -7 -81 -39 -103c-39 -28 -97 -28 -148 -28h-423c-51 0 -108 0 -147 28c-32 22 -39 64 -39 103v661h87v-661c0 -24 3 -48 21 -63c21 -17 50 -17 78 -17h423c28 0 58 0 79 17c18 15 21 39 21 63v661h87zM358 955c17 0 36 0 48 -12s12 -31 12 -48
s0 -35 -12 -47s-31 -13 -48 -13s-35 1 -47 13s-13 30 -13 47s1 36 13 48s30 12 47 12zM670 955c17 0 35 0 47 -12s13 -31 13 -48s-1 -35 -13 -47s-30 -13 -47 -13s-36 1 -48 13s-13 30 -13 47s1 36 13 48s31 12 48 12z" />
    <glyph glyph-name="ncaron" unicode="&#x148;" 
d="M640 0v540c0 28 -2 61 -27 61h-306c-32 0 -67 -1 -92 -16c-19 -12 -25 -34 -25 -56v-529h-86v640h86v-3c35 15 77 15 117 15h306c33 0 68 -2 90 -26c24 -25 24 -62 24 -97v-529h-87zM547 975h99l-164 -156h-133l-165 156h99l132 -104z" />
    <glyph glyph-name="cacute" unicode="&#x107;" horiz-adv-x="839" 
d="M511 975h128l-185 -156h-95zM244 -12c-49 0 -102 0 -138 34c-34 32 -37 82 -37 129v337c0 47 3 97 37 129c36 34 89 35 138 35h377c49 0 102 -1 138 -35c34 -32 37 -82 37 -129v-102h-87v111c0 28 -1 58 -18 80c-16 20 -44 24 -70 24h-377c-26 0 -54 -4 -70 -24
c-17 -22 -18 -52 -18 -80v-355c0 -28 1 -57 18 -79c16 -20 44 -24 70 -24h377c26 0 54 4 70 24c17 22 18 51 18 79v112h87v-103c0 -47 -3 -97 -37 -129c-36 -34 -89 -34 -138 -34h-377z" />
    <glyph glyph-name="oacute" unicode="&#xf3;" horiz-adv-x="865" 
d="M511 975h128l-185 -156h-95zM621 601h-377c-26 0 -54 -4 -70 -24c-17 -22 -18 -52 -18 -80v-355c0 -28 1 -57 18 -79c16 -20 44 -24 70 -24h377c26 0 54 4 70 24c17 22 18 51 18 79v355c0 28 -1 58 -18 80c-16 20 -44 24 -70 24zM621 652c49 0 102 -1 138 -35
c34 -32 37 -82 37 -129v-337c0 -47 -3 -97 -37 -129c-36 -34 -89 -34 -138 -34h-377c-49 0 -102 0 -138 34c-34 32 -37 82 -37 129v337c0 47 3 97 37 129c36 34 89 35 138 35h377z" />
    <glyph glyph-name="Oslash" unicode="&#xd8;" horiz-adv-x="1211" 
d="M905 741h-599c-40 0 -84 -1 -112 -29s-29 -71 -29 -111v-422c0 -26 1 -54 9 -78l813 630c-25 9 -54 10 -82 10zM905 792c48 0 97 -16 139 -16l6 4h118l-64 -49c25 -36 29 -84 29 -130v-422c0 -56 -6 -115 -48 -151c-48 -40 -116 -40 -180 -40h-599c-48 0 -97 16 -139 16
l-6 -4h-118l64 49c-25 36 -29 84 -29 130v422c0 56 6 115 48 151c48 40 116 40 180 40h599zM224 49c25 -9 54 -10 82 -10h599c40 0 84 1 112 29s29 71 29 111v422c0 26 -1 54 -9 78z" />
    <glyph glyph-name="period" unicode="." horiz-adv-x="364" 
d="M182 116c17 0 34 0 46 -12s12 -29 12 -46s0 -34 -12 -46s-29 -12 -46 -12s-34 0 -46 12s-12 29 -12 46s0 34 12 46s29 12 46 12z" />
    <glyph glyph-name="abreve" unicode="&#x103;" horiz-adv-x="813" 
d="M70 527c2 33 10 65 33 89c32 33 82 36 128 36h317c46 0 95 -3 127 -36c33 -35 34 -86 34 -134v-482h-76c-25 -12 -56 -12 -85 -12h-317c-44 0 -94 0 -128 24c-28 20 -34 56 -34 91v191c0 35 6 71 34 91c34 24 84 24 128 24h317c25 0 52 -8 75 -8v81c0 32 0 69 -16 94
c-12 19 -36 25 -59 25h-317c-23 0 -47 -6 -59 -25c-10 -15 -14 -35 -15 -55zM507 881c25 0 55 0 55 26v77h69v-77c0 -22 -7 -45 -26 -56c-26 -15 -64 -15 -98 -15h-235c-34 0 -73 0 -99 15c-19 11 -26 34 -26 56v77h69v-77c0 -26 31 -26 56 -26h235zM548 358h-317
c-21 0 -43 0 -59 -13c-14 -12 -16 -32 -16 -51v-191c0 -19 2 -39 16 -51c16 -13 38 -13 59 -13h317c21 0 43 0 59 13c14 12 16 32 16 51v191c0 19 -2 39 -16 51c-16 13 -38 13 -59 13z" />
    <glyph glyph-name="Sacute" unicode="&#x15a;" horiz-adv-x="900" 
d="M822 614h-87v62c0 20 -3 40 -19 51c-19 14 -49 14 -74 14h-393c-25 0 -55 0 -74 -14c-16 -11 -19 -31 -19 -51v-195c0 -20 3 -41 19 -52c19 -14 49 -14 74 -14h393c49 0 104 0 142 -24c29 -19 38 -56 38 -92v-195c0 -36 -9 -73 -38 -92c-38 -24 -93 -24 -142 -24h-393
c-49 0 -104 0 -142 24c-29 19 -38 56 -38 92v62h87v-62c0 -20 3 -40 19 -51c19 -14 49 -14 74 -14h393c25 0 55 0 74 14c16 11 19 31 19 51v195c0 20 -3 41 -19 52c-17 12 -41 13 -64 13h-403c-49 0 -104 1 -142 25c-29 19 -38 56 -38 92v195c0 36 9 73 38 92
c38 24 93 24 142 24h393c49 0 104 0 142 -24c29 -19 38 -56 38 -92v-62zM524 975h128l-185 -156h-95z" />
    <glyph glyph-name="grave" unicode="`" horiz-adv-x="346" 
d="M27 780h128l152 -156h-95z" />
    <glyph glyph-name="bracketright" unicode="]" horiz-adv-x="484" 
d="M52 819h277v-1389h-277v51h190v1287h-190v51z" />
    <glyph glyph-name="Cacute" unicode="&#x106;" horiz-adv-x="1168" 
d="M1133 472h-87v129c0 40 -1 83 -29 111s-72 29 -112 29h-599c-40 0 -84 -1 -112 -29s-29 -71 -29 -111v-422c0 -40 1 -83 29 -111s72 -29 112 -29h599c40 0 84 1 112 29s29 71 29 111v129h87v-129c0 -56 -6 -115 -48 -151c-48 -40 -116 -40 -180 -40h-599
c-64 0 -132 0 -180 40c-42 36 -48 95 -48 151v422c0 56 6 115 48 151c48 40 116 40 180 40h599c64 0 132 0 180 -40c42 -36 48 -95 48 -151v-129zM684 994h128l-185 -156h-95z" />
    <glyph glyph-name="lacute" unicode="&#x13a;" horiz-adv-x="294" 
d="M104 0v880h86v-880h-86zM242 1100h127l-185 -156h-95z" />
    <glyph glyph-name="slash" unicode="/" horiz-adv-x="649" 
d="M35 -39l480 858h99l-480 -858h-99z" />
    <glyph glyph-name="Ccedilla" unicode="&#xc7;" horiz-adv-x="1168" 
d="M1133 472h-87v129c0 40 -1 83 -29 111s-72 29 -112 29h-599c-40 0 -84 -1 -112 -29s-29 -71 -29 -111v-422c0 -40 1 -83 29 -111s72 -29 112 -29h599c40 0 84 1 112 29s29 71 29 111v129h87v-129c0 -56 -6 -115 -48 -151c-48 -40 -116 -40 -180 -40h-283l-67 -139h121
c30 0 61 -1 81 -23c21 -23 21 -57 21 -88v-212c0 -31 0 -65 -21 -88c-20 -22 -51 -23 -81 -23h-141c-30 0 -61 1 -81 23c-10 11 -15 25 -18 40l67 13c3 -20 11 -36 32 -36h141c33 0 33 39 33 71v212c0 32 0 71 -33 71h-206l87 179h-251c-64 0 -132 0 -180 40
c-42 36 -48 95 -48 151v422c0 56 6 115 48 151c48 40 116 40 180 40h599c64 0 132 0 180 -40c42 -36 48 -95 48 -151v-129z" />
    <glyph glyph-name="ugrave" unicode="&#xf9;" 
d="M718 640v-640h-77c-24 -11 -54 -12 -82 -12h-305c-44 0 -93 0 -126 26c-28 22 -33 61 -33 97v529h87v-529c0 -21 1 -43 15 -57s37 -15 57 -15h305c20 0 43 1 57 15s15 36 15 57v529h87zM200 975h128l152 -156h-95z" />
    <glyph glyph-name="Adieresis" unicode="&#xc4;" horiz-adv-x="960" 
d="M17 0l436 780h54l436 -780h-99l-124 221h-520l-123 -221h-60zM324 955c17 0 36 0 48 -12s13 -31 13 -48s-1 -35 -13 -47s-31 -13 -48 -13s-35 1 -47 13s-13 30 -13 47s1 36 13 48s30 12 47 12zM636 955c17 0 35 0 47 -12s13 -31 13 -48s-1 -35 -13 -47s-30 -13 -47 -13
s-36 1 -48 13s-12 30 -12 47s0 36 12 48s31 12 48 12zM692 272l-232 414l-231 -414h463z" />
    <glyph glyph-name="otilde" unicode="&#xf5;" horiz-adv-x="865" 
d="M260 823h-70c0 33 8 69 35 87c32 21 77 22 119 22h11c56 0 99 -52 155 -52c26 0 55 1 75 14c16 11 20 31 20 50h70c0 -33 -8 -68 -35 -86c-35 -23 -85 -23 -130 -23c-56 0 -99 52 -155 52c-26 0 -55 0 -75 -13c-16 -11 -20 -32 -20 -51zM621 601h-377
c-26 0 -54 -4 -70 -24c-17 -22 -18 -52 -18 -80v-355c0 -28 1 -57 18 -79c16 -20 44 -24 70 -24h377c26 0 54 4 70 24c17 22 18 51 18 79v355c0 28 -1 58 -18 80c-16 20 -44 24 -70 24zM621 652c49 0 102 -1 138 -35c34 -32 37 -82 37 -129v-337c0 -47 -3 -97 -37 -129
c-36 -34 -89 -34 -138 -34h-377c-49 0 -102 0 -138 34c-34 32 -37 82 -37 129v337c0 47 3 97 37 129c36 34 89 35 138 35h377z" />
    <glyph glyph-name="scedilla" unicode="&#x15f;" horiz-adv-x="692" 
d="M640 501h-87v49c0 15 -2 31 -14 40c-14 11 -34 11 -52 11h-282c-18 0 -38 0 -52 -11c-12 -9 -14 -25 -14 -40v-154c0 -15 2 -31 14 -40c14 -11 34 -11 52 -11h282c42 0 89 0 121 -21c25 -17 32 -50 32 -81v-153c0 -31 -7 -64 -32 -81c-32 -21 -79 -21 -121 -21h-124
l-67 -139h120c30 0 61 -1 81 -23c21 -23 22 -57 22 -88v-212c0 -31 -1 -65 -22 -88c-20 -22 -51 -23 -81 -23h-140c-30 0 -61 1 -81 23c-10 11 -16 25 -19 40l68 13c3 -20 11 -36 32 -36h140c33 0 34 39 34 71v212c0 32 -1 71 -34 71h-206l87 179h-92c-42 0 -89 0 -121 21
c-25 17 -32 50 -32 81v48h87v-48c0 -15 2 -31 14 -40c14 -11 34 -11 52 -11h282c18 0 38 0 52 11c12 9 14 25 14 40v153c0 15 -2 32 -14 41s-28 10 -44 10h-290c-42 0 -89 1 -121 22c-25 17 -32 49 -32 80v154c0 31 7 63 32 80c32 21 79 22 121 22h282c42 0 89 -1 121 -22
c25 -17 32 -49 32 -80v-49z" />
    <glyph glyph-name="A" unicode="A" horiz-adv-x="960" 
d="M17 0l436 780h54l436 -780h-99l-124 221h-520l-123 -221h-60zM692 272l-232 414l-231 -414h463z" />
    <glyph glyph-name="Thorn" unicode="&#xde;" horiz-adv-x="900" 
d="M121 0v780h87v-130h405c59 0 126 -1 172 -26c33 -18 45 -57 45 -95v-209c0 -38 -12 -78 -45 -96c-46 -25 -113 -25 -172 -25h-405v-199h-87zM208 599v-349h405c35 0 76 0 103 15c19 10 28 33 28 55v209c0 22 -9 45 -28 55c-27 15 -68 15 -103 15h-405z" />
    <glyph glyph-name="ae" unicode="&#xe6;" horiz-adv-x="1280" 
d="M79 525c2 34 9 66 31 91c29 33 76 36 120 36h279c39 0 81 -3 110 -26c32 24 77 26 118 26h321c46 0 96 -2 128 -35c33 -33 34 -83 34 -129v-194h-558v-143c0 -31 0 -64 16 -88c13 -19 36 -24 59 -24h321c23 0 46 5 59 24c16 24 16 57 16 88v86h87v-86
c0 -46 -1 -96 -34 -129c-32 -33 -82 -34 -128 -34h-321c-39 0 -81 1 -112 21c-32 -21 -76 -21 -116 -21h-279c-42 0 -88 0 -120 24c-27 20 -32 57 -32 91v191c0 34 5 71 32 91c32 24 78 24 120 24h279c22 0 46 -6 66 -6v79c0 32 0 69 -14 94c-10 18 -31 25 -52 25h-279
c-21 0 -42 -7 -52 -25c-9 -15 -12 -35 -13 -56zM509 358h-279c-19 0 -39 0 -52 -13s-13 -33 -13 -51v-191c0 -18 0 -38 13 -51s33 -13 52 -13h279c19 0 39 0 52 13s14 33 14 51v191c0 18 -1 38 -14 51s-33 13 -52 13zM662 488v-143h471v143c0 31 0 65 -16 89
c-13 19 -36 24 -59 24h-321c-23 0 -46 -5 -59 -24c-16 -24 -16 -58 -16 -89z" />
    <glyph glyph-name="C" unicode="C" horiz-adv-x="1168" 
d="M1133 472h-87v129c0 40 -1 83 -29 111s-72 29 -112 29h-599c-40 0 -84 -1 -112 -29s-29 -71 -29 -111v-422c0 -40 1 -83 29 -111s72 -29 112 -29h599c40 0 84 1 112 29s29 71 29 111v129h87v-129c0 -56 -6 -115 -48 -151c-48 -40 -116 -40 -180 -40h-599
c-64 0 -132 0 -180 40c-42 36 -48 95 -48 151v422c0 56 6 115 48 151c48 40 116 40 180 40h599c64 0 132 0 180 -40c42 -36 48 -95 48 -151v-129z" />
    <glyph glyph-name="dollar" unicode="$" horiz-adv-x="900" 
d="M822 614h-87v62c0 20 -3 40 -19 51c-19 14 -49 14 -74 14h-393c-25 0 -55 0 -74 -14c-16 -11 -19 -31 -19 -51v-195c0 -20 3 -41 19 -52c19 -14 49 -14 74 -14h393c49 0 104 0 142 -24c29 -19 38 -56 38 -92v-195c0 -36 -9 -73 -38 -92c-38 -24 -93 -24 -142 -24h-153
v-144h-87v144h-153c-49 0 -104 0 -142 24c-29 19 -38 56 -38 92v62h87v-62c0 -20 3 -40 19 -51c19 -14 49 -14 74 -14h393c25 0 55 0 74 14c16 11 19 31 19 51v195c0 20 -3 41 -19 52c-17 12 -41 13 -64 13h-403c-49 0 -104 1 -142 25c-29 19 -38 56 -38 92v195
c0 36 9 73 38 92c38 24 93 24 142 24h153v144h87v-144h153c49 0 104 0 142 -24c29 -19 38 -56 38 -92v-62z" />
    <glyph glyph-name="comma" unicode="," horiz-adv-x="407" 
d="M190 128h104l-204 -320h-76z" />
    <glyph glyph-name="colon" unicode=":" horiz-adv-x="364" 
d="M182 116c17 0 34 0 46 -12s12 -29 12 -46s0 -34 -12 -46s-29 -12 -46 -12s-34 0 -46 12s-12 29 -12 46s0 34 12 46s29 12 46 12zM182 640c17 0 34 -1 46 -13s12 -28 12 -45s0 -34 -12 -46s-29 -12 -46 -12s-34 0 -46 12s-12 29 -12 46s0 33 12 45s29 13 46 13z" />
    <glyph glyph-name="Ecaron" unicode="&#x11a;" horiz-adv-x="804" 
d="M121 0v780h623v-51h-536v-329h493v-51h-493v-298h536v-51h-623zM565 994h98l-164 -156h-133l-164 156h98l132 -104z" />
    <glyph glyph-name="idieresis" unicode="&#xef;" horiz-adv-x="329" 
d="M121 0v640h87v-640h-87zM9 936c17 0 35 0 47 -12s13 -31 13 -48s-1 -35 -13 -47s-30 -13 -47 -13s-36 1 -48 13s-13 30 -13 47s1 36 13 48s31 12 48 12zM320 936c17 0 36 0 48 -12s12 -31 12 -48s0 -35 -12 -47s-31 -13 -48 -13s-35 1 -47 13s-13 30 -13 47s1 36 13 48
s30 12 47 12z" />
    <glyph glyph-name="exclam" unicode="!" horiz-adv-x="467" 
d="M190 233v547h87v-547h-87zM234 116c17 0 33 0 45 -12s13 -29 13 -46s-1 -34 -13 -46s-28 -12 -45 -12s-34 0 -46 12s-12 29 -12 46s0 34 12 46s29 12 46 12z" />
    <glyph glyph-name="bracketleft" unicode="[" horiz-adv-x="484" 
d="M156 -570v1389h276v-51h-190v-1287h190v-51h-276z" />
    <glyph glyph-name="Aring" unicode="&#xc5;" horiz-adv-x="960" 
d="M17 0l436 780h54l436 -780h-99l-124 221h-520l-123 -221h-60zM692 272l-232 414l-231 -414h463zM540 977h-120c-8 0 -16 0 -22 -5c-5 -5 -6 -12 -6 -19v-73c0 -7 1 -14 6 -19c6 -5 14 -6 22 -6h120c8 0 16 1 22 6c5 5 6 12 6 19v73c0 7 -1 14 -6 19c-6 5 -14 5 -22 5z
M540 1011c24 0 50 0 68 -12c14 -10 18 -28 18 -46v-73c0 -18 -4 -36 -18 -46c-18 -12 -44 -13 -68 -13h-120c-24 0 -50 1 -68 13c-14 10 -18 28 -18 46v73c0 18 4 36 18 46c18 12 44 12 68 12h120z" />
    <glyph glyph-name="dieresis" unicode="&#xa8;" horiz-adv-x="363" 
d="M26 741c17 0 35 -1 47 -13s13 -30 13 -47s-1 -36 -13 -48s-30 -12 -47 -12s-36 0 -48 12s-12 31 -12 48s0 35 12 47s31 13 48 13zM337 741c17 0 36 -1 48 -13s13 -30 13 -47s-1 -36 -13 -48s-31 -12 -48 -12s-35 0 -47 12s-13 31 -13 48s1 35 13 47s30 13 47 13z" />
    <glyph glyph-name="I" unicode="I" horiz-adv-x="364" 
d="M138 0v780h87v-780h-87z" />
    <glyph glyph-name="udieresis" unicode="&#xfc;" 
d="M718 640v-640h-77c-24 -11 -54 -12 -82 -12h-305c-44 0 -93 0 -126 26c-28 22 -33 61 -33 97v529h87v-529c0 -21 1 -43 15 -57s37 -15 57 -15h305c20 0 43 1 57 15s15 36 15 57v529h87zM251 936c17 0 35 0 47 -12s13 -31 13 -48s-1 -35 -13 -47s-30 -13 -47 -13
s-36 1 -48 13s-12 30 -12 47s0 36 12 48s31 12 48 12zM562 936c17 0 36 0 48 -12s12 -31 12 -48s0 -35 -12 -47s-31 -13 -48 -13s-35 1 -47 13s-13 30 -13 47s1 36 13 48s30 12 47 12z" />
    <glyph glyph-name="igrave" unicode="&#xec;" horiz-adv-x="329" 
d="M121 0v640h87v-640h-87zM-42 975h127l153 -156h-95z" />
    <glyph glyph-name="quotedbl" unicode="&#x22;" horiz-adv-x="510" 
d="M52 780h87v-253h-87v253zM458 780v-253h-86v253h86z" />
    <glyph glyph-name="quotesinglbase" unicode="&#x201a;" horiz-adv-x="441" 
d="M242 98h94l-156 -254h-70z" />
    <glyph glyph-name="five" unicode="5" horiz-adv-x="830" 
d="M224 -12c-48 0 -100 0 -136 28c-31 23 -36 65 -36 104l23 79l73 -21l-9 -58c0 -23 1 -48 18 -64c18 -17 43 -17 67 -17h365c24 0 49 0 67 17c17 16 19 41 19 64v242c0 23 -1 48 -17 64s-39 17 -62 17h-335c-33 0 -64 -19 -79 -49h-87v386h623v-51h-536v-260
c23 16 50 25 79 25h335c46 0 95 0 130 -28c30 -24 35 -65 35 -104v-242c0 -39 -5 -81 -36 -104c-36 -28 -88 -28 -136 -28h-365z" />
    <glyph glyph-name="Agrave" unicode="&#xc0;" horiz-adv-x="960" 
d="M17 0l436 780h54l436 -780h-99l-124 221h-520l-123 -221h-60zM274 994h127l152 -156h-94zM692 272l-232 414l-231 -414h463z" />
    <glyph glyph-name="W" unicode="W" horiz-adv-x="1349" 
d="M17 780h99l363 -681l165 310l-198 371h98l149 -279l149 279h61l-179 -336l184 -345l363 681h61l-416 -780h-54l-188 352l-187 -352h-54z" />
    <glyph glyph-name="dash" horiz-adv-x="545" 
d="M69 294v51h407v-51h-407z" />
    <glyph glyph-name="Egrave" unicode="&#xc8;" horiz-adv-x="804" 
d="M121 0v780h623v-51h-536v-329h493v-51h-493v-298h536v-51h-623zM226 994h128l152 -156h-95z" />
    <glyph glyph-name="s" unicode="s" horiz-adv-x="692" 
d="M640 501h-87v49c0 15 -2 31 -14 40c-14 11 -34 11 -52 11h-282c-18 0 -38 0 -52 -11c-12 -9 -14 -25 -14 -40v-154c0 -15 2 -31 14 -40c14 -11 34 -11 52 -11h282c42 0 89 0 121 -21c25 -17 32 -50 32 -81v-153c0 -31 -7 -64 -32 -81c-32 -21 -79 -21 -121 -21h-282
c-42 0 -89 0 -121 21c-25 17 -32 50 -32 81v48h87v-48c0 -15 2 -31 14 -40c14 -11 34 -11 52 -11h282c18 0 38 0 52 11c12 9 14 25 14 40v153c0 15 -2 32 -14 41s-28 10 -44 10h-290c-42 0 -89 1 -121 22c-25 17 -32 49 -32 80v154c0 31 7 63 32 80c32 21 79 22 121 22h282
c42 0 89 -1 121 -22c25 -17 32 -49 32 -80v-49z" />
    <glyph glyph-name="Uhungarumlaut" unicode="&#x170;" horiz-adv-x="1028" 
d="M912 780v-661c0 -39 -7 -81 -39 -103c-39 -28 -97 -28 -148 -28h-423c-51 0 -108 0 -147 28c-32 22 -39 64 -39 103v661h87v-661c0 -24 3 -48 21 -63c21 -17 50 -17 78 -17h423c28 0 58 0 79 17c18 15 21 39 21 63v661h87zM313 838l140 156h122l-172 -156h-90zM712 994
h123l-172 -156h-91z" />
    <glyph glyph-name="tcedilla" unicode="&#x163;" horiz-adv-x="467" 
d="M27 589v51h163v240h87v-240h164v-51h-164v-589h-21l-73 -151h121c30 0 61 -1 81 -23c21 -23 22 -57 22 -88v-212c0 -31 -1 -65 -22 -88c-20 -22 -51 -23 -81 -23h-141c-30 0 -61 1 -81 23c-10 11 -15 25 -18 40l67 13c3 -20 11 -36 32 -36h141c33 0 33 39 33 71v212
c0 32 0 71 -33 71h-206l93 191h-1v589h-163z" />
    <glyph glyph-name="oe" unicode="&#x153;" horiz-adv-x="1367" 
d="M571 601h-329c-23 0 -48 -5 -61 -24c-16 -24 -16 -58 -16 -89v-337c0 -31 0 -64 16 -88c13 -19 38 -24 61 -24h329c23 0 48 5 61 24c16 24 17 57 17 88v337c0 31 -1 65 -17 89c-13 19 -38 24 -61 24zM571 652c43 0 88 -2 121 -27c33 25 78 27 121 27h329
c47 0 97 -2 130 -35s34 -82 34 -129v-194h-571v-143c0 -31 1 -64 17 -88c13 -19 38 -24 61 -24h329c23 0 48 5 61 24c16 24 16 57 16 88v86h87v-86c0 -47 -1 -96 -34 -129s-83 -34 -130 -34h-329c-43 0 -88 1 -121 26c-33 -25 -78 -26 -121 -26h-329c-47 0 -97 1 -130 34
s-34 82 -34 129v337c0 47 1 96 34 129s83 35 130 35h329zM735 488v-143h484v143c0 31 0 65 -16 89c-13 19 -38 24 -61 24h-329c-23 0 -48 -5 -61 -24c-16 -24 -17 -58 -17 -89z" />
    <glyph glyph-name="Acircumflex" unicode="&#xc2;" horiz-adv-x="960" 
d="M17 0l436 780h54l436 -780h-99l-124 221h-520l-123 -221h-60zM692 272l-232 414l-231 -414h463zM480 942l-132 -104h-99l165 156h133l164 -156h-99z" />
    <glyph glyph-name="f" unicode="f" horiz-adv-x="510" 
d="M61 589v51h142v181c0 22 5 44 23 56c22 15 55 15 84 15h84c29 0 62 0 84 -15c15 -10 22 -28 23 -47l-87 -6c0 12 -8 17 -20 17h-84c-14 0 -20 -6 -20 -20v-181h142v-51h-142v-589h-87v589h-142z" />
    <glyph glyph-name="nine" unicode="9" horiz-adv-x="848" 
d="M597 741h-364c-24 0 -50 0 -68 -16c-16 -15 -18 -39 -18 -61v-230c0 -22 2 -46 18 -61c18 -16 44 -16 68 -16h364c24 0 50 0 68 16c16 15 18 39 18 61v230c0 22 -2 46 -18 61c-18 16 -44 16 -68 16zM597 792c48 0 101 0 137 -27c30 -22 36 -63 36 -101v-551
c0 -37 -6 -77 -36 -99c-36 -26 -89 -26 -137 -26h-364c-48 0 -100 0 -136 26c-30 22 -36 62 -36 99v25h86v-25c0 -21 2 -45 18 -59c18 -15 44 -15 68 -15h364c24 0 50 0 68 15c16 14 18 38 18 59v203c-26 -10 -57 -10 -86 -10h-364c-48 0 -100 0 -136 27
c-30 22 -36 63 -36 101v230c0 38 6 79 36 101c36 27 88 27 136 27h364z" />
    <glyph glyph-name="i" unicode="i" horiz-adv-x="329" 
d="M121 0v640h87v-640h-87zM164 936c17 0 36 0 48 -12s13 -31 13 -48s-1 -35 -13 -47s-31 -13 -48 -13s-35 1 -47 13s-13 30 -13 47s1 36 13 48s30 12 47 12z" />
    <glyph glyph-name="ogonek" unicode="&#x2db;" horiz-adv-x="346" 
d="M69 -474c0 -32 1 -71 34 -71h140c33 0 34 39 34 71v109h69v-109c0 -31 -1 -65 -22 -88c-20 -22 -51 -23 -81 -23h-140c-30 0 -61 1 -81 23c-21 23 -22 57 -22 88v212c0 63 40 119 100 140l131 163l18 -41l-132 -163c-30 -24 -48 -61 -48 -99v-212z" />
    <glyph glyph-name="Ydieresis" unicode="&#x178;" horiz-adv-x="900" 
d="M9 780h111l350 -433l351 433h70l-398 -492v-288h-87v288zM294 955c17 0 36 0 48 -12s12 -31 12 -48s0 -35 -12 -47s-31 -13 -48 -13s-35 1 -47 13s-13 30 -13 47s1 36 13 48s30 12 47 12zM606 955c17 0 35 0 47 -12s13 -31 13 -48s-1 -35 -13 -47s-30 -13 -47 -13
s-36 1 -48 13s-13 30 -13 47s1 36 13 48s31 12 48 12z" />
    <glyph glyph-name="Aogonek" unicode="&#x104;" horiz-adv-x="960" 
d="M17 0l436 780h54l436 -780h-9l-132 -163c-30 -24 -48 -61 -48 -99v-212c0 -32 1 -71 34 -71h141c33 0 33 39 33 71v109h69v-109c0 -31 0 -65 -21 -88c-20 -22 -51 -23 -81 -23h-141c-30 0 -61 1 -81 23c-21 23 -22 57 -22 88v212c0 63 40 119 100 140l99 122h-40
l-124 221h-520l-123 -221h-60zM692 272l-232 414l-231 -414h463z" />
    <glyph glyph-name="germandbls" unicode="&#xdf;" horiz-adv-x="856" 
d="M604 404h-241v51h241c9 0 10 24 10 42v187c0 17 -1 34 -14 45c-14 12 -35 12 -54 12h-288c-19 0 -39 0 -53 -12c-13 -11 -15 -28 -15 -45v-607l3 2c2 -9 7 -18 14 -25c16 -15 40 -15 62 -15h335c22 0 47 0 63 15c15 14 16 37 16 58v219c0 21 -1 43 -16 57
c-16 15 -41 16 -63 16zM693 447c15 -4 30 -10 42 -19c29 -22 35 -60 35 -97v-219c0 -37 -6 -76 -35 -98c-35 -26 -85 -26 -131 -26h-335c-35 0 -72 2 -102 12h-63v684c0 33 6 67 32 85c32 23 80 23 122 23h288c42 0 90 0 122 -23c26 -18 33 -52 33 -85v-172
c0 -22 0 -45 -8 -65z" />
    <glyph glyph-name="c" unicode="c" horiz-adv-x="839" 
d="M244 -12c-49 0 -102 0 -138 34c-34 32 -37 82 -37 129v337c0 47 3 97 37 129c36 34 89 35 138 35h377c49 0 102 -1 138 -35c34 -32 37 -82 37 -129v-102h-87v111c0 28 -1 58 -18 80c-16 20 -44 24 -70 24h-377c-26 0 -54 -4 -70 -24c-17 -22 -18 -52 -18 -80v-355
c0 -28 1 -57 18 -79c16 -20 44 -24 70 -24h377c26 0 54 4 70 24c17 22 18 51 18 79v112h87v-103c0 -47 -3 -97 -37 -129c-36 -34 -89 -34 -138 -34h-377z" />
    <glyph glyph-name="oslash" unicode="&#xf8;" horiz-adv-x="865" 
d="M621 601h-377c-26 0 -54 -4 -70 -24c-17 -22 -18 -52 -18 -80v-355c0 -9 0 -19 1 -28l511 480c-14 6 -31 7 -47 7zM621 652c34 0 69 0 100 -12h109l-52 -48c16 -30 18 -68 18 -104v-337c0 -47 -3 -97 -37 -129c-36 -34 -89 -34 -138 -34h-377c-35 0 -71 12 -102 12h-107
l51 48c-16 30 -17 67 -17 103v337c0 47 3 97 37 129c36 34 89 35 138 35h377zM197 46c14 -6 31 -7 47 -7h377c26 0 54 4 70 24c17 22 18 51 18 79v355c0 10 0 19 -1 29z" />
    <glyph glyph-name="Ugrave" unicode="&#xd9;" horiz-adv-x="1028" 
d="M912 780v-661c0 -39 -7 -81 -39 -103c-39 -28 -97 -28 -148 -28h-423c-51 0 -108 0 -147 28c-32 22 -39 64 -39 103v661h87v-661c0 -24 3 -48 21 -63c21 -17 50 -17 78 -17h423c28 0 58 0 79 17c18 15 21 39 21 63v661h87zM307 994h128l152 -156h-95z" />
    <glyph glyph-name="zdotaccent" unicode="&#x17c;" horiz-adv-x="640" 
d="M43 589v51h554v-54l-441 -535h441v-51h-554v54l441 535h-441zM320 936c17 0 36 0 48 -12s12 -31 12 -48s0 -35 -12 -47s-31 -13 -48 -13s-35 1 -47 13s-13 30 -13 47s1 36 13 48s30 12 47 12z" />
    <glyph glyph-name="x" unicode="x" horiz-adv-x="701" 
d="M30 640h109l222 -261l238 261h72l-275 -302l287 -338h-108l-235 276l-251 -276h-72l288 317z" />
    <glyph glyph-name="tcaron" unicode="&#x165;" horiz-adv-x="467" 
d="M27 589v51h163v240h87v-240h164v-51h-164v-589h-87v589h-163zM614 880h93l-155 -253h-70z" />
    <glyph glyph-name="v" unicode="v" horiz-adv-x="727" 
d="M9 640h97l275 -537l275 537h62l-328 -640h-54z" />
    <glyph glyph-name="braceright" unicode="}" horiz-adv-x="528" 
d="M260 -604l-48 60c10 21 13 45 13 69v506c0 31 8 63 27 85c-19 22 -27 53 -27 84v506c0 24 -3 48 -13 69l48 60c37 -29 51 -80 51 -129v-506c0 -36 54 -41 101 -41h38v-87h-38c-47 0 -101 -5 -101 -41v-506c0 -50 -14 -99 -51 -129z" />
    <glyph glyph-name="r" unicode="r" horiz-adv-x="569" 
d="M104 0v640h82c21 10 47 12 72 12h288c44 0 91 -2 122 -32c31 -29 33 -74 33 -117v-50h-87v50c0 27 0 57 -14 77c-12 17 -34 21 -54 21h-288c-20 0 -41 -4 -53 -21c-14 -20 -15 -50 -15 -77v-503h-86z" />
    <glyph glyph-name="y" unicode="y" horiz-adv-x="727" 
d="M9 640h97l275 -535l275 535h62l-623 -1210h-61l299 581z" />
    <glyph glyph-name="Gbreve" unicode="&#x11e;" horiz-adv-x="1237" 
d="M1133 0h-87v11c-40 -23 -93 -23 -141 -23h-599c-64 0 -132 0 -180 40c-42 36 -48 95 -48 151v422c0 56 6 115 48 151c48 40 116 40 180 40h599c64 0 132 0 180 -40c42 -36 48 -95 48 -151v-120h-87v120c0 40 -1 83 -29 111s-72 29 -112 29h-599c-40 0 -84 -1 -112 -29
s-29 -71 -29 -111v-422c0 -40 1 -83 29 -111s72 -29 112 -29h599c39 0 82 0 112 24c26 20 29 55 29 88v198h-441v51h528v-400zM723 900c25 0 55 0 55 26v77h70v-77c0 -22 -7 -45 -26 -56c-26 -15 -65 -15 -99 -15h-235c-34 0 -73 0 -99 15c-19 11 -26 34 -26 56v77h70v-77
c0 -26 30 -26 55 -26h235z" />
    <glyph glyph-name="ntilde" unicode="&#xf1;" 
d="M640 0v540c0 28 -2 61 -27 61h-306c-32 0 -67 -1 -92 -16c-19 -12 -25 -34 -25 -56v-529h-86v640h86v-3c35 15 77 15 117 15h306c33 0 68 -2 90 -26c24 -25 24 -62 24 -97v-529h-87zM242 823h-69c0 33 8 69 35 87c32 21 76 22 118 22h11c56 0 100 -52 156 -52
c26 0 55 1 75 14c16 11 20 31 20 50h69c0 -33 -7 -68 -34 -86c-35 -23 -85 -23 -130 -23c-56 0 -100 52 -156 52c-26 0 -55 0 -75 -13c-16 -11 -20 -32 -20 -51z" />
    <glyph glyph-name="Igrave" unicode="&#xcc;" horiz-adv-x="364" 
d="M138 0v780h87v-780h-87zM-25 994h128l152 -156h-95z" />
    <glyph glyph-name="h" unicode="h" horiz-adv-x="787" 
d="M112 0v880h87v-237c24 9 52 9 78 9h276c39 0 81 0 110 -26c26 -24 29 -61 29 -97v-529h-87v529c0 20 0 41 -11 56c-9 12 -25 16 -41 16h-276c-22 0 -45 -1 -61 -16c-15 -14 -17 -35 -17 -56v-529h-87z" />
    <glyph glyph-name="D" unicode="D" horiz-adv-x="1090" 
d="M121 0v780h648c65 0 136 0 185 -39c43 -34 49 -93 49 -148v-406c0 -55 -6 -114 -49 -148c-49 -39 -120 -39 -185 -39h-648zM208 51h561c42 0 86 0 117 28c29 26 31 69 31 108v406c0 39 -2 82 -31 108c-31 28 -75 28 -117 28h-561v-678z" />
    <glyph glyph-name="circumflex" unicode="&#x2c6;" horiz-adv-x="363" 
d="M182 728l-133 -104h-98l164 156h133l164 -156h-98z" />
    <glyph glyph-name="Tcedilla" unicode="&#x162;" horiz-adv-x="796" 
d="M18 729v51h760v-51h-337v-729h-20l-74 -151h121c30 0 61 -1 81 -23c21 -23 22 -57 22 -88v-212c0 -31 -1 -65 -22 -88c-20 -22 -51 -23 -81 -23h-141c-30 0 -61 1 -81 23c-10 11 -15 25 -18 40l68 13c3 -20 10 -36 31 -36h141c33 0 34 39 34 71v212c0 32 -1 71 -34 71
h-206l93 191v729h-337z" />
    <glyph glyph-name="scaron" unicode="&#x161;" horiz-adv-x="692" 
d="M640 501h-87v49c0 15 -2 31 -14 40c-14 11 -34 11 -52 11h-282c-18 0 -38 0 -52 -11c-12 -9 -14 -25 -14 -40v-154c0 -15 2 -31 14 -40c14 -11 34 -11 52 -11h282c42 0 89 0 121 -21c25 -17 32 -50 32 -81v-153c0 -31 -7 -64 -32 -81c-32 -21 -79 -21 -121 -21h-282
c-42 0 -89 0 -121 21c-25 17 -32 50 -32 81v48h87v-48c0 -15 2 -31 14 -40c14 -11 34 -11 52 -11h282c18 0 38 0 52 11c12 9 14 25 14 40v153c0 15 -2 32 -14 41s-28 10 -44 10h-290c-42 0 -89 1 -121 22c-25 17 -32 49 -32 80v154c0 31 7 63 32 80c32 21 79 22 121 22h66
l-156 148h99l132 -103l132 103h99l-156 -148h66c42 0 89 -1 121 -22c25 -17 32 -49 32 -80v-49z" />
    <glyph glyph-name="ring" unicode="&#x2da;" horiz-adv-x="363" 
d="M241 763h-119c-8 0 -16 0 -22 -5c-5 -5 -6 -12 -6 -19v-74c0 -7 1 -14 6 -19c6 -5 14 -5 22 -5h119c8 0 17 0 23 5c5 5 6 12 6 19v74c0 7 -1 14 -6 19c-6 5 -15 5 -23 5zM241 797c24 0 50 0 68 -12c14 -10 18 -28 18 -46v-74c0 -18 -4 -36 -18 -46
c-18 -12 -44 -12 -68 -12h-119c-24 0 -50 0 -68 12c-14 10 -18 28 -18 46v74c0 18 4 36 18 46c18 12 44 12 68 12h119z" />
    <glyph glyph-name="Zcaron" unicode="&#x17d;" horiz-adv-x="882" 
d="M43 729v51h796v-54l-679 -675h679v-51h-796v54l679 675h-679zM573 994h99l-164 -156h-133l-165 156h99l132 -104z" />
    <glyph glyph-name="racute" unicode="&#x155;" horiz-adv-x="569" 
d="M104 0v640h82c21 10 47 12 72 12h288c44 0 91 -2 122 -32c31 -29 33 -74 33 -117v-50h-87v50c0 27 0 57 -14 77c-12 17 -34 21 -54 21h-288c-20 0 -41 -4 -53 -21c-14 -20 -15 -50 -15 -77v-503h-86zM414 975h128l-185 -156h-95z" />
    <glyph glyph-name="question" unicode="?" horiz-adv-x="761" 
d="M320 233v182h196c20 0 42 0 57 14c14 13 15 33 15 52v195c0 19 -1 38 -15 51c-15 14 -37 14 -57 14h-305c-20 0 -42 0 -57 -14c-14 -13 -15 -32 -15 -51v-54l-87 -1v55c0 35 5 72 33 92c33 24 82 24 126 24h305c44 0 92 0 125 -24c28 -20 34 -57 34 -92v-195
c0 -35 -6 -72 -34 -92c-33 -24 -81 -25 -125 -25h-109v-131h-87zM363 116c17 0 34 0 46 -12s12 -29 12 -46s0 -34 -12 -46s-29 -12 -46 -12s-34 0 -46 12s-12 29 -12 46s0 34 12 46s29 12 46 12z" />
    <glyph glyph-name="Ograve" unicode="&#xd2;" horiz-adv-x="1211" 
d="M399 994h128l152 -156h-95zM905 741h-599c-40 0 -84 -1 -112 -29s-29 -71 -29 -111v-422c0 -40 1 -83 29 -111s72 -29 112 -29h599c40 0 84 1 112 29s29 71 29 111v422c0 40 -1 83 -29 111s-72 29 -112 29zM905 792c64 0 132 0 180 -40c42 -36 48 -95 48 -151v-422
c0 -56 -6 -115 -48 -151c-48 -40 -116 -40 -180 -40h-599c-64 0 -132 0 -180 40c-42 36 -48 95 -48 151v422c0 56 6 115 48 151c48 40 116 40 180 40h599z" />
    <glyph glyph-name="g" unicode="g" horiz-adv-x="882" 
d="M778 640v-1031c0 -54 0 -111 -36 -151c-33 -37 -86 -40 -136 -40h-364c-50 0 -104 3 -137 40c-36 40 -36 97 -36 151v77h87v-77c0 -38 0 -82 18 -111c14 -22 41 -29 68 -29h364c27 0 54 7 68 29c18 29 18 73 18 111v405c-25 -12 -57 -14 -86 -14h-364
c-49 0 -101 1 -137 34c-34 31 -36 81 -36 127v330c0 46 2 96 36 127c36 33 88 34 137 34h364c29 0 61 -2 86 -14v2h86zM606 601h-364c-25 0 -53 -3 -68 -23c-18 -23 -18 -57 -18 -87v-330c0 -30 0 -64 18 -87c15 -20 43 -23 68 -23h364c25 0 53 3 68 23c18 23 18 57 18 87
v330c0 30 0 64 -18 87c-15 20 -43 23 -68 23z" />
    <glyph glyph-name="asciicircum" unicode="^" horiz-adv-x="934" 
d="M467 709l-300 -397h-109l355 468h108l355 -468h-109z" />
    <glyph glyph-name="asciitilde" unicode="~" horiz-adv-x="848" 
d="M156 224h-87c0 51 4 105 42 139c42 37 101 37 157 37c113 0 199 -109 312 -109c32 0 66 2 88 26c23 26 24 64 24 99h86c0 -51 -3 -105 -41 -139c-42 -37 -101 -37 -157 -37c-113 0 -199 109 -312 109c-32 0 -67 -2 -89 -26c-23 -26 -23 -64 -23 -99z" />
    <glyph glyph-name="L" unicode="L" horiz-adv-x="796" 
d="M121 0v780h87v-729h536v-51h-623z" />
    <glyph glyph-name="B" unicode="B" horiz-adv-x="908" 
d="M787 399c33 -18 43 -55 43 -95v-190c0 -35 -7 -71 -36 -90c-36 -24 -89 -24 -136 -24h-537v780h537c41 0 85 0 116 -24c26 -20 31 -55 31 -89v-186c0 -29 -2 -60 -18 -82zM208 729v-310h450c17 0 36 1 48 13c12 13 12 31 12 49v186c0 18 0 36 -12 49
c-12 12 -31 13 -48 13h-450zM208 367v-316h450c24 0 50 0 68 13c15 11 18 31 18 50v190c0 19 -3 39 -18 50c-5 4 -12 7 -18 9c-17 -2 -33 -2 -50 -2z" />
    <glyph glyph-name="eight" unicode="8" horiz-adv-x="865" 
d="M642 491v194c0 26 -1 56 -27 56h-365c-26 0 -27 -30 -27 -56v-194c0 -26 1 -56 27 -56h365c26 0 27 30 27 56zM250 39h365c24 0 49 0 67 14c16 13 18 35 18 55v207c0 20 -2 42 -18 55c-7 5 -15 9 -24 11c-14 -2 -28 -3 -43 -3h-365c-15 0 -29 1 -43 3
c-9 -2 -17 -6 -24 -11c-16 -13 -18 -35 -18 -55v-207c0 -20 2 -42 18 -55c18 -14 43 -14 67 -14zM250 -12c-47 0 -100 0 -136 25c-29 20 -36 59 -36 95v207c0 36 7 75 36 95c9 7 21 11 32 15c-9 21 -10 46 -10 71v184c0 32 1 66 24 88c23 23 58 24 90 24h365
c32 0 67 -1 90 -24c23 -22 24 -56 24 -88v-184c0 -25 -1 -50 -10 -71c11 -4 23 -8 32 -15c29 -20 36 -59 36 -95v-207c0 -36 -7 -75 -36 -95c-36 -25 -89 -25 -136 -25h-365z" />
    <glyph glyph-name="Ntilde" unicode="&#xd1;" horiz-adv-x="1081" 
d="M121 0v780h54l698 -670v670h87v-780h-54l-698 670v-670h-87zM368 842h-70c0 33 8 69 35 87c35 23 85 23 130 23c56 0 99 -53 155 -53c26 0 56 1 76 14c16 11 19 31 19 50h70c0 -33 -8 -68 -35 -86c-35 -23 -85 -23 -130 -23c-56 0 -99 52 -155 52c-26 0 -55 0 -75 -13
c-16 -11 -20 -32 -20 -51z" />
    <glyph glyph-name="tilde" unicode="&#x2dc;" horiz-adv-x="363" 
d="M9 628h-70c0 33 8 68 35 86c35 23 85 23 130 23c56 0 99 -52 155 -52c26 0 56 0 76 13c16 11 20 32 20 51h69c0 -33 -8 -68 -35 -86c-35 -23 -85 -23 -130 -23c-56 0 -99 52 -155 52c-26 0 -55 -1 -75 -14c-16 -11 -20 -31 -20 -50z" />
    <glyph glyph-name="d" unicode="d" horiz-adv-x="891" 
d="M778 0h-86v2c-25 -12 -57 -14 -86 -14h-364c-49 0 -102 1 -137 34c-34 32 -36 82 -36 129v337c0 47 2 97 36 129c35 33 88 35 137 35h364c29 0 61 -3 86 -15v243h86v-880zM606 601h-364c-25 0 -53 -4 -68 -24c-18 -24 -18 -58 -18 -89v-337c0 -31 0 -64 18 -88
c15 -20 43 -24 68 -24h364c25 0 53 4 68 24c18 24 18 57 18 88v337c0 31 0 65 -18 89c-15 20 -43 24 -68 24z" />
    <glyph glyph-name="bar" unicode="|" horiz-adv-x="346" 
d="M130 -39v858h86v-858h-86z" />
    <glyph glyph-name="Y" unicode="Y" horiz-adv-x="900" 
d="M9 780h111l350 -433l351 433h70l-398 -492v-288h-87v288z" />
    <glyph glyph-name="Uacute" unicode="&#xda;" horiz-adv-x="1028" 
d="M912 780v-661c0 -39 -7 -81 -39 -103c-39 -28 -97 -28 -148 -28h-423c-51 0 -108 0 -147 28c-32 22 -39 64 -39 103v661h87v-661c0 -24 3 -48 21 -63c21 -17 50 -17 78 -17h423c28 0 58 0 79 17c18 15 21 39 21 63v661h87zM593 994h127l-185 -156h-94z" />
    <glyph glyph-name="cwm" horiz-adv-x="0" 
 />
    <glyph glyph-name="space" unicode=" " horiz-adv-x="519" 
 />
  </font>
</defs>
</svg>
