<?xml version="1.0" standalone="no"?>
<!DOCTYPE svg PUBLIC "-//W3C//DTD SVG 1.1//EN" "http://www.w3.org/Graphics/SVG/1.1/DTD/svg11.dtd" >
<svg xmlns="http://www.w3.org/2000/svg" xmlns:xlink="http://www.w3.org/1999/xlink" version="1.1">
<metadata></metadata>
<defs>
<font id="cryonregular" horiz-adv-x="554" >
<font-face units-per-em="1000" ascent="793" descent="-207" />
<missing-glyph horiz-adv-x="123" />
<glyph horiz-adv-x="0" />
<glyph horiz-adv-x="333" />
<glyph unicode=" "  horiz-adv-x="123" />
<glyph unicode="&#x09;" horiz-adv-x="123" />
<glyph unicode="&#xa0;" horiz-adv-x="123" />
<glyph unicode="!" horiz-adv-x="364" d="M15 -43q5 34 35 38t38 -28q2 -7 -3 -15q-4 -4 -4 -12l2 -3l2 -2q0 -8 -4 -15q-6 -8 -11 -11q-22 -8 -38 11q-15 18 -17 37zM30 77q13 52 20 98t25 97q25 63 49 141q-22 -67 -18 -54q6 13 18 54q26 76 41 115l45 113q13 34 28 64q16 31 42 57q10 12 22 21q15 11 30 2 q7 -4 9 -14q3 -9 -1 -16q-6 -10 -11 -13l-13 -11q-21 -21 -35 -49l11 21l-11 -21q-16 -33 -31 -80q-17 -46 -31 -79l-42 -102q-6 -18 -34 -104l-29 -92q-12 -43 -24 -94q-2 -7 -7 -29l-4 -28v-12q2 -5 -1 -12q-4 -10 -16 -15q-10 -5 -21 3q-10 7 -10 17q-1 8 -1 22z" />
<glyph unicode="&#x22;" horiz-adv-x="252" d="M18 650l10 32q4 13 6 32l2 5l1 5q-1 10 -12 16q-8 7 -4 22q4 7 13 10q9 2 16 -4q13 -12 19 -25q5 -16 4 -31q-1 -10 -7 -39q-4 -21 -15 -38q-9 -11 -20 -5q-12 7 -13 20zM157 621q11 33 17 46q8 20 13 48q0 10 -5 25q-5 13 -2 23q3 7 11 10q7 3 14 0q8 -4 13 -17l5 -21 q4 -21 -4 -49q-9 -31 -16 -47q-4 -9 -5 -16q-3 -10 -7 -15q-10 -12 -22 -7q-10 4 -12 20z" />
<glyph unicode="#" horiz-adv-x="675" d="M-9 211q7 18 43 30q36 13 54 17q2 1 8 1.5t9 0.5q12 3 17 6q1 2 1 7q2 6 2 7l11 29l9 27q13 28 21 59q12 37 22 60q6 15 13 27q7 18 8 28q-3 2 -19 -2l-23 -6q-14 -7 -44 -18q-26 -12 -42 -14q-10 1 -17 10q-7 7 -7 17q1 13 14 21l23 10q8 3 47 16l47 17q9 4 22 4 q11 2 20 6q3 1 11 22q3 14 8 26q9 23 29 67q12 32 34 65l15 25q9 12 25 11q14 -3 18 -15q6 -11 0 -22q-5 -12 -11 -18l-12 -18q-14 -29 -40 -87l13 33q-1 -3 -13 -33q-10 -20 -14 -37q2 8 4 14l-4 -14q0 -3 -1 -4q-2 -5 1 -6q8 0 26 3l26 4q26 3 50 3h50q1 0 29 -2 q19 -1 26 2q7 4 15 22q7 18 14 26q23 33 42 66q23 33 49 64l4 8l7 7q12 11 27 5q14 -5 17 -22q-1 -14 -13 -29q-18 -20 -20 -23q-21 -26 -42 -54q-15 -22 -34 -58l-4 -7q-4 -7 -4 -8q1 -1 11 -3q8 0 11 -1q11 -6 13 -17q2 -12 -5 -20q-13 -14 -28 -10q-14 4 -29 1 q-5 -1 -6 -6l-3 -10l-21 -39l7 15q-2 -7 -7 -15q-16 -40 -25 -59q-3 -8 -23 -61l-14 -27q-6 -13 -8 -28q2 -5 15 -4h19q14 1 40 1q21 0 42 3l24 3q9 1 25 -1q20 -7 18 -27q-3 -18 -23 -23q-25 -4 -61 -4q-26 1 -61 -2q-12 -2 -29 0q-18 2 -29 -2q-3 -2 -8 -20l-7 -23 q-14 -33 -29 -83q-13 -43 -27 -83q-5 -17 -13 -30q-8 -15 -29 -12q-14 4 -16 19q0 17 4 26q18 48 25 73q9 32 25 73q2 5 7 22q2 4 4.5 12t3.5 11l3 5q2 5 1 7q-3 2 -11 0q-5 -1 -12 -1l-31 -3l-32 -3q-27 -4 -37 -5q-27 -4 -37 -5q-5 -1 -19 -1q-11 -2 -17 -6q-3 -4 -7 -17 q-1 -16 -5 -21q-21 -52 -37 -116q4 16 8 30l4 14q-4 -10 -12 -44q-3 -16 -9 -33q-7 -15 -27 -12q-12 1 -17 13q-4 10 -1 24l15 52l15 53q4 12 7 17q4 9 7 20q0 3 -1 3q-7 1 -14 -3l-13 -6q-19 -9 -49 -15q-29 -5 -32 28zM181 285q11 -5 37 0l43 7q52 4 79 7l-31 -3q9 0 31 3 h16q6 -1 16 1q7 5 8 14l4 17l14 33q4 17 12 34q7 16 8 18q6 10 7 18q5 19 17 43q13 23 19 40l7 12q4 7 4 10q-3 1 -25 1q-13 -1 -26 -1q-51 0 -96 -7q23 2 35 4q-11 0 -35 -4h-28q-17 0 -26 -4l-6 -8l-2 -10q-15 -33 -28 -75q-8 -25 -26 -75q-9 -23 -13 -38q-5 -21 -15 -37z " />
<glyph unicode="&#x26;" horiz-adv-x="584" d="M32 162q18 56 75 104q55 47 109 81l34 20q22 14 33 22l13 6q8 5 9 9q1 8 -4 22q-4 12 -6 23l-9 52q-5 27 -3 53q4 79 42 139q38 61 111 92q32 14 70 19q37 4 64 -25q19 -26 14 -59q-5 -36 -14 -60q-21 -61 -50 -111q-31 -55 -72 -97q-14 -10 -27 -24q-6 -5 -28 -23 l-18 -10q-11 -7 -14 -13q0 -4 3 -12l3 -13q3 -12 11 -36l12 -34q14 -36 19 -53q-2 7 -4 13.5l-2 6.5l6 -20q0 -3 3 -7q1 -4 1.5 -5t2.5 0q3 1 5 6q1 4 5 6q2 3 19 28q8 15 19 29q7 7 19 7q11 -2 18 -9q5 -9 4 -15q0 -8 -4 -15q-7 -13 -23 -36q-14 -19 -27 -33q-1 -3 -10 -10 q-6 -7 -7 -11q0 -4 5 -16q3 -7 9 -17l15 -43l15 -43q3 -5 9 -19q5 -12 4 -20q-3 -15 -15 -20q-13 -4 -26 6q-8 9 -15 34l-14 38q-2 5 -5.5 13.5t-4.5 11.5l-9 27q0 3 -3 8q-2 5 -5 4q-8 -6 -13 -11l-11 -12l-27 -21q-12 -9 -29 -16q-42 -18 -64 -26q-37 -11 -67 -10 q-47 5 -91 29q-46 26 -60 72q-1 3 -1 11q1 4 1 13zM79 158q1 -24 23 -42q22 -16 45 -24q46 -14 101 4q54 16 90 49q6 7 22 19t19 19q0 7 -4 12q-5 6 -6 10q-9 23 -18 52q2 -7 4 -13l2 -6l-6 19q-13 36 -24 72q11 -33 9 -27q-3 6 -9 27l-3 12q-2 9 -4 13q-2 2 -7 -1 q-3 -3 -7 -5q-10 -8 -24 -15q-15 -8 -24 -16q-42 -26 -87 -62q-41 -33 -78 -72q-6 -8 -7 -12q-3 -8 -7 -13zM336 593l-6 -34q-1 -20 2 -47q1 -16 7 -46l3 -16q2 -11 5 -15q3 -3 9 2l9 6l28 23q21 21 25 26q3 4 12 13q6 5 11 11q32 40 61 99q30 59 36 110q2 19 -9 27 q-11 9 -29 6q-18 -1 -40 -13l-37 -20q-29 -15 -48 -43q-21 -31 -32 -58q-5 -14 -7 -31z" />
<glyph unicode="'" horiz-adv-x="154" d="M12 769l3 6l4 5q12 6 29 -3q18 -7 24 -20q9 -18 7 -41q-2 -25 -8 -41l-5 -11q-3 -5 -8 -8q-10 -4 -18 2q-7 6 -9 17l2 7l3 7q4 10 6 23q2 15 -1 25q-2 5 -8 7q-3 1 -7 2l-4 2q-7 3 -8 9q-2 8 -2 12z" />
<glyph unicode="," horiz-adv-x="178" d="M18 67q7 12 19 21q11 9 25 15q11 4 14 5l14 3q16 2 24 1q-10 0 -9 0q1 2 9 0q15 -3 21 -15t6 -26q-2 -32 -15 -56l-27 -50q-7 -15 -22 -28q-15 -14 -26 8q-3 9 1 16l9 15q22 32 35 63l-11 -24q4 6 11 24q3 5 6 18q4 12 2 18q-5 2 -13 -1l-12 -5l-11 -4q-6 -2 -10 -6 l-7 -8q-5 -5 -9 -6q-12 -5 -18 3t-6 19z" />
<glyph unicode="." horiz-adv-x="149" d="M13 34q5 26 15 39q11 14 34 24q8 5 17 3q9 0 15 -8q5 -9 3 -17l-4 -17q0 -4 2 -10q3 -4 3 -10q-3 -14 -15 -15q-16 -2 -22 -2l-31 -9q-8 -2 -12 3.5t-5 18.5z" />
<glyph unicode="0" horiz-adv-x="526" d="M26 266q2 10 2 16v15q1 13 7 44q3 15 7 45q4 23 10 44q6 22 16 43q2 4 4 16q1 3 5 14q19 45 46 88q24 42 60 78l32 33q15 15 38 25q2 1 8 3.5t9 4.5l-7 -3q1 1 7 3q13 6 24 1t13 -20q0 -4 -1 -9q-2 -7 -1 -9l9 -5q4 -2 12 -5q35 -16 70 -42q30 -21 60 -52q16 -16 27 -39 l18 -44q3 -5 7 -17q3 -6 5 -20q2 -15 4 -45q3 -24 0 -46q-2 -20 -4 -29l-4 -27q-1 -21 -11 -43q-5 -14 -17 -40q-13 -31 -34 -68q-23 -39 -45 -62l-24 -22l-25 -24q-13 -13 -31 -26q-16 -13 -35 -21l-16 -8q-13 -5 -16 -7q-36 -16 -82 -11q-44 5 -74 33q-21 21 -35 51 q-12 23 -25 55q-9 24 -11 66q-3 43 -2 66zM74 269q-2 -29 0 -54q1 -24 8 -52q10 -49 43 -90q31 -39 90 -27l13 3l12 3q22 10 31 16q14 8 30 20q47 32 81 78q32 43 56 99q12 26 17 40q7 21 10 44q6 61 -1 114q-7 56 -46 102q-16 19 -38 33l-40 26q-26 17 -62 34q8 -4 15.5 -8 l7.5 -4q-4 4 -23 12q-3 2 -7.5 6t-5.5 4q-7 7 -15 1q-11 -8 -22 -20q-10 -13 -21 -24q-47 -50 -75 -113q-28 -64 -42 -131q-10 -49 -13 -76l4 26v3l-4 -29q0 -12 -1 -18q0 -8 -2 -18z" />
<glyph unicode="1" horiz-adv-x="287" d="M19 29v10q12 43 25 101q14 51 33 98q10 26 18 56q10 36 17 55q14 36 20 65q7 31 20 65q14 31 24 66l19 70l10 26q7 17 7 28q-2 4 -18 -1q-12 -4 -20 -8q-20 -10 -39 -24q-22 -15 -39 -23q-12 -3 -20 3q-8 7 -10 19q0 12 11 21q10 8 23 15q20 13 45 27q27 12 49 17 q7 3 21 7q12 2 23 -3q14 -8 18 -20q4 -11 2 -28q-4 -31 -15 -61q-7 -21 -17 -61q-6 -22 -19 -58q-11 -25 -21 -58q-19 -69 -40 -127q-20 -56 -40 -126q-14 -50 -22 -75q-12 -44 -20 -76q-4 -15 -17 -17q-14 -3 -24 7q-4 4 -4 10z" />
<glyph unicode="2" horiz-adv-x="523" d="M23 104q8 25 23 38l31 30q15 14 47 40q23 17 48 41l70 61q32 29 65 67l54 67l-20 -26q5 8 20 26q7 9 21 31t22 31q20 22 39 60q21 35 26 68q1 16 -6 24q-7 7 -24 13q-26 8 -48 8q-16 0 -50 -2l-37 -12q-26 -7 -30 -18q1 -8 8 -20q7 -10 -5 -26q-18 -14 -35 0 q-18 15 -23 33q-4 28 18 50q21 20 47 31q65 27 152 13q86 -14 86 -101q-6 -38 -25 -70l-37 -62q-32 -56 -80 -115q-43 -50 -96 -103l-29 -27q-17 -12 -30 -27q-10 -8 -19 -12l-17 -13q-14 -15 -32 -30q-22 -18 -33 -28l-17 -13q-12 -7 -16 -16q0 -3 12 -4q6 -1 14 -1 q19 -3 41 -3l40 -3l120 -14q80 -10 120 -17q11 -1 44 -7q24 -6 23 -30q-1 -12 -10 -17q-9 -6 -20 -6q-22 1 -43 6q-13 3 -41 7q-19 2 -57 8l-57 9q-28 3 -84 7l-83 8q-26 0 -56 8q-28 4 -31 38z" />
<glyph unicode="3" horiz-adv-x="513" d="M9 31q2 9 8 14q6 6 14 7q9 0 20 -3q8 -1 23 -1q21 2 40 6q13 4 39 14q68 27 133 74q64 44 114 102q12 14 32 42q14 23 19 48q1 33 -22 44q-21 10 -51 16q-13 4 -35 2q-24 -2 -34 -4q-42 -5 -80 -16q-33 -9 -77 -25q-18 -9 -46 -15q-27 -8 -38 12q-5 26 29 46q38 23 53 31 q41 29 88 66q44 35 81 72l33 35q18 19 25 41q5 19 -6 27t-27 11q-30 5 -55 4q-32 -3 -55 -13q-11 -5 -14 -12q-6 -8 -10 -12q-11 -7 -25 -2q-13 4 -16 18q0 19 15 34q19 15 32 19q35 15 84 17t85 -13q29 -13 39 -42q8 -29 -4 -58q-20 -43 -55 -79q-47 -43 -73 -66 q-8 -8 -18 -15l-19 -15l-8 -5q-5 -3 -6 -6q0 -1 4 0l8 3q9 2 27 4q-3 0 -6 -0.5t-4 -0.5q5 0 10 1l39 6q11 1 37 1q53 1 100 -26q46 -27 45 -87q-5 -34 -23 -64q-21 -33 -41 -55q-55 -65 -118 -109q-64 -46 -140 -79q-35 -16 -64 -22q-34 -8 -64 -5q-20 2 -30 8 q-12 4 -12 25z" />
<glyph unicode="4" horiz-adv-x="480" d="M12 199q14 51 43 96q35 57 59 89l37 61q21 34 43 56q13 15 19 28q6 14 17 27q10 11 28 33q14 21 28 33q3 5 11 15q6 10 11 13q14 16 30 33q21 19 34 28l21 13q11 7 24 -1q10 -6 10 -16q1 -9 -4 -18q-7 -10 -18 -16q-12 -7 -19 -14q-12 -13 -25 -25l9 10q-1 -2 -9 -10 q-64 -67 -114 -140q-35 -50 -103 -152q-11 -20 -30 -49l-30 -46q-2 -2 -4.5 -7l-3.5 -7q-5 -8 -5 -14q0 -3 1 -3q-1 1 -1 0h1q7 -1 24 5q25 10 26 11q13 4 29 8q19 4 25 12q3 4 14 24q3 8 11 24q13 30 34 64q23 32 36 63q3 7 8 12q7 9 8 14q14 27 31 54q19 33 35 51 q25 27 40 51q21 29 42 50q8 9 20 6q12 -2 18 -10q6 -11 0 -21l-9 -16q-17 -24 -35 -44q-13 -13 -35 -43l-34 -52q-18 -24 -31 -54q-5 -11 -19 -33q-11 -16 -17 -30q-6 -10 -8 -12q-7 -9 -8 -12l-8.5 -17t-7.5 -14q-10 -12 -16 -30q-1 -6 9 -12q11 -6 5 -24q-7 -13 -22 -18 q-17 -5 -27 -14q-4 -6 -12 -21l-11 -22q-16 -38 -25 -57q-22 -46 -26 -56l-9 -27q-7 -14 -21 -16q-12 0 -20 11t-6 21q7 27 22 56l25 55q6 12 13 28l-3.5 -7t-1.5 -4l1 4q2 4 4 7q0 1 2 3l1 1q-3 0 -15 -4l-16 -5q-35 -12 -64 -16q-33 -6 -36 39z" />
<glyph unicode="5" horiz-adv-x="517" d="M8 7q1 8 10 15q9 6 20 6q5 -1 11 -7q5 -5 10 -6q25 -1 46 6q25 8 43 16q20 13 35 24q5 4 10 9t11.5 10.5t9.5 8.5q44 36 80 87q37 49 44 109q2 38 -14 46q-20 11 -51 9q-27 -1 -84 -13q-54 -14 -86 -27q-24 -8 -47 -8q-27 1 -31 31q4 25 25 53q21 23 35 49q8 15 21 37 q9 12 23 34l54 78q23 30 53 78l18 25q12 17 16 24q4 5 2 10q0 5 1 9q4 6 16 17q15 12 21 13q14 4 20 -2q4 -5 14 -12q25 -3 67 1q42 7 70 -1q18 -9 11 -25q-6 -18 -23 -21q-25 -3 -54 -3q-17 -1 -53 -1l-20 2q-10 0 -20 -2q-5 -2 -11 -12l-8 -12q-21 -30 -43 -67q2 2 4 7 l12 19l-16 -26l-83 -120q-41 -57 -79 -121l-1 -2q-1 -1 0 -1q7 0 15 4q8 1 16 6q16 3 33 9q14 6 32 8q51 10 103 11q55 2 83 -46q4 -10 5 -16q3 -11 3 -18q5 -71 -36 -137q-41 -69 -92 -113l-39 -33q-18 -18 -43 -28q-29 -14 -57 -24q-28 -9 -62 -9q-19 0 -35 11 q-15 11 -15 31z" />
<glyph unicode="6" horiz-adv-x="581" d="M22 158q8 27 12 57q5 31 13 53q30 72 72 138q39 63 95 123q31 32 61 53q35 24 63 51q2 1 19 14q12 4 22 9q11 5 22 15l23 13q28 10 57 15q30 7 59 9q17 4 50 -1q28 -3 26 -32q-3 -9 -13 -16q-10 -5 -20 -5q-51 0 -84 -6q-35 -8 -81 -30q-32 -16 -56 -35q-33 -22 -49 -40 q-17 -15 -33 -27q-18 -15 -32 -30q-34 -35 -61 -74q-28 -37 -52 -82q-3 -6 -16 -33q-12 -20 -14 -30q0 -1 3 1l5 5q24 17 6 3q-7 -6 -8 -6l12 11l14 9l16 7q25 16 47 23q30 12 55 13q14 2 19 2q11 2 22 0q43 -4 57 -40q12 -35 6 -73q-5 -51 -34 -97q-27 -49 -70 -78 l-17 -8.5t-14 -7.5l-29 -17q-51 -25 -99 -8q-48 16 -62 72q-7 22 -8 40q-4 17 -4 40zM81 151q-1 -20 2 -50q5 -30 23 -41q16 -10 32 -7q24 7 34 11q34 14 65 39q32 26 48 59l10 23l6 24q4 13 6 34q5 21 -6 36q-5 3 -10 2h-11q-17 0 -35 -5q-18 -3 -33 -9q-44 -15 -76 -47 q-30 -31 -55 -69z" />
<glyph unicode="7" horiz-adv-x="569" d="M20 6v9q4 16 15 28q7 9 17 29q11 26 26 46q20 25 31 45l85 121q42 55 93 112q12 13 34 41l35 41q4 2 5 6l6 9q17 18 34 40q18 25 34 41q5 7 10 16q6 9 12 15q15 19 20 26q12 18 12 28q-2 6 -11 8q-12 2 -15 2q-17 5 -33 6l-36 3q-62 8 -123 6q-41 -1 -125 -1 q-16 -4 -48 -2q-27 1 -30 26q3 30 41 30h62q17 2 35 0h34q32 0 92 -2q62 -4 93 -7q21 -1 47 -6q25 -1 45 -17q36 -35 17 -78q-22 -45 -52 -74q-8 -10 -15 -23q-3 -5 -9 -13t-8 -10q-15 -14 -25 -28q-11 -17 -24 -30q-44 -47 -86 -98q-39 -53 -81 -102q-14 -18 -26 -35 q-10 -18 -26 -36q-19 -22 -35 -47q-14 -22 -27 -50q-8 -13 -15 -22q-9 -11 -16 -24q-8 -16 -11 -25q-6 -12 -15 -21q-10 -9 -23 -8q-15 2 -20 17v8z" />
<glyph unicode="8" horiz-adv-x="549" d="M20 100q17 60 61 119q45 61 99 87l32 16q17 10 30 14q5 1 13 1l11 5q1 4 -3 13l-6 12q-14 18 -22 42q7 -19 6 -15l-6 15l-12 18q-8 4 -13 15q-20 44 -10 80q6 34 39 68q40 46 91 81t109 58q33 9 64 -4q31 -9 37 -45q3 -32 -2 -69q-9 -37 -21 -68q-32 -102 -49 -153 q-22 -80 -48 -153q-18 -47 -27 -95q1 3 2 9l5 28v-1l-7 -36q-3 -10 -8 -21q-3 -11 -13 -15q-15 -6 -27 4q-13 6 -13 24t13 54q9 39 16 55q9 18 12 38q0 -3 -1 -7l-1 -8v1l1 2q0 2 0.5 5.5t0.5 6.5v2q1 1 0 3q-1 1 -12 1h-13q-2 0 -3 1q-2 0 -5 -1q-2 -1 0 -6q4 -7 4 -11 q6 -73 -28 -134q-31 -67 -98 -97q-6 -2 -10 -9q-3 -3 -13 -7l-40 -18q-21 -8 -44 -11q-29 -2 -52 18q-25 18 -36 44q-3 10 -3 22q-2 11 0 22zM77 97q0 -35 18 -44q22 -5 49 8q33 12 71 40q36 24 53 62q11 21 16 47q2 32 2 49v17q0 9 -5 11q-5 1 -15 -2l-13 -6 q-41 -17 -73 -41l26 18h-1q-2 -2 -25 -18q-28 -20 -51 -49q-25 -30 -39 -59q-3 -6 -7 -18q-1 -9 -6 -15zM251 509q0 -28 13 -47q18 -30 27 -43q12 -17 18 -36q8 -22 17 -33q6 -4 27 -6q19 0 31 -2l2 -2q2 -3 4 -3q3 3 8 21q5 17 8 22q13 37 20 66q18 53 23 68q10 24 18 53 l13 57l6 24q4 15 -3 24q-6 9 -21 3q-17 -6 -20 -8q-26 -11 -60 -29q-24 -14 -50 -40q-6 -4 -9 -7q-7 -3 -9 -5l-34 -37q-21 -28 -29 -40z" />
<glyph unicode="9" horiz-adv-x="598" d="M-1 53q3 13 15 20t26 1q10 -8 15 -13q10 -8 16 -11q50 -23 97 -24q50 0 98 21l20 9q11 5 17 11l25 21q11 11 21 26q36 55 58 131q15 55 32 142q12 64 25 113l-10 -42l10 42q5 15 8 26q5 14 6 26q0 3 -5 -2l-6 -6l-18 -20l6 8l-6 -8q-10 -10 -32 -28l-33 -28 q-31 -32 -83 -66q-50 -32 -94 -44q-27 -7 -52 3t-31 41q-1 28 8 53q10 27 21 50q37 79 109 131q74 53 158 74q29 7 37 8q18 2 36 0l21 -3q12 -3 21 0q6 4 18 10q7 5 21 -6q13 -12 10 -26l-10 -25q-13 -35 -24 -74q-5 -15 -22 -74q-25 -82 -40 -172q-15 -87 -48 -170 q-22 -57 -51 -102q-31 -45 -88 -74q-55 -27 -116 -30q-60 -5 -118 19q-20 8 -44 23q-23 14 -24 39zM180 425v-8q0 -5 5 -7q13 -2 36 10l36 20q16 10 24 16l25 20q9 9 21 15q7 5 21 17q22 22 48 45l49 45q7 7 19 23q9 12 20 23l7 6q5 5 5 9q-1 4 -11 4q-6 -1 -13 -1 q-23 2 -49 -6q-24 -8 -45 -18q-78 -40 -124 -83q-51 -47 -74 -130z" />
<glyph unicode=":" horiz-adv-x="202" d="M52 528q6 23 28 42q22 20 45 3q9 -9 7 -19v-22q2 -6 6 -9t4 -10q-2 -14 -13 -17q-8 -2 -22 -4q-20 -4 -38 4q-15 7 -17 32zM63 201q4 13 19 28q15 12 31 15q14 2 23 -5q10 -7 10 -22q-2 -12 -7 -25q-6 -15 -15 -21q-18 -6 -38 2q-21 8 -23 28zM92 529l3 3z" />
<glyph unicode=";" horiz-adv-x="168" d="M24 112q5 19 10 31l10 30l2 4q1 4 3 7q3 9 3 10q-2 2 -5 2q-3 -2 -6 0q-9 3 -10 9q-3 7 -1 15q10 24 37 30q26 6 32 -22q1 -13 -3 -25q-1 -3 -10 -24q-10 -24 -13 -36q-7 -22 -13 -37q-7 -13 -19 -10q-13 4 -17 16zM43 534q3 12 8 29q5 14 20 23q28 13 44 0t14 -44 l-3 -17q-2 -9 -9 -15q-5 -3 -9 -3q-5 2 -10 0l-6 -3q-4 -2 -7 -2q-18 -2 -28 7q-9 8 -14 25zM84 548l-3 -7q2 -2 4 -2q-2 2 -2 0h2q8 0 7 7q0 7 -3 7q-4 -2 -5 -5z" />
<glyph unicode="?" horiz-adv-x="512" d="M2 102v17q8 31 9 63t14 62q12 26 28 46q15 17 38 39q43 34 107 46q73 15 118 29q34 10 62 35q27 21 38 61l6 27q1 9 1 27q0 20 -3 38q-3 16 -11 35q-11 30 -36 48q-25 16 -60 14q-16 -1 -35 -10q-20 -7 -34 -15q-27 -14 -33 -17q-19 -12 -30 -23q-7 -10 -15 -27 q-6 -16 -12 -23q-11 -8 -24 -4q-13 3 -16 15q-3 23 13 45q17 23 32 36q44 39 113 62q66 23 122 -11q25 -16 43 -42q17 -25 24 -54q7 -25 8 -44q2 -26 2 -43q0 -20 -7 -38q-4 -16 -14 -36q-30 -58 -88 -88q-58 -28 -123 -39q-37 -5 -64 -13q-33 -11 -58 -30q-29 -28 -44 -60 q-15 -38 -19 -75l-2 -31q0 -18 -7 -31q-5 -11 -14 -12q-12 -1 -21 6q-6 5 -8 15zM15 -25v11q5 4 6 12q4 7 12 10q30 9 43 -13q15 -23 5 -50q-12 -21 -36 -10q-20 10 -28 29q-3 4 -2 11z" />
<glyph unicode="@" horiz-adv-x="606" d="M26 234q2 10 2 15q0 11 1 16l8 48q9 28 16 45q32 75 89 142q58 69 131 103q30 13 63 15q32 3 63 3q39 0 76 -9q39 -9 67 -33q25 -23 36 -53q12 -30 15 -61q7 -79 -24 -156q-32 -77 -86 -132q-25 -22 -55 -36q-32 -13 -63 -18q-26 -2 -37 -1q-18 2 -32 17q-6 10 -7 15 q-1 7 -1 18q0 24 6 47l12 45l3 14q2 8 4 13q0 2 1 3l2 2q-2 0 -3 -1q-1 0 -1 -1q-10 -10 -13 -15q1 2 2.5 4l1.5 2l-4 -6l-12 -12l-13 -11q-19 -19 -39 -31q-21 -16 -45 -22q-10 -3 -19 -2q-9 0 -17 8q-14 23 3 54q14 27 30 50q29 41 75 75t97 42q7 0 19 -2l19 -2l21 -2 q14 -2 20 -4q11 -6 11 -21q0 -13 -12 -17q-10 -3 -22 0l-21 3l-6 2q-2 0 -6 -2q-2 -1 0 -6q1 -2 1 -6q0 -3 -2 -11l-3 -10q-9 -23 -23 -67q-7 -23 -19 -69q-3 -9 -6 -28q-3 -20 1 -25q7 -3 18 -1l19 5q27 6 50 18q24 13 45 31q16 16 25 30q12 18 20 33q21 37 36 83 q13 42 10 89q-2 23 -9 45q-6 24 -20 43q-29 29 -67 35q-38 8 -77 6q-61 0 -104 -22q-45 -23 -84 -65q-51 -51 -83 -111q-33 -61 -42 -134q-3 -35 5 -73t30 -68q17 -21 43 -35q25 -13 50 -22q21 -7 44 -10q25 -5 44 -5q9 -2 17 0h18q8 -2 12 -7q6 -6 5 -15q-3 -17 -16 -18 q-16 -2 -27 -1q-25 0 -57 3q-28 5 -54 15l-37 14q-18 8 -33 18q-48 36 -67 84t-19 106zM199 252q26 14 49 36q21 20 42 42q11 11 29 33l-10 -13l10 13l7 6q5 5 6 8l1 1v1q-10 -3 -21 -8l-20 -13q-34 -24 -52 -48q-24 -32 -41 -58z" />
<glyph unicode="A" horiz-adv-x="526" d="M22 85v25q3 16 3 39q0 21 12 35q10 9 24 7t20 -17q2 -19 -2 -38l-4 -40q0 -1 -2 -13q0 -10 2 -12q1 -1 7 4l6 5l27 43q-3 -5 -7 -12l-3 -4l3 6q4 6 7 10q27 47 34 60q17 29 29 61l15 28q12 26 14 30l6 12q5 8 5 12q-2 5 -7 6q-3 1 -10 4q-18 8 -28 22q-12 17 4 33 q11 9 21 6q11 -4 22 -12l10 -5q7 -4 11 -2q10 16 18 47l16 50q24 58 38 112q18 63 30 116l11 38l10 37q3 12 9 23q4 10 18 13q33 0 29 -34q-3 -33 -9 -56q-1 -18 -6 -38q-3 -12 -5 -37q-8 -67 -13 -149q-4 -70 4 -150q0 -8 9 -9q10 -2 14 -2q22 -2 41 -2q25 0 38 -7 q19 -13 13 -30t-28 -18q-21 0 -31 1l-33 3l-9 3q-5 2 -7 0q-1 -2 -1 -9q2 -6 3 -7q2 -16 4 -22q2 -14 4 -22q9 -35 29 -78q18 -38 55 -56q13 -6 24 -17q11 -12 6 -29q-13 -25 -41 -10q-24 13 -42 29q-35 27 -53 68q-21 44 -29 85l-7 38q-3 27 -7 36q-2 3 -9 5h-11l-25 6 q-9 2 -25 4q-8 2 -9 -5q-1 -4 -5 -12l-15 -32l-14 -34q-26 -57 -52 -104q-29 -55 -66 -92q-15 -15 -37 -23q-23 -8 -40 10q-7 7 -10 18l-3 22q-2 14 0 27zM289 363q9 -4 17 -6l19 -3q4 0 7 -3q4 -1 7 2q1 3 0 7q-2 7 -3 8q-2 40 -2 61v-3v-2v-3v-2v-3v-9v22v36v-2v-3v-9v14 q0 2 2 10q-1 4 -3 4q-1 0 -1 -3v-4l-9 -26l3 10q-1 -1 -3 -10l-15 -42q-7 -20 -19 -41z" />
<glyph unicode="B" horiz-adv-x="584" d="M22 602v9q26 87 105 145q80 57 167 69l44 6q29 2 43 1q45 -3 94 -13q53 -11 76 -47q13 -25 7 -49q-6 -27 -19 -48q-21 -41 -54 -80q-29 -35 -68 -72q-17 -17 -36 -33q4 3 9 7l6 4l-15 -11q-4 -4 -11 -7q-5 -3 -9 -10q0 -2 3 -2q6 2 7 2q12 1 35 1h-2h-3h-8h13q24 2 47 -3 q27 -3 48 -13q49 -25 57 -89q9 -62 -11 -111q-39 -95 -111 -172q-70 -77 -183 -82q-22 0 -33 1l-31 6q-23 5 -46 17q-18 10 -41 29q-1 3 -8 10q-4 7 -9 9q-7 1 -20 -2q-10 -4 -20 13q-4 9 -1 23q2 16 5 23l9 43q5 26 10 44l40 163l39 164q7 25 12 51q6 34 10 51q1 7 7 19 q6 8 17 10q22 0 26 -16t1 -34q-4 -37 -17 -82l-21 -82l-15 -58l6 22l-6 -22q-2 -2 -3 -8q-3 -8 3 -6t12 6l10 8q13 9 27 21l27 21q14 12 23 17q13 8 23 18q28 25 84 73q43 37 79 82q14 16 27 36q8 13 22 39q4 10 5 17q3 9 -1 16q-17 18 -56 26q-35 7 -62 7q-85 0 -154 -26 q-65 -25 -126 -89q-7 -9 -16 -26q-12 -20 -12 -26l12 -19q9 -13 -9 -27q-15 -9 -36 1q-18 9 -24 26v9zM105 149q0 -14 10 -27q9 -12 21 -22q34 -33 80 -40q43 -7 92 4q48 14 82 48q35 35 60 76q19 28 33 59q16 29 22 63q4 19 1 40l2 -15q0 1 -2 15q-2 16 -4 25q-1 13 -10 23 q-15 15 -30 19t-35 4q-36 5 -74 -3q-36 -8 -72 -23q-26 -14 -38 -22q-19 -12 -36 -20l-20 -13q-12 -9 -18 -10q-5 -2 -8 0l-7 3q-1 0 -3 2l-1 1q-2 -3 -7 -24q-3 -18 -6 -26q-10 -46 -16 -68q-10 -46 -16 -69z" />
<glyph unicode="C" horiz-adv-x="523" d="M-8 302q7 31 12 65q4 33 17 65l27 65q16 37 32 62q43 71 108 127q65 54 142 87q50 21 104 21q53 0 104 -18q20 -10 32 -22q15 -15 27 -30q17 -18 29 -47q15 -30 9 -52q-6 -10 -20 -13q-13 -3 -24 3q-7 7 -15 30l-12 35q-3 4 -4 4l-5 5q-26 27 -47 38q-20 10 -59 13 q-32 3 -59 -4q-30 -9 -55 -22q-64 -28 -118 -75t-89 -107q-42 -74 -64 -150t-13 -160q2 -22 10 -42q12 -26 19 -39q15 -33 31 -53q19 -22 49 -35q18 -6 37 -6q13 -1 40 -1q54 2 102 10q48 10 98 32q14 5 29 0q14 -6 15 -24q-2 -22 -23 -29l-37 -13q-49 -20 -117 -27 q-70 -8 -120 -2q-59 8 -95 39q-35 32 -59 85q-14 28 -20 42q-10 20 -13 45q-3 24 -3 49q-2 34 -2 49z" />
<glyph unicode="D" horiz-adv-x="570" d="M8 643q10 33 50 65q41 30 73 44l36 19q18 11 36 18q15 6 27 8q9 1 27 5q67 15 133 3q68 -12 115 -68q32 -40 46 -90q12 -51 8 -104q-2 -22 -4 -33q-1 -9 -5 -32q-4 -37 -18 -70q-13 -38 -27 -68q-17 -38 -42 -81q-26 -44 -52 -73q-5 -4 -10 -14q-1 -5 -8 -12 q-10 -10 -32 -38l-34 -36q-37 -34 -93 -60q-52 -24 -107 -32q-14 -2 -43 -4q-26 0 -38 16q-4 10 -3 23l3 25l9 47l12 48q8 39 23 95q16 57 29 95q7 19 12 42q4 15 13 40q3 7 3 14q0 2 1.5 6t2.5 7q11 25 18 49q9 31 17 48q13 30 21 64q6 25 20 62l9 28q5 14 25 13 q12 -1 17 -14q4 -9 2 -23q-3 -11 -17 -58q-7 -25 -20 -57q-13 -30 -19 -51l-16 -53q-15 -46 -43 -138q-22 -72 -39 -139q-7 -31 -23 -93l9 35q-3 -7 -9 -35l-6 -20q-5 -12 -3 -21q6 -5 25 -1q25 6 28 7q41 8 80 27q42 20 70 47l30 34q26 32 28 34q5 4 10 15q5 7 11 14 q41 46 75 118q35 74 48 134q9 47 12 94q1 47 -16 94q-46 90 -133 97q-89 8 -169 -28q-29 -13 -63 -36q-36 -21 -58 -43q-6 -6 -11 -17q-6 -11 -12 -18q-17 -8 -29 0q-11 11 -12 26z" />
<glyph unicode="E" horiz-adv-x="417" d="M4 89q3 7 3 15q0 11 1 16q3 25 9 50l14 49q36 138 98 283q58 137 140 264q12 15 31 12q10 -2 37 -4q48 2 89 10q57 10 89 13q17 1 33 -3q15 -4 15 -24q-3 -23 -27 -26q-30 -2 -41 -2q-35 -4 -69 -12q-46 -6 -70 -7q-18 2 -31 2q-16 0 -27 -10q-14 -18 -19 -29 q-8 -12 -17 -31q-10 -18 -16 -27l-16 -28l-52 -122l20 46q-9 -18 -20 -46l-27 -68q2 5 5 13l5 13l-10 -26l-7 -12q-4 -7 -4 -13q3 -6 14 -3l18 6q20 8 57 15q19 4 27.5 -3.5t6.5 -24.5q-3 -13 -13 -19q-5 -2 -22 -7q-19 -5 -30 -10q-11 -3 -31 -7q-14 -2 -23 -2 q-9 -1 -23 -5q-3 -2 -5 -8q0 -4 -2 -10q-9 -23 -15 -45l4 17l-4 -17q-7 -24 -28 -98q-17 -52 -15 -96q5 -26 22 -34q18 -9 42 -9q37 1 89 10q55 12 88 23q15 7 43 7q12 1 16.5 -6.5t1.5 -21.5q-3 -11 -11 -16q-7 -4 -17 -7q-54 -18 -98 -26l37 9l-37 -9q-57 -11 -120 -14 q-68 -5 -100 54q-6 18 -7 30q-1 10 -1 31z" />
<glyph unicode="F" horiz-adv-x="421" d="M15 43l51 203l-18 -77l18 77l16 55q-1 -4 -3 -10l-3 -11v1l6 20l4 10q3 5 3 10l-4 4l-6 3q-9 5 -10 14q-3 8 0 17q7 13 17 13q11 0 20 4q2 0 3 6q1 4 1 7q5 22 12 40l-4 -14q1 1 4 14q13 32 24 73q8 25 26 71q9 23 25 71l27 70l12 31l-4 -11l4 11l4 6q3 5 2 7q-3 1 -13 0 h-14q-17 -1 -40 7q-23 7 -12 33q14 20 50 13q37 -6 57 -2q10 7 17 23q6 14 27 13q8 -1 12 -6q3 -3 7 -11v-10q2 -8 4 -9q9 -1 30 -1q11 1 31 1h123h-2h-3h-2h-3h-2h-3h-2h-3h-3h-2h-3h-3h-2h-3h-10h46q22 2 41 2q24 0 37 -12q12 -14 6 -28q-7 -16 -26 -17q-7 0 -11 1l-11 3 q-38 3 -92 1q-32 -1 -92 -1q-23 0 -36 1q-22 2 -34 -1q-6 -3 -10 -13l-6 -17q-7 -18 -34 -88q-13 -46 -33 -90l-15 -41q-9 -23 -15 -45l-8 -29l-5.5 -16.5t-4.5 -12.5q-1 -4 -6 -10q-3 -5 -1 -10q0 -1 1 0h3q17 2 30 6l-10 -3q1 0 10 3q31 7 57 11q37 6 55 0q13 -6 15 -21 q2 -16 -12 -24q-8 -4 -21 -6q-10 0 -24 -2q-23 -2 -40 -7l-40 -8q-14 -2 -20 -2l-20 -2q-5 -3 -6 -9q0 -7 -1 -10l-10 -30l-10 -30q-14 -50 -23 -75q-14 -41 -18 -76q-1 -11 -8 -41q-5 -32 -8 -40q-6 -10 -20 -12t-23 6q-4 6 -6 14q-1 5 -1 15z" />
<glyph unicode="G" horiz-adv-x="614" d="M15 248q3 10 3 22q0 15 1 22q1 16 7 50q6 24 15 45q49 119 133 212q83 93 195 154q35 19 83 40q45 18 87 25q25 3 41 2q19 -1 39 -13q18 -11 25 -32q9 -19 -16 -32q-16 -3 -33 8q-18 12 -40 12q-61 -9 -113 -37q-59 -29 -103 -60q-98 -66 -171 -166q-72 -96 -89 -218 q-8 -42 0 -83q5 -44 23 -80q44 -71 129 -70q82 0 154 32q27 11 54 24l-20 -10q4 4 20 10q8 2 14 4q9 3 13 7q9 16 13 36q3 25 10 40q19 55 24 118q7 63 6 120q3 24 23 30q21 8 32 -9q6 -19 6 -39q0 -22 -3 -42q-6 -52 -17 -138l6 53l-6 -53q-2 -18 -5 -29l-9 -25l-6 -12 q-3 -5 -1 -10q1 -1 11 2q11 1 14 4q12 0 22 -7q9 -9 9 -22q-3 -25 -32 -34q-33 -12 -46 -23q-9 -9 -10 -20l-6 -24l-21 -96l7 36q-6 -31 -7 -36q-3 -14 -15 -25q-13 -9 -29 -2q-21 15 -14 46q6 31 14 53q0 7 4 16q3 13 2 15q-2 3 -6 -1q-5 -3 -7 -3q-17 -9 -43 -16q5 1 12 3 l6 2l-18 -5q-23 -9 -53 -16q-29 -6 -57 -9q-40 -4 -78 0q-35 4 -75 19q-18 9 -32 26q-12 17 -26 33q-27 32 -39 83q-11 52 -11 93z" />
<glyph unicode="H" horiz-adv-x="492" d="M3 38v9q5 15 11 52l8 53q5 42 16 78q11 35 19 78q2 16 8 40q5 13 11 39q4 8 5 12q3 8 3 14q-2 9 -9 13q-7 6 -4 20q5 13 13 14q11 2 13 8q14 32 25 78q6 36 17 81l20 80q9 36 16 81q3 13 14 21q11 7 25 -1q16 -12 11 -32q-3 -17 -11 -38l-24 -103l-24 -104l-16 -59l7 21 q-2 -3 -7 -21q0 -2 -3 -10q-1 -6 0 -9q2 -1 7 -1h8q18 -2 30 1q17 4 29 5q46 6 94 31q51 25 84 57q7 6 25 24q15 14 20 28l21 82q12 48 26 80q5 13 17 29q12 15 32 7q8 -5 11 -16q2 -14 2 -20q0 -19 -5 -41q-4 -20 -12 -40q-13 -32 -23 -52l-24 -50q-3 -9 -7 -31l-4 -32 q-5 -36 -19 -96q-8 -39 -23 -95q-25 -105 -32 -136q-17 -69 -24 -139q0 -20 -4 -47q-6 -28 -32 -20q-14 8 -15 20q-1 13 0 27l8 75l-3 -28l3 28q8 68 29 146q14 53 35 145q7 38 18 75l-7 -28l7 28q0 3 3 14q2 11 1 14q-1 1 -4 0h3h-3q-7 -1 -15 -9q-9 -9 -13 -12 q-21 -14 -42 -24l-44 -22q-31 -13 -60 -20q-26 -6 -61 -8q-15 0 -27 1q-21 2 -25 -1l-4 -12l-2 -14l-16 -67l4 22l1 5v-1l-5 -26q-1 -5 -9.5 -34.5t-12.5 -46.5q-9 -42 -15 -80l-4 -18q-4 -7 -4 -16l-5 -44q-5 -34 -8 -42q-8 -15 -26 -15q-17 -2 -23 16q-1 5 0 9z" />
<glyph unicode="I" horiz-adv-x="228" d="M14 35v2q21 89 35 156q13 71 25 159q9 91 20 156q11 85 29 154q8 34 13 78q2 24 8 80q2 15 11 23q9 9 24 7q15 -3 19 -18q4 -13 1 -28q-2 -21 -8 -78q-5 -43 -13 -78q-18 -69 -26 -130q-9 -58 -16 -130q-9 -73 -20 -125q-12 -61 -21 -125q-2 -12 -11 -59q-9 -39 -18 -55 q-12 -18 -29 -13t-23 24z" />
<glyph unicode="J" horiz-adv-x="508" d="M-11 190q5 15 16 22q13 8 26 -5q8 -10 11 -25q2 -17 9 -29q11 -19 34 -38l38 -34q13 -11 33 -21q19 -9 35 -8q29 5 58 25q30 21 49 38q39 42 65 105q24 58 35 118q16 94 49 258l-19 -96l19 96q6 32 11 48q10 32 16 48q14 31 17 38q-2 -5 -4 -9t-3 -5v-1q2 2 7 15q1 1 4 9 q2 6 1 8q-2 0 -17 -5q-15 -4 -21 -4q-24 -4 -55 -2q-25 4 -54 15q-9 4 -17 6q-8 5 -11 15q-1 9 3 18q5 8 14 11q15 2 35 -6q23 -10 36 -11q28 -2 45 2q23 6 46 9l24 4q13 2 22 -5q11 -7 13 -21q1 -12 -5 -25q-6 -14 -11 -21q-8 -14 -11 -21q-14 -34 -23 -60q-11 -28 -16 -63 q-8 -50 -18 -95q-13 -53 -17 -96q-9 -83 -37 -160q-29 -81 -81 -142q-30 -33 -67 -56q-40 -25 -82 -31q-21 -1 -43 8q-18 9 -39 23q-33 22 -62 48q-29 24 -46 62q-4 8 -7 22q-1 8 -5 24z" />
<glyph unicode="K" horiz-adv-x="558" d="M16 65q2 10 4 26l2 27q4 23 7 37l6 37q3 34 12 66q5 22 11 66q6 45 17 118q9 58 15 117q0 15 -8 23q-8 5 -7 21q1 9 10 14q8 4 13 15q2 18 1 28q0 19 1 28l9 87l-3 -32q0 9 3 32q0 15 3 32q6 17 29 14q17 -7 18 -21q2 -15 0 -29l-4 -53q0 -26 -3 -53q-2 -3 -3 -19 q-1 -10 -1 -20q4 -2 11 -1l10 2l32 8q15 5 33 7q26 2 48 12l-18 -7h1l17 7q17 7 31 8t31 8l33 10q22 6 32 11q34 14 78 25q-36 -10 -30 -9q9 5 30 9q15 6 49 11q30 6 32 -23q-2 -20 -27 -29l-44 -11q-38 -10 -56 -16l-55 -21l-14 -2l-15 -4q-23 -9 -46 -15q-17 -3 -47 -11 l-37 -8q-21 -6 -36 -8h-1q-1 0 -2.5 -0.5t-4 -1t-4.5 -0.5q-10 -3 -11 -4q2 -10 11 -18q12 -12 17 -15q16 -16 35 -42q24 -28 37 -41q16 -15 27 -33q8 -13 26 -35q7 -5 8 -13q3 -5 10 -12q18 -19 26 -35q11 -21 27 -34l14 -20q8 -14 13 -20q18 -18 42 -50l36 -56 q12 -20 32 -40q24 -26 37 -37l18 -19q10 -10 4 -25q-4 -11 -17 -16q-15 -2 -24 5q-18 15 -33 31q-11 13 -31 33q-21 20 -37 46q-18 25 -33 51l-9 14l-11 16q-9 10 -17 23q-14 19 -17 23q-5 6 -13 16q-4 7 -12 17l-13 17q-4 9 -13 18q-18 18 -40 49q-16 24 -41 52q-2 1 -6 7 q-2 5 -5 7q-20 22 -29 33q-18 22 -28 33l-11 12l-10 10q0 -1 -0.5 -2.5t-1 -4t-0.5 -4.5v-11q-6 -46 -8 -64q3 29 3 24l-3 -24q-7 -63 -21 -130q-11 -61 -21 -130q-1 -13 -7 -46l-9 -43q-1 -8 -1 -27q-2 -19 -5 -26q-7 -12 -18 -13q-14 -3 -21 6q-8 8 -9 17q-2 9 0 18z" />
<glyph unicode="L" horiz-adv-x="250" d="M20 70q8 26 19 74q9 36 15 76q5 34 15 68q10 39 14 68l12 117l12 116l10 106q6 51 18 104l3 14l6 13q9 12 25 11q16 -2 23 -15q4 -9 6 -23q3 -14 1 -24q-3 -7 -9 -12q-4 -3 -7 -9q-6 -13 -9 -38l-5 -41q-9 -92 -16 -205q-7 -103 -32 -206q-12 -48 -17 -73t-17 -75l-6 -24 q-4 -18 -3 -22q3 -2 21 3l24 6q48 10 104 24h-1l-1 -1h-1h-2h-1l-1 -1h-1h-1h-1l-1 -1h-1h-1h-1l-1 -1h-1h-1l-2 -1l-19 -4l38 9q7 1 21 7q9 4 21 4q14 0 23 -9q8 -8 7 -20q-5 -22 -28 -29q-20 -6 -44 -10q-47 -13 -62 -17q-33 -7 -66 -12q-35 -5 -57 3q-20 7 -22 50z" />
<glyph unicode="M" horiz-adv-x="585" d="M6 8l15 68q13 43 23 66q10 34 14 52q5 27 12 50q6 14 9 28q1 9 5 27l16 61q6 24 19 60q1 5 4 17l5 17q17 60 39 124l-16 -48v2q7 16 16 46q4 15 5 20q2 10 6 21q12 28 20 63q8 38 15 65q3 9 3 18q2 11 4 17q4 12 17 17q11 7 22 -1q6 -5 8 -12l3 -12q1 -6 6 -11 q2 -5 4 -13q1 -9 1 -26q-1 -9 -1 -26q0 -89 1 -134q0 -71 7 -133q4 -29 5 -46q1 -20 8 -45q0 -4 3 -14q2 -8 5 -8q6 1 14 11q7 9 10 16q11 17 24 33l24 32q11 18 28 38q16 21 25 38q10 20 17 29q11 13 18 30q19 37 39 68q5 7 43 64l31 42q18 24 35 41q7 7 18 5q11 0 18 -7 q9 -8 9 -18q2 -10 0 -21q-3 -32 -10 -57l-14 -57l-57 -221q-27 -98 -58 -222l-17 -61q-8 -34 -11 -58q-1 -9 0 -16t0 -15q-3 -8 -11 -13q-7 -4 -15 -4q-14 0 -20 13q-4 9 -4 24q0 27 7 54q7 34 13 55l33 145q15 62 41 143l9 44q3 15 13 45l14 48q7 28 11 47q4 18 7 27 l-3 -10l3 10q0 2 2 4q1 2 0 3q-2 2 -5 -2q-2 -4 -4 -5q-10 -16 -18 -33q8 13 6 12l-6 -12q-13 -24 -24 -40l-26 -39q-14 -23 -44 -69l-44 -67q-14 -22 -30 -45q-11 -18 -32 -40q-11 -11 -25 -32q-13 -16 -34 -21q-23 0 -36 18q-13 20 -18 39q-13 47 -16 97q-1 29 -7 96 q-1 11 -1 34q-1 16 0 33v17v18q-1 1 -1 3q0 3 -2 1q0 -2 -3 -15l-5 -18l-15 -53q-15 -44 -17 -52l-21 -67l-18 -66q-4 -12 -10 -38q-3 -21 -10 -37q-11 -33 -28 -94q-12 -45 -24 -97q-5 -16 -9 -40q-5 -22 -14 -38q-14 -19 -28 -11q-15 6 -20 24z" />
<glyph unicode="N" horiz-adv-x="511" d="M8 39l11 52q5 30 13 50q8 22 17 56q5 30 15 57q10 26 14 47l11 47q12 39 21 78q7 26 17 78q9 55 16 126l-5 -48l5 48l3 30q0 16 4 28q3 17 10 30q9 15 29 4q12 -9 12 -23l-4 -27q-3 -23 0 -46q2 -30 4 -45q10 -91 32 -191q14 -63 44 -189q5 -18 17 -54q9 -27 21 -52 l6 -21q2 -7 5.5 -10.5t7.5 -2.5q8 5 15 13l9 18q8 18 13 27q7 16 13 28q5 11 6 22q3 11 7 20q18 51 25 98q8 66 11 99q7 62 9 126q6 85 11 126q5 38 6 75q3 40 9 77q3 11 13 17q11 4 22 -2q13 -7 12 -22q0 -8 -2 -26q-3 -24 -7 -72l-8 -73q-4 -46 -6 -94q-1 -31 -7 -93 q-2 -30 -4 -45q-2 -28 -4 -42q-2 -19 -5 -28l-4 -27q-5 -37 -10 -58q-7 -28 -18 -58q-2 -5 -4 -13l-3 -13q-22 -51 -31 -70q-17 -38 -51 -56q-37 -14 -54 8q-19 24 -29 53q-15 40 -35 104q-17 60 -26 108q-1 17 -8 35l-9 35l-9 45q-5 23 -6 44l-3 9l-3 9v5q0 3 -1 3t-1 -3 q1 -1 1 -5q-2 -8 -4 -13l2 5q0 -1 -1 -2t-1 -3q-8 -38 -13 -57l5 21q0 -1 -1 -4.5t-2 -8t-2 -8.5q-6 -25 -19 -71.5t-15 -54.5q-18 -65 -33 -126q-3 -8 -13 -41q-5 -13 -11 -41q0 -6 -2 -24q-2 -12 -6 -22q-5 -11 -18 -11q-12 -2 -22 7q-4 5 -4 13q-2 8 0 15z" />
<glyph unicode="O" horiz-adv-x="480" d="M15 294q1 7 1 21t1 21q1 25 6 52q5 26 12 48q27 86 66 160q43 78 95 133q12 13 30 28q15 11 33 19l20 6q15 4 19 8q6 7 9 19q1 10 17 8q18 -5 33 -17q19 -17 29 -31l30 -36l-12 15v-1l12 -14q9 -13 16 -32q8 -17 12 -33q17 -55 22 -116q6 -58 0 -119q-7 -82 -39 -157 q-31 -74 -72 -136q-19 -33 -41 -59q-21 -25 -52 -43q-68 -38 -132 -9q-68 29 -99 118q-9 29 -14 72q-3 43 -2 75zM56 294q-1 -78 21 -139q21 -62 83 -80q14 -2 20 -2t20 2q28 3 51 16q-5 -3 -13 -6l-7 -3h1q7 2 19 9q18 13 35 34l30 40q36 51 68 121q31 73 39 140 q5 65 0 130q-4 65 -30 121l-19 33q-11 18 -23 25q-18 9 -44 0q-29 -7 -45 -18q-15 -8 -30 -22q-15 -11 -26 -25q-42 -56 -75 -117q-33 -59 -56 -133q-7 -20 -10 -48q-6 -37 -7 -52v-12q0 -4 -2 -14z" />
<glyph unicode="P" d="M-9 33q2 9 4 27l3 26q3 29 10 49q7 25 12 50q2 12 8 36l8 35q2 21 4 30l4 29l3 8v-1q0 -3 2 0l2 4q4 15 10 44l7 43q4 22 7 33q3 10 7 32q5 32 14 55q9 25 14 56q4 31 12 60q8 33 12 62q2 22 2 39q1 23 9 37q9 13 17 10q7 -2 19 -4q2 0 12 2l14 6q26 7 59 10l-22 -3 q4 1 22 3q113 12 214 -41q99 -55 94 -180q-3 -18 -9 -33q-5 -17 -12 -33q-44 -101 -128 -157q-85 -56 -191 -77q-26 -6 -49 -9q-16 -3 -49 -5q-10 0 -23 3q-11 1 -20 -2q-1 -1 -2 -5q-1 -2 -1 -5q-1 -1 -1 -2l-8 -44l3 17q0 -4 -3 -17q-10 -34 -23 -94q-10 -62 -14 -94 q-1 -17 -18 -28t-31 7l-3 10q-1 5 -1 11zM105 336q4 -10 17 -10l23 3q36 4 54 7q34 6 52 10q62 16 136 58q69 40 101 103l20 43q11 22 14 45q4 91 -66 129q-72 38 -153 36q-43 2 -85 -10l31 7l-31 -7q-10 -2 -15 -4q-10 -3 -14 -10t-4 -18q0 -8 -2 -20q-1 -31 -11 -66 q1 5 3 13l3 13l-6 -26q-12 -49 -34 -147q-16 -77 -33 -149z" />
<glyph unicode="Q" horiz-adv-x="451" d="M17 282v30l4 30q0 22 1 33q2 35 9 72q6 31 15 68q31 100 85 169q53 67 126 104q30 12 50 16q24 3 49 3q8 0 12 -3q6 -4 12 -2q4 0 6 5q1 4 6 7q9 7 17 2q9 -5 14 -19q9 -37 10 -69q1 -25 1 -71v-49q0 -24 -3 -49q0 -17 -3 -33q-2 -11 -4 -34q-1 -5 -1 -15q-2 -13 -4 -16 q-12 -42 -26 -82q-13 -40 -33 -82q-17 -38 -31 -63l-33 -62l-15 -23q-10 -16 -11 -20q0 -1 3 -8q3 -3 5 -9q17 -29 22 -40l-9 14l9 -14q27 -48 56 -85q32 -40 69 -62q19 -7 42 -11q25 -4 25 -34q-6 -30 -34 -26q-25 5 -47 17q-29 17 -63 51q-38 38 -55 67q-13 24 -32 54 l12 -19l-12 19l-9 21q-5 15 -9 19q-7 1 -16 -9q-5 -7 -13 -15q-20 -19 -39 -33q-19 -16 -43 -21q-71 -5 -92 80q-18 80 -23 167q-1 14 0 30zM59 313q0 -32 2 -102q3 -55 16 -98q7 -26 23 -42q16 -17 36 -4q19 7 37 24q18 15 33 33q0 1 5 8l6 6q0 3 -1 4t-1 3q-1 2 -3.5 8 t-4.5 9l-8 19q-6 13 -9 28l-8 29l-13 39q-10 26 -13 40q-4 11 0 24q1 10 10 17q15 8 21 -5q7 -12 12 -27l16 -49l15 -45q1 -8 6 -26q3 -12 10 -23q3 -3 6 7q2 3 4 7l1 4q7 12 18 25l14 29q30 61 59 128q30 68 38 139q6 78 6 157q0 -21 -0.5 -40l-0.5 -19q1 9 1 59v29 q0 20 -4 27q-1 4 -6 4q-6 2 -8 4q-10 4 -23 6q-7 0 -23 -2q-36 0 -79 -25q-43 -24 -69 -57l-9 -8l-8 -8q-19 -27 -39 -60q-18 -35 -30 -70q-4 -17 -5 -22l-6 -20q-1 -6 -8 -26l-5 -26q-2 -28 -4 -42q-3 -14 -5 -42v-14q0 -4 -2 -14z" />
<glyph unicode="R" horiz-adv-x="479" d="M9 50v8q5 27 17 81q9 46 23 79q3 7 5 24q4 16 7 24l9 27l8 25l3 7q1 4 0 7q-4 2 -11 2h-13q-18 5 -28 18q-12 13 -10 31q4 29 27 58q22 28 48 41q14 6 22 8q16 9 19 12q3 7 4 10q0 8 1 10q4 16 14 48l-5 -19l5 19q20 60 29 90q15 42 38 86q5 10 18 30q10 17 23 25 q4 3 7 1h8q9 2 27 8t28 7q44 4 88 -20q42 -23 68 -59q13 -24 14 -47q2 -24 -3 -48q-2 -10 -4 -16q-4 -10 -7 -15q-22 -47 -41 -74q-24 -32 -57 -63q-15 -15 -28 -24l-31 -21q-1 -1 -11 -7q-6 -3 -10 -7l5 -12q4 -5 7 -11q9 -13 15 -27l9 -27q8 -18 17 -49q10 -32 17 -48 q11 -27 31 -66q22 -38 40 -63q7 -10 25 -28q14 -11 27 -24q8 -4 16 -12q5 -7 4 -19q-3 -17 -18 -20q-14 -1 -29 7q-27 21 -48 43q-22 24 -39 51q-32 49 -50 97q-12 34 -38 102q-6 11 -11 31q-6 17 -14 31l-4 8q-3 7 -5 9q-4 1 -10 -3l-7 -6q-34 -18 -52 -25l20 8 q-10 -3 -20 -8l-32 -9q-22 -4 -29 -8q-3 -7 -4 -10q-1 -5 -1 -11q-4 -16 -7 -24q-4 -16 -7 -23q-13 -33 -26 -85l-21 -86q-1 -2 -7 -34q-3 -23 -7 -29q-10 -13 -27 -11q-15 0 -21 15v10zM73 387q14 -10 22 -2q5 6 10 21q2 3 4 12q0 -1 -0.5 -2.5l-0.5 -1.5q0 3 1 4q0 2 2 6 q1 4 0 4q-6 -1 -13 -8l-4 -4l-4 -4l-3 -3q-5 -6 -7 -10q-6 -8 -7 -12zM156 399q13 0 31 8q19 9 30 16q1 1 9 4q7 1 7 4q0 2 -5 7q-4 6 -7 7q-8 10 -21 17q-17 9 -24 -4q-8 -13 -10 -30q-3 -18 -10 -29zM194 522q5 -6 14 -9l16 -6q10 -5 21 -12l18 -17l9 -10q4 -9 8 -9 q2 0 7 5q2 2 9 5q17 12 35 26l-13 -10q4 1 13 10q44 36 83 84q40 50 37 111q-3 14 -11 25q-14 14 -22 20q-25 22 -59 28q-35 5 -66 -9q-19 -9 -28 -33q-11 -21 -19 -43q-14 -36 -20 -55q-7 -27 -18 -55q-4 -10 -6 -24q-1 -12 -8 -22z" />
<glyph unicode="S" d="M-5 24l6 8q3 7 6 8q8 5 29 7l35 3q24 3 47 9q10 3 47 13q84 25 147 61q65 38 118 104l21 25q7 11 16 30q7 16 0 25q-8 8 -22 15q-20 13 -46 19q-24 6 -47 15q-5 2 -13 4l-15 3q-32 12 -70 22q-30 9 -68 24q-16 7 -33 18l-32 16q-38 18 -65 47q-29 31 -34 73q-3 40 16 71 q22 33 47 56q18 18 39 30q26 16 44 24q52 30 120 47q64 18 128 12l60 -6q26 -1 58 -13l19 -8q12 -7 17 -12q4 -13 0 -28q-7 -14 -23 -16q-10 1 -20 7l-18 9q-22 10 -52 11q-32 3 -55 3q-57 0 -114 -17q-60 -18 -108 -44q-25 -12 -50 -31q-23 -17 -40 -42q-28 -46 1 -81 t71 -55q62 -29 135 -49q74 -20 135 -46q30 -11 62 -29q31 -19 33 -58q-1 -28 -18 -55q-17 -29 -34 -49q-38 -47 -77 -80q-47 -37 -94 -58q-36 -16 -74 -28q-42 -12 -75 -25q-21 -8 -65 -16q-44 -9 -65 -8q-15 2 -23 11q-7 8 -7 24z" />
<glyph unicode="T" horiz-adv-x="557" d="M7 636q5 15 15 19q8 5 24 10l84 36q-4 -2 -11 -5l-20 -9q3 2 31 14q52 22 93 31l96 21q3 1 10 1l11 4q2 2 11 10q4 6 14 7q9 0 13 -4q3 -2 12 -4q7 0 14 3l14 4q17 1 49 7t47 8q41 4 59 7q30 3 60 3q15 0 23 -7q10 -6 9 -21q-6 -23 -31 -24q-17 -1 -45 -1q-48 -6 -73 -11 q-23 -5 -76 -11q-9 -1 -29 -5q-20 -2 -29 -5q-8 -4 -13 -18l-8 -21q-4 -13 -11.5 -35.5l-10.5 -31.5q-14 -41 -25 -66t-20 -62q-8 -32 -18 -63q-10 -28 -14 -42q-5 -18 -14 -42q-5 -12 -6 -25q-2 -16 -5 -23q-5 -11 -11 -37q-3 -21 -10 -37q-12 -29 -17 -53q-8 -29 -12 -55 q-7 -29 -13 -51q-7 -31 -17 -47q-7 -11 -22 -13q-15 0 -22 13q-6 10 -1 23q7 20 8 23q10 32 18 68q8 37 18 67q6 18 10 41q6 28 10 42q8 28 24 79.5t22 71.5q18 72 47 150l15 45q8 24 16 44q1 5 8 20l7 17q-2 5 -8 2l-10 -2l-28 -6q-20 -4 -29 -5q-44 -12 -98 -34l-95 -40 q-17 -7 -27 0q-13 7 -13 25z" />
<glyph unicode="U" horiz-adv-x="421" d="M3 255q5 25 5 47q-2 26 1 46l10 73q4 28 10 74q3 22 11 49q7 25 17 49q2 7 4 21l6 21l23 59q11 28 29 58q7 16 19 35q10 18 24 29q10 7 23 3t16 -18q3 -13 -4 -26l-16 -23q-11 -15 -29 -49q-15 -28 -23 -51q-36 -107 -53 -210q-19 -104 -19 -214q0 -38 1 -55q1 -26 6 -55 q0 -16 4 -32q3 -17 12 -31q6 -7 17 -8q12 -1 19 0q39 7 72 37q32 28 57 57q69 77 104 181q30 98 41 206q3 40 0 81l-8 80l-6 27q-1 9 -1 27q1 21 20 25q17 6 29 -12q3 -5 5 -21q0 -9 2 -25q4 -38 10 -104q-5 50 -3 39q0 -11 3 -39q4 -39 1 -83q-6 -58 -10 -83q-2 -16 -5 -24 q-5 -12 -6 -25q-15 -73 -44 -140q-30 -72 -73 -124q-35 -42 -81 -82q-44 -41 -101 -50q-19 -1 -46 5q-25 6 -39 23q-27 45 -32 113q-3 71 -2 119z" />
<glyph unicode="V" horiz-adv-x="472" d="M5 720q5 16 21 18q16 3 24 -14q6 -16 7 -27t1 -28q1 -18 6 -38q4 -26 5 -39q4 -27 12 -55q7 -25 10 -57q7 -58 18 -121q12 -69 17 -121l8 -59l9 -60q0 -11 1 -17l4 -16q1 -1 1 -4q1 -1 3 -1q1 1 1 2v4l8 15l10 16q6 9 16 31l-5 -12l5 12q1 5 5 8q2 1 4 6l18 37l19 38 q17 40 36 81q22 46 38 83q26 60 45 113l45 112q3 5 3 11l2 9l17 43q12 38 14 46l4 27l6 25l4 8l4 8q11 9 23 5q13 -4 17 -17q3 -11 -1 -27q-6 -18 -8 -27q-15 -62 -44 -131l20 51v-2q-7 -20 -20 -49l-15 -43q-10 -30 -16 -44q-17 -39 -49 -117t-49 -117q-7 -17 -23 -49 q-9 -16 -23 -48l-9 -16l-9 -14q-2 -3 -6.5 -13.5t-7.5 -15.5l-15 -30q-2 -4 -6 -9q-4 -4 -6 -10l-12 -26q-6 -12 -14 -26q-8 -13 -12 -25q-6 -13 -20 -15q-17 2 -24 13q-7 9 -10 26q-10 42 -13 63l-9 64q-7 61 -18 125q-14 100 -17 125q-1 18 -7 48q-7 28 -8 48q-3 20 -9 40 q-6 26 -8 40q-4 25 -5 41q-4 28 -5 43q-4 18 -5 27q-3 14 -3 28z" />
<glyph unicode="W" horiz-adv-x="603" d="M-2 748q6 19 23 22q19 3 28 -16q6 -12 4 -29q-1 -16 0 -31q3 -28 3 -59q-1 -28 2 -60q7 -60 17 -180q10 -117 17 -178l6 -60q3 -32 10 -58q2 -10 2 -20q0 -13 6 -18q2 0 10 9q2 2 4.5 5t4 4.5t1.5 2.5q11 16 23 40l19 44q80 188 119 282l-45 -106q8 18 45 106l18 50 q11 30 37 30q22 -4 24 -30q1 -21 -2 -43q-6 -56 -4 -121q1 -58 -5 -120q-1 -13 -1 -41q1 -13 1 -39v-22l3 -13q22 33 37 73q13 38 30 75q20 48 31 86l-11 -33q5 12 11 33q0 4 5 29q2 10 8 28q10 27 18 59q11 47 14 61l21 81q10 34 22 80q9 36 19 66q11 39 22 63q7 15 24 18 q16 1 25 -15q5 -11 0 -23q-3 -7 -7 -25q-14 -45 -19 -58q-6 -17 -17 -58q-30 -127 -63 -244q-32 -124 -81 -238q-21 -43 -29 -58q-18 -29 -32 -58q-8 -15 -19 -27q-12 -15 -29 -15q-23 3 -29 23q-5 23 -6 41q-5 51 -3 104q3 54 3 106q0 9 2 31v30v8v8q-2 2 -2 -1 q-1 -2 -1 -4q-6 -14 -9 -19l3 7q0 -3 -3 -7q-24 -61 -31 -76q4 10 8 19l4 9l-12 -28q-5 -12 -19 -46.5t-21 -53.5q-22 -49 -51 -94q-11 -19 -26 -34q-16 -16 -38 -19q-19 -1 -32 9q-13 12 -19 28q-12 34 -16 65l-6 65q-21 182 -31 289q-15 145 -15 289z" />
<glyph unicode="X" horiz-adv-x="505" d="M9 41v11q5 22 18 39q10 15 22 39q15 29 39 68q28 42 48 62q13 15 20 30q8 16 21 30q12 14 24 30l22 33l11 11q6 6 8 12q0 8 -4 13q-3 3 -7 11l-24 58l9 -22q-1 5 -9 22l-30 71q-11 31 -29 72q-7 18 -18 37l-15 40l-12 37q-7 18 -7 35q2 14 11 20q9 7 22 5q16 -9 22 -32 l8 -39q22 -60 40 -103q28 -66 43 -99l26 -59l-9 22l9 -22l4 -9q0 -2 4 -9q3 1 8 9q5 5 9 11q28 38 41 58l-6 -9l-9 -14q4 4 15 23q14 22 35 48q-3 -3 -7 -9l-7 -9q1 1 3 3.5t5 7t6 7.5q20 30 25 38q11 20 27 37q8 10 15 22l15 23q14 14 23 27q14 20 20 30q13 18 24 32 q13 16 32 9q6 -2 9 -4l5 -7q4 -11 -1 -23q-5 -9 -14 -18q-11 -11 -20 -26l-20 -27q-35 -54 -77 -110q-40 -56 -78 -111l-20 -26q-14 -18 -20 -27l-8 -10q-5 -5 -5 -9q0 -7 4 -11l7 -11q15 -29 27 -57q-5 10 -9 21l-1 1l10 -22q27 -59 55 -112q31 -60 60 -110l20 -37 q4 -8 12 -21t10 -16l9 -18q5 -8 3 -20q-5 -11 -16 -15q-12 -3 -22 2q-12 11 -25 35q-6 10 -20 38q-35 60 -76 143q10 -19 22 -43l7 -13l-1 1l-28 55q-8 17 -20 35q-8 13 -17 36q-5 12 -17 34q-8 14 -16 34q-2 3 -4 12q-3 7 -7 11q-4 3 -8 -4q-5 -8 -7 -9q-15 -19 -41 -59 l15 22l-15 -22q-21 -30 -61 -90q-42 -60 -62 -90l-19 -38q-8 -24 -17 -34q-8 -7 -21 -7q-12 0 -20 8q-3 4 -3 11z" />
<glyph unicode="Y" d="M27 762q6 17 21 17q15 3 24 -13q4 -10 10 -32q3 -19 10 -32q11 -23 22 -40l21 -40q12 -32 33 -65q22 -37 39 -62l22 -33q8 -11 24 -29l7 -10q4 -6 9 -6q1 1 1 2v4l7 13q2 4 8 12q8 18 19 34q12 17 20 34l16 26q10 12 18 24l26 42q15 25 30 40q19 19 31 42q16 27 31 42 q13 13 22 26q10 14 18 27l5 10q1 4 7 10q10 10 24 5q14 -8 15 -23q-2 -10 -8 -19q-11 -17 -13 -20l-34 -44q-15 -17 -33 -44l-44 -64q-38 -57 -43 -64l-22 -32q-11 -14 -19 -33q-7 -17 -18 -30q-9 -12 -16 -29l-8 -12q-6 -8 -6 -12q0 -6 6 -7l5 -3q12 -13 6 -29l2 11 q1 -1 -2 -11q-4 -7 -11 -10q-7 -4 -16 -1q-3 0 -4 3t-4 3q-3 -2 -5 -5q0 -4 -1 -5q-31 -71 -46 -131q-24 -90 -35 -136q-2 -17 -9 -48q-6 -30 -31 -23q-15 7 -14 23q1 13 5 32q2 21 6 40q-3 -19 -3 -15t3 15l21 85q10 41 27 82q4 12 5 18q2 12 5 18l12 27q7 22 10 28 q1 2 3.5 6t3.5 7q5 12 4 16l-1 2l-2.5 2.5t-3.5 2.5l-8 7q-11 11 -23 28t-22 27q-14 17 -30 44q-12 21 -25 47q-4 8 -14 22q-5 7 -13 21q-14 32 -23 47q-11 18 -23 46q-4 8 -10.5 23.5t-9.5 20.5q-9 21 -11 48z" />
<glyph unicode="Z" horiz-adv-x="556" d="M14 62q17 64 53 117q41 61 80 101l35 43l36 44l89 102q43 50 91 97q28 30 57 63q26 31 50 67q3 3 16 21q11 17 11 23l-10 3l-11 3q-26 2 -37 2q-13 0 -37 2q-69 7 -142 -3q-89 -11 -141 -19q-26 -2 -39 -5q-21 -5 -38 0q-10 1 -17 11q-6 10 -5 20q4 12 18 17q11 3 24 3 l38 6l39 6l155 15q79 7 156 0q34 -2 63 -11q34 -10 37 -47q-3 -36 -33 -75q-33 -45 -53 -65q-3 -3 -28.5 -32.5t-39.5 -44.5q-35 -39 -70 -76q-19 -19 -40 -47q-13 -16 -41 -46q-27 -27 -48 -55q-23 -31 -45 -56q-20 -20 -55 -66q-30 -39 -45 -70l-12 -21q-8 -15 -7 -21 q2 -8 9 -8h11q26 -3 74 -5l-28 1q14 0 28 -1q70 0 129 4q84 6 127 11q21 4 46 0q24 -4 18 -34q-2 -6 -11 -11q-10 -5 -16 -5q-28 -2 -41 -2q-22 0 -42 -3q-64 -7 -137 -12q-70 -4 -137 3q-29 1 -55 12q-28 10 -29 44z" />
<glyph unicode="a" horiz-adv-x="399" d="M9 220q2 16 2 25q0 8 2 26q1 11 7 42l12 41q36 95 113 159q77 62 166 32q20 -9 30 -17q18 -12 28 -21q5 -5 12 -9q6 -6 9 -15q6 -48 -16 -101q-6 -15 -43 -97q-4 -10 -7 -15q-7 -9 -8 -14q-3 -5 -5 -18l-3 -15q-10 -33 -15 -69q-5 -35 0 -71q0 -2 2 -18q3 -12 8 -17 q3 0 14 6q5 3 14 8l17 9q9 5 16 10q9 6 18 15q12 10 19 14q12 4 21 -3q10 -7 8 -24q-1 -10 -11 -18q-9 -9 -16 -13q-18 -14 -40 -28q-26 -14 -43 -20l-14 -4q-6 -1 -14 2q-24 10 -32 39t-9 57q-1 13 1 38q0 -4 -1 -10v-3q0 6 1 13v8q2 5 -2 5q-1 0 -1 -1l-3 -3 q-12 -16 -18 -26l6 10l-6 -10q-10 -14 -30 -38q-14 -16 -33 -32q-5 -5 -17 -13q-7 -3 -19 -11l-14 -4q-5 -1 -15 -1q-59 8 -75 74q-18 66 -16 126zM49 221q0 -33 3 -63q4 -30 17 -60q5 -12 12 -19q9 -9 18 -10q24 0 46 22q19 18 37 41q18 22 52 68q28 42 44 77q3 4 5 13 l2 12q19 59 25 76q-2 -7 -6 -18l-4 -12v1l10 29q8 22 26 66v-1l-1 -2l-9 -21l10 24q2 6 6 10q1 2 5 9q-1 4 -14 14q-12 8 -17 13q-29 21 -62 18q-34 -2 -62 -18q-4 -2 -20 -13q-9 -6 -17 -16l-8 -7q-3 -1 -8 -6l-27 -33l10 13v-1l-10 -12q-18 -20 -31 -52q-14 -38 -20 -57 q-7 -18 -7 -43q-2 -29 -5 -42z" />
<glyph unicode="b" horiz-adv-x="523" d="M-25 91q3 11 12 18q10 9 23 3q3 -2 13 -12q9 -11 11 -6q7 24 9 50q1 25 11 49l7 24q2 13 6 23q26 62 56 152q23 80 54 153q6 15 16 45l15 44q17 41 18 62q13 37 25 84q5 18 22 20q16 3 28 -13q2 -10 1 -15q0 -10 -1 -15q-2 -10 -2 -15q0 -8 -3 -15q-2 -7 -5 -9 q-2 -1 -6 -5q-3 -5 -7 -15q-1 -6 -5 -16q-2 -23 -16 -62q-11 -27 -29 -83l-18 -43q-11 -24 -14 -42q0 -1 1 0l4 2q6 7 13 13q-6 -6 -6 -4l6 4q14 14 32 27q-2 -1 -4 -3l-9 -6l13 9q22 16 64 40q36 21 74 18q70 -13 100 -84q31 -72 24 -136q-11 -83 -62 -158 q-55 -75 -130 -109q-28 -12 -57 -21l-59 -15q-11 -3 -40 -5q-25 -3 -39 -2q-17 4 -23 4q-18 3 -22 2q-5 -2 -13 -8q-5 -7 -16 -2q-8 3 -11 10q-5 8 -10 12q-6 3 -33 17q-17 8 -18 34zM91 86q0 -3 -1 -4q0 -3 1 -4q1 -2 18 -3q4 0 9 -0.5t8 -1t4 -0.5q28 0 59 6q36 5 58 14 l52 22q19 9 50 29q38 31 69 83q29 50 37 100q6 39 -1 74q-6 37 -30 66q-10 14 -18 22q-10 10 -25 12q-29 2 -69 -22q-38 -22 -60 -44q-35 -35 -67 -80q-32 -47 -51 -91q-17 -40 -25 -88q-7 -46 -18 -90z" />
<glyph unicode="c" horiz-adv-x="347" d="M11 207q0 43 14 97q13 50 38 86q7 10 13 23q3 8 13 22q34 48 64 76q30 31 77 54q25 12 62 4q38 -6 60 -25q12 -10 20 -18q10 -8 8 -26q-3 -12 -10 -16q-8 -5 -16 0q-7 4 -13 12q-5 6 -13 10q-22 16 -46 17q-24 3 -47 -8q-64 -31 -110 -98q-45 -68 -71 -148q-3 -9 -5 -31 q-1 -11 -1 -33q0 -10 1 -15l3 -13q1 -12 7 -36q4 -18 14 -33q21 -32 53 -41q29 -10 63 -5q26 5 45 14q18 8 42 25q8 5 14 11t13 10q10 3 18 -8q7 -9 4 -23q-9 -22 -35 -36q-33 -17 -44 -22q-27 -13 -65 -21q-40 -5 -67 8l-29 18q4 -3 7.5 -5l3.5 -2l-11 7q-2 1 -14 8 q-10 8 -13 13q-23 29 -35 67q-12 40 -12 81z" />
<glyph unicode="d" horiz-adv-x="624" d="M16 218q4 18 6 35q3 19 11 37q26 59 76 124q54 64 111 96q60 33 131 35l-52 -4h1q11 2 51 4q32 2 56 -2t53 -16l18 -12l17 -11q2 0 3 -1q2 -2 3 -2q3 3 4 9v15q5 20 6 37q-6 -20 -16 -53l-19 -63q5 18 13 56q6 43 8 57l8 27q6 16 7 26q10 35 19 62q9 36 22 64 q10 26 20 45q14 29 38 33q13 1 22 -9q10 -11 13 -25q-4 -31 -5 -44q-1 -5 -3.5 -20t-4.5 -22q-5 -34 -13 -65l-22 -67q-19 -67 -38 -118q17 72 8 56q-3 -5 -8 -19q-9 -22 -5 -38q8 -18 15 -37l11 -18q7 -11 5 -24q-7 -21 -25 -19q-18 1 -23 -4q-2 -10 -4 -38q-3 -15 -7 -40 q-1 -21 -10 -58q-6 -30 -9 -56l-7 -42l-6 -40q0 -20 1 -27q1 -6 2.5 -15.5t1.5 -13.5q0 -7 -8 -15q-5 -8 -14 -11q-32 -5 -36 24q-7 25 -7 50q1 47 13 105q11 44 20 105q2 11 6 23t4 25l-5 -5l-5 -7q-3 -2 -5 -10l-4 -9q-24 -32 -43 -65q5 8 9.5 15.5t5.5 9.5q-5 -7 -15 -25 q-31 -47 -75 -94q-50 -55 -94 -78l-27 -16q-15 -7 -29 -8q-57 -3 -98 22q-42 26 -65 76q-10 22 -11 45q-1 17 -1 48zM74 217q-1 -47 22 -91q20 -45 77 -40q7 0 17 2q6 1 16 7q19 8 41 26q-14 -10 -14 -13q1 3 14 13q55 47 99 105q43 56 80 123q9 22 26 44l22 46q2 9 -13 18 q-14 8 -19 14q-32 18 -74 19q-46 2 -78 -12q-16 -5 -20 -7l-20 -10q-50 -29 -94 -81q-42 -51 -65 -102l-10 -30q-4 -20 -7 -31z" />
<glyph unicode="e" horiz-adv-x="473" d="M-4 235q7 27 8 48q2 29 11 49q33 79 91 138q61 60 140 85q42 14 83 17q45 5 80 -23q16 -14 35 -36q15 -17 20 -43q2 -54 -42 -98t-95 -50q-42 -6 -77 -5q-37 1 -75 19q-12 5 -27 17q-12 11 -23 23q-2 3 -7 13q-2 5 -4 7.5t-3 1.5q-38 -41 -54 -101q-15 -62 -9 -118 q12 -82 72 -113q59 -32 134 -11q41 13 79 36q39 25 71 48q15 7 29 1q14 -8 14 -25q-2 -11 -11 -18q-6 -3 -18 -11q-37 -26 -65 -41l-71 -32q-28 -13 -59 -17q-33 -6 -62 0q-41 8 -79 34q-41 26 -59 65q-16 36 -20 67q-7 32 -7 73zM149 442q13 -44 52 -64q39 -15 82 -9 q7 1 17 1h15q29 3 54 22q26 19 40 45q13 41 -25 67q-36 25 -77 17q-31 -9 -64 -21l24 10q-5 -4 -24 -10q-24 -10 -47 -28q-26 -16 -47 -30z" />
<glyph unicode="f" horiz-adv-x="485" d="M18 321q2 2 3 7q1 3 1 6q5 8 13 9q5 2 15 4q26 7 34 10q2 0 15 4t21 6l17 3q11 2 14 5q4 4 4 13t2 15l10 39l8 40q9 64 46 133q36 73 94 101q71 26 131 -6q61 -33 89 -99q9 -18 19 -43q8 -23 2 -48q-5 -18 -22 -16q-17 0 -24 16q-2 8 -1 11v12q-3 16 -7 25l-10 24 q-24 54 -79 79t-105 -19q-38 -38 -58 -91q-18 -51 -30 -105l-13 -52q2 7 4 16l1 4l-5 -20q-1 -2 -3 -9t3 -9q10 0 19 4q10 4 20 6q42 7 58 10l60 10q10 2 30 4q16 0 24 -14q6 -22 -9 -30q-16 -5 -33 -7q-40 -6 -62 -11q-33 -8 -62 -12q-25 -4 -31 -5q-21 -3 -29 -8 q-6 -8 -9 -28l-5 -30q-18 -45 -31 -103q-12 -52 -33 -102q-6 -15 -23 -39q-17 -23 -36 -24q-13 0 -21 12t0 24q1 4 5 6l8 4l11 13l9 16q16 33 30 82l23 86q7 29 13 50l-5 -19q3 9 5 19l4 11q2 7 1 9q0 1 -1 0h-3q-15 -3 -26 -7q12 5 9 3q-1 0 -9 -3q-29 -8 -53 -14 q-32 -7 -37 22z" />
<glyph unicode="g" horiz-adv-x="460" d="M-30 -92q1 8 12 16q10 4 21 0q6 -4 10 -9l10 -10q30 -19 59 -30q-28 12 -24 9l24 -9q38 -16 77 -8q40 11 72 32q22 17 36 47q16 34 22 54q22 64 79 139q-52 -66 -53 -61q39 24 53 61q9 35 13 66l10 69q3 12 7 36l10 37q2 10 4 15q3 9 3 16q0 1 -1 -1l-1 -2q-3 -2 -5 -6 l-11 -12q1 2 2.5 3.5l1.5 1.5q0 -1 -4 -5l-15 -20q-9 -9 -14 -18q-25 -31 -50 -58t-52 -52q-38 -36 -91 -52q-55 -16 -101 10q-13 10 -24 26q-8 10 -17 32q-4 7 -6 19q-3 7 -5 21q-3 21 2 43q6 28 11 42q27 71 87 115q57 41 129 70q11 5 37 13q21 6 38 9q18 3 51 5 q23 0 52 -3q3 -1 16 -7q7 -4 16 -6q7 -1 13 0t14 -5q7 -10 6 -25q-2 -18 -5 -25l-32 -127q15 58 12 48q-1 -12 -12 -48q-23 -104 -34 -179q-59 -117 -88 -188l-3 -15q-4 -11 -5 -14q-16 -39 -34 -65q-19 -28 -53 -52q-34 -22 -79 -30q-43 -9 -83 6l-26 12l-26 12 q-12 6 -36 22q-18 13 -20 35zM67 292q0 -22 6 -45t22 -40q23 -17 62 -7q37 9 57 26q48 43 91 91q44 47 80 101l28 42q12 18 22 44q0 6 -15 10q-3 0 -7 0.5t-6.5 1t-5 0.5h-3.5q-8 0 -18 2q-9 1 -19 0q-13 -2 -39 -8l-39 -12q-42 -12 -80 -33q-39 -22 -70 -50l-21 -19 q-10 -7 -17 -19l-16 -42q-5 -15 -12 -43z" />
<glyph unicode="h" horiz-adv-x="435" d="M5 36q3 17 11 51q4 25 6 53q5 20 7 26q3 8 5 26q4 31 5 44q4 20 11 41q9 25 15 51q3 20 13 51q13 32 20 62l19 64q19 47 33 96q-4 -14 -9 -30l-2 -9v1l11 38l-42 -104l3 9q14 41 38 95q22 44 39 85q16 40 38 83q8 18 16 31q11 18 28 13q12 -5 15 -18q2 -15 -2 -26 q-1 -2 -25 -53l-28 -55q-9 -17 -15 -34q-10 -21 -15 -37l-27 -68l-26 -68q57 159 48 123q-15 -51 -23 -70q-2 -5 -14 -47l-16 -50q-8 -18 -10 -22q-5 -14 -6 -25l1 1q2 1 4 5l13 22l-5 -8v1q3 3 5 7q22 38 43 65l-17 -22l17 22q25 35 57 64q31 29 70 45q21 7 39 6 q21 0 38 -16q21 -23 21 -58q0 -39 -4 -67q-6 -55 -15 -115q-12 -62 -17 -112l-11 -56q-8 -35 -2 -54q5 -6 22 -3l24 7q22 6 41 18q17 10 40 21q5 3 12 10q5 5 15 7q10 4 18 -2q11 -6 12 -18q3 -19 -9 -30q-12 -7 -25 -16q-26 -21 -72 -38q-41 -19 -77 -17q-29 5 -41 29 q-13 22 -10 55q6 64 22 147q-2 -10 -5 -27l-5 -27l10 54l4 16l2 15q6 49 15 107l-7 -41q0 2 2.5 15.5t4.5 25.5l6 43q2 29 1 43q0 11 -1 17q-3 8 -9 12q-10 1 -19 -3q-9 -3 -20 -8q-23 -13 -44 -34l-38 -42q-52 -63 -88 -141q-34 -77 -64 -157q-12 -33 -19 -74q2 10 4 22 l1 8v-1q-4 -26 -5 -29l-5 -20q-2 -13 -5 -18q-1 -2 -6 -7q-2 0 -5 -0.5t-4 -1.5q-16 -5 -21 2q-9 9 -10 24z" />
<glyph unicode="i" horiz-adv-x="262" d="M16 94q3 10 3 20q1 8 1 22q2 12 8 36l12 35q20 61 48 123q25 52 64 117q17 28 27 55q-12 -26 -9 -21l9 21q4 11 5 20q3 10 9 18q9 11 27 11q18 -2 24 -17q3 -17 -11 -45l-22 -45l-21 -38q-13 -17 -22 -37q-33 -65 -60 -132l21 50l-21 -50q-18 -44 -29 -87q-11 -48 -7 -89 v-4v-2q6 -2 9 -2q5 1 9 0q10 -1 15 -11q6 -9 1 -18q-12 -22 -38 -17q-26 1 -42 15q-12 14 -12 34q0 16 2 38zM221 660q3 9 3 18l5 17q9 19 29 27t33 -16q5 -12 3 -24l-3 -26q-1 -4 0 -12q2 -6 2 -10q-5 -14 -17 -18q-14 -5 -29 3q-9 5 -17 19q-6 13 -9 22z" />
<glyph unicode="j" horiz-adv-x="280" d="M-142 -75l11 59q8 35 33 32q6 -2 10 -9q5 -7 5 -15q0 -14 -6 -29q-6 -17 -7 -28q-2 -29 -1 -44q0 -24 7 -44q11 -23 30 -29q20 -5 40 -1q49 6 91 33q42 28 73 70q52 75 69 180t0 195q-3 22 -16 63q-11 34 -30 57q-8 10 -24 25q-14 12 -29 15h-47q-29 0 -33 22q0 19 12 23 l24 3q26 3 52 -2q24 -6 48 -23q38 -29 60 -79q23 -51 27 -100q3 -21 7 -65q6 -30 1 -64q-6 -93 -38 -185q-31 -91 -102 -153q-46 -40 -118 -60q-69 -23 -119 24q-21 26 -26 61q-5 40 -4 68zM123 652q3 12 13 38q8 22 23 31q18 11 27 -4q10 -13 9 -31q-2 -10 -5 -15 q-3 -6 -5 -14v-17q1 -8 -6 -15q-14 -11 -32 -2q-16 9 -24 29z" />
<glyph unicode="k" horiz-adv-x="465" d="M9 19l18 73q10 34 24 71q10 28 13 42q5 18 14 41q13 33 71 170q-33 -80 -27 -63t27 63q22 50 35 75q18 34 36 74q9 21 19 35q11 19 18 37l10 17l10 17q12 26 30 55q11 18 35 52q5 11 17 25q11 12 27 2q7 -4 9 -13q1 -5 -1 -15q-5 -16 -17 -33q-8 -15 -20 -31 q-25 -37 -48 -78q-24 -43 -41 -83l-5 -6l-4 -8l-25 -53q-16 -30 -26 -54l-21 -48q-8 -16 -22 -48l-14 -33l5 13l-5 -13l-5 -10l1 4q0 -3 -1 -4q-1 -2 -1 -5q-1 -5 0 -3q6 6 11 17l9 17q4 6 7 9q6 4 8 7q12 11 22 29q8 14 20 30q18 17 31 37q9 13 29 37l94 93l-36 -35l36 35 q13 15 34 26q20 14 38 18q14 3 23 -8q10 -8 8 -22q-3 -17 -15 -37l-25 -33q-32 -50 -49 -75q-28 -41 -56 -69q-14 -14 -29 -26l-28 -27l-9 -8q-8 -5 -8 -6t7 -5l7 -4l17 -14l16 -16q9 -9 13 -18q5 -9 14 -18l13 -18q4 -7 12 -17q20 -22 37 -46q18 -27 36 -47l28 -22 q16 -10 14 -29q-5 -11 -14 -15q-11 -3 -21 1q-9 4 -25 17l-22 21q-14 18 -20 27q-8 13 -20 27q-8 8 -14 20q-7 12 -15 20q-10 12 -14 18q-4 9 -13 18l-19 20l-18 20q-7 8 -23 22q-10 9 -26 16l-4 4q-3 3 -5 3q-5 -2 -7 -5q-2 -5 -5 -8l-30 -47q4 6 7.5 12l3.5 6 q-1 -3 -11 -18q-28 -41 -53 -98q-26 -56 -44 -101q-3 -7 -9 -15q-3 -7 -11 -12q-15 -5 -24 4t-9 23zM241 340q8 4 17 13l15 15q29 29 42 44q24 24 39 47q7 13 17 22q12 15 13 20q0 2 -4 -1l-4 -4q-8 -8 -11 -13q5 7 3 6q0 -1 -3 -6q-16 -15 -31 -31l11 11q-3 -2 -11 -11 q-21 -21 -49 -54q-22 -26 -44 -58z" />
<glyph unicode="l" horiz-adv-x="307" d="M19 39v22q3 9 5 27l4 25q3 30 14 73q8 31 22 69q4 11 10 33q1 13 8 32q15 34 24 65q7 22 25 66l48 115l-18 -43l18 43q10 19 17 35l19 35q7 19 20 38q8 13 22 39l16 31q11 16 21 30q9 12 21 21q14 8 26 -11q6 -13 -2 -26q-4 -5 -10.5 -14t-6.5 -10q-21 -31 -42 -68 l-36 -71q-25 -47 -46 -102q-5 -13 -19 -48t-21 -55q-8 -14 -15 -34q-5 -12 -13 -36q-5 -13 -11 -41q-4 -15 -13 -40q-14 -35 -21 -70q-9 -39 -15 -73q-1 -13 -5 -30q-2 -21 -1 -32q4 -9 17 -2q11 6 21 14q18 11 37 27q19 13 39 24q9 4 20 1q11 -2 14 -13q3 -21 -20 -35 q-22 -16 -39 -24q-29 -23 -73 -43q-43 -17 -59 35q-2 14 -2 21z" />
<glyph unicode="m" horiz-adv-x="463" d="M5 103v1q3 14 3 29v28l8 87q-1 -6 -2 -15l-2 -18l4 33q4 53 16 134q10 66 24 132q1 5 8 54q6 29 15 49q8 11 18 10q12 -2 16 -15q5 -11 2 -23q-4 -16 -7 -23q-4 -18 -5 -27l-6 -29l-21 -117q-12 -72 -16 -122l-4 -35q-4 -24 -3 -33q1 -3 3 3l3 10l8 25q-3 -11 -3 -9 q0 3 3 9l24 72l-9 -26q3 5 9 26q19 55 47 112q28 53 63 98l15 16q5 5 17 13l9 8l9 2q44 9 52 -47q7 -50 4 -93v-21q-1 -8 -1 -22v-3v-5q3 0 6 11l4 12q5 12 10 18q2 4 5.5 10.5t4.5 8.5q22 40 32 61q15 28 38 58q13 14 17 16q11 6 20 2q21 -16 22 -53q0 -42 -4 -65 q-7 -76 -18 -153l-20 -153q-3 -12 -5 -35q-4 -18 -3 -34q1 -5 4 -17q0 -10 -6 -17q-8 -10 -19 -8q-11 5 -15 16q-5 22 -4 38l3 38q12 92 19 138q7 47 17 138q3 21 5 62q0 -7 -0.5 -12t-0.5 -9.5t0 -3.5q1 5 1 25l3 14q1 7 1 16q-1 0 -5 -3l-5 -6l-9 -15q-2 -6 -8 -16 l-21 -42q-14 -30 -21 -43q-26 -50 -40 -91l-33 -94q-7 -20 -13 -47q-6 -30 -10 -45q-6 -14 -18 -49q-14 -30 -29 -32q-23 6 -18 32q5 22 14 45q26 78 42 152q14 77 18 160q1 15 1 47q0 26 -4 46q0 6 -1 11q0 7 -3 10q-2 0 -10 -6q-9 -9 -10 -11q-16 -15 -29 -35t-23 -38 q-36 -60 -62 -136l-46 -143q-10 -31 -16 -58q-9 -36 -22 -53q-8 -6 -17 -5q-8 1 -16 11q-5 15 -5 31q1 13 1 33z" />
<glyph unicode="n" horiz-adv-x="424" d="M9 34q9 41 11 56l8 57q2 19 6 39q6 26 7 38l3 18q2 5 4 17q3 32 13 89q10 50 14 89q3 20 7 55q4 21 2 53q-3 17 -10 29q-8 14 -6 29q2 12 12 18q11 5 20 0q6 -5 10 -11q4 -11 5 -14q9 -26 11 -41q2 -21 0 -44q-10 -117 -28 -220l13 83q-6 -42 -13 -83l-12 -69l3 26 q0 -7 -3 -26q-2 -8 -4 -14q-2 -10 -2 -14l4 4q1 5 3 7q5 8 6 14l7 13q12 21 21 42q9 19 23 42q31 57 61 102q32 48 74 89l11 9l13 11q17 17 43 28q26 12 45 -3q22 -22 20 -57t-6 -65q-8 -78 -22 -147l-32 -144l-10 -49q-4 -31 -7 -50q-1 -11 -13 -16q-9 -4 -19 0q-7 4 -8 11 q-2 10 -2 16q0 23 4 43l9 42q7 36 20 88q11 53 17 88l9 49q3 23 8 50q3 12 5 34l2 34q1 3 1 16q2 9 -2 13q-5 2 -13 -4q-8 -8 -12 -9q-24 -19 -39 -35q-24 -26 -35 -40q-32 -36 -69 -98q-39 -63 -57 -110q-6 -16 -15 -33q-7 -10 -17 -32q-8 -24 -20 -52q-11 -23 -21 -50 q-5 -9 -6 -18q-3 -7 -9 -17q-17 -19 -30 -11q-13 7 -13 35z" />
<glyph unicode="o" horiz-adv-x="445" d="M11 184l3 30q1 16 6 31q12 41 27 81q13 39 39 74q4 6 5 10t5 10q17 25 31 42q-3 -4 -7 -10l-6 -7v1l13 16q6 8 11 12q8 6 11 11q12 15 28 28q13 12 30 22q15 9 46 26q27 11 49 5l16 -4q8 -3 13 -12q6 -14 0 -27q-5 -14 -16 -15q-7 0 -11 3l-10 5q-3 0 -11 -2q-5 -2 -3 -3 l9 -3q4 0 8 -2l30 -15q5 -3 15 -7.5t14 -6.5q49 -29 68 -93q20 -62 9 -128q-3 -13 -13 -39l-17 -36q-17 -33 -49 -80q6 10 12 19l6 9q-6 -8 -18 -28q-2 -2 -12 -8q-7 -4 -10 -9q-28 -33 -73 -46q-43 -13 -82 -18q-41 -7 -88 10q-48 19 -67 70q-7 19 -9 40q-2 30 -2 44z M55 211l-3 -26q0 -35 10 -68q-1 2 -1 6l-6 19l3 -8q2 -9 4 -17q1 -4 2 -4t5 -4q22 -27 49 -34t58 -1q66 8 109 35q44 25 82 98l15 31q7 14 10 33q7 34 -1 72q-8 36 -27 61q-12 14 -30 26l-33 18q-32 12 -35 13q-23 5 -28 20q0 6 1 9t-1 5q-3 2 -7 -2l-6 -6q-10 -6 -33 -25 q-19 -16 -29 -29q-32 -41 -59 -91q-22 -43 -43 -104q-5 -14 -6 -27z" />
<glyph unicode="p" d="M-3 78q9 26 29 18l39 -14l8 -5l6 -2h2q3 1 3 6q0 4 1 7q6 21 13 50q-2 -6 -3.5 -12l-1.5 -6l5 18l12 47q12 36 16 46q6 16 18 38q10 19 16 38q8 21 17 60q14 47 17 58q7 18 17 41q8 28 13 42q3 16 14 40q9 21 31 20q11 -3 14 -13q4 -9 2 -19q-1 -15 -11 -36 q-8 -15 -15 -34q0 -4 -4 -13q-4 -7 -4 -11q3 -2 4 2l4 6q7 10 16 18l15 15q18 17 39 30q23 14 46 23q14 5 34 7q16 1 36 -2q14 -6 21 -11q8 -8 17 -14q27 -26 51 -59q21 -35 26 -73q4 -30 0 -61l2 24q0 -2 -2 -24q-6 -57 -32 -114q-26 -55 -69 -96l-8 -4l-6 -5 q-3 -3 -23 -19q-14 -13 -24 -16q-21 -8 -38 -18q-13 -7 -39 -17q-31 -12 -68 -15q-35 -5 -67 -3q-10 0 -29 3q-18 0 -25 -5q-5 -9 -6 -22q0 -15 -3 -25q-7 -36 -12 -19q-6 -46 -8 -74v-39q-1 -23 -13 -35q-21 -12 -30 2q-10 14 -11 30q-1 10 0 18l4 19q4 37 5 58q1 17 3 16 t4 -12l2 36q2 26 4 38q0 6 1 10q2 9 1 11t-13 7l-16 4q-17 3 -32 13q-13 10 -15 28zM144 72q4 -9 18 -9h24q56 0 107 13l-40 -7l40 7q89 23 148 91q58 64 70 156q6 42 -4 68q-7 29 -30 60q-10 15 -26 30q-15 14 -34 15q-21 0 -48 -15q-32 -18 -43 -31q-28 -26 -58 -63 q-30 -36 -46 -74q-2 -4 -8 -12q-6 -5 -8 -11q-8 -21 -12 -45q-5 -24 -13 -43q-11 -25 -19 -64q-10 -34 -18 -66z" />
<glyph unicode="q" horiz-adv-x="569" d="M-1 45l-3 20q7 30 12 64q4 32 17 65q39 88 100 160q62 70 132 134q15 12 33 24q13 5 35 19q33 19 60 28q27 10 63 8q7 -1 23 -5l23 -6q4 -4 9 -6q7 -3 9 -3q3 0 10 4q5 5 7 6q13 4 23 0q10 -5 15 -15q5 -15 -3 -29l-12 -27l-33 -71q-22 -46 -32 -69q-22 -50 -45 -92 q-26 -49 -44 -93l-13 -32q-6 -13 -18 -32q-22 -41 -28 -55q-13 -23 -28 -56q-11 -27 -27 -61q-20 -40 -29 -61q-1 -2 -4.5 -9.5t-5.5 -12.5q-6 -11 -8 -25q2 -2 13 7l16 11l57 46q-25 -21 -21 -18l21 18q91 73 180 147l-67 -56l67 56q14 11 36 25q17 13 36 0q21 -21 -7 -48 q-27 -23 -46 -37q-138 -115 -244 -196q39 31 82 64l13 11q-1 -1 -4 -3l-91 -72l-49 -33q-28 -16 -48 -4q-13 11 -12 24q0 12 3 27q5 33 14 57q7 19 23 55q33 76 77 162q27 53 79 161q40 83 49 100l-19 -38l19 38l10 18q5 9 7 20h-1q-2 -2 -2 -3q-4 -2 -9 -9l4 4l-4 -4 q-6 -6 -12 -16q-5 -8 -12 -14q-18 -19 -33 -39q-28 -32 -32 -37l-71 -72l-69 -71q-2 -1 -34 -31q-17 -13 -41 -25q-20 -9 -54 -19q-33 -11 -54 6q-8 8 -8 16zM73 154l-20 -69q6 -6 15 -1q8 1 16 8q26 11 49 28q25 20 43 38l81 88q40 50 78 89q13 12 27 31q13 18 25 30l24 27 q12 15 25 28q4 3 5 8l6 8q6 7 15 15q9 11 10 16q0 8 -24 10q-21 4 -33 2q-11 -2 -20 -6q-6 -4 -20 -10l-45 -22q-23 -12 -41 -30l-23 -20q-18 -14 -24 -20q-62 -63 -110 -132l40 51q-17 -19 -40 -51q-5 -9 -17 -25q-11 -14 -17 -26q-18 -44 -25 -65z" />
<glyph unicode="r" horiz-adv-x="350" d="M-6 53q2 18 2 27q0 19 1 28l4 31l3 30q2 16 4 25l3 25q6 73 21 147q14 69 33 140q6 29 17 70l-7 -26l7 26l3 28q1 16 6 28q5 11 14 11q10 0 14 -13q1 -14 -3 -42l-8 -44l-21 -86q-14 -58 -19 -87q-1 -7 -8 -34q-3 -11 -5 -35l1 2q2 2 2 5l2 6v0v-1q1 2 2 7l6 21l6 20 q14 42 22 61q11 25 26 56q9 20 25 39t30 29q13 8 28 10q14 0 28 3l42 6l41 6q17 5 48 10q-5 -1 -13 -3l-7 -1h1l19 4q5 2 10 0q4 -3 9 -11q8 -33 -13 -41t-34 -8q-13 -3 -39 -7q-19 -1 -39 -6q-33 -3 -56 -10q-24 -6 -50 -44q-32 -55 -56 -137q-25 -87 -41 -154 q-5 -19 -10 -52l-10 -49q-4 -19 -5 -26q-2 -11 -8 -24q-2 -5 -6 -6q-3 -1 -7 0q-10 3 -13 17q-3 15 -2 29z" />
<glyph unicode="s" horiz-adv-x="461" d="M-58 -17q3 14 11 17q7 4 18 6q14 1 36 8q12 4 34 14l98 48l-37 -17q7 2 37 17q24 13 40 24q13 9 41 23q19 12 32 25q26 21 32 25q14 8 30 20q16 13 27 28q6 4 12 10q7 9 8 14q0 4 -7 8q-9 5 -11 6q-24 11 -31 13q-21 4 -34 7q-43 12 -96 14q-51 3 -98 16q-20 6 -39 21 q-19 17 -20 43q1 44 35 82q32 36 67 56q38 22 77 41q45 20 85 17q46 -8 84 -34q35 -24 68 -63q14 -17 6 -35q-8 -17 -28 -14q-12 5 -25 21l-24 27q-15 15 -36 27q-24 11 -42 14q-17 2 -35 -3q-17 -4 -34 -12q-44 -20 -76 -40q-34 -22 -65 -62q-2 -2 -5 -9q-4 -5 -4 -10 q2 -4 8 -6q7 -2 9 -3q14 -6 30 -9q20 -4 31 -5q39 -4 102 -14q53 -6 102 -24q17 -7 37 -23q18 -16 20 -42q-1 -34 -25 -59l-44 -41q-17 -16 -33 -30q-17 -14 -35 -23q-22 -14 -36 -25q-17 -14 -36 -24q-55 -31 -131 -67q18 9 33.5 16.5l15.5 7.5q-10 -4 -49 -24 q-20 -10 -44 -18q-25 -8 -45 -11q-18 -3 -29 2q-12 4 -12 29z" />
<glyph unicode="t" horiz-adv-x="400" d="M-1 433q7 17 24 22q15 7 36 10q59 10 76 14q48 9 68 17q13 8 24 29q8 14 22 33q55 76 136 164q-67 -74 -54 -60q12 16 54 60q19 19 54 26q36 6 48 -21q4 -19 -10 -27q-20 -5 -30 -11q-18 -11 -44 -38q-23 -26 -34 -46q-13 -21 -24 -34q-8 -12 -26 -34l-10 -12 q-6 -7 -6 -13q1 -2 10 -6q7 -2 12 -6q4 -7 4 -15q0 -9 -4 -16q-12 -14 -34 -14q-23 -2 -34 -11q-9 -9 -18 -25q-4 -11 -12 -29q-6 -10 -17.5 -29t-14.5 -24q-17 -27 -30 -54q-9 -14 -16 -35q-2 -5 -16 -36q-18 -36 -26 -55q-11 -26 -16 -59l-6 -20q-6 -16 -4 -21q2 -2 8 0 l10 3q31 7 54 16q-13 -6 -20 -8q8 4 20 8l88 27q39 9 88 28q11 7 28 7q16 0 26 -10q16 -22 -2 -36q-20 -15 -44 -22l-78 -26q-45 -13 -80 -25q-13 -4 -28 -6q-12 -3 -28 -8q-15 -6 -50 -11q-31 -5 -48 8q-20 15 -18 38q1 22 6 42q8 62 36 125q25 61 60 120q6 16 18 38 q11 21 22 37l8 12q6 10 6 13q-6 1 -18 -3l-20 -7q-35 -8 -76 -14q-44 -6 -50 30z" />
<glyph unicode="u" horiz-adv-x="453" d="M17 144q2 10 2 15v14q2 24 8 72l15 71q6 23 13 56l15 58q9 30 19 49q24 40 28 46l10 17q3 6 11 16q14 11 27 1q11 -10 10 -26q-2 -9 -8 -15l-10 -14q-4 -6 -11 -18.5t-9 -16.5q-10 -15 -18 -37q-21 -64 -32 -123q-11 -56 -19 -126q-2 -16 -4 -50q-1 -21 4 -50 q2 -10 5 -15q1 -9 9 -12q5 0 13 5l13 8l34 24q16 11 33 26q40 37 74 80q33 41 63 89q13 15 25 34q16 21 22 36q9 20 18 34l20 32l12 19q7 8 10 19l14 34q8 19 18 29q11 9 21 8q13 -1 19 -14q5 -15 -9 -39l-20 -38q-20 -47 -34 -102q-15 -58 -19 -105q-3 -39 -2 -81 q1 -49 12 -79q11 -15 32 -36q20 -20 2 -39q-17 -12 -39 9q-20 18 -30 37q-18 35 -23 92q-3 51 2 97q3 16 5 24q2 21 1 25l-8 -8l-7 -12l-32 -47q15 23 12 18l-12 -18q-20 -33 -48 -64q-23 -29 -55 -60q-29 -26 -53 -42q-28 -19 -59 -33q-10 -6 -23 -8q-12 -3 -25 2 q-28 17 -35 60q-8 46 -7 72z" />
<glyph unicode="v" horiz-adv-x="418" d="M65 241q-1 10 -7 28l-9 28l-9 47q-5 25 -12 47q-12 40 -21 83q-7 27 -17 81q-3 18 9 28q10 10 28 2q9 -4 12 -14l4 -17l6 -35q2 -15 8 -35q19 -63 40 -151q16 -75 39 -151l14 -48q3 -9 8.5 -24.5t7.5 -21.5l10 -16q4 -9 14 -6q5 1 9 7l9 12q11 14 21 32q8 19 18 35 q15 26 28 60l26 63q36 81 62 158l-21 -61q7 17 21 61l20 66q-1 -3 -3 -8l-5 -19l1 1l7 26l4 10q0 8 4 12q9 7 20 9q14 2 20 -8q7 -10 6 -21q-1 -12 -6 -24l-17 -53q-9 -29 -19 -50q-10 -20 -14 -37q-5 -22 -12 -38q-28 -55 -48 -112q-23 -59 -55 -108q-18 -31 -46 -51 q-25 -22 -62 -6q-12 4 -21 15l8 -7h-1l-7 7q-12 14 -20 36q-3 7 -7.5 20t-6.5 18q-13 34 -21 65q-6 27 -17 65z" />
<glyph unicode="w" horiz-adv-x="481" d="M13 160q4 17 4 41l2 41q4 55 15 109q12 55 32 106q4 11 18 34q12 23 21 30q12 5 21 4q12 -1 16 -13q1 -8 -2 -16q-5 -6 -6 -13q-4 -9 -9 -15l-9 -16l-19 -44l8 17q-4 -6 -8 -17q-5 -14 -10 -39q-6 -29 -7 -39q-1 -15 -7 -45q-3 -17 -7 -44q-2 -26 -2 -38l-3 -37 q-1 -11 -1 -35v-35q0 -10 -1 -16q0 -6 2 -16q2 0 8 6l8 7l24 25q-12 -12 -9 -9q2 3 9 9l9 14q3 8 10 15q10 11 18 24q10 18 16 27l72 111q-33 -53 -27 -42l27 42l21 33q12 19 31 19q23 -8 19 -33l-6 -43q-7 -45 -9 -81q-3 -38 9 -83q1 -14 9 -31q7 -19 21 -25q8 -2 13 8 t9 14q13 15 24 36l19 40l17 42.5l15 37.5l-11 -30q1 5 11 30q2 3 4 11q0 7 2 13q7 12 8 21q3 8 5 22q5 46 12 93l-5 -35q0 1 1.5 13t3.5 22l3 52l4 52v29q0 18 7 28q8 11 24 8q15 -3 19 -16q2 -8 0 -18l-3 -18l-3 -49q0 -25 -3 -48q-3 -24 -5 -68t-5 -67q0 -17 1 -26 q0 -13 -5 -25q-5 -5 -13 -7q-5 -2 -11 -8q-15 -42 -17 -49q-8 -23 -21 -47q-15 -24 -30 -53q-13 -27 -38 -46q-14 -10 -27 -11q-12 -3 -26 6q-8 4 -11 7q-5 1 -9 6q-23 26 -34 64q-8 31 -13 71q-1 8 -1 25q0 16 1 23l3 10q1 5 1 11q-1 1 -1 0q-1 0 -3 -2q-5 -5 -6 -9l-6 -10 q-10 -16 -14 -25q-12 -17 -16 -24q-30 -46 -34 -52q-19 -27 -40 -48l-16 -20q-10 -10 -21 -14q-57 -19 -65 40q-6 61 -2 101z" />
<glyph unicode="x" horiz-adv-x="430" d="M-3 190q3 15 14 23l19 16q26 29 47 48q28 27 51 44q14 13 31 25q-13 -12 -12 -9l12 9l6 5q5 3 6 6q0 5 -6 22q-3 9 -8 23q-12 34 -17 51q-9 31 -14 53q-6 18 -7 30q-1 18 13 25q16 3 23 -10q5 -12 10 -29q6 -16 16 -48l15 -48l6 -21q5 -15 8 -16q2 0 5 5q2 2 5 4l2 1 l35 28l-13 -10l13 10l65 57l65 57q12 10 17 17q7 10 17 13q12 3 19 -6q8 -8 8 -23q-1 -16 -15 -28q-17 -12 -25 -20q-12 -15 -28 -28q-16 -10 -30 -24q-2 -2 -16.5 -13.5t-21.5 -18.5l-38 -34l-14 -13q-8 -6 -17 -12q-7 -3 -9 -5q-6 -2 -8 -8q-2 -8 9 -30l13 -31 q26 -64 41 -96l45 -91q13 -19 23 -43q13 -27 -6 -43q-19 -9 -32 16q-14 25 -21 43q-35 67 -41 80q-13 27 -37 83q-5 12 -10 26l-11 28l-4 12q-3 9 -5 11q-2 3 -7 0l-6 -5q-20 -16 -30 -25q2 2 4.5 4t4 3t2.5 2l1 1q-6 -4 -12 -10l-34 -29q-17 -15 -32 -32l-8 -8q-3 -1 -9 -7 l-17 -19q-11 -12 -19 -16q-14 -8 -22 2q-9 10 -9 26z" />
<glyph unicode="y" horiz-adv-x="507" d="M-32 -167q3 13 12 21q9 7 22 5q12 -4 23 -12q6 -4 23 -11q45 -20 99 -15q56 4 92 41q35 44 54 110q-25 -147 -21 -90q2 12 6 24q3 9 5 25q7 58 24 115l30 113q1 5 13 61q8 40 17 61l6 19q5 15 5 19q-3 2 -5 -3q0 -1 -5 -8l-11 -13q-5 -10 -9 -14q-11 -14 -24 -32 q-16 -20 -25 -29q-39 -42 -78 -87q-41 -49 -86 -82q-19 -13 -42 -24t-44 -3q-30 16 -36 57q-6 39 -1 72l3 58q0 39 1 59l14 93q11 66 14 92q0 9 3 15l6 15q3 23 11 56q7 30 35 26q24 -10 20 -40q-5 -31 -12 -50q-16 -76 -23 -142l-14 -143q-3 -21 -3 -43q-1 -15 1 -43v-13 q2 -6 5 -8q9 0 13 6q5 3 11 9q20 13 36 29q17 17 30 34q53 56 109 118l-41 -47q3 4 8.5 10.5t15 17t17.5 19.5q12 12 24 29q10 16 23 32q16 15 34 39q27 37 31 43q7 13 15 23q9 12 19 22l15 24q7 15 15 26q10 9 23 8q13 0 21 -9q10 -14 6 -33l-13 -30q-22 -62 -35 -93v1l1 1 v1l1 2l11 29q-1 -5 -13 -34l-11 -35q-2 -8 -6 -21t-4 -15q-11 -31 -17 -62q-5 -37 -16 -65q-11 -34 -22 -77l-15 -76q-10 -40 -17 -61q-8 -32 -12 -61q-5 -61 7 8q3 19 8 50q-23 -79 -73 -133q-45 -45 -112 -52q-69 -10 -122 14l-45 18q-23 10 -25 39z" />
<glyph unicode="z" horiz-adv-x="405" d="M-69 30q10 34 47 59q34 24 63 48q17 16 35 28q24 18 36 28l101 88q47 42 95 94l39 41q20 23 27 47q0 17 -29 25q-28 7 -44 9q-49 10 -106 -2q-53 -10 -100 -32q-14 -6 -27 -2q-14 5 -17 20q1 24 34 38q27 12 56 17q54 15 112 18q55 3 110 -15q22 -8 39 -19q19 -12 25 -34 q8 -42 -25 -85q-27 -36 -61 -70l-100 -99l38 37q-5 -5 -38 -37q-20 -19 -49 -41q-26 -19 -48 -42q-20 -19 -46 -37q-30 -22 -45 -35q-8 -8 -13 -11q-8 -5 -12 -10q-2 -2 3 0h9q7 1 23 5l-9 -2l2 1q1 0 3 0.5t4 0.5l63 8l-23 -3l23 3q35 4 103 14q46 5 103 7q24 0 38 -1 q20 -1 22 -25q-3 -29 -43 -30q-26 -1 -63 -1q-59 -4 -132 -14q-49 -8 -133 -19q-25 -4 -53 -3q-28 3 -37 33z" />
<glyph unicode="&#x2000;" horiz-adv-x="425" />
<glyph unicode="&#x2001;" horiz-adv-x="850" />
<glyph unicode="&#x2002;" horiz-adv-x="425" />
<glyph unicode="&#x2003;" horiz-adv-x="850" />
<glyph unicode="&#x2004;" horiz-adv-x="283" />
<glyph unicode="&#x2005;" horiz-adv-x="212" />
<glyph unicode="&#x2006;" horiz-adv-x="141" />
<glyph unicode="&#x2007;" horiz-adv-x="141" />
<glyph unicode="&#x2008;" horiz-adv-x="106" />
<glyph unicode="&#x2009;" horiz-adv-x="170" />
<glyph unicode="&#x200a;" horiz-adv-x="47" />
<glyph unicode="&#x201c;" horiz-adv-x="364" d="M22 621q11 39 31 70q26 36 50 59q4 6 18 14q12 8 21 9q10 1 16 -5q5 -7 4 -17q-3 -10 -15 -16q-14 -8 -19 -12q-11 -10 -18 -19q-7 -11 -17 -20q-10 -12 -17 -24l-14 -26l-4 -17q-2 -9 -9 -13q-11 -5 -18 1q-7 4 -9 16zM230 649q1 5 1 14q0 10 1 15q1 18 8 38q6 18 19 34 l18 17q11 10 21 11q11 2 16 -5q6 -8 5 -17q-2 -8 -17 -19q-14 -10 -22 -21q-8 -17 -10 -36l-3 -38q-4 -10 -15 -13t-19 6q-1 1 -1 3l-1 4q-1 3 -1 7z" />
<glyph unicode="&#x201d;" horiz-adv-x="257" d="M-11 628q1 7 8 15q9 9 12 13q7 8 19 26q10 16 15 28l2 8q2 5 0 8q-4 7 -12 13q-7 7 0 20q7 8 14 7q7 0 15 -5q11 -8 16 -19q5 -12 4 -24q-5 -28 -20 -51q-16 -24 -33 -45q-12 -14 -24 -14q-11 0 -16 20zM150 604q2 9 6 16l7 14l15 35l15 35q4 12 4 30t6 28q8 9 19 8 q11 -2 15 -13q2 -12 -1 -25l-5 -25q-6 -22 -19 -56q-10 -24 -26 -54q-10 -15 -21 -12q-11 5 -15 19z" />
<glyph unicode="&#x202f;" horiz-adv-x="170" />
<glyph unicode="&#x205f;" horiz-adv-x="212" />
<glyph unicode="&#x25fc;" horiz-adv-x="570" d="M0 570h570v-570h-570v570z" />
</font>
</defs>
</svg>
