<?xml version="1.0" standalone="no"?>
<!DOCTYPE svg PUBLIC "-//W3C//DTD SVG 1.1//EN" "http://www.w3.org/Graphics/SVG/1.1/DTD/svg11.dtd" >
<svg xmlns="http://www.w3.org/2000/svg" xmlns:xlink="http://www.w3.org/1999/xlink" version="1.1">
<metadata></metadata>
<defs>
<font id="vibersheavy" horiz-adv-x="450" >
<font-face units-per-em="1000" ascent="750" descent="-250" />
<missing-glyph horiz-adv-x="350" />
<glyph horiz-adv-x="0" />
<glyph unicode="&#xd;" horiz-adv-x="333" />
<glyph unicode=" "  horiz-adv-x="350" />
<glyph unicode="&#x09;" horiz-adv-x="350" />
<glyph unicode="&#xa0;" horiz-adv-x="350" />
<glyph unicode="!" horiz-adv-x="240" d="M14 50q-3 29 -2 20q2 -10 14 0q7 9 5 17t8 15q19 12 59 18q39 5 63 4q12 1 27 1q14 1 25 -7q18 -22 14 -60q-3 -40 -29 -53q-38 -11 -98 3q-60 15 -86 42zM63 226q14 82 18 184t3 188q-2 29 -8 72t0 69q9 11 47 11t52 -5q8 -4 8 -14v-16q0 -22 2 -44q3 -21 4 -43 q3 -80 -4 -159q-5 -79 -8 -159q0 -22 1 -55q2 -33 -10 -51q-11 -6 -51 -4t-50 9q-3 4 -3 8q-1 5 -1 9z" />
<glyph unicode="&#x22;" horiz-adv-x="319" d="M22 724v6t3 5q5 1 39 0t41 -3q5 -2 7 -7t5 -9q21 -28 17 -66q-3 -38 -12 -70q-3 -11 -7 -27q-3 -15 -13 -23q-11 -4 -43 -1t-37 14q0 10 7 25q7 16 11 26q12 37 7 68q-4 31 -25 62zM160 724v6t3 5q5 1 39 0t41 -3q5 -2 7 -7t5 -9q21 -28 17 -66q-3 -38 -12 -70 q-3 -11 -7 -27q-3 -15 -13 -23q-11 -4 -43 -1t-37 14q0 10 7 25q7 16 11 26q12 37 7 68q-4 31 -25 62z" />
<glyph unicode="#" horiz-adv-x="521" d="M-17 339q4 14 17 12q13 -1 27 -1q17 1 56 2q38 0 50 4q7 5 10 24q4 19 6 29q12 46 17 93q-7 -44 -5 -35t5 35q1 6 2 17q2 12 7 16q10 4 26 2q16 -3 26 -5q8 0 15 2q8 2 13 -2q1 -3 -2 -21q-4 -18 -5 -25q-10 -47 -17 -94q8 44 6 36q-2 -9 -6 -36q-1 -6 -5 -16 q-5 -10 -5 -15q4 -7 29 -7t34 2q12 2 15 13l4 22q7 26 13 52q6 25 9 51q1 3 0 14q0 11 1 13q8 8 44 5q35 -3 41 -5q2 -6 0 -13q-2 -6 -3 -12q-1 -24 -5 -48q-5 -24 -11 -47q-2 -6 -7 -23q-6 -16 -4 -21q2 -1 13 -1q11 -1 13 0q34 0 67 -3q-31 2 -25 2t25 -2q7 0 14 2 q8 2 13 -2q3 -3 3 -6q0 -4 -2 -7q-3 -4 -12 -4h-12q-22 1 -47 1q-25 1 -47 -4q-12 -6 -18 -38t-7 -47q-2 -8 -8 -30t-6 -26q4 -3 17 -2q14 2 19 3q23 2 44 3q22 0 45 -1h12q10 -1 13 -3q7 -10 -10 -14q-17 -5 -22 -5q-43 -5 -86 -11q40 6 32 4l-32 -4h-20q-13 0 -19 -3 q-4 -2 -4 -11q-1 -8 -2 -11q-2 -10 -9 -40q-8 -31 -11 -36q-10 -5 -26 -3q-16 3 -26 5q-7 0 -14 -2q-8 -1 -14 2q-5 6 2 31q6 25 9 35q1 5 4 11q2 6 -1 8q-5 2 -18 -1q-12 -3 -18 -4q-10 -1 -26 -1q-17 -1 -24 -5q-6 -8 -12 -41q-6 -34 -13 -45q-8 -3 -42 0t-41 10 q-1 9 7 29t7 26q-10 6 -32 2q-22 -5 -15 15q8 13 28 15t31 9q5 4 7 15q2 10 3 17q6 24 14 48q7 24 13 49q2 6 8 23q5 17 3 21q-4 3 -19 2q-16 -1 -22 -1q-21 -1 -53 -1t-49 9zM171 176q10 -5 41 -3q31 1 42 6q4 3 5 10q0 6 1 12q7 34 16 67q-8 -31 -7 -25q2 6 7 25 q2 10 8 35t1 30q-10 4 -38 4q-28 -1 -35 -8q-15 -36 -19 -78q-3 -42 -22 -75z" />
<glyph unicode="$" horiz-adv-x="611" d="M-8 168q1 17 0 42q-2 25 6 41q7 7 24 5l27 -3q2 0 14 -1t14 -2q3 -2 5 -12q3 -10 3 -13q5 -20 9 -41q5 -20 14 -39q29 -50 75 -79q47 -28 97 -53q24 -13 52 -17q29 -5 53 12q45 38 37 84q-9 46 -52 79q-38 28 -82 52q-43 23 -86 42q-42 17 -82 38q-41 21 -71 55 q-26 32 -38 73q-11 41 -12 82q-1 57 27 106t84 68q30 8 61 7q31 -2 62 1q36 6 68 10q33 5 69 -1q41 -7 78 -29q-36 17 -28 15q7 -3 28 -15q4 -3 16 -13q13 -11 17 -11q6 5 1 31t-2 37q6 5 38 6t41 -2q9 -8 9 -25q-1 -18 -1 -29q2 -31 9 -61q8 -30 17 -60q3 -9 5 -20 q1 -10 -11 -14q-12 -3 -35 0t-35 7q-13 6 -25 21q-13 16 -23 27q-25 28 -52 56q-28 28 -61 45q-32 12 -79 -12q-46 -24 -58 -57q-3 -19 0 -37q12 -5 24 -11q8 -7 13 -16t12 -16q28 -2 50 -13t43 -23q84 -49 151 -121q68 -72 83 -171q4 -27 5 -55t-12 -53q-52 -86 -154 -110 q-56 -13 -109 -9q-43 3 -83 16q-32 11 -64 27q-31 15 -61 32q-6 3 -11 8q-6 4 -12 7q-18 5 -12 -20q6 -24 3 -34q-7 -5 -39 -4q-32 2 -42 7q-7 6 -8 18t-1 20q-3 62 -3 125q0 -59 0 -47v47zM166 541l11 -9l-11 9q22 -17 0 0zM204 778q-2 -6 18 -4.5t45 6.5q29 5 67 14 l-10 -84l-125 -10q0 7 1 16q1 7 1 16t1 17q0 6 1 13.5t2 13t1 7t-2 -4.5zM219 -10q0 2 17.5 0t39.5 -6l58 -10l-5 -73l-110 -37v126z" />
<glyph unicode="%" horiz-adv-x="640" d="M6 12l513 725q13 4 27 6q12 2 25.5 -0.5t27.5 -10.5q7 -4 -12 -38.5t-54 -87.5t-82 -119t-97.5 -134t-100 -132.5t-89.5 -114.5t-66 -79t-29 -27q-7 5 -17 6.5t-21 3.5q-12 1 -25 2zM104 521q0 -20 8 -37t22 -30t33 -20.5t40 -7.5t40 7.5t33.5 20.5t22.5 30t8 37 q0 19 -8 36.5t-22.5 30.5t-33.5 20.5t-40 7.5t-40 -7.5t-33 -20.5t-22 -30.5t-8 -36.5zM409 190q0 -20 8 -38t21.5 -31.5t32 -21t39.5 -7.5t39.5 7.5t32 21t21.5 31.5t8 38t-8 38t-21.5 31.5t-32 21t-39.5 7.5t-39.5 -7.5t-32 -21t-21.5 -31.5t-8 -38z" />
<glyph unicode="&#x26;" horiz-adv-x="460" d="M-3 123q10 41 27 73q18 31 47 60q9 8 30 21q20 14 25 21q1 3 -5 11t-8 11q-20 30 -33 63q13 -30 10 -24q-2 6 -10 24q-4 9 -3 11t3 11q3 47 14 81q10 34 44 68q12 10 35 8q24 -2 39 -5q10 -1 21 0q10 1 21 0q31 -5 52 -29q22 -24 33 -51q12 -30 6 -69q-5 -39 -28 -64 q-14 -13 -32 -23q-17 -10 -34 -21q-5 -2 -11 -3q-5 -1 -9 -5q-1 -3 0 -6q2 -3 3 -5q13 -16 34 -37q21 -20 30 -38q1 -3 7 -13q6 -11 9 -12q2 2 6 15q4 12 5 16q3 11 11 39q7 28 12 35q9 8 30 5q22 -3 33 -5q5 0 11 1q7 1 8 -3q3 -17 -11 -59t-22 -60q-10 -23 -25 -44 q13 20 11 16q-3 -5 -11 -16q-1 -2 -3 -4t-2 -5q1 -3 10 -10q9 -6 12 -9q37 -39 75 -77q-35 36 -28 29q6 -8 28 -29q6 -6 14 -15q8 -8 8 -19q-4 -11 -19 -9q-16 2 -25 4q-9 0 -20 -1t-19 4q-7 6 -25 27t-28 31q-6 7 -16 19q-10 13 -20 14q-5 -1 -13 -6q-9 -5 -14 -8 q-10 -4 -23 -5q-14 -2 -24 -3q-14 -2 -28 -1t-27 1q-53 -4 -118 4q-64 8 -70 70zM80 115q14 -44 60 -45q46 -2 83 15q8 3 27 16t20 20q-2 5 -18 21q-15 16 -21 23q-18 28 -38 58q19 -28 15 -22q-4 5 -15 22q-3 6 -10 15q-7 10 -15 10q-10 -3 -16 -12t-12 -16 q-23 -23 -38 -48q-14 -25 -22 -57zM162 427q0 -20 4 -35t13 -32q2 -6 7 -14q4 -9 11 -10q23 3 44 36q20 32 21 54q0 23 -9 43q-8 20 -22 39q-3 5 -9 11t-13 2q-17 -12 -29 -43q-13 -31 -18 -51z" />
<glyph unicode="'" horiz-adv-x="192" d="M22 724v6t3 5q5 1 39 0t41 -3q5 -2 7 -7t5 -9q21 -28 17 -66q-3 -38 -12 -70q-3 -11 -7 -27q-3 -15 -13 -23q-11 -4 -43 -1t-37 14q0 10 7 25q7 16 11 26q12 37 7 68q-4 31 -25 62z" />
<glyph unicode="(" horiz-adv-x="276" d="M13 359q0 70 18 149q18 80 55 139q19 26 50 33q32 7 61 3q7 0 20 1t17 -6q3 -6 -2 -10q-4 -4 -9 -6q-19 -9 -36 -18q-18 -9 -27 -30q-21 -48 -38 -98q-17 -51 -23 -104q-7 -72 12 -147q18 -75 47 -141q8 -18 16 -38t19 -37q4 -6 11 -13q6 -7 3 -15q-5 -6 -17 -4 q-12 1 -18 2q-31 1 -44 5q-14 4 -29 33q-21 38 -45 106q-24 69 -29 111q-3 21 -5 43t-7 42z" />
<glyph unicode=")" horiz-adv-x="348" d="M39 11q105 73 161 195t43 252q-5 53 -23 106t-54 93q-11 9 -38 26q-28 17 -32 25q0 3 1 6q0 3 2 5q7 1 39 0q32 -2 42 -3q5 -2 12 -7q7 -6 13 -10q37 -24 58 -54q22 -29 39 -70q44 -115 18 -261q-27 -145 -107 -238q-17 -19 -45 -48q-29 -28 -52 -36q-9 -2 -13 0l-12 3 q-17 0 -34 -2q-17 -1 -18 18z" />
<glyph unicode="*" horiz-adv-x="500" d="M7 594q11 16 41 17q29 2 47 -6q4 -2 11 -9q7 -6 10 -9q9 -10 22 -17q13 -8 24 4q14 18 20 51t5 57q-1 11 -5 27q-4 17 4 26q12 7 41 7q30 -1 41 -10q7 -14 4 -53q-3 -40 -7 -57q-2 -5 -6 -19q-5 -15 3 -18q5 2 30 14q25 13 32 17q28 15 57 26t61 11q8 0 22 1q13 1 20 -4 q8 -13 -8 -23q-17 -9 -26 -12q-32 -14 -63 -30q-31 -17 -64 -27q-8 -2 -21 -3q-14 -1 -20 -6q-4 -7 0 -14q5 -7 8 -10q23 -35 43 -73q-20 35 -16 28q5 -7 16 -28q4 -6 9 -17q5 -10 -4 -17q-4 -1 -14 -2h-14q-30 -1 -46 8q-17 10 -30 37q-3 6 -13 25q-10 20 -12 22 q-6 -1 -9 -9q-3 -7 -8 -13q-12 -14 -27 -32q-15 -17 -34 -24q-6 -2 -13 -2h-14h-28q13 0 11 0h-11q-3 0 -13 1q-9 1 -12 6q0 4 5 13q6 8 9 11q27 31 57 60q-28 -27 -22 -22l22 22q3 2 10 10q8 7 9 11q-2 9 -27 10q-26 2 -36 2q-20 4 -38 17q-17 13 -33 25z" />
<glyph unicode="+" horiz-adv-x="475" d="M196 116l-4 379l70 -5l4 -379zM38 333h379v-70h-379v70z" />
<glyph unicode="," horiz-adv-x="290" d="M0 90q0 17 2 35t12 33q23 29 74 33t85 -7q12 -5 12 -7q-1 -1 11 -7q27 -10 52 -20q26 -9 34 -41q8 -54 -23 -122q-30 -69 -77 -97q-19 -10 -40 -10t-42 1h-14q-11 1 -13 3q-5 8 7 17t17 12q20 12 50 41q30 28 34 50q-2 15 -24 16q-23 0 -36 -1q-42 -2 -74 14t-47 57z M116 52q27 -6 28 -4q2 3 -28 4z" />
<glyph unicode="-" d="M25 423h379v-70h-379v70z" />
<glyph unicode="." horiz-adv-x="268" d="M-3 104q24 60 69 74t102 6q23 -1 49 -4q26 -4 40 -25q8 -17 6 -41q-2 -23 -6 -42q-12 -50 -59 -60q-46 -11 -89 -7h-28q-15 1 -26 10q-7 8 -10 18q-2 11 -8 20q-13 14 -25 21q-12 8 -15 30z" />
<glyph unicode="/" horiz-adv-x="454" d="M7 28q110 165 187 343q-80 -164 -62 -133q18 33 62 133q28 70 50 144q20 73 51 142q22 49 44 58q21 8 74 0q10 0 22 3t19 -3q3 -6 -4 -22q-9 -18 -12 -22q-16 -25 -28 -56q-13 -31 -21 -59q-41 -143 -104 -281q-65 -140 -149 -263q-10 -6 -61 -6q-52 0 -64 6q-3 3 -3 7 q0 5 -1 9z" />
<glyph unicode="0" horiz-adv-x="442" d="M13 263q7 28 5 58q0 31 3 59q5 48 19 92q16 43 34 86q7 19 14 37q8 19 22 35q17 15 41 28q24 14 33 21q2 4 2 7q0 4 2 7q8 8 22 5t23 -5q40 -1 58 -5t35 -44q45 -100 73 -211q30 -112 20 -223q-8 -65 -44 -119t-95 -80q-22 -9 -47 -6q-25 1 -49 2q-28 0 -66 7 q-39 5 -58 29q-30 46 -39 106q-9 58 -8 114zM124 334q-3 -59 3 -151q5 -92 50 -136q14 -8 34 8q21 14 30 27q8 10 18 18t18 18q14 22 23 51q9 30 12 57q7 78 -13 154q-19 75 -40 150q-5 20 -17 50q-11 31 -19 31q-13 -8 -24 -30t-16 -37q-22 -52 -35 -103q-11 -53 -24 -107z " />
<glyph unicode="1" horiz-adv-x="393" d="M-3 519q33 31 77 44t82 36q14 10 26 23t21 27q4 9 8 20q4 10 12 16q9 2 43 1q34 -2 41 -4q2 -3 2 -14v-13q-1 -41 -6 -82q4 39 3 31t-3 -31q-13 -124 -24 -248q10 116 8 93q-1 -23 -8 -93q-3 -21 -8 -49q-5 -27 -1 -47q10 -39 7 -11t4 -14q6 -36 4 -76q-2 -39 -1 -76v-14 q0 -9 -1 -13q-1 -3 -6 -13q-5 -9 -5 -13q4 -5 13 -4t13 2q17 0 35 -2q17 -3 34 -4h13q10 -1 5 -12q-8 -9 -33 -7q-24 2 -36 4q-52 3 -103 6q-51 2 -103 13q-13 2 -43 6q-30 5 -34 15q1 12 21 11q19 -1 27 4q3 4 3 14q0 9 -1 13q0 21 -2 42t-1 41q3 66 8 131q6 65 7 131 q1 21 2 50q0 29 -11 47q-14 13 -41 7q-28 -5 -48 12zM154 543q5 -5 9 -10q-4 5 -3 4t3 -4q11 -11 9 -3t-18 13zM176 13q26 -9 0 0l13 -5z" />
<glyph unicode="2" horiz-adv-x="582" d="M1 38q18 57 57 108q38 50 87 85q32 22 67 41q34 19 62 47q45 53 39 125t-22 136q-4 26 -17 56q-13 32 -43 35q-29 -3 -48 -30q-19 -25 -28 -50q-5 -8 -9 -16q-5 -12 4 -18q9 -5 26 -4q15 0 25 -1q25 -3 42 -18q16 -12 29 -32q4 -6 8 -11q5 -4 6 -11q-1 -6 -8 -18 q-6 -9 -10 -16q-24 -44 -58 -60t-81 -15q-15 -1 -34 0q-18 0 -28 12q-9 15 -11 38q-1 20 -1 38q-1 21 2 39q2 17 8 36q9 43 19 83q8 40 50 65q33 17 75 16q41 -1 78 -10q21 -3 45 -3t43 -9q33 -17 67 -60q34 -42 50 -76q8 -20 8 -38t-3 -39q-12 -61 -40 -93q-31 -31 -81 -65 q-18 -13 -34 -30q-18 -15 -37 -25q-13 -5 -25 -6q-11 -2 -24 -7q-23 -12 -43 -29q-21 -18 -38 -35q-5 -3 -16 -14t-10 -15q3 -1 13 2q12 2 14 3q19 8 42 16q22 8 43 11q34 4 72 0t67 -21q16 -11 37 -29q21 -17 39 -19q15 2 15 12t7 18q13 8 37 2q24 -7 28 -23q1 -16 -6 -31 q-5 -15 -11 -31q-6 -18 -8 -38q-3 -21 -13 -36q-18 -22 -45 -23t-51 5q-22 4 -45 6q-22 2 -43 11q-23 13 -58 33t-60 20q-36 -6 -10 -5q28 0 -15 -3q-15 -1 -31 2q-16 2 -32 2q-19 -1 -40 -3q-19 -3 -37 -4t-33 -1q-16 1 -24 18zM194 60q12 -4 36 -9q26 -5 30 3q-2 10 -29 8 q-25 -1 -37 -2z" />
<glyph unicode="3" horiz-adv-x="568" d="M21 115q7 26 4 14q-2 -11 3 -7q11 18 8 40q-2 22 9 40q10 12 24 12t28 -2q38 -1 66 -15q27 -14 40 -54q7 -27 -9 -44t-42 -22q-6 -1 -20 -3q-14 -3 -15 -11q3 -8 15 -14q12 -7 20 -10q45 -21 77 -5q33 16 60 57q35 50 31 119t-59 105q-9 4 -20 3q-10 -1 -19 4 q-11 10 -4 10q6 0 -10 4q-4 1 -13 2q-10 1 -13 6q-2 7 5 12t11 7q18 10 37 21q18 11 32 26q48 58 44 120t-50 118q-7 8 -13 16q-6 9 -15 15q-10 6 -34 6q-23 1 -21 -15q15 -27 53 -55q37 -27 16 -68q-22 -30 -63 -39q-42 -9 -77 -7q-10 -1 -28 -1q-19 -1 -25 7q-8 16 7 13 t14 7q-4 7 -16 17q-13 10 -18 25q-12 63 24 103q37 40 99 43q19 -1 42 -6t41 -1q11 5 10 9q-2 4 8 10q12 5 34 2q22 -2 35 -7q10 -5 16 -13t14 -14q65 -39 125 -91q59 -51 15 -135q-17 -27 -40 -48q-23 -22 -49 -39q-11 -6 -25 -13q-15 -7 -22 -16q-2 -7 16 -10t25 -5 q23 -6 44 -20q22 -13 37 -32q37 -49 39 -117q3 -67 -44 -112q-37 -28 -83 -34q-46 -5 -90 -8q-17 -2 -33 -8t-34 -8q-48 -5 -119 7q-70 13 -99 55q-7 13 -7 26q0 14 1 28zM372 624q17 -22 23 -22q7 1 -23 22z" />
<glyph unicode="4" horiz-adv-x="582" d="M-6 253q58 86 118 171q61 85 116 173q16 30 37 69t56 43q18 0 35 -4q17 -5 34 -7h14q7 0 11 -7q2 -9 -3 -20q-5 -12 -6 -21q1 -10 7 -19q5 -10 9 -19q6 -30 6 -62v-63q1 -48 -1 -97q1 46 1 37q1 -10 -1 -37q-2 -20 -5 -42q-4 -21 1 -41q1 -7 5 -12q-3 5 -3 4q0 -2 3 -4 q4 -2 14 -1q10 0 15 1q20 0 41 -1q20 -2 41 -2q6 1 21 0q16 0 7 -14q-6 -6 -20 -4q-13 1 -21 1q-22 1 -49 3q-27 3 -49 -3q-11 -5 -11 -21q1 -16 2 -27q0 -45 -5 -91q-5 -45 -3 -90q0 -3 1 -6q0 -3 3 -5q4 -2 14 1q9 3 14 4q33 7 68 6q-33 0 -26 0h26q7 0 21 -2q14 -1 17 -9 q0 -7 -8 -11q-9 -3 -13 -4q-17 -4 -34 -7l-34 -6q-51 -11 -103 -15t-104 -4q-15 -1 -35 -1q-21 0 -34 8q-7 6 -6 11q2 5 11 7q10 2 27 -3t24 5q4 10 2 27t-2 29q-1 69 0 138q-1 -65 -1 -52t1 52q1 10 3 29q3 19 -2 27q-8 5 -26 0q-19 -6 -28 -8q-34 -8 -67 -17 q-32 -8 -68 -7q-18 0 -35 1q-16 0 -23 19zM107 281q25 2 49 7t48 7q10 0 22 -1q11 0 16 11q5 17 3 48q-2 30 -1 51q2 18 5 35q2 18 2 36q0 3 1 8q1 4 -2 6q-3 -2 -17 -20q-13 -17 -17 -23q-25 -38 -52 -87t-57 -78z" />
<glyph unicode="5" horiz-adv-x="558" d="M21 156q3 15 5 32q1 16 8 31q19 36 62 37t78 0q20 0 46 -1q25 -2 35 -24q9 -36 -21 -84q-31 -48 -63 -65q-9 -3 -26 -4q-17 -2 -23 -8q-2 -1 -1 -3q2 -3 3 -5q7 -9 19 -16q12 -6 23 -12q26 -17 59 -26q32 -9 62 9q26 15 11 17q-14 2 -5 38q25 65 28 118q4 53 -18 119 q-3 18 -5 38q-1 21 -16 34q-9 6 -21 15q-13 9 -23 10q-31 0 -59 -25t-53 -33q-19 -4 -53 1q-34 4 -36 23l4 64q3 33 8 64q3 19 8 37q4 19 6 38q0 14 -3 47q-3 34 2 42q12 7 48 5q37 -3 54 -4q45 -1 89 0q46 0 90 7q22 4 44 11q20 8 41 13q14 3 47 3t41 -8q5 -18 -14 -54 q-18 -36 -30 -51q-47 -50 -114 -69q-67 -20 -133 -18q-15 0 -48 4q-32 3 -41 3q-10 -7 -13 -34t-3 -39q-1 -4 -1 -12q1 -7 7 -10q9 -1 39 11q30 11 47 14q35 2 82 -5t81 -17q77 -31 118 -121q40 -91 14 -169q-7 -18 -19 -33q-12 -14 -27 -28q-63 -59 -138 -74 q-76 -14 -159 6q-37 8 -74 24q-38 16 -58 49q-10 20 -11 43q-1 22 0 45zM144 578q6 -25 0 0l3 -12zM147 647v-28q0 13 0 11v-11v-13q0 6 0 5v-5q-1 -8 0 -14q0 6 -1 5q0 -2 1 -5q2 -5 6 20q5 24 5 30q-2 2 -5 3z" />
<glyph unicode="6" horiz-adv-x="486" d="M3 134q27 43 29 93q0 49 -2 99q-3 78 14 163q16 85 72 146q57 53 128 66q70 14 142 13q16 0 59 -4q42 -4 47 -15q-1 -17 -15 -18q-13 0 -26 2q-39 4 -73 0q-35 -4 -71 -19q-81 -38 -128 -126q-44 -88 -36 -178q4 -18 26 -4q22 13 41 19q33 4 80 4q46 0 77 -9 q75 -26 87 -123q12 -98 -15 -162q-5 -10 -8 -10q-2 0 -11 -8q-5 -6 -11 -16q-8 -9 -14 -13q-55 -33 -142 -29t-144 29q-29 13 -39 35t-23 36q-15 11 -29 6q-14 -6 -15 23zM150 183q0 -29 8 -59q10 -33 30 -53q37 -32 76 -18q41 12 62 53q21 43 18 90q-2 50 -25 90 q-4 10 -13 27q-8 14 -20 18q-9 0 -19 -9q-9 -8 -15 -14q-31 -28 -55 -58q-24 -31 -47 -67z" />
<glyph unicode="7" horiz-adv-x="565" d="M16 705q33 8 70 4q36 -3 71 -4q64 1 129 3q64 1 129 1q21 1 72 -1q50 -2 59 -15q6 -30 -8 -69q-13 -40 -25 -65q-47 -117 -97 -234q-50 -116 -118 -222q-11 -20 -35 -63q-23 -43 -38 -51q-16 -4 -35 -1q-18 2 -36 5h-16q-15 0 -19 1q-3 7 4 22q8 15 11 20q29 46 56 93 q-25 -45 -21 -35q5 9 21 35q55 92 101 190q46 100 89 198q24 60 44 124q-19 -58 -15 -47q3 12 15 47q3 6 7 21q4 16 -6 22q-10 1 -49 -2q-41 -4 -55 -5q-54 -4 -109 0q-54 5 -106 7q-19 0 -37 1q-17 1 -35 3q-5 -2 -10 -3q-4 -1 -8 3q-3 2 -2 8q2 5 2 9z" />
<glyph unicode="8" horiz-adv-x="431" d="M18 481q3 21 5 42q1 23 7 42q30 85 87 114q58 27 142 22q23 0 52 1q28 2 45 -20q28 -48 27 -124q-2 -77 -14 -129q-8 -24 -22 -59q-15 -33 -8 -57q8 -14 25 -25q15 -9 25 -22q25 -34 36 -79q10 -44 2 -85q-4 -17 -14 -32t-21 -27q-73 -76 -179 -58q-106 16 -169 96 q-29 45 -20 100q9 53 33 98q8 10 29 35t23 30q-7 15 -34 20q-29 5 -42 16q-15 20 -17 49q0 28 2 52zM121 477q-2 -43 12 -66q14 -22 55 -38q11 -5 25 -10q15 -5 26 1q16 13 23 46q5 34 9 53q13 79 -3 158q8 -74 8 -59q-1 14 -8 59q-1 9 -5 25q-3 17 -14 22q-13 4 -27 -5 q-11 -10 -20 -17q-42 -32 -56 -76q-15 -44 -25 -93zM128 174q1 -38 18 -65q14 -29 42 -55q9 -7 20 -18q9 -12 22 -16q24 2 55 39q30 38 38 59q9 45 -9 87q-19 42 -50 72q-10 11 -26 23q-18 12 -34 9q-27 -11 -47 -58q-21 -47 -29 -77z" />
<glyph unicode="9" horiz-adv-x="530" d="M16 27q34 7 68 0q34 -5 68 -8q44 2 86 19q42 19 72 49q37 38 56 86q17 47 23 99q1 8 4 34q4 26 -8 30q-3 -3 -14 -15q-10 -12 -12 -16q-14 -13 -34 -25q-21 -12 -38 -16q-32 -7 -91 -2q-61 6 -89 21q-43 31 -63 91q-21 60 -15 111q17 128 104 171q87 44 207 29 q16 -1 36 0q19 1 36 -4q39 -19 4 -11q-37 8 17 -4q9 -1 17 -1q9 0 13 -7q7 -16 -12 -19t-13 -22q36 -86 55 -177q18 -89 8 -184q-4 -41 -13 -82q-11 -41 -40 -72q-23 -24 -43 -49q-20 -26 -54 -41q-62 -24 -127 -23q-65 3 -129 4q-9 0 -41 6q-31 5 -38 9q-1 4 -1 10q1 4 1 9 zM141 481q0 -77 45 -142q-32 63 -28 50q5 -14 28 -50q4 -7 11 -18t15 -12q14 1 29 17q16 15 24 25q26 26 48 58q21 33 27 72q2 33 -4 67q-7 34 -15 65q-2 8 -4 23q-3 14 -11 18q-10 2 -22 -4q-12 -7 -19 -11q-54 -23 -83 -61q-28 -40 -41 -97z" />
<glyph unicode=":" horiz-adv-x="309" d="M7 502q0 64 33 93q32 30 95 23q16 -1 33 -1q17 1 33 -2q35 -6 57 -38q22 -31 20 -65q-1 -15 -4 -29q-2 -14 -10 -27q-4 -5 -6 -8q-1 -3 -7 -7l-10 -5t-3 -6q5 0 19 -2t1 -13q-6 -2 -37 -3t-42 -1q-64 -5 -117 5q-52 10 -55 86zM10 162q3 23 6 52q2 29 22 45q11 7 23 7 q11 0 23 2q11 3 21 7q10 5 21 7q10 3 19 1l18 -2q43 -1 78 -10q34 -10 42 -65q1 -9 1 -20q0 -12 -1 -21q-6 -32 -35 -50t-57 -25q-24 -5 -71 -6q-46 -1 -68 9q-17 11 -27 31q-11 20 -15 38zM145 212q14 -3 12 0q-3 3 -12 0z" />
<glyph unicode=";" horiz-adv-x="188" d="M35 280v6t3 5q5 1 39 0t41 -3q5 -2 7 -7t5 -9q21 -28 17 -66q-3 -38 -12 -70q-3 -11 -7 -27q-3 -15 -13 -23q-11 -4 -43 -1t-37 14q0 10 7 25q7 16 11 26q12 37 7 68q-4 31 -25 62zM43 562q6 17 28 15q22 -1 39 -4q30 -2 39 -11t5 -43q-4 -22 -23 -21t-37 3q-6 0 -19 1 q-14 0 -18 4q-2 3 -1 7t1 7q-3 11 -8 20t-6 22z" />
<glyph unicode="&#x3c;" horiz-adv-x="467" d="M363 582q2 -4 10.5 -6.5t19 -5.5t20 -7t13.5 -10q2 -3 -10 -16t-33 -32t-48.5 -41.5t-56.5 -46.5q-69 -55 -157 -123q102 -71 177 -131q32 -26 61 -52t49 -48.5t27.5 -40.5t-3.5 -28q-14 -13 -49.5 1.5t-79.5 44t-92 68t-88 73t-66.5 58.5t-27.5 26q-2 2 -1.5 18.5 t2.5 35.5q2 22 5 50q91 63 162 111q30 21 59.5 40t52.5 33.5t38 22.5t16 6z" />
<glyph unicode="=" horiz-adv-x="444" d="M32 513h379v-70h-379v70zM32 330h379v-70h-379v70z" />
<glyph unicode="&#x3e;" horiz-adv-x="456" d="M93 -2q-2 4 -10.5 7t-18.5 6t-19.5 7t-13.5 10q-2 3 10 15.5t33.5 31t49.5 41.5t57 46q69 55 158 121q-102 71 -176 133q-32 26 -60.5 52.5t-48 49.5t-27 41t3.5 28q15 13 50 -2t79 -45t91 -69t86.5 -74t65.5 -59.5t28 -26.5t1.5 -18.5t-2.5 -35.5q-3 -22 -6 -49 q-91 -61 -163 -109q-31 -20 -60.5 -39.5t-53 -33.5t-38.5 -22t-16 -6z" />
<glyph unicode="?" horiz-adv-x="430" d="M12 659q13 29 44 42q29 13 59 22q44 16 115 18q72 2 111 -23q24 -21 38 -50q14 -30 20 -60q7 -30 4 -61q0 29 2 24q0 -7 -2 -24q-12 -67 -69 -97q-56 -30 -93 -80q-14 -23 -24 -49q-7 -27 -5 -54q1 -11 3 -23q1 -13 -12 -18q-5 -1 -16 0t-15 3q-9 0 -24 -2q-15 -1 -23 3 q-15 12 -9 56q5 44 10 62q35 71 115 117q78 48 67 134q-5 25 -28 65q-24 42 -47 48q-29 2 -59 -18q-31 -19 -55 -32q-25 -10 -53 -7q-28 2 -54 4zM93 88q6 15 13 18q7 4 18 14q9 9 14 18q4 10 16 17q26 10 78 10q52 -1 71 -21q9 -13 9 -29q0 -17 -2 -32q-11 -53 -52 -70 q-43 -17 -93 -13q-8 0 -24 -1t-22 5q-3 6 -2 14q2 8 -1 15q-10 15 -17 26q-5 10 -6 29z" />
<glyph unicode="@" horiz-adv-x="579" d="M-25 273q16 3 41 5q25 3 39 -8q10 -12 14 -32t6 -35q6 -30 13 -61t23 -58q32 -47 83 -55t103 6q19 4 40 10q22 7 37 19q11 9 8 24q-3 14 -7 26q-8 34 -28 64q-19 29 -45 51q-54 40 -118 58t-117 57q-26 23 -40 56q-14 32 -20 66q-8 41 -7 83q1 -39 1 -32q-1 8 -1 32 q0 23 6 48t23 42q8 7 18 10q9 4 18 10q48 40 85 57q37 16 101 12q17 0 35 1t34 -4q11 -5 17 -12q7 -8 16 -13t19 -7q11 -1 20 -5q10 -4 18 -11q9 -6 18 -10q18 -5 12 5q-6 11 -2 21q7 3 41 3q33 0 41 -2q7 -7 8 -26q2 -19 2 -28q7 -48 16 -95q-8 44 -7 35q2 -9 7 -35 q2 -9 5 -21t1 -21q-3 -8 -9 -8q-7 -1 -13 -1q-14 1 -35 2q-21 2 -30 10q-13 16 -21 36t-17 38q-21 35 -55 62q-35 28 -75 30q-17 2 -35 3q-19 2 -33 -8q-27 -22 -7 -10q20 11 0 -13q-4 -3 -14 -2h-14q-17 -6 -28 -30q-10 -23 -12 -40q0 -16 11 -23q12 -6 26 -9q30 -8 61 -15 q30 -8 58 -23q30 -17 54 -42t49 -49q33 -30 66 -61q32 -32 47 -75q6 -24 7 -48q0 -24 -2 -49v-13q-1 -10 0 -14q2 -5 6 -13t1 -14q-3 -5 -10 -7q-6 -2 -9 -7q-65 -96 -197 -107q-133 -11 -234 23q-17 4 -14 -6q3 -11 0 -21q-5 -4 -12 -5q7 1 5 1q-1 0 -5 -1q-5 0 -14 2 t-14 3q-8 0 -21 -2q-13 -3 -20 1q-8 9 -7 33v35q-3 52 -7 103q-4 52 -4 104zM151 358q31 -18 0 0l16 -9zM256 361q22 -17 0 0l11 -8z" />
<glyph unicode="A" horiz-adv-x="860" d="M7 -12q57 41 80 85q23 43 48 106q24 54 45 109t36 112q5 20 11 40q5 20 15 39q5 9 12 16q6 8 7 18q-3 28 -24 73q-21 46 -39 67q-12 10 -39 32q-26 22 -11 35q20 10 47 11t49 1q31 0 63 -2q31 -3 60 -16q54 -28 98 -94q45 -67 65 -124q12 -36 19 -74q6 -38 23 -72 q22 -44 40 -88q17 -44 34 -91q11 -31 34 -69t56 -50q19 -5 41 -4q22 2 42 1q9 1 20 -1q12 -1 5 -16q-8 -8 -42 -19q-34 -12 -48 -16q-69 -22 -145 -9q-75 12 -122 70q-7 10 -7 18q0 9 -5 19q-5 9 -15 14q-9 6 -17 14q-12 16 -18 37q-7 21 -21 36q-7 6 -18 8q-11 1 -20 1h-49 t-48 4q-12 2 -28 5q-16 4 -28 1q-10 -4 -13 -15q-4 -11 -6 -20q-10 -25 -25 -49q-15 -23 -26 -48q-3 -5 -10 -20q-6 -14 -4 -19q2 -1 13 -1h15q34 2 69 5q-33 -3 -26 -2q6 0 26 2q5 1 13 1q9 1 13 -4q2 -9 -21 -30q-24 -21 -34 -28q-12 -6 -27 -5q-15 0 -28 1q-35 -2 -68 -6 q-34 -5 -67 11zM230 273q25 8 49 4q23 -4 48 -7q5 -1 21 -1q15 -1 17 5q-1 2 -8 12t-8 12q-14 20 -27 41q-12 21 -20 45q-2 7 -5 21t-8 19q-2 1 -4 -2q-2 -2 -3 -4q-3 -9 -5 -20t-5 -21q-8 -27 -18 -53q-9 -27 -24 -51z" />
<glyph unicode="B" horiz-adv-x="810" d="M-34 42q22 13 57 11q36 -1 60 -5q5 -2 13 -4t13 0q5 6 -3 14q-9 8 -12 11q-5 9 -6 24q-1 12 -2 23q-9 76 -17 153q8 -72 5 -57q-1 15 -5 57q-9 110 0 219t11 218q-2 24 -29 22q-28 -2 -49 0q-5 2 -8 7q-1 3 5 8q9 9 27 10q18 2 32 3q77 9 155 -1q-72 5 -59 4q15 0 59 -4 q119 -3 244 7q124 11 215 -86q44 -50 50 -94q5 -43 -38 -95q-21 -25 -46 -40l-50 -36q-4 -4 -13 -14q-10 -9 -6 -15q11 -6 26 -5h26q16 -2 35 -6q19 -6 34 -12q66 -29 88 -95q23 -65 -7 -130q-17 -33 -49 -52q-31 -20 -65 -34q-25 -13 -51 -22q-27 -10 -55 -14q-18 -1 -34 1 q-18 3 -34 2q-43 -5 -86 -12q-44 -6 -87 -3q-40 5 -81 13q-39 8 -80 13q-68 6 -138 6q65 0 53 0h-53h-25q-12 0 -20 10zM286 65q0 -9 -1 -20q0 -10 7 -15q18 -12 63 -2q46 8 67 16q44 22 80 75q36 54 43 102q5 52 -20 92q-25 37 -73 58q-10 5 -19 10q-8 5 -20 7 q-13 1 -27 -1q-15 -2 -28 -2q-11 1 -27 4q-15 2 -27 -1q-6 -6 -6 -37v-42l2 -122q0 -64 -14 -122zM298 499q0 -16 -1 -50q0 -35 8 -45q14 -6 35 2q20 6 32 12q49 21 72 63q24 42 32 94q6 39 -10 83q-15 42 -56 60q-12 3 -48 5q-34 1 -41 -4q-2 -7 -2 -20q0 -12 -1 -21 q-4 -20 -8 -42t-6 -43q-2 -23 -1 -47q0 -25 -5 -47zM527 708q23 -18 0 0l12 -9zM605 614q12 -28 0 0l5 -15z" />
<glyph unicode="C" horiz-adv-x="641" d="M2 360q6 34 6 69q0 34 7 68q14 59 52 113q39 54 87 89q65 44 136 43q72 -1 145 -12q20 -1 42 -1t40 -8q4 -3 15 -13t16 -8q5 6 2 20t0 22q7 5 39 6q32 2 41 -2q6 -9 2 -39q-3 -30 -5 -43q-3 -41 -2 -83l4 -82q1 -15 4 -35q4 -20 0 -34q-8 -13 -42 -9t-45 15q-8 17 -6 53 t3 57q-8 73 -72 134q-65 60 -131 0q-72 -84 -84 -186q-13 -102 7 -206q7 -50 20 -95q13 -46 51 -82q52 -40 107 -16q56 24 86 79q8 18 12 40t14 38q6 4 38 4q33 0 41 -4q7 -11 -3 -45q-11 -33 -19 -46q-12 -16 -28 -31q-17 -14 -27 -31q-2 -6 -3 -13q0 -6 -5 -12 q-3 -3 -13 -6q-9 -3 -13 -5q-15 -9 -26 -20q-12 -12 -29 -19q-74 -27 -144 -15q-69 12 -137 43l-58 24q-28 13 -50 36q-16 18 -28 40q-11 22 -16 46q-1 10 -1 20q1 10 -2 21q-9 30 -15 60t-13 61zM328 39q14 -5 15 -3q1 1 -15 3z" />
<glyph unicode="D" horiz-adv-x="796" d="M-33 741q21 3 41 1q21 -1 42 -1q20 1 41 5q20 4 41 3q18 -2 34 -6q17 -4 35 -5q15 1 29 6q14 6 34 7q29 -1 41 -7q12 -7 36 -10q27 -1 56 -2q28 0 54 -7q11 -3 20 -7q10 -5 20 -8q17 -5 32 -6t32 -10q41 -24 102 -64t86 -76q16 -31 18 -67q2 -35 3 -69q12 -104 -8 -178 t-110 -137q-30 -19 -62 -32q-31 -12 -63 -26q-18 -10 -35 -23q-16 -13 -37 -17q-11 -2 -21 0q-11 1 -21 1l-132 -2q-65 -2 -131 1q-62 3 -124 8q58 -4 46 -3q-11 1 -46 3q-7 0 -21 2q-15 2 -17 11q3 13 33 7q30 -7 42 4q5 11 3 27t-3 28q-3 63 2 125q-3 -58 -3 -47 q1 12 3 47q3 45 8 90q4 44 7 89q4 76 3 153q0 76 -3 153q-8 36 -54 23q-47 -12 -53 16zM210 721q11 -18 16 -13q4 5 -16 13zM309 55q-2 -32 14 -30q15 2 39 15q32 14 59 35q28 22 46 52q19 34 26 72q6 38 11 76q3 24 8 48q5 23 8 48q13 106 -23 222t-163 127q-19 0 -21 -12 q-3 -11 -2 -27q1 -28 3 -56q3 -28 4 -56l4 -180q1 -91 -2 -181q0 -38 -2 -77q-1 -38 -9 -76z" />
<glyph unicode="E" horiz-adv-x="696" d="M-39 717q41 8 82 7t83 0q80 5 159 11t159 5q33 0 84 -1q52 -2 79 -18q31 -26 38 -71q7 -46 6 -84q-4 -20 -35 -21t-47 9q-11 11 -9 38t1 42q-10 54 -45 72q-36 17 -87 12q-42 -4 -83 -6q39 2 31 2q-8 -1 -31 -2h-13q-11 -1 -13 -3q0 -3 4 -4t6 -4q1 -4 1 -14q1 -10 0 -14 q-1 -104 5 -207q-4 97 -4 77q1 -19 4 -77v-44q-1 -30 4 -38q9 -6 27 -1t28 8q13 0 27 -3q14 -4 28 -1q11 4 13 13q2 10 3 20q3 24 6 49q2 24 3 48q-1 4 -2 14q0 10 1 14q12 9 45 4q34 -4 40 -21q2 -16 -2 -34t-7 -34q-7 -69 -12 -138q5 65 4 52l-4 -52q0 -14 3 -36 q2 -21 -7 -32q-9 -4 -41 -2q-33 2 -41 7q-8 16 4 55q12 38 -1 52q-14 4 -46 -3q-33 -8 -50 -10q-8 0 -13 -1q-6 0 -8 -9q-2 -10 0 -22q3 -11 4 -21q4 -61 3 -123q0 58 0 46v-46q-1 -8 -2 -21t6 -19q3 -2 7 0q4 1 6 -1q7 -9 0 -27q-8 -18 -3 -28q2 -1 5 0q4 2 6 1 q11 -8 -4 -19q-15 -10 -11 -23q8 -11 24 -12q17 -2 29 -1q37 -3 76 3q40 5 64 37q23 37 31 83q9 46 13 90q0 12 1 35t8 31q10 4 42 0q31 -3 38 -8q5 -12 0 -34q-6 -21 -8 -34q-4 -50 -14 -112q-11 -61 -53 -93q-43 -25 -93 -22t-97 7q-24 0 -48 -3t-48 -5q-38 -2 -77 0 l-76 4q-24 0 -72 2q-47 1 -66 8q-10 6 -19 19q-8 14 -15 24q-5 6 -11 16q-6 9 -2 6q15 -13 28 -30q13 -18 26 -34q2 -3 8 -11q6 -7 8 -10t6 -6q3 -4 0 -5q-6 3 -27 29q-21 25 -22 36q7 19 27 12t29 11q7 27 6 67q-1 41 -1 71q6 166 8 332q-3 -156 -2 -125q0 31 2 125 q0 55 -5 110q4 -52 3 -41q0 10 -3 41v21q-1 13 -5 20q-20 17 -61 7q-42 -10 -46 16zM151 32q22 -5 45 -6q-21 2 -17 2q4 -1 17 -2q3 0 15 -1h15q1 1 2 3q0 2 -2 3q-15 6 -37 4q-21 -2 -38 -3z" />
<glyph unicode="F" horiz-adv-x="656" d="M-44 736q24 9 47 5q24 -3 49 -4q24 1 47 6q24 4 49 5q65 -1 131 -5q65 -4 131 -4q41 2 84 3q43 2 81 -16q36 -23 58 -83q21 -61 12 -103q-12 -26 -42 -2q-30 23 -40 41q-14 36 -25 79q-10 44 -54 60q-17 3 -37 -2q-15 2 -32 4q0 -17 -24 -17q-28 -3 -33 -6.5t-25 -3.5 q0 -21 1 -35q3 -52 5 -104q1 -52 -5 -103q-3 -17 -5 -43q-1 -25 19 -32q10 -2 20 2q11 3 20 4q18 0 43 -4q25 -3 34 14q4 30 1 79q-4 49 26 65q21 4 43 -17q21 -21 23 -41q0 -27 -6 -55t-9 -55q-2 -33 -2 -71q0 -37 -5 -68q-7 -19 -40 -19q-33 1 -43 9q-14 33 6 88t-44 52 q-8 -1 -14 -2t-14 -3q-12 -1 -28 -2q-15 0 -24 -9q-10 -16 -6 -40q4 -25 6 -43q1 -41 -2 -83l-4 -82q-1 -13 -5 -29q-3 -16 0 -27q5 -11 15 -6q11 5 19 8q14 4 42 7q28 2 38 -12q3 -8 -2 -13t-10 -7q-18 -9 -41 -10q-22 -1 -42 -1q-55 -1 -110 3q-55 3 -111 2q-21 -2 -49 -4 q-29 -1 -48 8q-8 4 -8 9t10 7q17 2 34 -2q17 -5 23 18q5 27 3 56q-2 28 -3 55q-2 77 -3 153q1 -72 1 -57q0 14 -1 57q0 72 5 145t10 145q2 19 5 58q3 38 -5 53q-7 8 -18 6t-20 -3q-15 0 -51 2q-36 3 -47 8q-2 2 -2 6z" />
<glyph unicode="G" horiz-adv-x="764" d="M8 435q7 36 14 73q6 38 25 69q18 30 48 48q28 19 56 36q17 12 30 28q13 15 31 26q60 31 150 33q89 2 153 -21q27 -10 47 -27q19 -16 36 -40q6 -7 13 -24q9 -16 17 -21q5 0 5 7q1 7 0 13q-1 13 -3 35q-2 23 5 33q8 3 39 0q32 -3 39 -7q5 -10 3 -44q-2 -35 -2 -50 q0 -33 -1 -67l-2 -68q1 -6 2 -19t-7 -19q-4 0 -33 2t-34 3q-9 7 -20 43q-12 37 -18 54q-13 22 -30 37q-17 14 -35 31q-20 22 -39 47q-18 24 -45 40q-41 16 -105 -8q-62 -24 -80 -65q-30 -105 -26 -227q4 -121 27 -228q3 -23 14 -52q12 -30 35 -38q9 -2 21 -1q14 1 21 -5 q1 -2 0 -6q-2 -4 0 -6q5 -1 19 3q15 5 21 6q32 8 61 25q30 19 51 45q26 38 14 89q-13 50 -44 82q-12 11 -29 19q-15 7 -32 10h-21q-15 -1 -19 2q-3 2 -3 6t2 7q3 2 13 2q10 1 14 1q30 3 60 3q29 0 61 -3q23 -2 46 -3q24 -1 46 -10q84 -40 105 -131q22 -90 25 -174 q1 -21 0 -41q0 -21 6 -40q7 -26 25 -48q17 -22 38 -39q6 -4 18 -10q11 -7 12 -14q-1 -10 -10 -9q-7 1 -11 3q-25 4 -47 7q-23 2 -46 9q-67 23 -100 52q-33 28 -59 96q-5 14 -8 34q-1 18 -8 31q-5 6 -11 0q-5 -5 -7 -8q-12 -11 -26 -19q-15 -9 -30 -15q-41 -17 -85 -19 q-45 -1 -88 4q-57 8 -130 41q-72 32 -106 79q-11 18 -16 37q-5 20 -10 39q-5 16 -13 31t-12 32q-13 42 -15 85q-3 45 -2 88zM341 719q12 -2 44 -5q32 -2 41 0q2 1 2 5q0 3 -2 4q-12 5 -41 1q-29 -3 -44 -5z" />
<glyph unicode="H" horiz-adv-x="849" d="M-3 33q13 0 45 -1q31 -1 40 0q7 2 10 8q-4 -5 -3 -4t3 4q3 9 3 21q-1 12 -1 22q-1 50 4 100q-3 -47 -3 -38t3 38q8 74 10 149q2 76 -5 150q-6 57 -15 114q-9 55 -15 112q-2 21 -19 22q-18 1 -36 4q-3 0 -12 3t-4 12q8 5 46 2q37 -4 52 -6q31 -1 81 -4q50 -2 76 3 q17 5 12 7q-6 2 7 10q12 5 36 4t36 -6q2 -2 4 -5t5 -6q9 -3 23 -1q13 1 20 -3q5 -7 -2 -12q-9 -6 -12 -6q-16 -4 -27 -5q-10 0 -14 -21q-8 -60 -8 -122q-1 -61 -1 -121q0 -12 -2 -45q-2 -34 0 -41q5 -6 19 -3q15 2 22 2q57 -1 113 -7q-53 5 -42 5q10 -2 42 -5q9 -1 22 -3 q14 -3 21 -2q5 6 5 37v44q-1 51 0 100q1 48 8 99q3 14 5 36q2 21 -7 33q-16 15 -40 16q-25 2 -40 14q-13 16 14 17t38 0q43 -3 84 -14q41 -10 85 -8q32 3 63 6q32 3 64 1h22q16 0 22 -4q7 -9 -1 -13q-8 -5 -13 -5q-13 -3 -27 -2q-16 1 -29 -2q-19 -5 -9 -11q11 -6 12 -19 q-2 -5 -8 -8t-8 -8q-3 -14 -1 -29t2 -29q0 -78 2 -157q-1 73 -1 59t1 -59q2 -64 -3 -128t-7 -129q-1 -28 -3 -57t-1 -56q0 -9 1 -22q0 -15 5 -21q9 -6 39 -5q31 2 46 -1q4 0 12 -4t0 -14q-7 -3 -34 -3t-38 1q-50 -1 -99 -6q-50 -6 -100 -3q-14 -1 -36 -1q-23 -1 -32 11 q-5 11 1 27q6 18 8 29q4 49 5 99q1 51 1 99v38q0 22 -8 35q-12 7 -47 6h-52q-20 3 -43 7t-43 0q-18 -8 -17 -34q3 -27 5 -44l2 -172q-1 81 -1 65q1 -16 1 -65q0 -14 -2 -36q-1 -22 6 -35q10 -9 45 -11q34 -1 52 -2q6 1 20 0q16 -1 18 -9q-1 -11 -23 -10q-21 1 -30 3 q-39 2 -77 6q-39 3 -78 5q-34 0 -64 -4q-33 -4 -65 -4q-17 0 -35 3q-17 3 -35 4q-10 0 -38 1q-28 0 -33 5q-2 2 -2 6q1 4 2 7zM156 717q14 -9 11 -6q-2 3 13 10q4 1 8 1q4 -1 8 -1q3 0 7 1q3 0 2 1q-7 2 -17 1q-10 0 -15 -1q-9 -2 -17 -6q7 4 6 3q-1 0 -6 -3zM216 721 q5 -1 23 -4t21 0q-3 3 -20 4h-24z" />
<glyph unicode="I" horiz-adv-x="507" d="M0 727q19 4 36 3q18 -1 36 -1l186 -4q-87 2 -69 1q17 -1 69 -1q34 1 45 10q11 8 51 5q26 -2 50 -6t49 -5q4 0 14 -2q9 -1 11 -7q1 -8 -9 -10q-10 -1 -13 0q-19 1 -44 1t-30 -22q-3 -31 1 -64q5 -32 6 -64q5 -136 -1 -272q3 127 3 102q0 -26 -3 -102q-2 -47 -7 -93 q-5 -45 -11 -92q-1 -10 -2 -37t3 -34q3 -2 14 -2q11 -1 15 -1h85q-40 0 -32 0h32q7 1 22 1q14 0 15 -11q-1 -8 -10 -10h-13q-51 2 -101 -3q47 2 38 2q-11 1 -38 -2q-14 -2 -27 -6q-14 -5 -28 -6q-22 -1 -43 3t-42 5q-37 2 -72 0q-36 -1 -72 1q-22 0 -50 2q-28 1 -44 20 q-16 25 15 22q32 -4 43 1q4 5 4 20v22q2 39 1 78t-1 79q2 67 6 135l4 136q1 36 4 71q2 35 4 72q1 8 2 21q2 14 -4 22q-20 13 -57 5q-37 -9 -41 17zM231 54q28 -4 28 0q0 3 -28 0zM294 708q11 -28 0 0l6 -15zM302 563v-118q0 56 0 45v-45v-18q1 -10 3 -10q4 2 3 15 q-2 12 -3 14q-2 29 0 58q2 30 -3 59z" />
<glyph unicode="J" horiz-adv-x="476" d="M-42 74q21 1 49 -4q30 -4 46 0q20 10 39 47q19 36 23 58q15 75 14 176q-2 100 -4 180v69q-1 34 2 68q2 10 6 29q5 18 1 25q-4 3 -14 3q-9 1 -13 0q-41 -1 -82 8q38 -6 31 -6q-8 1 -31 6q-7 2 -21 5q-12 3 -15 12q0 16 26 13q25 -2 35 -5q18 -1 34 -8q15 -6 32 -8 q14 -1 26 6t26 8q17 -1 34 -6t34 -9q17 -2 34 1q17 4 34 7q54 8 109 6q-52 1 -41 1t41 -1q8 0 28 1q21 1 25 -7q1 -11 -20 -14q-20 -3 -27 -2q-39 -1 -53 -9q-15 -7 -18 -48q-8 -106 -10 -212q-1 -106 -14 -213q-7 -46 -17 -95q-11 -49 -37 -88q-38 -50 -95 -62 q-58 -14 -117 -8q-36 3 -64 21q-30 17 -36 55zM67 38q8 -6 27 -12q18 -7 25 8q0 2 -3 3t-5 2q-11 1 -22 0q-12 -2 -22 -1z" />
<glyph unicode="K" horiz-adv-x="952" d="M-11 749q29 4 57 -1q27 -5 57 -7q20 1 43 3q23 4 44 -2q21 -7 30 -11q10 -4 37 -5q29 -1 57 -1q29 1 57 1h22q16 0 16 -12q-3 -7 -20 -9t-23 -20q-10 -49 -8 -101t3 -100q-1 -11 -2 -30q-2 -21 2 -28q4 -5 9 1q7 5 11 10l50 52q-24 -24 -19 -20q4 5 19 20q32 34 62 70 q31 35 62 71q19 20 41 40q22 21 37 45q5 16 -24 15t-45 1q-7 2 -12 6q-6 4 3 13q7 6 21 3q13 -2 22 -4q35 -5 71 -5t71 -2q9 0 31 -2q20 -2 21 -13q-5 -13 -28 -6q-24 7 -36 -6q-31 -44 -69 -82q-39 -39 -73 -79q-6 -9 -24 -31q-18 -21 -20 -28q2 -5 10 -7q7 -1 11 -6 q6 -13 13 -33q6 -19 12 -34q42 -91 98 -168t126 -148q18 -19 41 -40t50 -29q10 -1 45 -1q33 -2 28 -18q-3 -4 -14 -5q-9 -2 -13 -2q-43 -6 -87 -7q41 2 33 1t-33 -1q-75 -2 -167 11q-91 11 -144 68q-16 20 -38 54q-23 33 -33 55q-12 26 -22 53q-9 27 -23 53q-4 8 -18 33 l-15 30q-5 3 -9 2q4 0 3 0h-3q-6 -3 -17 -12q-12 -7 -15 -13q-4 -15 -2 -36q1 -21 2 -36q2 -79 3 -159q-1 74 -1 60q0 -16 1 -60v-45q0 -35 1 -39q3 -1 14 1t14 3q29 3 59 0q-28 1 -22 1t22 -1q7 0 20 -3q15 -4 9 -16q-11 -10 -35 -9q-24 0 -37 2q-51 3 -100 5q-50 3 -101 1 q-36 -2 -72 -5t-72 -2q-8 -1 -29 1q-21 1 -23 12q1 7 10 9q10 2 14 2q50 2 101 2q-48 0 -38 0h38h15q-8 0 -6 0h6h14q10 -1 14 0q2 1 4 3t0 3q-12 5 -28 0q-17 -4 -29 4q-8 7 -7 20t1 21q-1 34 2 66q4 31 4 64q0 112 6 222q5 112 -4 223q-1 15 -1 30t-2 29q-14 29 -64 21 q-50 -10 -73 24zM208 713q12 -4 23 -6q11 -1 24 -2q5 0 12 2q8 1 4 2q-13 4 -31 3q-17 0 -32 1zM729 34q29 -11 58 -15q-27 5 -22 4q6 -2 22 -4q5 0 12 2q6 2 4 5q-12 10 -36 9q-23 0 -38 -1z" />
<glyph unicode="L" horiz-adv-x="682" d="M-22 721q53 7 107 7t107 1q33 2 64 7q32 4 64 9q49 7 99 3q-46 1 -37 2q9 0 37 -2q4 0 14 -1q11 -2 14 -4q9 -12 -4 -16q-15 -3 -21 -4q-21 -1 -52 -2q-30 -2 -34 -25q-3 -78 4 -157q8 -78 11 -157q3 -93 -1 -186q2 87 2 71q0 -18 -2 -71q-1 -14 -3 -36q-1 -21 5 -35 q6 -7 10 -6q5 1 9 -8q5 -19 -6 -44q-10 -23 -2 -42q8 -8 39 -5q31 2 45 5q73 10 108 45q36 37 36 113q-1 17 -5 44q-4 28 -1 42q10 10 45 8q36 -2 45 -12q7 -17 4 -43q-3 -25 -4 -43q1 -31 -3 -64t-23 -60q-17 -22 -46 -32q-29 -9 -56 -15q-77 -14 -156 -9q-78 5 -157 8 q-15 1 -37 4q-22 2 -35 -5q-5 -7 14 -5q21 2 -24 -5q-21 -2 -50 4q-30 6 -49 16q-7 4 -15 14t-4 20q7 8 17 4q12 -4 19 5q7 19 2 42q-5 24 -2 44q3 15 5 12q3 -3 10 8q5 9 5 21q1 14 2 22q6 65 4 129q0 -60 0 -49q1 13 0 49q-6 128 -6 257q1 -121 1 -97q-1 24 -1 97 q1 23 4 51t-8 48q-19 21 -60 12q-43 -10 -48 16zM158 33l32 -4q22 -3 27 1q-3 3 -26 3q-25 1 -33 0z" />
<glyph unicode="M" horiz-adv-x="1016" d="M-55 53q21 3 41 2l42 -2h12q9 0 13 5q2 6 0 20t-2 21q4 62 5 125q-2 -59 -1 -47q0 11 1 47q0 90 3 179q3 90 4 180q-1 13 0 28t5 27q3 6 9 10q5 5 5 11q-1 3 -9 10l-12 8q-41 26 -86 46q42 -19 34 -16q-9 4 -34 16q-7 2 -18 9t-3 18q5 3 14 2q8 -2 13 -2q48 -5 96 -11 q-45 5 -36 4l36 -4q114 -15 203 -81q89 -67 137 -171q14 -32 30 -62q16 -31 31 -62q2 -6 9 -20q6 -15 12 -16q5 2 9 17q5 15 6 20q11 37 26 72q16 35 33 69q10 21 23 43q12 21 28 39q11 11 26 23q16 12 21 27q2 15 -7 41t5 33q3 1 7 0q3 -1 7 0q3 1 -4 1q-8 1 -13 1 q-5 -1 -13 0t-9 10q4 11 35 9q31 -1 44 -2q27 0 55 -2q28 -1 55 0q11 1 21 3t20 2q18 0 35 -4q17 -3 35 -4q11 1 35 2q25 1 31 -10q0 -8 -8 -10q-9 -2 -13 -2q-15 1 -35 4t-28 -13q-7 -21 -5 -48q1 -27 1 -49q-3 -62 -8 -124q-4 -62 -6 -124q-1 -24 1 -49q2 -24 1 -48 q-1 -21 -4 -41q-3 -21 -3 -42q-1 -27 3 -55q-3 26 -2 21q0 -5 2 -21q0 -3 1 -14q1 -10 2 -14q0 -3 1 -7q0 -4 0 -2q0 17 -4 35q-3 18 -1 35q0 1 1 -1t1 -4q1 -2 2 -14q2 -11 2 -13q0 -13 -6 -36q-5 -22 0 -32q10 -6 35 -3t25 -10q-5 -11 -34 -14q-29 -2 -43 -3 q-20 -4 -42 -7q-21 -3 -41 -2q-12 2 -20 6q-7 3 -19 5q-21 1 -42 1q-21 -1 -42 0q-13 1 -35 4q-21 2 -31 12q-7 8 -4 12t11 5q16 0 27 -2q12 -2 14 19l10 166q4 84 5 166q-1 42 -1 83q0 -39 0 -31v31v14t-1 14q-3 3 -6 -4t-6 -12l-20 -36q10 17 8 13q-2 -3 -8 -13 q-23 -50 -43 -102q19 48 15 38q-4 -9 -15 -38q-13 -36 -23 -73q-11 -36 -25 -72q-6 -12 -13 -13t-11 -15q-6 -29 -8 -62t-14 -61q-6 -9 -19 -8q-12 1 -15 -6q2 -4 11 -9q10 -4 -12 -9q-54 -10 -80 12q-25 23 -52 63q-49 68 -76 146q-27 79 -46 160q-9 37 -17 74t-24 72 q-4 8 -10 18t-13 16q-2 2 -4 3q-3 2 -4 0q-3 -6 -2 -20q1 -15 2 -22v-97q0 46 0 37v-37q-1 -72 -4 -145q-3 -72 -4 -145q-2 -23 -6 -49q-5 -26 -3 -48q2 -10 7 -9q5 0 13 3q24 7 47 8q24 2 49 0q8 1 20 -1q13 -1 4 -15q-14 -11 -51 -15q-38 -3 -58 -4q-4 0 -13 -2 q-10 -1 -13 -5q-6 -9 -2 -12q4 -4 -8 -10q-11 -4 -35 -3q-23 0 -34 6q-73 43 -12 12q61 -32 -2 8q-15 6 -51 4q-36 -3 -46 3q-2 3 -1 7t1 7zM180 658q33 -32 36 -29q2 4 -36 29zM705 711q5 -1 22 -4q18 -3 20 2q-2 2 -20 2h-22zM711 48q28 -9 58 -11q-28 3 -22 2q5 -1 22 -2 q5 0 11 3q7 2 4 5q-13 5 -36 4t-37 -1z" />
<glyph unicode="N" horiz-adv-x="818" d="M-86 719q12 19 17 10q5 -8 17 0q2 2 1 6q-1 3 0 6q7 7 19 6q13 -1 21 -2q50 -3 98 -8q-45 4 -36 4l36 -4q47 -4 98 -6q50 -1 94 -19q24 -12 38 -30q13 -18 30 -37q23 -26 43 -44q20 -19 42 -47q12 -13 23 -13q12 0 22 -11q17 -21 29 -46q13 -26 28 -50q17 -22 35 -43 t35 -43q7 -10 26 -34t27 -17q3 8 0 39t-4 43q-1 56 -3 112q-1 55 2 111q1 35 0 70q0 -33 0 -26v26q1 6 3 13q3 8 0 13q-3 1 -14 2h-14q-35 4 -69 5q32 -2 26 -1q-7 1 -26 1q-6 -1 -22 0t-8 13q10 9 34 7q23 -2 36 -3q20 0 41 3t42 3q20 -1 41 -4q21 -4 42 -6q9 0 29 -1 q19 0 11 -16q-9 -9 -26 -4q-17 4 -28 3q-11 -4 -13 -14t-2 -21q-4 -63 0 -125q-2 58 -2 46q1 -11 2 -46q2 -52 6 -105q3 -52 3 -103q-1 -18 -4 -35t-3 -35q0 -13 5 -19q6 -5 9 -17q3 -20 2 -42q-1 -21 -2 -41q-2 -42 -3 -84q1 40 1 32q-1 -9 -1 -32q0 -9 1 -21 q0 -11 -10 -16q-14 -5 -35 -1q-19 5 -35 6h-27t-27 5q-38 17 -84 61t-70 78q-16 23 -30 47q-15 23 -33 44q-26 29 -56 54q-28 25 -54 53q-25 29 -45 62q-19 33 -43 63q-4 5 -18 20q-13 15 -19 11q-5 -11 -4 -46v-52q-1 -69 0 -138q0 -70 -8 -139q-3 -21 -6 -41 q-4 -22 -6 -42v-14q-1 -11 1 -14q7 -4 19 2q12 7 19 10q18 5 35 2q18 -2 35 -4h13q9 0 12 -7q0 -13 -25 -19q-24 -6 -34 -8q-51 -12 -104 -14t-99 16q-8 2 -12 7q-5 5 8 11q13 2 27 -5q13 -7 21 10q6 15 6 34v36q6 76 9 152q-3 -71 -3 -57q1 14 3 57q3 63 6 125q2 63 2 126 q1 22 3 49q2 26 -10 46q-17 24 -44 45q-28 20 -54 34q-16 7 -31 13t-28 19z" />
<glyph unicode="O" horiz-adv-x="746" d="M9 400q7 34 11 68q3 35 12 68q20 62 65 114t103 82q45 21 92 23q48 1 97 -6q31 -2 63 -1q32 2 61 -7q32 -11 61 -33q29 -21 53 -45q78 -75 106 -159q27 -84 8 -192q-3 -17 -10 -33t-13 -32q-26 -74 -65 -112t-104 -79q-28 -19 -59 -36t-65 -23q-23 -4 -48 1q-25 6 -47 12 q-62 14 -127 37q-66 24 -113 66q-53 56 -67 134q-15 79 -14 153zM211 112q25 -11 0 0l13 -5zM272 438q-1 -77 3 -153t28 -150q4 -15 15 -48q11 -32 24 -39q10 -2 13 2q4 3 13 -3q1 -2 1 -5t2 -4q11 3 31 26q19 23 27 34q40 52 49 120q9 69 11 133q7 76 -8 152 q-14 76 -59 140q-8 13 -24 36q-16 22 -31 27q-15 0 -24 -22q-8 -21 -12 -33q-10 -22 -21 -44q-11 -21 -18 -45q-7 -31 -10 -62q-4 -31 -10 -62z" />
<glyph unicode="P" horiz-adv-x="752" d="M-6 711q48 9 104 9q55 0 96 10l9 -4q3 2 20 0q28 -3 62 6q29 7 44 17q72 -4 144 -5q70 -1 140 -28q23 -10 44 -24t37 -34q34 -50 42 -136q10 -87 -26 -137q-35 -41 -95 -66t-113 -25q-28 1 -56 4q-29 2 -57 6q-3 0 -15 2q-11 2 -15 2q-3 -4 -3 -21v-22q-3 -64 -7 -129 q3 61 3 49t-3 -49q-3 -42 -1 -86q0 41 -1 32q0 -7 1 -32q1 -3 1 -13q1 -12 -1 -16q-2 -2 -6 -4t-2 -3q33 -3 63 6t64 6q12 1 30 0q16 0 7 -17q-16 -19 -45 -19q-30 -1 -52 1q-67 2 -136 8q-68 6 -136 2q-43 -4 -86 -3q41 0 32 0q-8 -1 -32 0q-5 0 -15 1q-9 1 -12 8 q-3 9 6 11q10 1 14 1q11 1 45 1t40 1q2 2 3 5v8q-3 68 -10 136q-9 68 -11 137q0 54 5 107t-1 107q-8 64 -15 128q7 -60 6 -47q-2 11 -6 47v22q0 15 -5 21q-19 11 -57 2t-42 17zM223 22q32 -4 32 -2q0 1 -32 2zM277 19q30 -5 32 -3q1 2 -32 3zM326 728q30 -6 59 -7 q29 -2 60 -4q12 -2 29 -6q16 -6 29 -4q3 2 -3 5q-7 4 -12 5q-22 3 -43 6q20 -3 16 -2q-4 0 -16 2q-29 5 -60 5h-59zM352 699v-159q0 75 0 59v-59q1 -26 3 -51q2 -26 3 -50q-1 -19 -4 -53q-3 -35 3 -49q6 -8 19 -6q13 3 20 5q25 6 49 17q22 11 39 31q13 17 18 39t9 44 q22 76 7 135q-13 59 -95 91q-18 6 -34 9q-18 2 -37 -3zM531 699q14 -9 32 -24t30 -22q2 0 -7 12q-10 12 -14 15q-18 13 -41 19q20 -6 16 -5t-16 5z" />
<glyph unicode="Q" horiz-adv-x="850" d="M7 380q-1 47 11 117q12 71 42 107q30 32 66 59q37 28 78 46q18 7 36 6q17 -2 35 0q22 3 42 13q20 11 41 14q29 3 59 0l58 -8q11 -1 23 -2q13 -1 23 -7q10 -7 6 -8q-4 0 8 -5q11 -4 23 -5t21 -7q55 -38 100 -99q44 -62 61 -127q10 -41 9 -83t-1 -84q0 -11 4 -32 q5 -21 4 -29q-3 -7 -9 -7h-12q-16 -2 -37 -5q-22 -3 -37 3q-10 6 -7 21t2 24q-6 13 -35 32q-29 20 -44 28q-21 9 -53 8q-31 -1 -43 5q-10 11 -10 35q1 25 0 39q-4 56 -7 112q-2 57 -19 110q-7 27 -15 48t-41 10q-20 -8 -38 -23q-17 -16 -32 -31q-84 -92 -82 -214 q3 -121 35 -235q9 -42 22 -90q12 -49 42 -81q13 -12 30 -8t31 13q27 18 59 52t26 70q-6 23 -28 62q-21 39 -44 46q-14 1 -25 -5q-12 -7 -25 -9q-12 -1 -26 1l-26 2q-7 -1 -17 0q-10 0 -8 11q21 41 88 44q67 2 104 -14q22 -9 46 -15q23 -6 45 -18q30 -19 53 -43 q24 -24 49 -48q21 -18 44 -32q24 -14 44 -33q28 -30 51 -66t48 -69q19 -23 46 -41q28 -18 58 -22q12 0 34 2t31 -6q6 -9 -1 -8q-6 0 8 -7q11 -3 37 0q25 3 30 -10q-1 -9 -25 -21q-23 -11 -34 -16q-60 -30 -133 -26q-72 3 -135 26q-61 22 -99 58q-38 35 -78 83q-11 13 -30 42 t-32 35q-9 0 -20 -13q-10 -13 -16 -19q-16 -15 -37 -22t-43 -9q-44 -5 -95 -2q-51 4 -93 21q-15 7 -29 19t-29 19q-34 15 -69 41q-36 25 -52 59q-17 39 -26 83t-13 86q-1 13 -1 26q1 13 -2 26zM557 192q11 -22 21 -24q10 -3 -21 24z" />
<glyph unicode="R" horiz-adv-x="891" d="M-19 29q25 15 58 9q33 -5 45 13q16 38 17 83q1 46 -1 86v325q0 -153 0 -122v122q2 64 3 127q-2 -60 -1 -48q1 13 1 48q0 9 1 22t-2 20q-11 15 -38 13q-28 -2 -44 -2q-4 0 -12 2q-10 2 -8 11q7 9 26 8q19 -2 29 -3q42 -1 85 0q42 0 84 -3q54 -5 106 -8q53 -3 107 -1 q31 3 62 8q32 5 63 -1q37 -10 70 -34t59 -51q24 -21 44 -47t27 -56q10 -82 -47 -126q-58 -44 -129 -56q-16 -2 -44 1q-29 3 -40 -1q-5 -5 9 -8q15 -4 19 -4q16 -7 30 -18q16 -10 26 -24q32 -55 52 -106q19 -51 80 -89q30 -18 64 -31q33 -12 67 -22q8 -2 20 -7q13 -5 11 -15 q-5 -12 -18 -7q-12 5 -21 3q-56 -29 -3 -10q54 17 -11 -10q-18 -6 -43 -4q-23 3 -43 5q-55 5 -111 16q-57 11 -102 46q-47 43 -61 102q-12 59 -45 109q-11 15 -37 35q-27 19 -44 22q-14 -5 -14 -34q0 -30 1 -44q1 -85 0 -170q1 80 1 65q-1 -17 -1 -65q0 -15 -3 -36 q-3 -19 0 -34q4 -12 16 -12q10 0 20 3q25 4 48 9q24 5 49 4q7 1 22 0q14 -1 14 -11q-1 -8 -8 -12q-8 -4 -13 -6q-24 -7 -50 -8q-25 0 -49 1q-53 2 -106 10q-52 8 -105 10q-43 -2 -92 -6q-49 -5 -90 14zM328 568q1 -70 0 -142q0 67 1 53q0 -13 -1 -53q-1 -7 -2 -21 q-2 -15 2 -21q9 -5 28 0q19 4 29 6q50 10 81 40q32 30 48 77q6 12 11 26t4 28q-4 47 -45 77q-42 28 -84 38q-12 4 -29 6q-17 3 -28 -3q-14 -14 -13 -52q0 -38 -2 -59z" />
<glyph unicode="S" horiz-adv-x="611" d="M6 201q1 17 0 42q-2 25 6 41q7 7 24 5l27 -3q2 0 14 -1t14 -2q3 -2 5 -12q3 -10 3 -13q5 -20 9 -41q5 -20 14 -39q29 -50 75 -79q47 -28 97 -53q24 -13 52 -17q29 -5 53 12q45 38 37 84q-9 46 -52 79q-38 28 -82 52q-43 23 -86 42q-42 17 -82 38q-41 21 -71 55 q-26 32 -38 73q-11 41 -12 82q-1 57 27 106t84 68q30 8 61 7q31 -2 62 1q36 6 68 10q33 5 69 -1q41 -7 78 -29q-36 17 -28 15q7 -3 28 -15q4 -3 16 -13q13 -11 17 -11q6 5 1 31t-2 37q6 5 38 6t41 -2q9 -8 9 -25q-1 -18 -1 -29q2 -31 9 -61q8 -30 17 -60q3 -9 5 -20 q1 -10 -11 -14q-12 -3 -35 0t-35 7q-13 6 -25 21q-13 16 -23 27q-25 28 -52 56q-28 28 -61 45q-32 12 -79 -12q-46 -24 -58 -57q-3 -19 9 -24t24 -11q8 -7 13 -16t12 -16q19 -15 41 -26t43 -23q84 -49 151 -121q68 -72 83 -171q4 -27 5 -55t-12 -53q-52 -86 -154 -110 q-102 -23 -192 7q-32 11 -64 27q-31 15 -61 32q-6 3 -11 8q-6 4 -12 7q-18 5 -12 -20q6 -24 3 -34q-7 -5 -39 -4q-32 2 -42 7q-7 6 -8 18t-1 20q-3 62 -3 125q0 -59 0 -47v47zM180 574q22 -17 0 0l11 -9z" />
<glyph unicode="T" horiz-adv-x="692" d="M-33 528q4 74 21 146q-13 -68 -10 -54q2 14 10 54q2 12 7 29q4 17 14 25q10 5 22 3q11 -2 22 -2q9 2 16 8q5 5 24 7q41 1 81 -6q40 -8 80 -10h23t21 5q5 10 -6 10q-12 0 18 4q7 0 38 -2q30 -1 35 -2q8 -6 9 -10q1 -3 26 -3q75 5 156 1q79 -3 111 -85q10 -28 11 -59 q-3 29 -2 22q1 -5 2 -22q2 -17 4 -36q1 -19 0 -36q-1 -4 -1 -8t-3 -6q-7 -1 -44 1q-36 3 -42 5q-9 12 -5 36t4 38q-1 50 -31 89q-29 38 -81 40h-14q-13 0 -16 -1q-7 -6 -4 -20l6 -21q3 -26 1 -52q-1 -26 -1 -51q-3 -176 8 -353q-7 165 -6 132q0 -33 6 -132q0 -31 -6 -66 q-5 -36 2 -66q7 -12 42 -16q35 -3 54 -4q4 0 13 -2q9 -1 12 -8q0 -7 -6 -13l-12 -9q-19 -13 -39 -18q-22 -7 -44 -10q-58 -7 -118 -5q57 0 45 -1q-12 0 -45 1q-13 0 -28 3t-30 1q-16 -2 -15 -6q0 -5 -11 -11q-20 -4 -44 0q-24 6 -44 10q-12 2 -47 5q-34 3 -39 4q-8 9 0 13 q7 4 11 5q18 5 37 0q18 -5 36 0q8 2 12 8q-5 -4 -4 -3q2 0 4 3q5 13 3 28q-3 16 0 30q8 23 8 12q0 -12 -1 -18q-1 -3 0 2t2 9q2 8 4 14q-2 -6 -2 -5q1 2 2 5q3 23 2 45q0 -21 1 -17q0 4 -1 17q0 33 2 66q2 32 3 65q3 78 0 155q-2 77 -2 154q-1 44 0 88q0 -41 -1 -33 q0 9 1 33q1 3 2 15q2 12 0 15q-8 9 -32 6q-25 -2 -38 -3q-14 1 -29 3q-16 1 -30 -2q-24 -13 -35 -66q-10 -54 -12 -82q0 -9 1 -23q0 -14 -4 -22q-6 -2 -41 -3q-36 -1 -44 1q-2 1 -3 5q-1 3 -2 7zM263 713q29 -7 32 -5q4 3 -32 5zM374 645q-1 -19 -2 -39q-1 -19 0 -38v-10 q0 -5 3 -5q4 1 4 5v10q1 19 0 39q-1 19 -5 38z" />
<glyph unicode="U" horiz-adv-x="750" d="M-8 727q37 14 77 6t79 -8q35 2 70 5q35 5 71 6q10 1 23 2q14 2 22 -1q2 -2 3 -6t3 -6q10 -3 37 -3q26 1 27 -11q-6 -16 -32 -6q-26 9 -32 -8q0 -5 7 -7q8 -2 13 -6q3 -8 1 -22q-3 -13 -3 -21q0 -22 2 -43t3 -43q0 -96 -8 -193q-8 -98 3 -193q4 -38 25 -75q21 -36 62 -45 q33 -2 64 28q30 29 48 54q56 84 64 196q8 110 -3 208q-3 42 -4 86q-2 45 -15 85q-9 19 -27 19q-17 -1 -35 2q-7 2 -12 6q-4 5 6 12q10 5 27 4q17 -2 30 -3l64 -4t64 0q9 2 30 3q20 0 19 -16q-7 -13 -39 -6q-32 6 -43 0q-2 -5 1 -21q3 -15 4 -21q11 -71 18 -142q-8 66 -6 53 t6 -53q8 -88 -1 -209q-11 -120 -47 -201q-9 -15 -25 -25q-15 -10 -26 -24q-3 -6 -4 -13q0 -6 -4 -11q-13 -15 -30 -30q-16 -13 -37 -18q-34 -8 -71 -10t-72 -3q-57 -4 -114 7q54 -7 42 -7q-10 1 -42 7q-28 6 -54 18q25 -9 20 -8l-20 8q-76 41 -90 112q-13 73 -9 150 q0 29 -3 57q-3 29 -5 58q-2 46 -3 93q-2 45 -5 92q0 28 2 59q2 29 -3 55q-12 27 -50 18q-39 -9 -63 13zM406 28q28 -6 0 0l15 -3z" />
<glyph unicode="V" horiz-adv-x="803" d="M-28 745q30 5 59 0q29 -4 57 -8q52 -4 104 -10q52 -4 98 -27q37 -23 67 -59q29 -35 49 -73q27 -49 47 -101q20 -51 44 -101q3 -7 13 -29t12 -25q3 2 7 19q3 17 4 22q17 72 31 145q-12 -68 -10 -55t10 55q11 43 26 84q15 42 25 84q2 8 6 31q4 24 4 28q-4 2 -26 2 q-24 -1 -32 2q-20 8 -3 20q-7 -10 -8 -8q0 1 8 8q13 6 30 6t30 -1h132q-61 0 -49 0h49q10 1 31 1q22 0 26 -11q0 -8 -10 -10q-9 -1 -12 -1q-14 0 -38 3q-23 3 -34 -7q-8 -13 -12 -48q-3 -34 -7 -53q-9 -32 -21 -63t-21 -63q-10 -45 -19 -85q-8 -41 -24 -86q-13 -38 -19 -79 q-4 -40 -11 -80q-8 -33 -20 -63q-12 -29 -27 -59q-10 -25 -20 -40q-10 -16 -37 -18q-5 -1 -14 -1t-15 3q-10 9 -34 44t-35 51q-63 96 -97 206q-35 110 -87 212q-29 54 -73 102q-43 47 -90 87q-11 8 -35 20q-25 11 -29 14q-2 4 -1 8q0 4 1 7zM119 713q32 -11 35 -10 q1 1 -35 10z" />
<glyph unicode="W" horiz-adv-x="1044" d="M-22 695q32 18 66 19q34 0 69 -4q28 -2 56 -3q27 -1 54 -11q55 -22 110 -84t83 -116q14 -28 26 -58t23 -60q3 -6 6 -21q4 -15 9 -19q1 -1 3 2l2 4q9 20 13 42q-5 -20 -4 -16l4 16q9 35 8 62t-12 61q-17 48 -46 89t-62 77l-27 24q-17 17 -14 30q9 13 44 6t50 -11 q17 -2 34 -1q17 0 34 -5q62 -27 118 -75q55 -49 96 -104q23 -31 39 -67q16 -35 28 -72q9 -27 15 -55q-6 26 -5 21q2 -5 5 -21q1 -7 2 -16t7 -8q4 4 16 36q13 32 17 43q20 57 38 115q17 57 31 116l9 36t0 34q-12 7 -35 2q-24 -7 -33 6q-3 11 11 13q15 3 20 6q2 3 -3 9 q-5 5 -4 9q3 5 12 5h13q25 -2 49 -6q24 -3 48 -4q3 0 14 -1q10 -1 13 -3q2 -4 0 -8q-1 -3 0 -6q3 -3 12 -5q8 -2 10 -8q-1 -12 -19 -11q-17 1 -25 -10q-8 -23 -8 -48q-1 -27 -6 -51q-24 -84 -53 -163q-30 -80 -56 -161q-8 -27 -12 -56q-4 -28 -10 -56q-7 -28 -20 -53 t-23 -52q-4 -13 -9 -33q-6 -18 -17 -28q-13 -7 -41 -6t-39 10q-12 18 -12 42q0 22 -5 42q-28 96 -80 182q43 -83 36 -65q-8 17 -36 65q-6 10 -23 38q-18 29 -23 32q-8 -5 -14 -37q-6 -33 -8 -46q-20 -90 -51 -177q27 82 22 66q-5 -18 -22 -66q-4 -16 -11 -34q-7 -20 -22 -25 q-14 -1 -56 5t-52 11q-17 20 -23 52q-6 33 -12 58q-24 77 -51 156q-26 78 -59 151q-26 55 -67 101q-41 45 -89 78q-11 6 -37 23q-26 16 -28 29q4 8 19 6t12 2q-13 11 -24 0q-11 -10 -18 14zM20 679q14 -4 28 -5q-13 2 -10 1q2 0 10 -1q5 0 11 2q7 2 4 3q-10 2 -22 1 q-11 -1 -21 -1zM172 667q24 -19 25 -17q1 3 -25 17zM495 661l11 -12q1 1 -11 12z" />
<glyph unicode="X" horiz-adv-x="813" d="M-3 35q19 1 43 -3q23 -4 41 2q14 7 23 26t18 31q33 41 52 86q19 46 42 92q9 14 21 30t15 33q1 12 -5 28q-6 15 -11 26q-14 41 -34 81q-18 40 -43 75q-16 20 -33 38q-16 18 -31 39q-17 23 -29 50q-13 26 -26 51q-8 8 -26 14q-17 5 -16 15q6 9 38 6q30 -4 43 -6 q60 -7 119 -12q58 -5 119 -4q13 0 45 -1q33 -2 39 -6q1 -8 -8 -10q-10 -3 -14 -3q-34 -5 -70 -2q34 -2 27 0h-27q-2 1 -13 1t-13 -6q1 -6 11 -8q11 -2 14 -2q15 0 35 1q21 2 29 -12q3 -10 3 -22q0 -10 3 -21q10 -24 24 -45l28 -42q3 -6 8 -20q7 -13 14 -15q9 3 18 21 q9 17 13 26q17 28 33 56q16 29 30 58q4 7 9 20q6 13 2 21q-10 11 -35 7t-28 11q2 14 23 10q19 -3 28 -5q14 0 20 6q6 7 19 9q27 2 56 -6q27 -9 55 -12q8 0 29 -1q22 -1 25 -8q0 -8 -10 -10q-11 -1 -14 -1q-15 1 -35 5q-21 5 -35 -1q-9 -7 -18 -36q-9 -30 -14 -42 q-10 -25 -24 -44q-15 -21 -28 -44q-12 -22 -21 -46q-7 -23 -16 -47q-8 -16 -18 -31q-11 -16 -9 -34q7 -23 21 -45q15 -22 27 -44q29 -58 55 -117q27 -58 70 -109q13 -16 29 -31q15 -16 37 -20q11 0 44 -1q34 -2 21 -20q-11 -10 -28 -8q-15 2 -27 -6q-9 -9 -6 -12t-11 -8 q-23 -5 -49 3q-26 9 -48 13q-49 5 -99 2q-51 -3 -99 -7q-20 -2 -58 -4q-39 -3 -54 4q-9 6 -6 11q3 6 11 9q15 4 34 3q20 -1 37 0q2 0 13 1t13 3q-1 5 -11 2q-10 -2 -16 1q-14 15 0 13q13 -1 6 14q-9 14 -23 27q-15 12 -26 26q-30 40 -52 86q23 -42 18 -34t-18 34q-4 7 -8 21 t-9 19q-4 3 -7 -4q-3 -8 -4 -14q-10 -27 -23 -52q12 24 10 18q-2 -4 -10 -18q-18 -40 -44 -75q22 34 18 26q-3 -6 -18 -26q-5 -6 -15 -17q-10 -10 -11 -18q1 0 15 5q13 4 17 4q13 1 44 -2q29 -3 29 -16q-6 -15 -27 -21q-22 -6 -35 -9q-38 -14 -75 -18q-38 -5 -78 -2 q-12 -1 -29 -4q-16 -2 -27 6q-23 23 -6 13q19 -9 -7 12q-13 8 -13 4q0 -3 -2 15zM134 711q29 -12 0 0l15 -6zM506 20q33 -5 0 0l16 -2z" />
<glyph unicode="Y" horiz-adv-x="782" d="M-11 740q28 22 64 19q38 -3 71 -9q48 -4 97 -7q-46 3 -37 2q10 -1 37 -2q8 -1 21 -1q13 -1 20 -8q2 -3 2 -6q0 -4 2 -7q6 -8 16 -13q9 -5 17 -14q28 -32 55 -67q26 -33 49 -69q11 -19 29 -53q17 -34 31 -47q10 -1 21 33q12 35 16 50q17 42 40 85q23 44 50 80 q12 20 -22 16q-33 -5 -34 12q5 11 24 11q19 -1 30 -2q62 1 124 0q-58 0 -47 0h47q13 0 29 1q17 1 27 -6q9 -8 7 -12q-2 -5 -11 -7q-20 -5 -42 4q-24 7 -43 1q-3 -2 3 -7q5 -4 6 -8q0 -4 -2 -7t-5 -6l-46 -74q22 35 18 28q-5 -7 -18 -28q-27 -44 -49 -96q-23 -52 -38 -103 q-3 -14 -5 -28q-2 -15 -7 -29q-6 -17 -15 -33q-8 -16 -10 -34q-3 -29 -1 -59t3 -58v-103q0 48 0 38v-38q-1 -7 -3 -22t4 -21q4 -1 13 1q9 3 13 4q13 1 28 0q16 -1 29 -3q4 0 13 -1q9 -2 11 -9q0 -6 -9 -9q-9 -5 -13 -5q-21 -4 -42 -6t-42 -3q-13 -1 -28 0q-14 0 -27 -3 q-14 -4 -13 -7t-12 -5q-14 -2 -28 1q-15 3 -28 5q-27 4 -55 5l-56 4q-13 0 -44 1q-30 2 -39 7q-8 11 1 13q9 3 13 2q16 0 42 -4q27 -4 36 10q5 13 3 29q-1 16 -1 30q3 51 7 101q3 51 -8 102q-19 75 -58 150t-91 130q-14 14 -42 38q-29 23 -46 33q-3 2 -7 1q-3 -1 -5 1 q-5 5 -6 12q-1 8 -4 14q-10 17 -18 31q-9 14 -12 34zM87 708q17 -23 0 0l8 -12zM95 696q12 -23 17 -21q5 1 -17 21z" />
<glyph unicode="Z" horiz-adv-x="635" d="M-6 36q24 78 71 142q47 65 91 131q28 47 48 100q19 53 37 104q23 59 43 118q-20 -55 -16 -44q5 11 16 44q2 7 9 20q6 12 6 19q-4 8 -18 7q-15 -1 -21 -2q-30 0 -62 -1t-60 -15q-19 -12 -31 -37q-13 -25 -5 -47q5 -9 17 -22q12 -14 -2 -23q-8 -3 -20 0q-13 3 -21 4 q-48 5 -57 28t-1 69q3 23 10 48q7 26 24 42q21 15 52 16q31 0 56 1q69 6 138 8t139 3q69 2 137 3q-64 -1 -51 -1q13 1 51 1q9 1 21 2t17 -9q2 -8 -2 -21q-5 -12 -8 -20q-8 -26 -21 -51q-13 -24 -25 -50q-22 -50 -47 -100t-53 -97q-11 -18 -24 -34q-14 -16 -25 -33 q-22 -35 -40 -73q-18 -37 -35 -75q-11 -25 -25 -50q-13 -25 -33 -45l-15 -15q-10 -11 -10 -18q4 -3 31 -3q27 1 37 1q49 -2 105 1q55 3 93 40q20 24 24 56t3 63q-1 11 -2 28q-1 18 5 27q7 2 41 1q34 -2 40 -3q3 -5 1 -21q-2 -15 -3 -21q-2 -30 -2 -63q-1 -32 -11 -60 q-4 -8 -18 -25q-13 -18 -14 -21q3 -6 17 -6q15 0 13 -12q-4 -7 -18 -10q-13 -2 -21 -3q-47 -9 -95 -19q45 9 36 7q-9 -1 -36 -7q-80 -15 -178 -8q-99 7 -181 16q-25 2 -64 3t-58 12zM141 42q27 -11 55 -10l56 2h29q-13 0 -11 0h11q5 0 11 2q7 2 4 3q-7 1 -14 0q-7 -2 -14 -2 q-64 3 -127 5q59 -2 47 -1q-11 0 -47 1z" />
<glyph unicode="[" horiz-adv-x="280" d="M8 292q1 67 4 133t3 133q-1 39 -2 89q0 49 8 86q5 10 21 11q17 1 28 1q73 1 145 -7q-68 5 -55 5q14 0 55 -5h22q15 -1 19 -3q8 -12 -8 -15q-16 -2 -20 -2q-25 3 -69 5q-42 2 -50 -25q-3 -33 0 -68q2 -34 0 -68q-10 -88 -9 -178q1 -89 2 -179q0 -29 1 -60q2 -30 -1 -60 q-1 -8 -3 -22q-3 -14 0 -21q3 0 19 3q16 2 19 3q47 5 94 0q-43 3 -35 2q9 0 35 -2h13q8 0 9 -9q-1 -11 -24 -14q-22 -4 -33 -4q-35 -6 -91 -10q-57 -5 -90 6q-11 8 -8 31q2 24 5 35q4 40 4 106t-8 103z" />
<glyph unicode="\" horiz-adv-x="494" d="M21 712q8 26 30 24q20 0 43 -4q45 -5 58 -16q15 -12 34 -54q38 -76 78 -149q40 -74 73 -150q19 -47 34 -97q16 -49 35 -96l30 -62q18 -29 34 -59q5 -8 9 -23q3 -16 -8 -23q-9 -5 -27 -2q-17 5 -29 6q-10 0 -29 -1q-20 -1 -28 4q-6 7 -25 43q-17 37 -24 50q-23 52 -39 105 q-18 51 -39 102q-45 104 -96 207q-53 103 -114 195z" />
<glyph unicode="]" horiz-adv-x="341" d="M17 11q0 19 13 19q12 1 30 0q26 -1 53 -2q28 -1 54 2q6 0 20 1q15 1 19 6q6 12 3 37q-2 24 -3 39q1 128 6 254q-4 -118 -4 -95q1 24 4 95q1 42 0 83q0 42 3 83q6 41 9 88t-6 87q-3 11 -14 12q-10 1 -20 0q-43 -4 -86 0q41 -2 33 -2t-33 2q-7 0 -20 -1q-15 -1 -18 8 q0 16 24 16q26 -1 38 -2q35 5 72 3t72 -5q10 -1 20 -1t18 -8q14 -21 11 -67q-3 -47 -5 -73q-2 -105 -6 -209q-6 -104 -6 -210q0 -29 1 -59l2 -60q0 -7 -1 -21q0 -14 -4 -20q-9 -8 -36 -5q-25 1 -37 2q-51 -1 -104 -5q-53 -3 -102 8z" />
<glyph unicode="^" horiz-adv-x="610" d="M599 404q-4 -2 -6.5 -10.5t-5.5 -18.5t-7 -19.5t-10 -13.5q-3 -2 -16 10t-31.5 33t-41.5 49t-46 57q-55 69 -122 158q-71 -102 -132 -176q-26 -32 -52 -61t-49.5 -48.5t-41.5 -27t-27 3.5q-13 15 2 50t45 79t68.5 91.5t73.5 87t59 65.5t26 28t18.5 1.5t35.5 -2.5l50 -6 q61 -91 109 -163q20 -31 39 -60.5t33.5 -52.5t22.5 -38t6 -16z" />
<glyph unicode="_" horiz-adv-x="750" d="M33 108h675v-100h-675v100z" />
<glyph unicode="a" horiz-adv-x="486" d="M-1 101q17 60 58 106q40 47 96 74q29 13 58 23q-28 -10 -21 -8q5 2 21 8q8 1 19 2q9 1 16 5q11 10 7 39t-7 44q-7 59 -37 79q-30 21 -88 -4q-14 -7 -11 -17q3 -11 10 -22q11 -23 30 -39q18 -15 43 -23q6 -1 18 -5q11 -3 12 -11q-1 -9 -16 -18q-13 -9 -20 -15l-9 -9 q-4 -6 -10 -7q-3 0 -5 2q-3 2 -4 2q-4 -1 -6 -3q-1 -3 -4 -4q-4 -1 -13 -1h-11q-26 -3 -49 -3q-23 1 -34 28q-18 51 3 89q21 37 59 70q12 12 26 25t33 18q14 3 30 0t29 -7q41 -8 85 -21q43 -13 77 -37q17 -13 27 -32q8 -21 15 -41q18 -60 16 -107q-4 -49 -15 -110 q-3 -30 -9 -60q5 29 4 22q0 -5 -4 -22q-1 -6 -5 -11q-3 -7 -2 -12q6 -8 34 -5t34 -7q0 -7 -10 -14q-11 -8 -15 -12q-28 -23 -66 -30t-73 -4q-13 1 -23 6q-12 4 -21 14q-6 8 -14 20q-7 13 -19 13q-13 -3 -33 -23q-22 -18 -36 -27q-45 -24 -95 -23q-49 0 -69 56q-6 24 -6 49 q1 -24 1 -19q-1 4 -1 19zM82 199q10 7 10 9q-1 1 -10 -9zM134 211q18 15 18 22q1 6 -18 -22zM163 164q0 -15 1 -31q2 -16 11 -28q11 -14 32 -17t31 15q8 24 7 54q-3 30 0 56q1 8 4 20q3 10 1 18q-6 9 -22 7q-15 -2 -23 -7q-20 -12 -29 -39q-8 -26 -13 -48z" />
<glyph unicode="b" horiz-adv-x="593" d="M-20 706q13 2 26 1t26 -1q39 0 78 6q39 5 78 8q17 3 40 5q22 3 38 -6q9 -6 9 -16q1 -10 0 -20q-1 -29 0 -58q1 -30 -2 -59q-1 -6 -5 -20q-3 -13 0 -19q6 -4 24 -1q18 4 27 5q35 1 72 -4q38 -4 70 -18q24 -11 41 -31t31 -43q39 -65 53 -162t-38 -159q-13 -15 -30 -24 q-17 -10 -33 -23q-7 -6 -13 -15q-6 -7 -13 -14q-23 -12 -63 -15t-66 -1l-26 2q-14 1 -26 4q-6 1 -12 5t-12 4q-9 0 -6 -13q2 -14 -17 -18q-22 -1 -55 4t-50 0q-2 -1 -4 -4t-5 -4q-9 -1 -55 4q-44 4 -62 5q-6 0 -12 3q-7 2 -6 12q5 12 27 6q22 -5 33 0q5 7 4 19v20 q-1 24 0 45q1 23 6 46q17 83 10 194q-6 110 -15 197q-2 23 -1 46q0 23 2 46q1 7 1 19q0 13 -4 19q-13 14 -34 7t-31 16zM249 204q-1 -16 -4 -48q-2 -32 4 -44q5 -6 12 -6t12 -2q14 -8 23 -24q9 -17 24 -24q9 -2 18 6q8 7 13 14q20 22 34 49q13 27 19 56q11 58 11 126 q1 68 -22 123q-9 21 -32 43q-22 23 -47 18q-9 -4 -15 -13q-5 -8 -13 -14q-7 -3 -13 -3q-5 1 -10 -7q-8 -11 -6 -32q2 -20 2 -33q-2 -46 -2 -93q1 -46 -8 -92z" />
<glyph unicode="c" horiz-adv-x="494" d="M5 302q7 32 22 69q13 39 36 63q8 7 16 12q9 4 16 10q47 36 99 50q53 13 112 9q46 -1 84 -13q39 -12 64 -52q20 -34 30 -82q10 -50 -30 -73q-22 -8 -46 -5q-23 5 -46 7q-18 -1 -40 -3t-37 11q-19 22 -11 63q9 40 28 60q7 4 17 11q10 6 14 14q1 8 -3 20q-5 12 -12 17 q-14 7 -29 -5q-16 -14 -25 -24q-27 -28 -45 -65t-22 -76q-1 -16 2 -32q4 -17 7 -32q4 -49 21 -120q18 -71 69 -88q37 -6 71 12t53 48q10 13 22 24q12 12 28 18q3 2 10 4q8 2 11 -5q1 -11 -8 -25q-9 -16 -13 -24q-6 -15 -10 -32q-5 -16 -16 -28q-39 -32 -104 -37 q-66 -5 -113 2q-27 2 -53 7q-25 7 -50 17q-78 39 -100 116q-22 76 -19 157zM271 28q31 -1 0 0h16h-16z" />
<glyph unicode="d" horiz-adv-x="680" d="M4 248q4 103 66 186t167 101q55 6 110 -1q-52 4 -41 4q11 -1 41 -4q8 -2 20 -7q13 -5 20 -1q5 5 4 19t-1 22q-2 20 -5 41t-2 41q0 5 2 14q1 9 -1 14q-9 13 -36 11q-28 -2 -43 -1q-10 2 -18 8q-8 7 6 15q17 7 41 2q24 -4 42 -5q28 1 55 9q26 8 53 15q10 3 27 6t26 -4 q6 -7 5 -20t-2 -21q-1 -31 -4 -63q-2 -31 -1 -62q1 -34 3 -69q3 -34 2 -69q-2 -90 -6 -180t-3 -179q1 -21 15 -17q15 3 28 0q14 -8 7 -11q-8 -3 -13 -4q-3 -2 5 -1q7 0 13 1h13h14t35 -1q26 -2 23 -15q-8 -11 -31 -15q-22 -4 -35 -5q-44 -8 -89 -12t-89 -6q-11 -1 -37 1 t-29 14q3 8 18 8q15 1 21 3q3 3 -4 4q-7 2 -12 2q-28 -2 -56 -7q26 4 21 3t-21 -3q-41 -6 -82 -6t-82 12q-79 26 -119 89q-40 62 -41 144zM242 248q0 -41 8 -70q7 -30 16 -67q1 -10 1 -21q1 -10 9 -18q19 -15 38 0q20 15 36 24q6 1 13 3q8 1 13 6q3 6 3 13q0 -7 0 -5v5 q4 37 -3 77q-6 39 -8 77q1 37 7 77q6 39 1 76q-5 19 -31 47q-25 28 -46 29q-13 -4 -18 -26q-4 -22 -8 -35q-16 -48 -20 -96q-4 -47 -11 -96z" />
<glyph unicode="e" horiz-adv-x="558" d="M8 303q7 34 17 69q9 33 29 63q13 18 36 37q21 21 43 26q11 1 20 1q8 -1 19 2q49 18 86 21q35 5 88 -5q31 -4 64 -7q33 -4 56 -26q13 -15 20 -34q8 -18 12 -37q4 -20 7 -44q3 -25 -3 -45q-7 -18 -25 -28q-18 -9 -36 -15q-37 -11 -75 -11q-38 1 -77 5q-38 1 -77 5 q36 -3 29 -3q-7 1 -29 3q-4 1 -12 1t-12 -4t-3 -13q1 -7 2 -12q4 -23 7 -44q3 -22 11 -44q8 -23 23 -45q-13 21 -10 16q2 -4 10 -16q12 -16 27 -29q-14 13 -12 10q3 -3 12 -10q43 -31 89 -11q45 18 78 56q10 11 20 25q10 13 23 22q12 7 45 6q33 -2 39 -15q-1 -3 -8 -11 t-8 -9q-13 -14 -26 -29q-13 -16 -28 -27q-8 -4 -16 -11q-9 -5 -9 -16q1 -1 3 0q2 2 4 3q7 7 11 14q6 9 12 17l2 4q2 2 2 1q-11 -35 -38 -51t-59 -27q-19 -7 -40 -16q-20 -11 -43 -15q-53 -6 -115 9q-61 14 -105 46q-53 43 -67 113q-15 71 -13 135zM179 339q-1 -9 -2 -20 t6 -18q10 -7 26 -3q15 4 25 6q35 3 72 12q35 9 43 50q2 29 -13 56q-14 28 -31 49q-6 9 -13 16q-7 8 -18 9q-3 -1 -11 -4q-7 -4 -11 -5q-38 -26 -51 -66q-14 -42 -22 -82zM238 33q5 -2 20 -6q14 -4 18 4q-2 3 -18 3q-16 -1 -20 -1z" />
<glyph unicode="f" horiz-adv-x="407" d="M-17 515q16 0 41 -1q26 -1 37 11q6 11 6 26t2 28q11 34 39 71q30 38 64 51q16 4 34 2q17 -2 33 -4q34 -2 68 -8q32 -6 56 -33q17 -20 28 -57q12 -37 -15 -52q-10 -3 -20 -2q-10 2 -21 3q-9 0 -20 -1q-11 -2 -20 0q-6 3 -29 18q-24 14 -28 17q-10 10 -12 23q-3 13 -3 28 q1 3 0 10q-1 8 -9 8q-7 -3 -25 -24q-16 -21 -17 -28q3 -7 14 -6q11 2 19 -5q11 -18 15 -36q4 -16 24 -33q18 -14 36 -17q20 -5 40 -8q3 -1 13 -3q11 -2 14 -5q4 -10 -6 -11q-9 -1 -12 -1q-23 3 -41 4q-16 0 -17 -28q0 -69 1 -136q2 -68 2 -136q0 -24 2 -47l2 -48 q0 -13 -3 -27q-2 -14 0 -27q9 -13 49 -8q39 5 50 -8q3 -11 -11 -15q-12 -4 -19 -5q-27 -2 -55 1q-27 3 -54 5q-88 3 -176 8q82 -4 66 -3q-16 0 -66 3h-28q-18 0 -26 6q-7 9 0 11q8 3 13 3q12 0 34 -4q23 -4 33 3q6 11 4 33q-2 23 -3 36v67q-1 34 -5 68q-5 41 -12 81 q-8 40 -12 80q-2 20 -3 40q-1 22 2 41q1 7 3 13q2 7 -4 13q-18 9 -39 1t-33 14zM164 26q18 3 15 9q-4 7 -15 -9z" />
<glyph unicode="g" horiz-adv-x="622" d="M6 36q18 38 54 62q37 24 76 37q5 2 13 4q9 3 15 3q3 0 7 -1t7 0q1 2 -2 4q-2 2 -4 3q-9 6 -20 9q-10 2 -20 5q-24 5 -47 16q-23 10 -40 27q-40 48 -33 119q8 72 49 116q43 41 102 63q59 21 117 20q31 -2 63 -8q31 -7 63 -7q12 1 18 6q6 6 16 13q14 11 32 16q17 6 33 10 q32 7 63 8q32 1 63 1q10 1 22 0q12 -2 14 -13q0 -11 -11 -19q-10 -6 -19 -10q-23 -13 -47 -29q-25 -16 -52 -20q-9 1 -22 4q-13 2 -18 -8q-3 -7 3 -13q5 -6 9 -9q16 -15 29 -31q14 -17 22 -36q22 -58 5 -125q-17 -68 -67 -106q-22 -14 -46 -16q-23 -1 -48 -2q-16 -1 -28 -6 q-13 -6 -26 -8q-12 0 -21 5q-7 6 -18 9q-20 3 -43 -2q-21 -5 -39 -12q-16 -6 -49 -19t-38 -25q1 -9 14 -16q11 -8 18 -11q30 -15 61 -5q30 10 60 22q42 12 83 11q43 0 85 3q16 4 34 6q20 2 32 -12q14 -24 18 -67q5 -44 4 -71q0 -33 -11 -70q-12 -37 -34 -62q-11 -11 -29 -18 q-18 -6 -34 -12q-12 -5 -26 -10q-13 -5 -27 -7q-21 -1 -41 4q-22 5 -42 8q-37 4 -70 8q-34 5 -67 16q-24 7 -49 11q-24 4 -45 20q-20 19 -20 42q1 25 -2 49q-5 18 -18 31q-14 11 -24 26q-7 15 -8 34q0 18 1 35zM151 -144q42 -44 106 -49q65 -5 121 2q25 3 49 9t39 27 q11 21 -3 46q-16 24 -38 30q-25 4 -56 -5t-55 -17q-21 -6 -42 -8t-41 -7q-21 -7 -39 -17q-18 -9 -41 -11zM199 314q0 -32 5 -64q5 -33 24 -58q19 -24 62 -37q41 -13 68 4q19 19 31 48q12 31 17 56q12 55 -2 114q-15 58 -63 89q-12 8 -25 16q-13 9 -26 6q-11 -4 -17 -14 t-11 -19q-25 -32 -38 -67q-15 -33 -25 -74z" />
<glyph unicode="h" horiz-adv-x="649" d="M-14 672q15 8 32 9q15 0 33 3q16 4 32 11q15 6 32 11q19 4 39 5q20 2 40 6q17 5 40 8q24 2 29 -19q1 -16 -2 -33q-4 -18 -5 -34q-2 -26 -2 -53t-2 -54q-1 -10 -3 -28q-2 -17 5 -26q7 -3 20 13q15 15 30 20q14 2 27 0q14 -3 28 -2q41 5 86 12q44 8 85 -13q23 -14 32 -40 q9 -27 11 -53q3 -43 -1 -87q-4 -43 -3 -87q1 -12 6 -18q5 -5 7 -17q3 -27 1 -54q-2 -26 2 -53q2 -10 5 -27q2 -18 -7 -25q-3 -1 -7 1q-4 1 -6 0q-1 -2 1 -5q3 -2 5 -4q1 -3 1 -6q0 -4 3 -6q11 -4 42 0q30 4 30 -12q-5 -14 -27 -10q-24 3 -35 4q-14 -1 -27 -3q-13 -3 -26 -3 q-14 1 -27 5q-13 3 -27 4q-20 0 -39 -3q-21 -2 -41 -6q-11 -2 -34 -6q-22 -4 -31 6q-6 12 13 16q17 3 20 15q0 6 -6 12q-5 5 -6 11q-2 16 5 45q8 29 11 47q13 86 12 173q-2 -81 -1 -64q0 15 1 64q1 30 -2 60q-2 30 -12 59q-2 8 -8 20q-5 10 -15 10q-8 0 -11 -7t-5 -13 q-7 -18 -16 -36q-10 -18 -17 -35q-6 -14 -12 -33q-7 -19 -19 -27q-10 -4 -13 -1q-4 2 -10 -8q-6 -15 -3 -33q4 -19 6 -34q2 -37 -3 -73q-4 -37 -4 -74q0 -10 1 -20q1 -11 8 -19q11 -8 31 -14t13 -22q-7 -10 -22 -16q-14 -5 -26 -9q-41 -14 -84 -16t-87 -1q-14 -1 -35 -2 q-22 -1 -32 7q-9 11 4 14q14 2 20 2q17 0 33 -1q18 -1 34 -1q5 1 11 4q5 3 3 5q-7 2 -15 0q-7 -2 -13 0q-12 5 -14 20q-3 16 -4 27q-2 40 4 81q6 39 10 79q7 84 3 167q-4 84 -10 168q0 23 4 54q4 32 -6 53q-9 11 -40 11t-48 4zM459 36q29 -4 29 -3q0 2 -29 3z" />
<glyph unicode="i" horiz-adv-x="355" d="M10 8q16 2 32 1q15 -1 31 -2q2 0 13 1t12 4q-3 3 -21 1q-18 -3 -24 5q-5 15 -4 43q1 29 0 46q-2 67 5 133t9 132q1 16 4 47q2 31 -1 42q-9 7 -31 7q-24 0 -25 10q2 6 10 7h12q23 -1 45 0q21 1 44 6q31 8 61 16t62 10q9 1 26 2q15 0 22 -8q1 -3 0 -13v-12q-4 -44 -10 -88 q6 41 5 33q-2 -9 -5 -33q-7 -72 -11 -146q-4 -72 -3 -144v-27q1 -16 7 -23q3 -1 13 -1q11 -1 13 -1q2 -5 -4 -12q-5 -7 -6 -9q9 -7 44 -4q35 2 24 -19q-11 -14 -33 -17q-22 -2 -38 -2q-50 -5 -101 -5q-51 1 -101 3q-9 0 -40 2q-31 0 -36 2q-2 3 -1 7q1 3 1 6zM63 597 q2 21 9 45q6 23 24 37q23 14 55 9q33 -6 58 -10q9 0 19 -1t17 -8q6 -7 9 -17q2 -10 3 -19q3 -23 2 -52q-2 -30 -21 -45q-14 -7 -32 -5q-17 2 -32 4q-40 1 -68 11q-29 10 -43 51zM127 14q25 -5 26 -3q1 1 -26 3zM164 11q26 -6 0 0l13 -3zM230 15q9 -2 13 -3q6 -1 15 3 q1 1 2 3q1 3 0 3q-2 0 -15 -3q-13 -2 -15 -3z" />
<glyph unicode="j" horiz-adv-x="425" d="M0 465q43 7 85 2q43 -5 85 -2q30 3 60 15q30 11 60 13q18 2 47 2q29 1 42 -13q11 -27 3 -83q-8 -55 -11 -87q-1 -19 1 -40q1 -19 1 -38q-3 -57 -9 -116q-7 -60 -1 -116q2 -7 7 -14q4 -6 4 -14q0 -7 -6 -20q-4 -13 -6 -22q-1 -39 -6 -77q-3 -40 -33 -69q-41 -33 -92 -34 q-51 -2 -100 2q-17 -1 -31 -1q-15 0 -29 9q-32 22 -49 59q-15 38 -13 76q0 10 3 24q3 12 10 20q22 14 68 8q47 -8 62 -28q9 -17 7 -38q-1 -23 -7 -40q-3 -10 -10 -20q-6 -11 -4 -21q10 -29 43 -21t45 30q2 6 4 15q0 8 1 15q9 52 -5 90t-67 58q-17 6 -48 9q-31 4 -44 11 q-9 9 -2 28q6 20 8 30q5 34 3 70q-3 36 -5 69q-5 53 -13 108q-6 56 -5 108q0 4 2 8q1 4 1 7q-4 22 -25 12q-20 -10 -31 16zM100 620q9 58 70 81q62 25 117 14q31 -6 55 -26q23 -20 24 -56q-1 -19 -9 -38q-9 -18 -27 -26q-7 -2 -24 -5q-16 -4 -20 -10q1 -6 16 -9q16 -4 2 -18 q-12 -6 -31 -1q-20 4 -31 5q-49 2 -93 18q-43 15 -49 71zM267 444q31 0 0 0h15h-15z" />
<glyph unicode="k" horiz-adv-x="710" d="M0 699q27 4 54 1q26 -3 52 -4q34 0 66 8t66 9q7 1 19 0q13 -1 19 -7q8 -13 6 -50q-3 -38 -5 -55q-5 -51 -7 -100t0 -99q0 -10 2 -42q1 -32 2 -37q5 -3 17 5t15 11q14 9 30 15t28 17q7 5 23 23q15 18 22 26q8 10 15 30q7 19 1 33q-5 8 -11 8q-5 0 -12 2q-16 9 -1 20 q-7 -11 -8 -8q0 2 8 8q8 3 20 2t20 -2q30 0 60 2q29 2 59 2h20q14 -1 20 -6q1 -2 1 -6q0 -3 -1 -6q-4 -5 -13 -3q-8 2 -12 2q-10 -3 -18 -10q-7 -8 -13 -16q-17 -20 -33 -41q-15 -21 -32 -42q-6 -7 -15 -14q-8 -7 -13 -14q-1 -3 1 -6q-2 3 -1 2t1 -2q4 -9 3 -18v-19 q2 -15 14 -31t19 -32q18 -52 41 -97t66 -83q22 -17 46 -26q25 -7 51 -13q8 -2 17 -11q8 -7 5 -18q-10 -13 -47 -16q-38 -3 -55 -3q-23 -1 -47 -1t-46 8q-47 16 -94 49q-46 32 -84 65q-17 13 -27 29q-11 15 -18 35l-4 12q-5 8 -11 8q-3 -2 -4 -11q-1 -11 0 -13q-1 -23 0 -47 t-1 -47q-2 -6 -5 -19q-3 -12 3 -17q4 -1 7 1q3 3 7 4q12 2 26 2t27 -2q3 -1 12 -3q8 -2 10 -9q-2 -16 -31 -20q-28 -4 -41 -3q-53 4 -106 2q-54 -1 -106 -2q-13 -1 -35 -1t-32 8q-11 15 14 13t33 4q4 8 4 20q0 13 1 20q2 30 3 60q2 30 2 60q-1 33 -4 66q-2 33 -3 67 q1 20 3 39q2 20 2 40q0 17 -2 33q-2 17 -1 33q2 21 7 22q4 1 7 2q4 7 5 20q0 12 -1 20v47q-2 24 -2 47q1 8 2 20q0 11 -3 19q-17 13 -42 7q-25 -7 -37 24z" />
<glyph unicode="l" horiz-adv-x="400" d="M13 690q30 4 59 0q28 -5 58 -7q27 1 51 8q26 5 52 6q13 1 33 2q21 2 28 -11q3 -11 -1 -26q-5 -15 -7 -26q-6 -65 -11 -131q5 62 4 49q-1 -12 -4 -49q-14 -229 -7 -457q-2 214 -2 172q-1 -43 2 -172q3 -18 26 -19t40 0q6 1 20 -1q13 -1 12 -11q-6 -11 -34 -12t-41 0 q-97 0 -196 3q92 -2 74 -2q-19 0 -74 2q-11 -1 -34 0q-22 1 -30 7q-7 11 11 13t24 12q1 5 -2 12q-3 8 -4 13q0 13 7 25q6 13 8 26q3 19 1 38q-2 20 -2 39q-2 69 -6 137t-1 137q4 40 9 93t-4 91q-9 18 -30 17q-20 0 -29 22zM152 660q27 -1 0 0l13 -1z" />
<glyph unicode="m" horiz-adv-x="899" d="M-17 493q33 6 66 4q33 0 64 5q21 5 41 13t41 11q10 1 37 2q28 0 34 -4q3 -4 1 -12q-1 -7 1 -12q6 -3 23 0q17 4 25 5q26 1 53 -2q28 -2 54 -8q11 -3 22 -9q12 -4 20 -13q5 -6 12 -15t14 -12q12 -1 21 15q9 17 21 23q43 11 89 9t89 -16q18 -5 33 -12q16 -6 27 -24 q25 -39 28 -90t-8 -95q-9 -34 -17 -69q-8 -34 1 -70q6 -23 23 -43q17 -19 40 -28q7 -2 24 -4q17 -4 18 -13q-4 -9 -32 -9q-27 2 -37 3q-4 0 -12 1q-9 1 -12 0h-3q-1 -1 -1 -2q11 -2 32 -2q22 0 25 -10q-2 -10 -29 -9t-38 3q-43 0 -88 15q-46 14 -69 57q-25 59 -19 136 q6 79 5 143q-1 13 -6 47q-5 32 -15 37q-16 -1 -26 -30q-10 -31 -13 -45q-2 -11 -3 -25q-2 -13 -9 -23q-2 -3 -4 -4q-3 -2 -5 -4q-4 -10 -1 -26q1 -14 2 -25v-77q-1 -39 8 -76q5 -22 19 -39q13 -18 35 -21h26q14 1 23 -5q5 -7 0 -11q-5 -5 -10 -7q-20 -10 -45 -9q-26 0 -49 2 q-62 -3 -119 11q-56 14 -80 84q-17 62 -14 126q2 65 0 129q0 14 -6 46q-6 33 -24 26q-9 -9 -9 -23q1 -16 -5 -26q-12 -20 -8 -9q2 12 -11 0q-7 -13 -6 -37q2 -25 3 -40q1 -44 -1 -90q-2 -44 -3 -88q-2 -17 -4 -33q-1 -17 1 -33q6 -17 22 -15q15 2 30 1q2 -1 10 -6 q10 -5 11 -7q-3 -1 -17 4q-14 6 -17 7t-7 3q-3 2 -3 0q5 -12 32 -14q26 -3 21 -19q-9 -16 -29 -18q-21 -3 -37 -2q-45 -1 -89 0q-44 2 -89 7q-12 1 -38 0t-31 8q-1 14 20 14q22 0 31 -1q6 0 12 1q7 2 4 5q-8 4 -18 2q-11 -3 -18 2q-6 6 -4 18q2 11 4 19q0 19 -1 38 q-1 20 -2 38l-3 27q0 18 4 24q9 2 12 -10t7 25q2 19 -1 38q-2 19 -2 38q1 39 3 77q2 39 0 77v20q-1 11 -6 17q-17 10 -43 3q-25 -7 -28 15zM692 439q8 -23 10 -23q2 1 -10 23z" />
<glyph unicode="n" horiz-adv-x="675" d="M-17 494q42 8 83 6q42 -3 82 2q26 5 48 17q22 11 49 11q8 1 26 1q17 -1 25 -7q5 -15 1 -23q-5 -8 27 -4q39 5 77 9q37 3 77 -4q14 -2 30 -9q16 -6 25 -20q13 -21 17 -49q2 -28 2 -53q-1 -68 -14 -139q-12 -71 -10 -136q2 -14 9 -17q6 -2 16 -6q9 -5 14 -13t15 -12 q15 -4 31 -5q17 0 32 -4q6 -1 18 -6q13 -4 7 -15q-8 -7 -23 -2q-15 6 -26 -2q-2 -1 6 0q7 1 11 -2q2 -5 -7 -6q-10 0 -17 -1q-19 -3 -39 -1q-19 2 -37 5q-57 2 -101 11q-44 10 -72 70q-24 71 -10 142q14 72 6 144q-2 14 -10 47q-8 32 -20 38q-18 -3 -31 -38t-13 -52 q-4 -66 -9 -132q-4 -66 -3 -131l4 -66q-3 31 -2 25t2 -25v-12q1 -9 5 -13q14 -5 39 0q25 6 37 -7q5 -11 -8 -15q-12 -4 -18 -4q-23 -1 -45 1q-23 1 -45 1q-83 -4 -166 -5q78 2 63 1q-16 -1 -63 -1q-9 0 -26 -1t-26 4q-5 5 -1 11q2 7 8 9q8 1 27 -2q18 -4 21 4q-1 9 -13 11 q-11 1 -16 10q-2 7 1 14q3 6 4 12q2 19 1 40q-1 20 -1 40q-1 55 -5 111q-3 56 -3 112q2 39 1 79q1 -37 0 -30v30q1 7 4 19q2 11 -4 18q-16 10 -37 2q-19 -9 -30 13z" />
<glyph unicode="o" horiz-adv-x="592" d="M32 288q5 51 17 98q13 48 52 84q34 29 76 35q42 7 86 5q43 1 87 1t85 -15q59 -29 97 -104q38 -76 44 -140q4 -49 -11 -106q-16 -56 -56 -88q-8 -6 -19 -9q-10 -2 -18 -8q-10 -8 -7 -10q4 -1 -9 -7q-17 -8 -36 -17q-17 -10 -36 -14q-40 -8 -79 -2t-78 16q-28 6 -59 13 q-30 8 -54 25q-9 6 -14 13q-6 9 -12 17q-41 57 -44 104q-2 46 -12 109zM232 309q-1 -52 2 -105q4 -53 23 -103q5 -10 21 -34q15 -24 24 -29q14 -1 26 18q12 17 19 27q30 44 41 97q10 53 10 105q3 50 -7 85q-12 33 -48 67q-10 11 -26 23t-31 8q-29 -16 -39 -71 q-11 -55 -15 -88z" />
<glyph unicode="p" horiz-adv-x="623" d="M0 474q7 16 17 18q12 0 29 -2q35 2 67 9q35 8 69 15q23 5 56 6q32 2 55 -9q12 -10 -3 -21q-15 -9 4 -18q15 -6 34 -1q19 3 34 3q34 -1 71 -3t68 -15q31 -17 51 -46q19 -30 33 -62q41 -97 31 -221q-10 -123 -122 -169q-38 -12 -81 -14q-44 -1 -84 4q-11 4 -29 4 q-16 1 -21 -12q-4 -15 0 -54q3 -39 4 -57q0 -9 1 -21q1 -13 10 -18q13 -5 34 -3q20 2 36 1q6 -1 12 -4q7 -3 5 -7q-10 -10 -33 -10h-36q-111 -6 -222 -4q104 0 84 0h-84q-11 0 -44 1q-33 0 -39 4q-6 7 3 12q10 3 12 3q23 5 25 4q2 0 25 12q2 1 6 1q5 -1 7 2q3 5 1 20 q-1 14 -2 22q-1 62 1 124q-1 -58 -1 -46q0 11 1 46q2 38 5 76q5 38 6 77q1 56 -3 111q-5 56 -8 111q-1 24 -1 49v48v15q-1 10 -2 14q-7 3 -38 4q-33 1 -44 1zM281 50q0 -8 -2 -22q-1 -14 3 -21q4 -3 13 -2q9 2 13 2q10 -1 13 -3q4 -5 13 -7q22 -3 39 13q17 18 27 34 q33 69 23 149q-9 81 -21 153q-1 24 -12 56q-10 34 -36 37q-18 -1 -40 -13q-23 -12 -30 -28q-3 -20 -1 -41q2 -22 3 -43q1 -38 -1 -76t-2 -76q1 -29 2 -57q0 -28 -4 -55z" />
<glyph unicode="q" horiz-adv-x="695" d="M12 249q6 25 9 50q4 25 13 50q38 84 106 128q71 43 162 36q15 -1 29 -2q17 -2 29 -8q7 -5 16 -16q9 -10 17 -12q18 -2 8 19q-11 21 16 29q40 3 80 -11q39 -14 79 -19q14 0 38 1t35 -6q16 -13 -11 -14q-27 0 -35 -13q-3 -17 -2 -37t2 -36q0 -81 -2 -163q1 76 1 62 q0 -17 -1 -62q-2 -84 -5 -170q-4 -83 -1 -168q1 -21 5 -61q5 -40 18 -53q16 -9 53 -6q35 5 48 -8q5 -13 -10 -14q-16 -2 -23 -1q-50 2 -103 6q49 -4 39 -3q-10 0 -39 3q-40 2 -80 -2q-40 -2 -80 -1q-12 -1 -31 0q-19 0 -26 12q0 6 10 12q9 5 14 17q5 28 7 58q3 30 5 60 q1 6 3 21q1 14 -8 17q-6 1 -21 -3q-14 -4 -22 -6q-66 -8 -133 0q63 -4 50 -5q-12 0 -50 5q-42 5 -96 33q-55 29 -78 65q-8 18 -10 36q-2 17 -4 36q-3 15 -8 28q-6 13 -10 28q-3 22 -3 44v44zM212 196q0 -45 10 -96q11 -51 45 -86q6 -6 19 -13q10 -4 21 -3q10 2 16 12 q9 10 16 17q24 21 51 45q27 25 36 56q7 35 1 73q-7 40 -13 75q-1 14 -1 30q1 16 -3 28q-8 15 -25 13q-14 -4 -27 4q-10 12 -17 34q-7 23 -21 30q-12 1 -24 -13q-13 -17 -18 -25q-27 -40 -40 -87q-16 -47 -26 -94z" />
<glyph unicode="r" horiz-adv-x="494" d="M-11 489q35 6 71 5q35 -1 71 3q34 8 68 20q33 11 70 5q17 -5 17 -18q0 -14 24 -19q51 -6 102 -6q-48 1 -38 0h38h21q11 1 20 -1q11 -6 12 -20q1 -15 2 -26q7 -32 16 -70q9 -39 -5 -70q-20 -28 -55 -29q-36 -1 -66 2q-10 -1 -26 -1t-22 9q-5 10 -1 26q5 14 7 25 q10 24 17 48q9 23 10 50q1 7 1 20q0 12 -7 17q-9 4 -18 -5q-9 -8 -15 -13q-2 -1 -11 -5t-11 -5q-6 -12 -5 -44t2 -47q1 -49 2 -97q1 -47 -4 -96q-3 -22 -6 -52q-2 -31 7 -51q10 -12 35 -10q24 1 39 -1q6 -1 11 -4q6 -2 2 -11q-10 -16 -35 -16q-23 -1 -39 2q-48 4 -97 4 q-47 0 -96 1q-17 0 -39 -1q-23 -2 -37 8q-11 11 -3 17q7 4 18 4q19 1 39 0q18 -1 38 -1h13q9 0 12 1q2 2 -1 3t-5 1q-12 2 -26 0t-26 2q-15 8 -15 33q-1 23 -1 39q-4 67 -4 135l2 134q1 14 1 48q1 33 -5 42q-17 9 -37 2q-20 -9 -32 13z" />
<glyph unicode="s" horiz-adv-x="524" d="M-11 195q17 3 42 5q26 3 40 -8q8 -8 12 -25l7 -28q11 -29 25 -56t38 -48q26 -21 57 -22q32 -1 61 10q17 7 29 20t8 32q-5 13 -15 23q-11 10 -20 20q-34 39 -77 56t-87 42q-33 22 -51 64q-19 42 -16 81q2 30 10 62q8 31 27 55q41 43 117 52q77 9 132 -4q17 -4 33 -14 q15 -9 30 -19q2 -2 11 -7q9 -6 12 -6q7 4 4 16q-2 13 5 19q13 6 42 2q28 -4 36 -15q5 -16 6 -59q1 -44 2 -66q2 -7 3 -20t-6 -18q-9 -3 -41 -2q-31 2 -40 7q-9 9 -14 23q-4 15 -10 27q-15 27 -38 48q-22 22 -48 39q-10 8 -23 17q-13 10 -26 10q-8 -2 -12 -6q-5 -5 -11 -9 q-16 -7 -33 -9t-22 -23q-3 -31 23 -56t51 -37q70 -31 125 -73t90 -112q13 -25 19 -51q6 -27 -10 -52q-16 -20 -38 -31l-44 -20q-21 -10 -43 -22t-45 -18q-21 -4 -42 -2t-41 5q-32 2 -62 3q-31 2 -61 11q-17 3 -51 4q-35 1 -44 8q-5 9 -4 27q2 17 1 28q-3 32 -11 62 q-8 29 -12 60z" />
<glyph unicode="t" horiz-adv-x="383" d="M-39 484q7 13 24 15q17 1 33 3q37 7 74 23q38 16 68 38q22 18 32 42q9 24 17 49q3 11 7 26t13 21q9 3 19 1q11 -3 20 -3q6 0 20 1q13 2 18 -4q2 -6 -4 -19q-5 -12 -7 -19q-17 -57 -26 -114q10 53 9 43q-3 -10 -9 -43q-2 -8 -6 -19q-3 -13 0 -20q11 -10 39 -7q29 3 35 -6 q0 -8 -8 -10q-9 -3 -13 -3q-13 0 -33 1t-26 -11q-6 -19 -2 -45q3 -26 3 -47q-1 -45 -5 -90q-4 -47 -7 -92q-2 -36 5 -72t32 -63q12 -11 28 -17q14 -5 30 -11q3 0 11 -4t6 -12q-2 -2 -6 -2t-6 -2q-1 -3 -1 -7t-1 -6q-10 -10 -31 -10q-20 0 -34 1q-47 1 -97 9q-50 10 -89 40 q-21 19 -25 44q-6 26 -8 52q-9 111 0 222q-5 -104 -5 -83t5 83q3 20 8 61q4 42 -5 56q-7 4 -18 3h-20q-17 -1 -33 0q-16 0 -31 7z" />
<glyph unicode="u" horiz-adv-x="554" d="M18 459q11 18 33 15t41 -5q51 -3 92 -20q42 -17 56 -70q12 -57 5 -116t-14 -117q-1 -17 -1 -43q2 -26 23 -28q18 3 31 18q11 14 24 25q7 4 11 4q4 1 7 8q5 17 2 40q-2 24 -3 42q0 38 3 76q3 39 3 77q1 19 2 36q2 17 5 34q0 2 3 13q2 8 2 10q-3 3 -11 2t-10 -1 q-24 -1 -48 2q22 -2 18 -2q-5 0 -18 2q-3 0 -12 2q-9 1 -10 5q1 9 24 11q22 3 31 3q46 8 90 23q44 16 93 15q5 0 18 -1q11 -1 11 -10q-2 -5 -9 -7q-8 -3 -11 -5q-6 -5 -7 -16q-3 -10 -3 -17q1 -4 4 -10q5 -5 6 -22q1 -44 -3 -88q-3 -44 -3 -89v-111q-1 -58 8 -112 q5 -15 16 -11q13 3 24 1q6 -2 9 -7q3 -6 -3 -11q-9 -6 -23 -2q-15 4 -24 5q-10 -1 -15 -5q-6 -4 -15 -5q-22 1 -41 7q-21 6 -41 11q-15 1 -29 2q-14 0 -29 2q-6 0 -19 2q-11 2 -13 9q1 7 11 7q11 1 15 7q8 19 -2 12q-11 -5 -12 -9q2 -1 8 0q7 3 5 1q-15 -11 -38 -16 q-22 -4 -40 -6q-54 -6 -107 5q-54 11 -78 62q-23 64 -8 133q17 69 17 136q-2 27 -13 57q-10 31 -38 40zM153 67q2 -1 10 -7t10 -8q3 -2 -3 2q-3 3 -7 6q-5 4 -11 8q5 -4 4 -3t-4 3t-6 5t-2 1q5 -6 21 -17q16 -10 19 -8q2 9 -12 14q-13 4 -19 4zM346 37q24 -4 24 -2 q0 1 -24 2zM374 35q15 -3 16 -2q2 1 -16 2z" />
<glyph unicode="v" horiz-adv-x="645" d="M-2 524q53 0 104 -4q52 -4 103 -15l34 -6q18 -3 33 -10q31 -18 49 -49q17 -31 28 -63q16 -43 26 -86q9 -44 19 -88q2 -7 7 -29t6 -26q2 -1 4 2q2 2 3 4q7 12 9 27t4 28q4 27 12 54q7 27 14 53q6 31 11 61q5 31 11 62q2 12 7 27q4 16 2 28q-7 16 -37 10q-31 -6 -31 10 q3 9 17 9t21 -1q35 -2 70 -1q34 1 69 0q8 0 28 -2q20 -1 22 -7q-4 -15 -28 -11q-25 3 -36 1q-11 -6 -14 -22t-4 -28q-17 -89 -31 -177q-15 -88 -47 -174l-18 -54q-9 -30 -27 -47q-23 -15 -74 -16q-50 -1 -74 12q-12 10 -15 23l-6 28q-8 29 -20 59q-11 29 -23 57 q-7 20 -15 39q-7 20 -18 38q-15 23 -34 44q-18 20 -35 43q-15 23 -28 47q-12 25 -25 49q-17 26 -40 48t-33 53z" />
<glyph unicode="w" horiz-adv-x="816" d="M-10 495q26 5 52 4q24 -2 49 -4q47 -2 87 -17q38 -14 70 -50q21 -24 35 -53q13 -30 24 -59q19 -54 32 -110q-13 52 -10 41q2 -10 10 -41q1 -6 3 -20q2 -13 4 -18q1 -1 4 0q2 1 4 3q7 9 12 22q4 14 9 25q3 10 8 25q5 13 12 21q10 6 14 7q5 1 0 16q-14 40 -35 81 q-22 41 -45 77q-8 10 -21 19q-14 8 -17 11q-2 6 0 13q2 8 6 12q12 6 37 4q26 -3 38 -10q13 -9 8 -9q-4 0 11 -7q17 -8 36 -12q19 -3 37 -11q31 -17 56 -50q25 -31 38 -66q4 -16 6 -39t13 -34q8 -7 15 -9q5 -2 11 -13q2 -5 11 -20q9 -17 11 -15q5 11 7 25t5 25q17 68 24 138 q-10 -65 -7 -52t7 52q2 13 5 31q3 19 2 32q-5 14 -26 7q-20 -6 -29 5q-2 13 22 12q25 -1 32 -1q3 1 -2 3q-6 1 -11 2q-8 0 -19 3q-12 2 -11 13q5 12 22 12q16 0 25 -2q28 -5 57 -10q28 -7 53 -16q9 -3 19 -1q12 2 18 -3q9 -5 5 -10q-4 -3 -8 -5q-13 -4 -26 -3h-26h-17 q-15 -1 -15 -4q2 -3 6 -3t7 -2q6 -10 1 -31q-4 -21 -6 -32q-7 -44 -13 -88q-7 -44 -17 -87q-17 -61 -36 -123q18 58 15 46q-4 -10 -15 -46q-6 -23 -16 -46q8 22 7 17t-7 -17q-4 -6 -7 -12l-3 -6l6 14q-3 -7 -2 -5q0 1 2 5q3 12 -6 -3q-8 -15 -12 -20q-12 -4 -26 2 q-13 5 -26 4l-6 -3q-2 -2 -2 -5q3 -4 12 -1q10 2 12 3q13 2 32 2q20 0 32 -7q15 -12 -2 -15q-19 -4 -27 -4q-26 0 -58 -1t-56 3q-16 3 -11 5t0 12q-5 5 -12 7q-6 2 -10 5q-13 15 -22 32q-8 17 -15 34q-4 11 -8 34q-5 23 -8 29q-5 3 -13 -9q-6 -11 -8 -15q-8 -17 -14 -37 q-6 -18 -14 -35q-5 -9 -11 -15q-7 -9 -11 -17q3 -2 19 -7q17 -5 3 -15q-7 -3 -18 -1q-13 1 -20 2h-51q-25 0 -50 8q-30 13 -40 50q-10 35 -17 69q-8 29 -13 62q-5 31 -21 58q-22 32 -47 60q-26 28 -45 61q-12 19 -21 40q-11 20 -19 40q-1 6 -1 13q-1 7 -6 12q-12 8 -16 1 q-6 -7 -10 11z" />
<glyph unicode="x" horiz-adv-x="694" d="M-50 43q20 4 41 3q20 -1 41 -3q5 -1 14 -2t14 1q4 3 15 20q10 16 16 24q26 29 47 60q20 31 40 64q4 5 10 8q6 2 9 8q2 9 -7 26t-14 25q-18 34 -43 63q-26 28 -46 60q-11 22 -17 55q-7 32 -20 49q-12 10 -33 9q-20 -1 -35 -1q-4 0 -13 2t-8 10q6 7 38 7q31 -1 43 -1 q118 1 235 8q-110 -5 -88 -5q22 1 88 5q12 1 43 0q32 -1 39 -7q6 -18 -20 -14q-27 4 -29 -13q3 -15 15 -45q12 -29 18 -46q1 -3 5 -12q3 -8 9 -8q4 2 9 10l8 12q24 34 45 71q-21 -34 -16 -27q4 6 16 27q1 3 6 12q4 9 2 13q-7 4 -28 5t-10 14q9 7 20 4q12 -4 21 -5q6 1 11 5 q6 3 11 4q13 2 36 2q24 0 35 -5q13 -9 3 -10q-9 -1 15 -2q12 1 36 4q23 4 32 -6q4 -10 -3 -13q-8 -3 -13 -3q-17 -1 -35 4t-34 -1q-12 -6 -17 -20t-11 -26q-15 -26 -33 -53q-17 -26 -36 -50q-8 -10 -19 -20q-12 -11 -13 -24q0 -19 16 -37q17 -18 27 -33q14 -24 25 -49 q12 -25 25 -49q18 -29 39 -57q22 -28 41 -55q15 -15 42 -12t33 -8q1 -18 -25 -15q-27 4 -34 -6q0 -2 4 -2q5 -1 4 -3q-2 -2 -13 -4q-10 -1 -13 -1q-17 0 -34 2q-17 3 -35 5q-59 3 -126 -4q-66 -8 -122 6q-8 2 -12 6q-4 3 6 11q12 5 29 0q16 -5 26 1q4 4 0 12q-5 9 -6 11 q-11 18 -23 35l-22 36q-2 5 -7 17q-6 12 -13 11q-10 -7 -32 -34q-23 -28 -32 -40q-2 -2 -7 -10t-3 -13q8 0 43 -1t20 -17q-10 -7 -27 -5q-17 1 -28 3q-76 3 -151 10q70 -6 56 -5t-56 5h-35q-17 1 -25 17zM386 18q17 -7 68 -8q50 -1 72 3q2 1 -3 0h-9q-43 1 -15 0q29 0 -14 1 q-49 1 -99 4q47 -2 37 -2q-9 0 -37 2z" />
<glyph unicode="y" horiz-adv-x="628" d="M-11 519q21 8 41 6q20 -1 42 -1q58 3 117 -4q60 -7 99 -57q21 -32 39 -66q17 -34 38 -66q8 -12 15 -24q-7 11 -5 9t5 -9q2 -3 2 -7t3 -5q4 0 10 10l6 12q11 22 19 45q7 23 13 46q5 17 16 49q12 31 14 43q-2 15 -21 12q-20 -3 -19 11q4 7 18 8q15 0 22 -1q24 -1 48 -4 l48 -6q8 -1 22 -1q14 -1 20 -6q14 -15 -15 -14t-37 1q-2 -4 -2 -14q1 -10 2 -13q2 -15 1 -28t-6 -27q-16 -49 -37 -97q-22 -48 -44 -94q-18 -38 -35 -76t-32 -77q-17 -46 -33 -91q-17 -45 -39 -89q-16 -35 -39 -66t-60 -45q-26 -8 -69 -8q-43 -1 -68 9q-37 20 -47 66 q-11 46 5 82q21 34 71 34q49 1 80 -20q10 -8 19 -22t19 -19q9 -2 13 10q5 12 7 19q17 38 30 77q-13 -37 -10 -29q3 7 10 29q1 2 6 13q5 12 5 14q-4 8 -16 3t-17 8q-2 10 4 19q5 8 1 20q-26 65 -53 128t-75 115q-17 18 -34 35q-17 18 -31 38q-11 17 -21 35q-11 19 -24 35 q-5 7 -12 17q-8 10 -15 14q-3 1 -7 -1q-4 -1 -7 1q-2 2 -1 6t1 8zM152 -186q26 -8 0 0l13 -4z" />
<glyph unicode="z" horiz-adv-x="555" d="M2 403q5 26 11 54q7 29 26 49q22 18 51 17t56 -4q28 -1 55 4q27 4 55 6q31 0 62 -2q32 -2 63 -2q28 1 55 4q28 4 56 5h20q12 -1 19 -8q15 -22 -2 -53q-16 -30 -31 -47q-51 -70 -96 -144t-83 -152q-11 -22 -26 -40q-15 -19 -32 -36q-6 -5 -10 -10q-3 -6 3 -14q8 -9 25 -8 q18 0 29 2q55 8 107 26q-50 -15 -39 -12q10 3 39 12q9 3 20 7t17 11q9 12 12 32t2 35q-1 4 -1 14q-1 10 1 14q6 7 19 5t20 -3q28 -1 38 -9t7 -37q-1 -23 -7 -48q-5 -25 -22 -43q-21 -17 -51 -20q-30 -4 -56 -6q-124 -12 -249 -11q117 2 94 1q-24 -1 -94 -1q-28 0 -55 3 q-28 4 -56 5q-8 0 -21 -2q-13 -1 -20 3q-9 7 -4 18t10 18q27 41 58 78q-29 -36 -23 -28q6 7 23 28q14 16 28 30q14 15 27 32q35 52 61 109q25 57 53 113q10 17 30 41q21 24 25 39q0 12 -19 11q-19 0 -27 -1q-33 5 -69 13t-65 -13q-19 -17 -30 -47q-10 -31 -4 -55 q5 -9 14 -25q10 -15 3 -25q-7 -6 -20 -2q-12 4 -20 5q-41 -2 -51 9q-11 11 -11 55zM171 18q33 -5 0 0l16 -2z" />
<glyph unicode="}" horiz-adv-x="833" />
<glyph unicode="&#xa7;" horiz-adv-x="493" d="M77 2q10 2 18 1t18 -1q42 0 85 10t78 34q10 7 24 18q15 12 17 24q-2 18 -34 33q-32 16 -49 23q-42 21 -88 67q-47 46 -55 94q-4 28 10 47t44 23q6 0 12 -2q7 -2 13 -1q-1 1 -7 9q-7 8 -9 10q-14 13 -27 28q13 -13 10 -11q-2 3 -10 11q-15 18 -17 41t8 44q25 45 81 56 t101 6q13 -1 27 -1q14 1 26 -2q4 -3 2 -9q-1 -7 -2 -8q-9 -4 -26 -1q-16 4 -26 4q-30 -5 -72 -35q-41 -29 -33 -62q13 -27 39 -51t53 -37q24 -11 48 -27q25 -16 36 -41q11 -26 3 -56q-7 -29 -21 -53q-3 -6 -6 -14q-4 -8 -9 -12q-4 -2 -14 -3q-10 0 -6 -4q27 -14 63 -32 q36 -19 13 -61q-39 -52 -103 -66t-124 -13q-17 1 -33 2t-33 1h-13q-9 0 -12 3q-2 3 -1 7q1 3 1 7zM173 325q2 -32 20 -58q19 -26 41 -48q5 -5 14 -15q8 -11 15 -12q6 2 7 8q2 7 3 10q7 14 14 29t6 31q-7 37 -51 60q-43 23 -69 -5z" />
<glyph unicode="&#xab;" horiz-adv-x="507" d="M442 65q-9 -16 -42 -15q-33 0 -48 8q-12 11 -24 24q-11 15 -23 26q-21 19 -44 44q-24 24 -25 54q2 33 27 54q24 22 50 37q10 7 20 15q9 9 20 14q19 7 39 5q19 -1 37 -5h11q8 0 10 -7q0 -9 -11 -15q-12 -7 -19 -11q-22 -13 -42 -27t-39 -31q-7 -7 -13 -18q-6 -9 -4 -20 q10 -30 51 -71t69 -61zM270 55q-1 -3 -1 -6t-2 -5q-9 -4 -43 0q-35 3 -43 8q-25 27 -48 57q-23 29 -47 55q-12 12 -24 27q-13 16 -13 34q4 29 39 60q36 32 62 47l11 11t11 9q12 2 46 -2q35 -5 39 -13q-2 -7 -13 -15q-10 -7 -16 -11q-19 -13 -52 -41q-33 -27 -41 -46 q-2 -12 11 -28q11 -15 20 -23q26 -27 55 -57q28 -29 49 -61z" />
<glyph unicode="&#xad;" d="M25 423h379v-70h-379v70z" />
<glyph unicode="&#xbb;" horiz-adv-x="496" d="M48 320q8 17 41 17q33 1 48 -7q13 -10 25 -23q12 -14 24 -25q22 -18 46 -42t26 -54q-1 -33 -25 -55q-23 -22 -49 -38q-9 -7 -19 -16q-9 -9 -20 -14q-18 -8 -38 -7q-19 1 -38 4h-11q-8 -1 -10 6q0 9 11 16t18 11q22 14 41 29q20 14 38 32q7 7 13 18q5 10 3 20 q-11 30 -53 70q-43 39 -71 58zM219 336q1 3 1 6t2 5q9 5 43 2q35 -2 43 -7q26 -26 50 -55q24 -28 49 -54q12 -11 25 -26t14 -33q-3 -29 -37 -62q-35 -33 -60 -49l-11 -11t-11 -9q-12 -3 -46 0q-35 4 -39 12q1 7 12 15q10 8 16 12q18 13 50 42q33 29 40 48q1 12 -12 27 q-12 15 -21 23q-27 26 -57 55q-29 28 -51 59z" />
<glyph unicode="&#xc4;" horiz-adv-x="821" d="M2 10q13 -1 36 -4q23 -2 34 3q4 5 4 18q1 14 2 20q17 54 39 105q-20 -48 -16 -39q4 10 16 39q56 142 101 287q-44 -136 -35 -108q9 27 35 108q8 30 13 62q4 32 17 60q11 23 8 12q-4 -11 11 5q8 13 14 45q6 33 8 50q1 9 2 21t6 20q10 9 32 8t36 -2q11 1 28 2q16 1 26 -4 q8 -6 11 -18q4 -12 6 -21q7 -23 18 -44q11 -22 21 -44q8 -15 17 -30t16 -31q10 -26 16 -53q7 -27 15 -54q17 -52 37 -104q19 -53 41 -103q21 -49 52 -90q30 -40 70 -76q10 -9 21 -18q12 -8 24 -14q4 -1 14 -4t13 -4q5 -5 6 -12q2 -8 -3 -13q-7 -6 -20 -5t-21 2q-48 4 -96 7 q45 -3 36 -3q-9 1 -36 3q-65 4 -121 29q-55 24 -99 74q-22 26 -38 57q-17 31 -34 61q-3 6 -5 13t-6 12q-11 7 -52 10t-58 2q-27 -1 -33 -17q-7 -16 -12 -40q-16 -52 -34 -105q16 50 13 40t-13 -40q-5 -11 -16 -32q-12 -21 -9 -32q8 -11 32 -9q23 2 36 2q7 -1 12 -4 q6 -3 0 -13q-8 -8 -26 -7q-17 0 -28 1q-63 -2 -125 0q58 -1 47 -1q-12 0 -47 1q-18 -1 -35 0q-16 1 -24 19zM190 870q3 9 7 19q4 11 13 16q15 6 55 3t55 -10q20 -14 23 -41t0 -49q-1 -8 -3 -21q-2 -12 -8 -19q-3 -2 -7 -2t-6 -2q-3 -2 -3 -6q-1 -3 -3 -5q-11 -8 -27 -5 t-28 5q-13 1 -27 2q-15 0 -26 9q-9 10 -7 19t3 20q0 13 -3 14q-2 0 -8 11q-3 9 -2 21q1 11 2 21zM245 270q10 -7 19 -9t21 -2l56 2q-26 -1 -21 -1q5 1 21 1q4 0 8 -1t6 2q3 5 -5 19q-8 13 -11 18q-4 20 -14 57q-9 37 -33 29q-9 -6 -11 -17l-4 -20q-12 -41 -32 -78 q17 36 14 28q-2 -7 -14 -28zM403 825q6 15 20 37q15 22 30 27q10 2 21 0q12 -2 22 -3t21 -1q10 1 20 -1q25 -8 35 -40q9 -33 5 -57q-6 -22 -29 -25q-23 -2 -43 0q-39 -2 -68 9q-30 11 -34 54z" />
<glyph unicode="&#xc5;" d="M-6 -12q9 30 21 58q13 29 24 58q33 98 69 196q36 97 67 196q6 44 -36 49q-43 5 -31 45q3 6 8 12t9 11q31 29 96 37q64 8 97 -22q11 -12 14 -31q4 -20 -6 -34q-3 -4 -10 -8q-8 -5 -10 -10q0 -7 6 -32q5 -25 7 -36q14 -86 34 -170q19 -84 43 -167q13 -47 32 -91 q-17 41 -14 33t14 -33q4 -7 10 -19q6 -13 6 -20q-6 -11 -42 -9q-35 2 -47 11q-15 20 -28 61t-22 68q-2 8 -4 21t-7 19q-5 3 -14 2q-8 -1 -13 -2q-23 -3 -64 -7q-41 -5 -57 -19q-6 -8 -4 -18q3 -10 -2 -20q-13 -24 -26 -49q-13 -24 -24 -50q-9 -18 -13 -39q6 19 4 15t-4 -15 v-7q1 -4 -1 -7q-4 -3 -13 -1q-9 1 -13 2h-35q-15 1 -21 22zM160 201q24 -5 47 0q23 6 48 8q2 0 14 -1q12 0 14 1q7 6 0 25q-6 18 -9 26q-12 47 -20 95q8 -45 6 -36t-6 36q-1 12 -2 28q0 17 -7 27q-3 3 -5 -4q-3 -6 -4 -11q-9 -27 -18 -53q9 25 7 20t-7 -20q-12 -36 -26 -72 q-13 -36 -32 -69zM198 585q11 -5 29 -9t23 12q1 14 -10 18q-10 4 -21 -1l-10 -10t-11 -10zM270 546q28 -5 0 0l14 -3z" />
<glyph unicode="&#xd6;" horiz-adv-x="762" d="M23 336q1 62 15 124t49 114q17 23 37 42t41 38q14 14 30 29q15 14 33 24q42 22 87 22q44 -1 89 -10q28 -3 56 -1t55 -6q26 -10 46 -30q20 -19 41 -37q25 -19 51 -37q25 -18 44 -44q19 -30 22 -65t6 -69q3 -31 8 -62t5 -62q-2 -89 -38 -146t-108 -105q-14 -11 -28 -21 t-31 -16q-17 -4 -34 -4t-34 -3q-11 -3 -20 -7l-20 -8q-22 -7 -47 -8q-25 0 -49 2q-32 4 -54 14q-22 11 -50 21q-40 12 -79 26q-38 15 -68 46q-39 47 -48 113q-8 67 -7 126zM208 847q3 13 7 27q4 15 15 22q13 7 27 5q15 -3 28 -5q28 -1 54 -10t27 -43q0 -17 -10 -33t-29 -18 q-3 0 -7 2q-3 2 -6 1q-2 -1 1 -2l6 -3q4 -1 12 -4t3 -12q-8 -9 -26 -6t-28 5q-42 4 -58 17t-16 57zM258 400q-1 -70 3 -139q4 -70 23 -137q6 -22 16 -47q9 -25 24 -41q24 -20 52 -10t47 30q36 40 57 95q21 54 25 108q7 83 -7 166q-15 84 -50 159q-9 21 -32 56q-24 35 -48 34 q-13 -4 -27 -21q-13 -17 -21 -29q-36 -52 -45 -108q-8 -56 -17 -116zM416 836q2 17 7 34q4 18 21 26q10 4 21 3t21 -2q43 0 72 -17q30 -17 27 -65q-3 -21 -18 -27q-15 -7 -34 -10q-10 -2 -20 -1q-11 0 -21 2q-32 2 -53 12t-23 45z" />
<glyph unicode="&#xe4;" horiz-adv-x="421" d="M34 107q13 47 44 86q30 40 79 52q24 5 49 4l48 -4q11 -2 21 -2q10 -1 13 13q2 27 -19 60t-48 37q-17 0 -33 -9t-33 -13q-14 -1 -28 0q-14 2 -27 2q-4 0 -8 -1q-3 -1 -6 0q-3 2 -3 5q0 4 1 7q5 13 20 17t28 6q42 12 97 11q55 0 94 -22q51 -37 52 -108t1 -127q2 -22 6 -49 t-4 -48q-9 -11 -37 -12q-29 -1 -41 4q-2 2 -6 10q-3 8 -7 9q-4 -1 -23 -10t-28 -12q-42 -8 -106 -2q-63 6 -90 41q-7 13 -7 27t1 28zM103 513q10 35 25 39q16 5 49 3q7 0 22 -1t18 -10q0 -8 -9 -10t-13 -4q-7 -9 -5 -21q3 -11 -5 -18q-10 -4 -42 -2t-40 10q-1 3 0 7v7z M117 99q0 -26 16 -46t44 -15q17 5 31 17q14 11 28 21q15 7 35 7q19 -1 23 12q2 15 2 51q0 37 -5 48q-6 7 -19 9q-12 3 -21 6q-6 3 -11 7t-13 3q-41 -9 -70 -46t-40 -74zM244 519q10 21 42 24t45 -5q8 -8 4 -13t2 -13q2 -1 13 -3q10 -2 13 -6q2 -10 -6 -13t-14 -3 q-15 0 -52 4q-37 5 -46 13q-2 4 -1 7v8z" />
<glyph unicode="&#xe5;" horiz-adv-x="428" d="M38 90q15 50 51 90q35 39 83 60q30 9 65 12t33 34q-2 14 -8 27q5 -13 4 -10t-4 10q-5 13 -14 24q7 -11 6 -9t-6 9q-31 32 -58 9q-28 -23 -61 -32q-14 -2 -43 0t-24 22q8 12 26 22q18 9 32 14q48 20 110 16t100 -42q15 -17 17 -37t6 -41q7 -24 17 -20t9 -9q-2 -5 -10 -9 t-11 -7q-6 -16 -2 -54q4 -39 7 -58q4 -18 15 -48q12 -31 9 -45q-10 -14 -43 -7t-50 7q-13 -3 -25 -9q-13 -7 -26 -10q-37 -6 -99 -2q-63 4 -90 27q-11 14 -13 32q-3 17 -3 34zM121 82q0 -14 3 -28t15 -23q23 -11 74 8q50 18 67 38q11 21 5 54q-7 33 -9 56v21q0 15 -8 18 q-4 -1 -18 -8q-15 -8 -20 -11q-37 -21 -62 -55t-47 -70zM132 532q13 36 41 44q27 7 62 6q13 1 28 1q15 -1 27 -9q16 -13 19 -36q4 -24 0 -43q-5 -21 -22 -23q-16 -2 -34 0q-23 0 -65 8q-43 7 -55 24q-1 3 -1 14v14zM215 524q12 -23 14 -13t-14 13z" />
<glyph unicode="&#xf6;" horiz-adv-x="447" d="M48 223q6 33 16 68t38 56q11 7 25 12t27 7q9 1 21 1q12 1 18 7q3 3 4 7q2 4 0 7q-5 1 -15 -13t-14 -16q-4 2 5 15q9 14 15 18q24 9 54 -2t50 -24q57 -34 13 -7q-43 27 14 2q2 -3 4 -12q3 -9 3 -11q3 -6 8 -11t9 -11q29 -42 42 -86q13 -45 4 -96q-5 -33 -23 -65t-48 -50 q-42 -20 -109 -10q-67 9 -104 36q-40 35 -49 81q-9 47 -8 97zM76 496q12 38 37 46q26 7 62 4q12 1 28 2q16 2 27 -4q10 -9 7 -19q-4 -10 -12 -17q-17 -15 -38 -15q-20 -1 -42 1q-34 1 -69 2q32 -1 26 0h-26zM131 215q-1 -32 1 -64q3 -32 21 -58q10 -16 27 -33t35 -23 q32 -2 59 40q28 43 32 72q5 44 -7 82q-11 38 -38 74l-16 24q-10 14 -23 16q-3 -1 -13 -6l-12 -6q-32 -20 -46 -52q-13 -31 -20 -66zM261 496q7 32 22 50t49 19q12 2 36 1q23 0 26 -15q-1 -15 -15 -22q-15 -7 -24 -15q-2 -3 -6 -12q-3 -9 -5 -12q-15 -8 -41 -3q-27 4 -42 9z " />
<glyph unicode="&#x2000;" horiz-adv-x="454" />
<glyph unicode="&#x2001;" horiz-adv-x="909" />
<glyph unicode="&#x2002;" horiz-adv-x="454" />
<glyph unicode="&#x2003;" horiz-adv-x="909" />
<glyph unicode="&#x2004;" horiz-adv-x="303" />
<glyph unicode="&#x2005;" horiz-adv-x="227" />
<glyph unicode="&#x2006;" horiz-adv-x="151" />
<glyph unicode="&#x2007;" horiz-adv-x="151" />
<glyph unicode="&#x2008;" horiz-adv-x="113" />
<glyph unicode="&#x2009;" horiz-adv-x="181" />
<glyph unicode="&#x200a;" horiz-adv-x="50" />
<glyph unicode="&#x2010;" d="M25 423h379v-70h-379v70z" />
<glyph unicode="&#x2011;" d="M25 423h379v-70h-379v70z" />
<glyph unicode="&#x2012;" d="M25 423h379v-70h-379v70z" />
<glyph unicode="&#x2013;" horiz-adv-x="452" d="M38 226q8 20 38 18q30 -1 50 -7q50 -12 102 -12q53 0 103 1q11 0 41 -2q30 -1 36 -4q6 -6 3 -10q-2 -5 -8 -6q-18 -4 -40 -2t-40 4q-14 1 -28 0t-28 0q-45 6 -91 6q43 -2 35 -1q-9 1 -35 1q-35 1 -70 7t-68 7z" />
<glyph unicode="&#x2014;" horiz-adv-x="1071" d="M25 423h1000v-70h-1000v70z" />
<glyph unicode="&#x2019;" horiz-adv-x="451" d="M151 342q8 23 25 43q17 21 25 45q6 22 8 43q3 20 3 43q-1 9 -6 30t1 28q5 0 40 -1q34 -1 40 -2q2 -3 5 -16q3 -12 3 -17q5 -43 -2 -87q-7 -45 -31 -82l-16 -26q-9 -13 -23 -12q-17 0 -39 -1t-33 12z" />
<glyph unicode="&#x201d;" horiz-adv-x="439" d="M62 339q15 23 26 53q12 30 18 57q4 16 11 30q8 15 14 29q2 6 4 16t8 14q11 4 27 1q15 -2 27 -4q7 0 15 2q7 2 13 -2q0 -4 -7 -25t-10 -28q-19 -62 -47 -121q25 56 20 44l-20 -44q-2 -8 -7 -21q-4 -14 -10 -18q-7 0 -41 3q-33 2 -38 3q-2 2 -2 5t-1 6zM250 356q7 24 15 49 q8 24 12 50q1 14 4 38q3 23 8 35q7 11 27 9q20 -3 33 -5q2 1 12 0q10 0 13 -2q1 -4 -3 -23t-5 -25q-6 -26 -11 -52t-11 -52q-2 -7 -5 -22q-4 -15 -9 -19q-8 -2 -31 1q-24 3 -35 4q-3 -1 -7 -1q-4 -1 -7 1q-2 2 -1 6t1 8z" />
<glyph unicode="&#x2026;" horiz-adv-x="513" d="M32 76q19 14 45 17q25 3 48 -5q13 -4 22 -16q9 -11 3 -26q-6 -13 -22 -15q-15 -2 -28 -1q-28 1 -47 8t-21 38zM156 52q20 27 44 30q24 2 56 0q14 0 28 -4q15 -4 16 -21q-2 -22 -17 -18q-14 3 -28 2q-7 -5 9 -16q17 -11 -3 -19q-5 -1 -15 1t-14 2q-27 2 -49 7t-27 36z M308 65q22 27 61 28q40 2 71 -7q13 -4 26 -12t13 -23q-2 -19 -20 -26q-19 -6 -35 -7q-35 -5 -71 1q-37 7 -45 46z" />
<glyph unicode="&#x202f;" horiz-adv-x="181" />
<glyph unicode="&#x205f;" horiz-adv-x="227" />
<glyph unicode="&#x25fc;" horiz-adv-x="540" d="M0 540h540v-540h-540v540z" />
</font>
</defs>
</svg>
