<?xml version="1.0" standalone="no"?>
<!DOCTYPE svg PUBLIC "-//W3C//DTD SVG 1.1//EN" "http://www.w3.org/Graphics/SVG/1.1/DTD/svg11.dtd">
<svg xmlns="http://www.w3.org/2000/svg">
<metadata>Generated by Fontastic.me</metadata>
<defs>
<font id="untitled-font-1" horiz-adv-x="512">
<font-face font-family="untitled-font-1" units-per-em="512" ascent="480" descent="-32"/>
<missing-glyph horiz-adv-x="512" />

<glyph glyph-name="" unicode="&#91;" d="M265 443c-4-4-7-12-7-16 0-7-4-9-23-11-34-4-62-20-74-45-4-6-7-20-9-31-3-27 2-39 20-39 18 0 24 7 24 24 0 32 13 46 48 52l14 3 0-86-28-7c-33-8-54-18-67-33-11-11-11-12-12-98l-1-86 10-4c16-7 28-2 45 21 13 16 16 23 15 34-1 11-4 14-13 14l-11 2 0 39c0 22 2 43 4 47 5 9 25 21 44 25l14 3 0-69c0-102 9-116 74-116 31 0 33 1 38 10 8 18-1 26-30 28-37 3-37 3-37 86l0 68 22 7c30 10 42 20 51 43 18 48-10 100-57 107-13 2-16 5-16 12 0 20-26 30-38 16z"/>
<glyph glyph-name="-1" unicode="&#93;" d="M310 452c-6-6-7-18-7-76 0-68 0-70-9-72-20-5-20-5-20 52 0 52-1 56-10 70-13 20-33 28-63 28-55 0-84-32-84-92 0-32 11-55 32-72 17-15 45-26 66-26 13 0 14-1 14-15 0-9-6-25-16-43-13-25-14-29-10-38 7-16 29-15 41 0 17 23 27 48 29 72l2 24 28 0 0-69c0-53-1-72-6-78-5-7-12-8-55-9l-50-1 0 12c0 12-6 17-21 17-4 0-18-8-31-17-21-16-23-19-22-32l1-15 93-1c102-1 110 0 125 21 9 12 9 18 11 97 1 77 2 84 9 86 13 4 57 34 59 41 4 11-5 26-16 29-8 2-15 0-29-10-10-7-19-13-20-13-1 0-3 29-3 64 0 59 0 64-7 68-12 6-24 5-31-2z m-94-41l13-7 0-101-19 3c-36 7-47 21-47 61 0 28 7 40 26 45 7 3 13 5 14 5 1 0 7-3 13-6z"/>
<glyph glyph-name="0" unicode="&#48;" d="M192 446c-24-11-40-26-51-48-13-23-16-109-5-122 9-9 24-10 32-1 5 5 7 15 7 45 0 44 5 60 24 78 30 29 87 21 108-15 8-12 8-22 8-112 0-119-3-132-42-152-38-19-72-13-92 18-13 19-25 24-39 16-17-9-7-39 21-63 21-19 49-26 83-22 46 4 81 26 101 61l12 22 1 107c1 74 0 112-3 124-7 24-30 51-56 62-28 13-82 14-109 2z"/>
<glyph glyph-name="1" unicode="&#49;" d="M230 449c-4-3-5-52-5-192 0-180 0-187 7-191 12-6 24-5 31 3 6 5 7 28 7 187 0 118-2 185-4 190-5 9-28 11-36 3z"/>
<glyph glyph-name="2" unicode="&#50;" d="M251 455c-2-2-25-39-51-83-41-70-46-81-43-91 3-8 7-11 19-12 14-1 16 0 28 20 15 23 33 32 57 25 40-11 42-18 42-137 0-70 1-98 5-102 7-7 30-6 36 1 4 5 5 34 4 111-2 92-2 106-9 119-17 31-37 45-72 49l-21 2 20 35c22 37 25 49 14 60-7 7-21 8-29 3z"/>
<glyph glyph-name="3" unicode="&#51;" d="M154 450c-9-9-9-12-7-61 3-59 7-78 22-95 16-19 41-27 81-25 19 1 38 4 42 5 6 3 7 1 7-8l0-12-38 0c-50-1-71-7-90-26-12-12-17-21-21-40-6-31-1-70 13-89 16-23 28-26 100-28 73-2 78 0 76 21l-1 13-59 3c-64 3-76 7-84 27-6 16-2 45 8 59 11 14 35 20 89 20 39 1 44 2 48 9 3 5 4 49 4 115 0 117 0 120-24 120-19 0-21-6-21-57 0-54-5-72-22-84-15-12-48-12-64 0-16 11-21 33-21 86 0 42-1 47-8 51-12 6-20 5-30-4z"/>
<glyph glyph-name="4" unicode="&#52;" d="M230 452c-10-6-10-7-10-138l0-131-25-18c-43-29-53-40-53-58 0-12 3-19 10-27l10-10 96 1 97 1 0 33-76 2c-41 2-75 4-76 5-1 2 20 18 46 37 26 19 54 43 66 58 22 25 42 60 42 71 0 10-12 19-25 19-10 0-14-3-25-23-7-13-19-32-27-41l-14-16 0 116c0 111-1 117-8 121-11 6-18 6-28-2z"/>
<glyph glyph-name="5" unicode="&#53;" d="M234 456c-2-1-9-14-14-28-7-23-33-70-82-146-8-12-12-24-11-28 1-3 16-13 32-23 17-10 31-18 32-19 1-1-6-9-15-19-20-20-26-34-26-58 0-39 35-65 87-65 37 0 78 20 105 51 20 22 25 36 22 62-1 20-10 27-27 21-9-3-11-7-12-16 0-21-5-30-26-49-26-24-51-32-75-27-23 5-28 10-28 25 0 20 24 38 98 77 37 19 69 37 70 40 1 4-13 31-31 61-34 55-67 120-67 130 0 9-19 16-32 11z m69-178c3-3 5-6 4-7-1-1-15-8-31-17l-28-15-65 31 9 12c4 7 19 31 31 54l24 40 25-46c15-25 29-48 31-52z"/>
<glyph glyph-name="6" unicode="&#54;" d="M194 445c-28-14-46-35-52-61-6-31-6-302 1-309 7-7 26-6 34 2 6 5 6 19 6 88l0 81 23 14c34 20 52 25 75 21 13-2 23-7 29-15 9-10 10-13 10-98 0-63 1-89 5-93 8-8 31-6 36 3 5 10 5 159 0 186-4 23-15 37-38 49-15 8-22 9-55 8-35-1-44-4-81-23-5-2-4 67 1 81 9 26 54 41 95 34 30-6 37-13 37-39 0-25 5-31 22-31 19 0 23 6 23 35 0 31-10 49-37 64-16 9-25 10-66 11-43 2-50 1-68-8z"/>
<glyph glyph-name="7" unicode="&#55;" d="M194 446c-33-15-51-49-47-88 4-26 11-38 42-74l27-30-52-53c-55-56-67-75-67-106 0-22 5-29 21-29 14 0 18 6 22 29 2 16 9 24 55 72 28 30 52 54 52 55 1 1 25-24 53-54 43-46 53-59 55-72 3-22 7-28 21-29 19-2 24 4 24 27-2 33-11 48-68 105l-52 55 30 35c34 38 41 55 37 92-3 31-14 49-41 62-18 10-26 11-58 11-28 0-42-2-54-8z m89-40c14-7 20-17 20-35 0-18-5-25-33-57l-23-25-25 29c-13 16-26 34-28 40-4 14 0 36 10 45 16 14 54 16 79 3z"/>
<glyph glyph-name="8" unicode="&#56;" d="M339 456c-5-5-7-15-7-45 0-21-1-44-3-51l-2-13-16 15c-26 22-46 30-82 30-39 0-58-8-81-34-36-40-36-97 0-138 23-26 42-34 81-34 36 0 56 8 81 30l17 15 2-32c2-17 3-52 3-78 0-36 1-48 7-52 8-9 24-9 32 0 12 11 7 129-8 195-6 24-6 28 2 54 13 38 17 127 7 137-9 9-25 10-33 1z m-77-112c14-7 41-37 44-50 4-14-22-49-46-62-18-9-49-8-63 2-37 27-41 74-8 104 18 17 47 20 73 6z"/>
<glyph glyph-name="9" unicode="&#57;" d="M196 446c-35-10-60-36-65-64-6-42 11-75 46-92 12-6 25-12 31-15 19-9 21-19 21-111 0-93 1-98 25-98 22 0 24 9 24 99 0 44-1 88-3 96l-4 15 22 7c48 13 79 52 74 90-7 54-42 77-119 77-23 0-47-2-52-4z m102-44c14-7 26-24 26-38 0-23-40-46-78-46-54 0-88 39-63 71 18 23 79 29 115 13z"/>
<glyph glyph-name="b" unicode="&#98;" d="M280 491c-76-14-114-29-141-58-22-24-28-43-28-86 0-41 6-57 29-83 20-21 47-35 82-42l27-5 0-56c0-66-3-80-21-86-21-8-24-6-24 9 0 15-5 19-24 19-12 0-21-6-50-28-13-11-17-17-17-28 0-21 4-22 72-22 76 0 91 5 106 36 8 16 10 27 11 88l2 70 11 2c52 12 77 25 100 51 41 46 37 134-8 164-29 20-92 8-126-23-26-23-32-40-32-94l0-46-11 0c-26 0-61 25-71 50-11 30 1 70 27 87 19 12 74 29 117 36 23 3 33 7 39 13 8 10 8 15 0 27-5 8-10 9-28 9-11 0-30-2-42-4z m100-105c10-10 11-13 9-37-1-17-4-29-11-38-9-13-41-31-63-37l-12-2 0 42c0 49 4 59 24 73 19 13 40 12 53-1z"/>
<glyph glyph-name="o" unicode="&#111;" d="M210 436c-12-5-27-17-34-26-24-29-27-42-25-165 1-106 2-112 11-128 9-17 9-18 1-18-12 0-19-15-13-27l4-10 84 0c76 0 85 1 97 8 16 10 28 27 24 35-3 8-18 8-44 0-14-5-30-6-49-5-33 2-46 9-61 35-9 15-9 18-8 123 1 105 1 108 10 121 35 48 105 28 115-33 3-20 7-24 23-24 15 0 20 7 20 29 0 35-25 71-60 87-25 12-68 10-95-2z"/>
<glyph glyph-name="n" unicode="&#110;" d="M190 438c-36-14-48-32-48-70 0-27 5-34 23-34 18 0 22 7 23 33 2 21 3 24 16 31 16 10 63 11 88 3 18-6 36-26 36-40 0-14-8-29-19-36-5-4-27-10-48-13-66-11-89-23-107-57-9-16-10-23-10-76 0-57 0-58 12-78 9-13 19-23 31-30 18-9 22-9 99-8l81 1 0 33-70 2c-81 3-92 6-103 33-10 26-9 80 3 103 12 24 27 32 80 39 46 7 61 13 77 31 15 18 21 39 17 65-3 29-15 46-43 61-21 12-27 13-70 14-40 1-51 0-68-7z"/>
<glyph glyph-name="z" unicode="&#122;" d="M168 443l-9-6 0-161c0-103-2-164-5-169-2-5-8-8-14-8-10 0-10-2-10-18l0-19 20 0c16 0 23 2 32 9l10 10 19-10c14-7 26-9 47-9 45 0 69 14 88 47 8 17 9 22 10 173l1 155-11 7c-10 7-12 7-22 2l-11-7-1-99-1-100-14 6c-18 8-60 8-79 0l-14-6 0 99c0 97 0 98-9 104-5 4-11 7-14 7-2 0-8-3-13-7z m118-239c45-29 25-102-28-102-20 0-35 9-46 27-9 16-10 31-2 50 13 32 47 43 76 25z"/>
<glyph glyph-name="y" unicode="&#121;" d="M225 450c-19-5-36-16-47-29-10-11-11-16-11-43 0-33 1-35 25-35 14 0 20 11 20 36 0 20 9 29 37 34 43 8 79-8 79-37 0-33-23-51-95-77-24-8-46-17-48-19-13-10-1-36 16-36 4 0 22 5 40 12 31 12 32 13 47 7 23-10 33-35 33-83 0-61-11-73-68-73-27 0-28 1-28 10 0 25-25 26-56 0-23-19-29-31-18-42 8-7 152-7 170 1 34 14 46 48 43 121-2 51-11 74-32 87l-13 8 10 7c31 20 46 51 43 87-2 29-12 42-40 57-19 10-26 11-59 11-21 0-43-2-48-4z"/>
<glyph glyph-name="m" unicode="&#109;" d="M225 437c-62-31-89-111-57-166 23-39 100-54 148-30l12 6 0-51c0-79-9-92-65-96-30-2-30-2-30 8 0 13-8 20-22 20-14 0-54-32-56-45-3-19 3-21 83-21 82 0 92 2 113 26 21 23 23 44 21 183-1 120-1 124-10 139-15 24-44 36-85 36-27 0-38-2-52-9z m68-33c29-7 35-18 35-66l0-41-20-9c-20-10-61-13-84-6-23 6-31 47-16 80 8 19 29 36 50 42 7 2 15 4 15 4 1 1 10-1 20-4z"/>
<glyph glyph-name="x" unicode="&#120;" d="M263 449c-10-10-5-25 28-77l32-54-54 0c-49 0-56-1-70-10-18-11-29-24-42-51-13-28-12-97 1-127 5-11 9-20 9-21 0 0-4-2-9-2-9-2-10-4-10-18l0-17 110-1c109-1 111-1 113 8 2 4 2 13 1 18-3 10-3 10-58 10-68 1-84 4-101 23-30 32-29 100 1 133l14 16 70 1c40 1 71 3 74 6 12 10 5 29-32 91-21 35-41 66-44 70-7 8-26 10-33 2z"/>
<glyph glyph-name="l" unicode="&#108;" d="M225 439c-19-8-36-24-46-43-11-21-12-107-1-117 8-8 17-8 29 0 9 6 9 10 9 49 0 37 2 44 10 56 16 25 57 30 69 8 2-4 4-63 4-143 0-153 2-145-31-149-17-2-19-1-19 8 0 13-7 20-21 20-15 0-55-32-56-45-3-19 3-21 71-21 55 0 64 1 76 8 25 15 25 21 25 185 0 167 0 166-32 183-20 10-65 11-87 1z"/>
<glyph glyph-name="k" unicode="&#107;" d="M125 437c-3-6-3-11 0-18 4-10 6-10 56-10l52 0 0-136-28-1-28-2 0-33 28-1 28-1 0-48c0-65-8-79-43-86-15-3-15-2-15 10 0 12-6 17-21 17-3 0-17-8-30-17-22-16-24-19-22-33l1-14 58-1c54-1 59-1 76 8 12 7 22 16 29 29 9 16 10 23 11 76l2 59 22 1 23 1 0-58c0-56-1-58-11-68-12-11-13-24-2-34 10-10 24-8 36 4 20 20 22 32 22 128 0 83 0 89-8 97-14 14-20 11-44-20-5-6-14-11-23-12l-16-3 0 138 54 0c50 0 53 0 56 8 1 5 1 13 0 19l-2 10-128 0c-126 0-128 0-133-9z"/>
<glyph glyph-name="w" unicode="&#119;" d="M266 446c-8-4-19-13-24-21-9-13-9-17-9-81l0-67-42-1-43-1 0-33 43-2 43-1-2-46c-2-62-9-76-43-83-12-3-13-2-11 5 3 12-6 21-20 21-15 0-55-32-56-45-3-18 4-21 59-21 69 0 89 8 105 44 7 14 8 29 8 144 0 95 2 131 6 138 7 15 23 22 38 17 20-8 22-14 22-78 0-32 2-62 4-67 6-10 30-11 37-2 4 4 5 27 4 78l-1 73-13 13c-6 7-18 16-25 18-20 9-63 8-80-2z"/>
<glyph glyph-name="v" unicode="&#118;" d="M213 442c-26-9-37-18-47-39-8-19-10-69-3-95 8-31 44-56 77-56 9 0 9-1 9-65 0-71-1-77-21-82-10-2-12-1-12 7 0 13-7 20-21 20-15 0-57-34-57-47 0-17 7-19 63-19 46 0 55 1 67 8 22 14 24 24 26 104l2 73 25 2 25 1 0 33-51 2c-76 3-91 14-91 62 0 51 14 59 107 61 66 2 66 2 69 11 1 6 1 14-1 18-2 9-5 9-73 9-58 0-75-2-93-8z"/>
<glyph glyph-name="j" unicode="&#106;" d="M171 449c-27-18-29-27-29-127 0-64 1-90 5-94 7-7 31-6 35 0 2 3 4 44 5 92l3 86 10 8c13 10 31 4 37-11 2-7 4-55 4-109 0-105 1-108 21-108 18 0 20 6 21 51 0 51 3 61 17 68 12 5 26 1 33-9 1-3 3-41 3-86 0-63-1-82-6-89-5-7-12-7-57-9l-53-1 0 10c0 13-7 19-21 19-14 0-54-31-56-45-3-20 1-21 103-21 108 0 114 2 128 30 6 16 8 28 8 107 0 100-3 109-29 127-13 8-19 9-43 8l-28-1 0 37c0 43-7 61-31 71-22 9-64 7-80-4z"/>
<glyph glyph-name="i" unicode="&#105;" d="M164 449c-4-3-5-46-5-164 0-176-1-178-25-178-16 0-24-13-17-27l4-10 90 0c78 0 92 1 107 8 20 9 30 20 37 41 8 21 8 323 1 330-7 7-27 6-34-1-6-6-7-26-7-156 0-141 0-150-8-163-10-16-27-22-75-22l-36 0 4 14c2 7 4 82 4 167 0 134-1 154-7 160-7 7-26 8-33 1z"/>
<glyph glyph-name="untitled" unicode="&#97;" d="M120 489c-5-4-7-14-7-30 0-30-9-54-24-66-11-8-13-12-13-28 0-19 8-26 27-21l10 3 1-112 1-113 12-25c13-28 35-53 58-65 14-7 22-8 78-6 60 1 64 1 85 13 25 14 49 39 63 65 9 15 10 24 10 61 0 39-1 46-11 64-6 12-17 27-24 34l-12 12 18 16c11 8 18 19 18 23 0 29-26 33-59 9l-21-15-53-2c-56-1-61-4-61-23-1-18 7-23 38-23 40 0 62-6 83-24 51-44 41-122-19-155-14-7-24-8-53-8-52 1-76 12-90 45-7 15-8 30-8 189 0 167-1 172-8 180-10 10-30 11-39 2z"/>
<glyph glyph-name="u" unicode="&#117;" d="M296 422c-22-11-51-37-69-65-23-34-38-75-52-134-14-65-26-89-61-119-28-26-33-42-18-50 6-3 59-4 146-4 130 0 137 0 150 8 26 16 27 20 27 179 0 157-1 161-25 181-12 11-16 11-47 11-24 0-39-2-51-7z m70-43c10-12 12-40 11-163l-2-114-10-7c-8-7-17-8-104-8l-95 0 13 18c17 24 27 51 37 99 17 78 50 147 80 168 28 20 56 23 70 7z"/>
<glyph glyph-name="h" unicode="&#104;" d="M187 435c-4-1-15-17-25-36-15-30-17-36-14-46l4-12 71-2c78-3 84-5 100-31 11-16 21-57 21-79 0-28-11-60-28-77-17-17-38-24-72-24-21 0-23 1-21 8 3 12-5 21-19 21-15 0-55-32-57-45-3-20 3-21 81-21 62 0 75 1 90 8 22 10 43 31 56 56 9 18 10 26 10 74 0 50-1 55-12 79-28 59-43 68-116 68-29 0-52 1-52 2 0 1 4 8 8 15 11 18 11 30-1 38-9 7-12 7-24 4z"/>
<glyph glyph-name="g" unicode="&#103;" d="M170 454c-6-4-7-14-7-117 0-86 1-114 5-117 3-2 28-5 57-6 73-3 88-12 88-55 0-25-7-38-21-44-7-2-36-6-67-6-49-2-55-4-59-11-3-6-3-11 0-18l5-10 67 1c58 1 69 2 84 10 24 13 35 36 35 78-1 70-27 93-110 94l-39 1 0 12c0 9 1 11 8 8 3-2 23-4 44-5 32-1 39 0 55 9 13 6 22 16 29 28 10 17 11 23 12 81l2 63-11 5c-8 3-13 3-20 0-10-4-10-7-13-58-3-75-11-89-54-89-43 0-52 15-52 88 0 39-1 51-7 56-7 7-21 8-31 2z"/>
<glyph glyph-name="t" unicode="&#116;" d="M293 446c-40-6-81-20-104-36-30-19-31-24-30-155 2-107 2-109 12-130l11-22-13 0c-7 0-15-2-18-5-6-6-6-21 0-27 7-7 202-7 209 0 7 7 6 22 0 27-3 2-28 5-57 6-57 2-71 7-87 28-12 18-15 41-6 64 11 29 22 35 63 35 21 0 40-2 50-6 22-9 38-7 45 6 8 16 7 204-1 210-8 7-45 9-74 5z m34-108l1-69-17 4c-26 6-77 3-93-5l-14-7 0 52c0 29 2 54 3 57 8 13 83 39 106 38l13-1z"/>
<glyph glyph-name="s" unicode="&#115;" d="M162 446c-7-4-8-13-8-88 0-76 1-85 9-97 12-21 29-27 63-24 35 3 38 3 72 0l26-2 0-52c0-29-2-57-3-62-3-13-19-18-57-18-32 0-34 1-32 8 3 12-6 21-20 21-16 0-55-32-57-46-2-19 4-20 96-19 124 2 116-12 117 203 2 140 1 161-5 170-7 11-18 13-31 6-8-4-8-10-8-81 0-69-1-77-8-84-10-10-24-7-30 7-2 5-4 42-4 82 0 66 0 72-7 76-13 7-25 5-31-5-6-7-7-23-7-82 0-39-2-74-3-77-6-9-18-9-26-1-7 7-8 14-8 82 0 62-1 75-7 80-7 8-21 9-31 3z"/>
<glyph glyph-name="f" unicode="&#102;" d="M217 449c-20-6-44-31-50-51-4-17-6-120-2-131 4-11 25-8 46 6 25 17 49 25 65 22 44-8 50-19 49-89-2-80-11-95-57-98-26-1-27-1-27 8 0 14-7 20-21 20-15 0-55-32-56-45-3-19 2-21 82-21l74 0 16 16c24 24 34 59 33 126 0 30-2 61-5 70-6 21-27 43-47 48-23 7-78 6-94-1l-15-7 0 29c0 49 15 64 65 64 19 0 28-2 35-8 11-11 20-31 20-47 0-13 6-17 25-17 16 0 22 13 16 41-6 35-17 50-44 64-16 7-85 8-108 1z"/>
<glyph glyph-name="e" unicode="&#101;" d="M195 446c-34-10-57-37-65-78-3-13-4-74-4-157 0-129 0-136 8-143 12-11 26-5 44 19 9 11 16 20 18 20 1 0 5-6 10-13 15-24 30-28 93-27 47 1 58 2 70 9 25 15 31 28 31 64 0 51-19 72-70 78-12 1-23 3-23 4 0 1 8 10 17 20 25 27 38 59 40 97 1 27 1 33-10 53-13 25-39 46-67 54-17 5-76 5-92 0z m88-46c8-4 20-14 26-21 10-12 11-16 10-38-3-40-15-61-68-113-48-47-55-57-55-81 0-14 0-14-13-10l-12 5 1 112c1 97 2 113 8 125 18 32 63 41 103 21z m62-234c8-9 12-17 12-27 0-26-15-33-67-34-25 0-33 2-40 8-11 10-11 31 0 46 12 15 21 18 54 18 26 1 30 0 41-11z"/>
<glyph glyph-name="r" unicode="&#114;" d="M159 445c-3-4-5-47-5-168 1-220-4-211 102-211 54 0 62 1 74 9 16 9 23 19 23 32 0 11-13 11-45 2-15-5-34-6-59-5-49 2-49 1-49 71 0 49 0 53 7 50 4-2 25-4 47-5 34-2 41 0 57 8 20 10 35 28 42 52 7 23 10 156 4 164-6 7-30 8-37 1-3-3-5-24-5-67 0-94-12-118-57-119-23-1-38 8-49 27-5 10-8 27-9 84-1 38-4 72-6 75-4 6-28 7-35 0z"/>
<glyph glyph-name="q" unicode="&#113;" d="M263 443c-9-5-9-9-9-38 0-37 5-32-50-42-62-10-87-34-87-80 0-26 9-41 32-55 18-10 22-11 62-10l43 0 0-37c0-55-10-70-46-76-16-3-16-3-16 10 0 12-6 17-21 17-4 0-18-8-31-17-21-16-23-19-22-32l1-15 60-1c72-1 88 4 107 35 10 18 11 24 13 69l1 48 32 0c31 0 33 1 38 10 3 7 3 12 0 18-5 8-9 9-38 9l-33 0 0 81 15 5c22 8 45 31 55 55 10 25 9 39-6 43-13 3-18 0-27-21-8-19-25-39-33-39-2 0-4 11-4 28 0 26-1 30-9 35-5 4-11 7-14 7-2 0-8-3-13-7z m-9-150l0-37-34 0c-42 0-57 7-57 26 0 22 11 32 43 40 50 13 48 15 48-29z"/>
<glyph glyph-name="d" unicode="&#100;" d="M158 437c-10-5-10-21-2-109 8-77 11-88 30-110 16-17 44-28 72-28 9 0 21-4 29-10 14-9 14-9 14-42 0-31 0-33-10-38-6-3-24-5-40-5-28 0-30 0-28 8 3 12-5 21-19 21-15 0-55-32-57-45-3-20 3-21 85-21 84 0 94 2 108 26 8 12 8 22 8 180 0 125-1 169-4 173-3 3-10 5-16 5-23 0-23 1-24-113l-1-106-16 2c-76 11-76 11-87 125-6 68-8 81-15 86-9 7-17 7-27 1z"/>
<glyph glyph-name="c" unicode="&#99;" d="M293 442c-20-16-37-29-37-29-1 0-8 6-17 12-17 14-35 16-43 6-8-9-2-26 12-34 7-4 12-8 12-9 0-2-14-14-32-28-36-28-65-64-86-105-17-37-21-64-12-98 9-33 9-32-5-34-10-1-11-3-11-18l0-16 128 0c145 0 156 1 189 31 26 23 38 51 38 95 0 32-1 38-14 64-17 33-60 79-95 99-11 7-21 13-21 15 0 6 14 7 19 1 8-8 24-8 30 0 3 4 8 19 10 35 3 23 3 30-1 35-11 13-27 8-64-22z m-7-92c55-35 100-96 100-137 0-37-24-71-56-81-9-2-53-6-97-7l-81-2-10 29c-16 52-6 91 39 141 20 21 76 70 81 70 1 0 12-6 24-13z"/>
<glyph glyph-name="p" unicode="&#112;" d="M201 442c-24-15-26-25-26-184 0-123-1-143-7-148-3-4-9-7-13-7-10 0-17-8-17-18 0-18 6-19 94-19 93 0 102 2 116 26 8 12 9 22 9 165 0 168 0 169-26 185-11 7-21 8-65 8-43 0-54-1-65-8z m102-37l10-8 0-278-10-8c-7-7-16-8-50-8l-41 0 4 11c3 6 4 68 4 146 0 138 1 144 17 150 3 1 18 2 31 2 20 1 28-1 35-7z"/>
</font>
</defs>
</svg>
