<?xml version="1.0" standalone="no"?>
<!DOCTYPE svg PUBLIC "-//W3C//DTD SVG 1.1//EN" "http://www.w3.org/Graphics/SVG/1.1/DTD/svg11.dtd" >
<svg xmlns="http://www.w3.org/2000/svg">
<metadata></metadata>
<defs>
<font id="norwesterregular" horiz-adv-x="1024" >
<font-face units-per-em="2048" ascent="1638" descent="-410" />
<missing-glyph horiz-adv-x="512" />
<glyph horiz-adv-x="2048" />
<glyph horiz-adv-x="2048" />
<glyph unicode="&#xd;" horiz-adv-x="2048" />
<glyph unicode=" "  horiz-adv-x="512" />
<glyph unicode="&#x09;" horiz-adv-x="512" />
<glyph unicode="&#xa0;" horiz-adv-x="512" />
<glyph unicode="!" horiz-adv-x="483" d="M92 1606q0 32 33 32h223q33 0 33 -32l-14 -1117q0 -32 -33 -32h-195q-33 0 -33 32zM102 41v188q0 41 41 41h187q41 0 41 -41v-188q0 -41 -41 -41h-187q-41 0 -41 41z" />
<glyph unicode="&#x22;" horiz-adv-x="837" d="M102 1409v188q0 41 41 41h187q41 0 41 -41v-200q0 -27 -15 -51l-110 -168q-9 -15 -25 -15h-92q-12 0 -16.5 7.5t0.5 17.5l82 180h-52q-41 0 -41 41zM467 1409v188q0 41 41 41h186q41 0 41 -41v-200q0 -29 -14 -51l-111 -168q-9 -15 -24 -15h-92q-12 0 -17 7t0 18l82 180 h-51q-41 0 -41 41z" />
<glyph unicode="#" horiz-adv-x="1916" d="M106 504l52 141q11 33 47 33h280l117 303h-311q-23 0 -32.5 12.5t-0.5 34.5l51 141q11 33 47 33h330l154 404q11 32 47 32h190q23 0 32 -12.5t1 -34.5l-147 -389h278l154 404q11 32 47 32h190q23 0 32 -12.5t1 -34.5l-147 -389h260q23 0 32 -12.5t0 -34.5l-51 -141 q-11 -33 -47 -33h-280l-115 -303h309q23 0 32.5 -12.5t0.5 -34.5l-51 -142q-11 -32 -47 -32h-328l-162 -424q-11 -33 -47 -33l-193 -2q-48 0 -32 47l157 412h-278l-162 -424q-11 -33 -47 -33l-193 -2q-48 0 -32 47l157 412h-262q-23 0 -32.5 12.5t-0.5 34.5zM762 678h278 l117 303h-280z" />
<glyph unicode="$" d="M102 295v215q0 33 33 33h213q33 0 33 -33v-158q0 -82 82 -82h98q82 0 82 82v273l-485 159q-56 18 -56 76v483q0 139 71.5 214.5t205.5 80.5v121q0 33 33 33h198q15 0 24 -9t9 -24v-121q136 -4 207.5 -79.5t71.5 -215.5v-217q0 -32 -33 -32h-213q-33 0 -33 32v160 q0 82 -82 82h-98q-39 0 -60.5 -21.5t-21.5 -60.5v-282l487 -160q54 -22 54 -76v-473q0 -140 -71.5 -215.5t-207.5 -79.5v-121q0 -15 -9 -24t-24 -9h-198q-33 0 -33 33v121q-134 5 -205.5 80.5t-71.5 214.5z" />
<glyph unicode="%" horiz-adv-x="1779" d="M164 1184q0 136 94.5 231.5t230.5 95.5q132 0 226 -96t94 -231q0 -132 -94 -226t-226 -94q-136 0 -230.5 93.5t-94.5 226.5zM295 12.5q-10 12.5 2 34.5l944 1423q12 19 20.5 26t26.5 7h191q24 0 34 -12.5t-2 -34.5l-942 -1423q-12 -19 -20.5 -26t-26.5 -7h-192 q-25 0 -35 12.5zM375 1184q0 -45 33.5 -78t80.5 -33q43 0 77 33.5t34 77.5q0 46 -34 80t-77 34q-47 0 -80.5 -33.5t-33.5 -80.5zM971 289q0 136 94.5 231.5t230.5 95.5q132 0 226 -96t94 -231q0 -132 -94 -226t-226 -94q-136 0 -230.5 93.5t-94.5 226.5zM1182 289 q0 -45 33.5 -78t80.5 -33q43 0 77 33.5t34 77.5q0 47 -33.5 80.5t-77.5 33.5q-47 0 -80.5 -33.5t-33.5 -80.5z" />
<glyph unicode="&#x26;" horiz-adv-x="1153" d="M102 295v397q0 56 36.5 96.5t92.5 49.5v4q-56 9 -92.5 49t-36.5 96v356q0 145 76 220t221 75h371q41 0 41 -41v-188q0 -41 -41 -41h-313q-82 0 -82 -82v-231q0 -38 21 -59t61 -21h190v82q0 41 41 41h195q41 0 41 -41v-82h86q41 0 41 -41v-189q0 -40 -41 -40h-86v-664 q0 -41 -41 -41h-484q-145 0 -221 75t-76 220zM375 352q0 -82 82 -82h190v435h-190q-82 0 -82 -82v-271z" />
<glyph unicode="'" horiz-adv-x="473" d="M102 1409v188q0 41 41 41h187q41 0 41 -41v-200q0 -27 -15 -51l-110 -168q-9 -15 -25 -15h-92q-12 0 -16.5 7.5t0.5 17.5l82 180h-52q-41 0 -41 41z" />
<glyph unicode="(" horiz-adv-x="626" d="M102 739.5q0 448.5 166 866.5q11 32 47 32h172q23 0 32 -12.5t1 -34.5q-160 -410 -160 -852t160 -852q8 -22 -1 -34.5t-32 -12.5h-172q-36 0 -47 33q-166 418 -166 866.5z" />
<glyph unicode=")" horiz-adv-x="626" d="M106 -113q160 410 160 852t-160 852q-8 22 1 34.5t32 12.5h172q36 0 47 -32q166 -418 166 -866.5t-166 -866.5q-11 -33 -47 -33h-172q-23 0 -32 12.5t-1 34.5z" />
<glyph unicode="+" horiz-adv-x="1425" d="M102 705v192q0 41 41 41h432v432q0 41 41 41h193q41 0 41 -41v-432h432q41 0 41 -41v-192q0 -41 -41 -41h-432v-433q0 -41 -41 -41h-193q-41 0 -41 41v433h-432q-41 0 -41 41z" />
<glyph unicode="," horiz-adv-x="473" d="M102 41v188q0 41 41 41h187q41 0 41 -41v-200q0 -28 -15 -52l-110 -167q-9 -15 -25 -15h-92q-12 0 -16.5 7.5t0.5 17.5l82 180h-52q-41 0 -41 41z" />
<glyph unicode="-" horiz-adv-x="610" d="M102 643v188q0 41 41 41h324q41 0 41 -41v-188q0 -41 -41 -41h-324q-41 0 -41 41z" />
<glyph unicode="." horiz-adv-x="473" d="M102 41v188q0 41 41 41h187q41 0 41 -41v-188q0 -41 -41 -41h-187q-41 0 -41 41z" />
<glyph unicode="/" horiz-adv-x="1077" d="M66 -115l657 1721q11 32 47 32h191q48 0 32 -47l-655 -1720q-11 -33 -47 -33h-193q-48 0 -32 47z" />
<glyph unicode="0" d="M102 295v1048q0 145 75 220t220 75h230q145 0 220 -75t75 -220v-1048q0 -145 -75 -220t-220 -75h-230q-145 0 -220 75t-75 220zM375 346q0 -82 82 -82h118q82 0 82 82v946q0 82 -82 82h-118q-82 0 -82 -82v-946z" />
<glyph unicode="1" horiz-adv-x="673" d="M102 1348v196q0 40 39 43l377 51q33 0 33 -32v-1573q0 -15 -9 -24t-24 -9h-213q-33 0 -33 33v1294l-127 -16q-43 -6 -43 37z" />
<glyph unicode="2" d="M102 41v604q0 28 12 44.5t42 31.5l487 262v303q0 39 -21.5 60.5t-60.5 21.5h-98q-82 0 -82 -82v-160q0 -32 -33 -32h-213q-33 0 -33 32v217q0 145 75 220t220 75h230q143 0 219 -75.5t76 -219.5v-483q0 -28 -12.5 -44t-43.5 -32l-456 -245q-29 -17 -29 -50v-178 q0 -41 41 -41h221v84q0 41 41 41h197q41 0 41 -41v-313q0 -41 -41 -41h-738q-41 0 -41 41z" />
<glyph unicode="3" horiz-adv-x="1026" d="M102 287v67q0 41 41 41h197q41 0 41 -41v-84h229q41 0 41 41v291q0 82 -82 82h-241q-41 0 -41 41v188q0 41 41 41h241q40 0 61 21t21 59v293q0 41 -41 41h-229v-84q0 -41 -41 -41h-197q-41 0 -41 41v84q0 132 73.5 201t213.5 69h238q145 0 221 -75t76 -220v-376 q0 -56 -36.5 -96.5t-92.5 -49.5v-4q56 -9 92.5 -49t36.5 -96v-377q0 -145 -76 -220t-221 -75h-238q-139 0 -213 74t-74 213z" />
<glyph unicode="4" horiz-adv-x="1218" d="M102 528v183q0 25 15 49l526 852q14 26 49 26h215q25 0 32.5 -13.5t-5.5 -35.5l-514 -852h311v246q0 41 41 41h178q41 0 41 -41v-242h84q41 0 41 -41v-176q0 -41 -41 -41h-84v-442q0 -41 -41 -41h-178q-41 0 -41 41v446h-588q-41 0 -41 41z" />
<glyph unicode="5" d="M102 287v65q0 41 41 41h197q41 0 41 -41v-82h223q41 0 41 41v375l-487 154q-35 11 -35 45v712q0 41 41 41h696q41 0 41 -41v-188q0 -41 -41 -41h-461v-321l488 -154q35 -11 35 -45v-561q0 -139 -74 -213t-213 -74h-246q-139 0 -213 74t-74 213z" />
<glyph unicode="6" d="M102 287v526q0 47 21 102l291 693q12 30 47 30h213q23 0 31.5 -12.5t-0.5 -34.5l-248 -585h178q139 0 213 -74t74 -213v-432q0 -139 -74 -213t-213 -74h-246q-139 0 -213 74t-74 213zM373 352q0 -82 82 -82h114q82 0 82 82v301q0 82 -82 82h-114q-82 0 -82 -82v-301z" />
<glyph unicode="7" horiz-adv-x="1071" d="M102 1399v205q0 31 33 34h840q48 0 31 -49l-598 -1554q-11 -33 -48 -33l-213 -2q-48 0 -32 47l506 1319h-486q-15 0 -24 9t-9 24z" />
<glyph unicode="8" horiz-adv-x="1026" d="M102 295v377q0 56 36.5 96t92.5 49v4q-56 9 -92.5 49.5t-36.5 96.5v376q0 145 76 220t221 75h228q145 0 221 -75t76 -220v-376q0 -56 -36.5 -96.5t-92.5 -49.5v-4q56 -9 92.5 -49t36.5 -96v-377q0 -145 -76 -220t-221 -75h-228q-145 0 -221 75t-76 220zM375 352 q0 -82 82 -82h112q82 0 82 82v250q0 82 -82 82h-112q-82 0 -82 -82v-250zM375 1034q0 -38 21 -59t61 -21h112q40 0 61 21t21 59v252q0 82 -82 82h-112q-82 0 -82 -82v-252z" />
<glyph unicode="9" d="M102 920v432q0 139 73.5 212.5t213.5 73.5h246q140 0 213.5 -73.5t73.5 -212.5v-527q0 -46 -21 -102l-291 -692q-12 -31 -47 -31h-213q-23 0 -31.5 12.5t0.5 34.5l248 586h-178q-139 0 -213 73.5t-74 213.5zM373 985q0 -82 82 -82h114q82 0 82 82v301q0 82 -82 82h-114 q-82 0 -82 -82v-301z" />
<glyph unicode=":" horiz-adv-x="473" d="M102 41v188q0 41 41 41h187q41 0 41 -41v-188q0 -41 -41 -41h-187q-41 0 -41 41zM102 725v188q0 41 41 41h187q41 0 41 -41v-188q0 -41 -41 -41h-187q-41 0 -41 41z" />
<glyph unicode=";" horiz-adv-x="473" d="M102 41v188q0 41 41 41h187q41 0 41 -41v-200q0 -28 -15 -52l-110 -167q-9 -15 -25 -15h-92q-12 0 -16.5 7.5t0.5 17.5l82 180h-52q-41 0 -41 41zM102 727v188q0 41 41 41h187q41 0 41 -41v-188q0 -41 -41 -41h-187q-41 0 -41 41z" />
<glyph unicode="=" horiz-adv-x="1427" d="M102 911v193q0 41 41 41h1139q41 0 41 -41v-193q0 -41 -41 -41h-1139q-41 0 -41 41zM104 467v192q0 41 41 41h1139q41 0 41 -41v-192q0 -41 -41 -41h-1139q-41 0 -41 41z" />
<glyph unicode="?" d="M102 1126v217q0 145 75 220t220 75h230q143 0 219 -75.5t76 -219.5v-403q0 -31 -23 -51l-260 -250q-21 -21 -21 -51v-90q0 -41 -40 -41h-193q-41 0 -41 41v180q0 28 21 49l278 277v282q0 39 -21.5 60.5t-60.5 21.5h-98q-82 0 -82 -82v-160q0 -32 -33 -32h-213 q-33 0 -33 32zM344 41v188q0 41 41 41h193q40 0 40 -41v-188q0 -41 -40 -41h-193q-41 0 -41 41z" />
<glyph unicode="@" horiz-adv-x="1515" d="M102 213v1047q0 145 75 220.5t220 75.5h721q145 0 220 -74.5t75 -219.5v-924q0 -15 -9 -24t-24 -9h-204q-33 0 -33 33v31l-371 -62q-143 -6 -219 71.5t-76 223.5v279q0 149 77 231.5t218 65.5l371 -60v86q0 82 -82 82h-606q-82 0 -82 -84v-932q0 -82 82 -82h426 q41 0 41 -41v-167q0 -40 -41 -43l-484 -19q-143 -6 -219 71.5t-76 223.5zM727 659q0 -81 82 -81l334 45v239l-334 45q-82 0 -82 -84v-164z" />
<glyph unicode="A" horiz-adv-x="1200" d="M84 35l340 1575q6 28 35 28h284q29 0 35 -28l340 -1575q1 -5 1 -10q0 -25 -29 -25h-218q-26 0 -32 29l-58 299h-364l-56 -299q-6 -29 -32 -29h-219q-29 0 -29 22q0 6 2 13zM469 565h262l-131 715z" />
<glyph unicode="B" horiz-adv-x="1026" d="M102 33v1573q0 32 33 32h492q145 0 221 -75t76 -220v-376q0 -56 -36.5 -96.5t-92.5 -49.5v-4q56 -9 92.5 -49t36.5 -96v-377q0 -145 -76 -220t-221 -75h-492q-15 0 -24 9t-9 24zM383 270h186q82 0 82 82v250q0 82 -82 82h-186v-414zM383 954h186q40 0 61 21t21 59v252 q0 82 -82 82h-186v-414z" />
<glyph unicode="C" horiz-adv-x="1026" d="M102 295v1048q0 145 76 220t221 75h230q143 0 219 -75.5t76 -219.5v-221q0 -32 -33 -32h-205q-33 0 -33 32v164q0 82 -82 82h-106q-82 0 -82 -82v-934q0 -82 82 -82h106q82 0 82 82v164q0 33 33 33h205q15 0 24 -9t9 -24v-221q0 -144 -76 -219.5t-219 -75.5h-230 q-145 0 -221 75t-76 220z" />
<glyph unicode="D" d="M102 33v1573q0 32 33 32h492q145 0 220 -76t75 -221v-1046q0 -145 -75 -220t-220 -75h-492q-33 0 -33 33zM381 270h188q82 0 82 82v932q0 84 -82 84h-188v-1098z" />
<glyph unicode="E" horiz-adv-x="1021" d="M102 33v1573q0 15 8.5 23.5t22.5 8.5h754q33 0 33 -32v-205q0 -35 -33 -35h-512v-410h391q33 0 33 -34v-203q0 -35 -33 -35h-391v-414h512q19 0 26 -7t7 -25v-205q0 -33 -33 -33h-754q-14 0 -22.5 9t-8.5 24z" />
<glyph unicode="F" d="M102 33v1573q0 32 33 32h754q33 0 33 -32v-205q0 -15 -9 -24t-24 -9h-508v-412h385q33 0 33 -32v-205q0 -33 -33 -33h-385v-653q0 -15 -9 -24t-24 -9h-213q-33 0 -33 33z" />
<glyph unicode="G" horiz-adv-x="1064" d="M102 295v1048q0 145 75 220t220 75h271q143 0 219 -75.5t76 -219.5v-213q0 -32 -33 -32h-205q-33 0 -33 32v156q0 82 -82 82h-147q-82 0 -82 -82v-934q0 -82 82 -82h147q82 0 82 82v275h-106q-33 0 -33 32v205q0 33 33 33h344q33 0 33 -33v-569q0 -144 -76 -219.5 t-219 -75.5h-271q-145 0 -220 75t-75 220z" />
<glyph unicode="H" d="M102 33v1573q0 32 35 32h211q33 0 33 -32v-652h262v652q0 32 33 32h211q35 0 35 -32v-1573q0 -33 -35 -33h-211q-15 0 -24 9t-9 24v651h-262v-651q0 -15 -9 -24t-24 -9h-211q-35 0 -35 33z" />
<glyph unicode="I" horiz-adv-x="483" d="M102 33v1573q0 32 33 32h213q33 0 33 -32v-1573q0 -15 -9 -24t-24 -9h-213q-33 0 -33 33z" />
<glyph unicode="J" d="M102 295v213q0 33 33 33h205q15 0 24 -9t9 -24v-156q0 -82 82 -82h106q82 0 82 82v1254q0 32 33 32h213q33 0 33 -32v-1311q0 -144 -76 -219.5t-219 -75.5h-230q-145 0 -220 75t-75 220z" />
<glyph unicode="K" horiz-adv-x="1097" d="M102 41v1556q0 41 41 41h197q41 0 41 -41v-634l315 645q15 30 47 30h215q23 0 31 -13.5t-2 -35.5l-348 -715l371 -827q6 -11 6 -20q0 -7 -4 -13q-8 -14 -33 -14h-217q-35 0 -47 31l-258 608l-76 -145v-453q0 -41 -41 -41h-197q-41 0 -41 41z" />
<glyph unicode="L" horiz-adv-x="1003" d="M102 33q0 -33 33 -33h733q33 0 33 33v205q0 32 -33 32h-487v1336q0 32 -33 32h-213q-33 0 -33 -32v-1573z" />
<glyph unicode="M" horiz-adv-x="1372" d="M102 41v1556q0 41 41 41h271q36 0 45 -36l227 -1020l227 1020q9 36 45 36h271q41 0 41 -41v-1556q0 -41 -41 -41h-191q-41 0 -41 41v922h-14l-203 -926q-9 -37 -45 -37h-100q-36 0 -45 37l-203 926h-14v-922q0 -41 -41 -41h-189q-41 0 -41 41z" />
<glyph unicode="N" horiz-adv-x="1079" d="M102 33v1573q0 32 33 32h203q28 0 37 -26l311 -871h12v865q0 32 33 32h213q33 0 33 -32v-1573q0 -15 -9 -24t-24 -9h-203q-27 0 -36 27l-314 874h-10v-868q0 -33 -33 -33h-213q-15 0 -24 9t-9 24z" />
<glyph unicode="O" d="M102 295v1048q0 145 75 220t220 75h230q145 0 220 -75t75 -220v-1048q0 -145 -75 -220t-220 -75h-230q-145 0 -220 75t-75 220zM375 346q0 -82 82 -82h118q82 0 82 82v946q0 82 -82 82h-118q-82 0 -82 -82v-946z" />
<glyph unicode="P" d="M102 33v1573q0 32 33 32h492q145 0 220 -75t75 -220v-499q0 -143 -75.5 -219t-219.5 -76h-246v-516q0 -33 -33 -33h-213q-15 0 -24 9t-9 24zM381 819h180q82 0 82 82v385q0 82 -82 82h-180v-549z" />
<glyph unicode="Q" d="M102 295v1048q0 145 75 220t220 75h230q145 0 220 -75t75 -220v-1048q0 -193 -134 -262l82 -176q7 -17 -1.5 -27t-26.5 -10h-213q-21 0 -35 28l-70 152h-127q-145 0 -220 75t-75 220zM381 352q0 -82 82 -82h106q82 0 82 82v934q0 82 -82 82h-106q-82 0 -82 -82v-934z" />
<glyph unicode="R" horiz-adv-x="1046" d="M102 33v1573q0 32 33 32h514q145 0 220 -75t75 -220v-499q0 -206 -149 -271l141 -536q9 -37 -29 -37h-213q-29 0 -35 29l-137 520h-141v-516q0 -15 -9 -24t-24 -9h-213q-15 0 -24 9t-9 24zM381 819h203q82 0 82 82v385q0 82 -82 82h-203v-549z" />
<glyph unicode="S" d="M102 295v215q0 33 33 33h213q33 0 33 -33v-158q0 -82 82 -82h98q82 0 82 82v273l-485 159q-56 18 -56 76v483q0 144 76 219.5t219 75.5h230q145 0 220 -75t75 -220v-217q0 -32 -33 -32h-213q-33 0 -33 32v160q0 82 -82 82h-98q-39 0 -60.5 -21.5t-21.5 -60.5v-282 l487 -160q54 -22 54 -76v-473q0 -145 -75 -220t-220 -75h-230q-143 0 -219 75.5t-76 219.5z" />
<glyph unicode="T" horiz-adv-x="942" d="M61 1401v205q0 32 33 32h754q33 0 33 -32v-205q0 -33 -33 -33h-238v-1335q0 -33 -32 -33h-213q-33 0 -33 33v1335h-238q-15 0 -24 9t-9 24z" />
<glyph unicode="U" d="M102 295v1302q0 17 12 29t29 12h197q17 0 29 -12t12 -29v-1245q0 -82 82 -82h106q82 0 82 82v1245q0 17 12 29t29 12h189q17 0 29 -12t12 -29v-1302q0 -145 -75 -220t-220 -75h-230q-145 0 -220 75t-75 220z" />
<glyph unicode="V" horiz-adv-x="1112" d="M63 1593q-1 7 -1 14q0 31 38 31h195q36 0 45 -36l215 -1098l217 1098q9 36 45 36h195q38 0 38 -31q0 -6 -1 -14l-347 -1556q-9 -37 -45 -37h-204q-36 0 -45 37z" />
<glyph unicode="W" horiz-adv-x="1558" d="M102 1595v6q0 37 39 37h195q40 0 43 -39l80 -958h10l203 961q9 36 45 36h123q36 0 45 -36l200 -961h11l84 958q3 39 43 39h194q39 0 39 -37v-6l-176 -1556q-3 -39 -43 -39h-201q-36 0 -45 37l-213 926l-215 -928q-9 -35 -45 -35h-205q-40 0 -43 39z" />
<glyph unicode="X" horiz-adv-x="1101" d="M44 14q-4 6 -4 14q0 9 5 21l324 787l-312 753q-9 22 -1 35.5t32 13.5h205q36 0 47 -28l190 -486l191 486q11 28 47 28h205q24 0 32 -13.5t-1 -35.5l-314 -753l326 -787q5 -12 5 -21q0 -8 -4 -14q-8 -14 -32 -14h-211q-35 0 -47 29l-197 495l-196 -495q-12 -29 -47 -29 h-211q-24 0 -32 14z" />
<glyph unicode="Y" horiz-adv-x="1118" d="M45 1591q-4 11 -4 19q0 9 5 16q9 12 32 12h205q36 0 47 -32l229 -588l229 588q11 32 48 32h204q23 0 32 -12q5 -7 5 -16q0 -8 -4 -19l-375 -911v-639q0 -41 -41 -41h-196q-41 0 -41 41v639z" />
<glyph unicode="Z" horiz-adv-x="1038" d="M64 14q-4 6 -4 13q0 10 6 22l509 1317h-423q-15 0 -24 9t-9 24v205q0 31 33 34h770q35 0 35 -26q0 -10 -5 -23l-510 -1319h451q33 0 33 -32v-203q0 -32 -33 -35h-797q-24 0 -32 14z" />
<glyph unicode="\" horiz-adv-x="1079" d="M86 1591q-8 22 1 34.5t32 12.5h190q36 0 47 -32l658 -1721q8 -22 -1 -34.5t-32 -12.5h-193q-36 0 -47 33z" />
<glyph unicode="_" horiz-adv-x="1316" d="M0 -86q0 41 41 41h1235q41 0 41 -41v-188q0 -41 -41 -41h-1235q-41 0 -41 41v188z" />
<glyph unicode="a" horiz-adv-x="1161" d="M63 35l340 1370q6 29 35 29h285q29 0 35 -29l340 -1370q2 -7 2 -12q0 -23 -31 -23h-199q-26 0 -32 29l-66 258h-385l-63 -258q-6 -29 -33 -29h-201q-29 0 -29 22q0 6 2 13zM451 524h258l-129 557z" />
<glyph unicode="b" horiz-adv-x="1026" d="M102 33v1368q0 33 33 33h492q145 0 221 -75t76 -220v-277q0 -56 -36.5 -96t-92.5 -49v-4q56 -9 92.5 -49.5t36.5 -96.5v-272q0 -145 -76 -220t-221 -75h-492q-15 0 -24 9t-9 24zM356 258h226q82 0 82 82v158q0 82 -82 82h-226v-322zM356 850h226q40 0 61 21t21 59v164 q0 82 -82 82h-226v-326z" />
<glyph unicode="c" horiz-adv-x="1026" d="M102 295v844q0 145 76 220t221 75h230q143 0 219 -75.5t76 -219.5v-221q0 -15 -9 -24t-24 -9h-193q-32 0 -32 33v167q0 82 -82 82h-131q-82 0 -82 -82v-743q0 -82 82 -82h131q82 0 82 82v174q0 33 32 33h193q15 0 24 -9t9 -24v-221q0 -144 -76 -219.5t-219 -75.5h-230 q-145 0 -221 75t-76 220z" />
<glyph unicode="d" d="M102 33v1368q0 33 33 33h492q145 0 220 -76t75 -221v-842q0 -145 -75 -220t-220 -75h-492q-33 0 -33 33zM381 270h188q82 0 82 82v727q0 84 -82 84h-188v-893z" />
<glyph unicode="e" horiz-adv-x="1021" d="M102 33v1368q0 15 8.5 24t22.5 9h754q33 0 33 -33v-205q0 -35 -33 -35h-506v-315h385q33 0 33 -35v-203q0 -35 -33 -35h-385v-303h506q19 0 26 -7t7 -25v-205q0 -33 -33 -33h-754q-14 0 -22.5 9t-8.5 24z" />
<glyph unicode="f" d="M102 33v1368q0 33 33 33h754q15 0 24 -9t9 -24v-205q0 -15 -9 -24t-24 -9h-508v-350h385q15 0 24 -9t9 -24v-205q0 -32 -33 -32h-385v-510q0 -15 -9 -24t-24 -9h-213q-33 0 -33 33z" />
<glyph unicode="g" d="M102 295v844q0 145 75 220t220 75h230q143 0 219 -75.5t76 -219.5v-152q0 -15 -9 -24t-24 -9h-193q-32 0 -32 33v100q0 82 -82 82h-131q-82 0 -82 -82v-741q0 -82 82 -82h131q82 0 82 82v178h-107q-33 0 -33 33v205q0 33 33 33h332q33 0 33 -33v-467q0 -144 -76 -219.5 t-219 -75.5h-230q-145 0 -220 75t-75 220z" />
<glyph unicode="h" d="M102 33v1368q0 33 35 33h211q15 0 24 -9t9 -24v-553h262v553q0 15 9 24t24 9h211q35 0 35 -33v-1368q0 -33 -35 -33h-211q-15 0 -24 9t-9 24v545h-262v-545q0 -15 -9 -24t-24 -9h-211q-35 0 -35 33z" />
<glyph unicode="i" horiz-adv-x="483" d="M102 33q0 -33 33 -33h213q15 0 24 9t9 24v1368q0 15 -9 24t-24 9h-213q-33 0 -33 -33v-1368z" />
<glyph unicode="j" d="M102 295v213q0 33 33 33h205q15 0 24 -9t9 -24v-156q0 -82 82 -82h106q82 0 82 82v1049q0 33 33 33h213q15 0 24 -9t9 -24v-1106q0 -144 -76 -219.5t-219 -75.5h-230q-145 0 -220 75t-75 220z" />
<glyph unicode="k" horiz-adv-x="1097" d="M102 41v1352q0 41 41 41h197q41 0 41 -41v-533l315 543q17 31 47 31h215q23 0 32 -15t-3 -35l-348 -612l371 -725q6 -11 6 -20q0 -7 -4 -13q-8 -14 -33 -14h-217q-32 0 -47 31l-258 506l-76 -146v-350q0 -41 -41 -41h-197q-41 0 -41 41z" />
<glyph unicode="l" horiz-adv-x="921" d="M102 33q0 -33 33 -33h651q33 0 33 33v205q0 32 -33 32h-405v1131q0 33 -33 33h-213q-15 0 -24 -9t-9 -24v-1368z" />
<glyph unicode="m" horiz-adv-x="1372" d="M102 41v1352q0 41 41 41h271q36 0 45 -35l227 -914l227 914q9 35 45 35h271q41 0 41 -41v-1352q0 -41 -41 -41h-191q-41 0 -41 41v805h-14l-192 -811q-9 -35 -46 -35h-120q-36 0 -45 35l-193 811h-14v-805q0 -41 -41 -41h-189q-41 0 -41 41z" />
<glyph unicode="n" horiz-adv-x="1079" d="M102 33v1368q0 15 9 24t24 9h162q25 0 37 -27l385 -782v776q0 33 33 33h192q15 0 24 -9t9 -24v-1368q0 -15 -9 -24t-24 -9h-162q-25 0 -37 27l-385 782v-776q0 -33 -32 -33h-193q-15 0 -24 9t-9 24z" />
<glyph unicode="o" d="M102 295v844q0 145 75 220t220 75h230q145 0 220 -75t75 -220v-844q0 -145 -75 -220t-220 -75h-230q-145 0 -220 75t-75 220zM369 346q0 -82 82 -82h131q82 0 82 82v741q0 82 -82 82h-131q-82 0 -82 -82v-741z" />
<glyph unicode="p" d="M102 33v1368q0 15 9 24t24 9h492q145 0 220 -75t75 -220v-402q0 -143 -75 -218.5t-220 -76.5l-258 -2v-409q0 -33 -33 -33l-201 2q-15 0 -24 9t-9 24zM369 705l204 2q82 0 82 81v299q0 82 -82 82l-204 -2v-462z" />
<glyph unicode="q" d="M102 295v844q0 145 75 220t220 75h230q145 0 220 -75t75 -220v-844q0 -193 -134 -262l82 -176q7 -17 -1.5 -27t-26.5 -10h-213q-21 0 -35 28l-70 152h-127q-145 0 -220 75t-75 220zM369 346q0 -82 82 -82h131q82 0 82 82v741q0 82 -82 82h-131q-82 0 -82 -82v-741z" />
<glyph unicode="r" d="M102 33v1368q0 15 9 24t24 9h492q145 0 220 -75t75 -220v-412q0 -179 -115 -250l106 -440q9 -37 -28 -37h-201q-29 0 -35 29l-98 403h-182v-399q0 -15 -9 -24t-24 -9h-201q-15 0 -24 9t-9 24zM369 696h204q82 0 82 82v309q0 82 -82 82h-204v-473z" />
<glyph unicode="s" d="M102 295v133q0 33 33 33h207q33 0 33 -33v-86q0 -82 82 -82h110q82 0 82 82v207l-491 160q-56 18 -56 75v355q0 144 76 219.5t219 75.5h230q145 0 220 -75t75 -220v-135q0 -33 -33 -33h-207q-15 0 -24 9t-9 24v86q0 81 -82 81h-112q-39 0 -60.5 -21t-21.5 -60v-175 l495 -159q54 -19 54 -76v-385q0 -145 -75 -220t-220 -75h-230q-143 0 -219 75.5t-76 219.5z" />
<glyph unicode="t" horiz-adv-x="942" d="M61 1196q0 -15 9 -24t24 -9h238v-1130q0 -33 33 -33h213q32 0 32 33v1130h238q33 0 33 33v205q0 33 -33 33h-754q-15 0 -24 -9t-9 -24v-205z" />
<glyph unicode="u" d="M102 295v1098q0 17 12 29t29 12h197q17 0 29 -12t12 -29v-1041q0 -82 82 -82h106q82 0 82 82v1041q0 17 12 29t29 12h189q17 0 29 -12t12 -29v-1098q0 -145 -75 -220t-220 -75h-230q-145 0 -220 75t-75 220z" />
<glyph unicode="v" horiz-adv-x="1071" d="M63 1389q-1 7 -1 14q0 31 38 31h187q36 0 45 -37l203 -926l204 926q9 37 45 37h187q38 0 38 -31q0 -6 -1 -14l-326 -1352q-9 -37 -45 -37h-205q-36 0 -45 37z" />
<glyph unicode="w" horiz-adv-x="1570" d="M102 1391q-1 5 -1 10q0 33 40 33h193q37 0 43 -39l100 -856h10l201 860q9 35 45 35h125q36 0 45 -35l201 -860h10l105 856q6 39 43 39h192q40 0 40 -33q0 -4 -1 -10l-197 -1354q-6 -37 -45 -37h-221q-36 0 -45 37l-188 840l-191 -840q-9 -37 -45 -37h-225q-39 0 -45 39z " />
<glyph unicode="x" horiz-adv-x="1167" d="M65 14q-3 6 -3 12q0 10 6 23l346 684l-326 651q-11 20 -2 35t33 15h211q32 0 47 -29l196 -414l197 414q14 29 47 29h211q24 0 33 -15t-2 -35l-324 -651l344 -684q6 -13 6 -23q0 -6 -3 -12q-8 -14 -33 -14h-211q-32 0 -47 29l-218 444l-217 -444q-14 -29 -47 -29h-211 q-25 0 -33 14z" />
<glyph unicode="y" horiz-adv-x="1077" d="M25 1386q-5 10 -5 18.5t5 15.5q9 14 32 14h205q34 0 47 -33l230 -527l229 527q13 33 47 33h205q23 0 32 -14q5 -7 5 -16q0 -8 -4 -18l-375 -849v-496q0 -41 -41 -41h-197q-41 0 -41 41v496z" />
<glyph unicode="z" horiz-adv-x="1040" d="M65 14q-3 6 -3 12q0 10 6 23l522 1114h-422q-15 0 -24 9t-9 24v203q0 32 33 35h776q26 0 34 -14q4 -6 3 -14q0 -10 -6 -22l-522 -1132h448q33 0 33 -33v-184q0 -32 -33 -35h-803q-25 0 -33 14z" />
<glyph unicode="&#xa3;" horiz-adv-x="1128" d="M102 41v154q0 36 33 47l39 16q31 12 31 47v262h-62q-41 0 -41 41v189q0 41 41 41h62v505q0 145 76 220t221 75h229q143 0 219 -75.5t76 -219.5v-221q0 -32 -33 -32h-205q-32 0 -32 32v164q0 82 -82 82h-107q-82 0 -82 -82v-448h398q41 0 41 -41v-189q0 -41 -41 -41h-398 v-297h500q41 0 41 -41v-188q0 -41 -41 -41h-842q-41 0 -41 41z" />
<glyph unicode="&#xad;" horiz-adv-x="610" d="M102 643v188q0 41 41 41h324q41 0 41 -41v-188q0 -41 -41 -41h-324q-41 0 -41 41z" />
<glyph unicode="&#xb0;" horiz-adv-x="653" d="M61 1382q0 111 77.5 190t189.5 79q109 0 186.5 -79.5t77.5 -189.5q0 -109 -77.5 -186.5t-186.5 -77.5q-112 0 -189.5 77.5t-77.5 186.5zM233 1382q0 -37 28.5 -64.5t66.5 -27.5q37 0 64.5 27.5t27.5 64.5q0 38 -27.5 66.5t-64.5 28.5q-38 0 -66.5 -28.5t-28.5 -66.5z" />
<glyph unicode="&#xd7;" horiz-adv-x="1232" d="M117 438q-29 29 0 58l305 305l-305 305q-29 28 0 57l137 137q28 28 57 0l305 -305l306 305q28 28 57 0l137 -137q28 -29 0 -57l-305 -305l305 -305q29 -29 0 -58l-137 -137q-29 -29 -57 0l-306 305l-305 -305q-29 -29 -57 0z" />
<glyph unicode="&#xf7;" horiz-adv-x="1425" d="M102 705v192q0 41 41 41h1139q41 0 41 -41v-192q0 -41 -41 -41h-1139q-41 0 -41 41zM580 233v189q0 41 41 41h186q41 0 41 -41v-189q0 -40 -41 -40h-186q-41 0 -41 40zM580 1184v188q0 41 41 41h186q41 0 41 -41v-188q0 -41 -41 -41h-186q-41 0 -41 41z" />
<glyph unicode="&#x2000;" horiz-adv-x="896" />
<glyph unicode="&#x2001;" horiz-adv-x="1792" />
<glyph unicode="&#x2002;" horiz-adv-x="896" />
<glyph unicode="&#x2003;" horiz-adv-x="1792" />
<glyph unicode="&#x2004;" horiz-adv-x="597" />
<glyph unicode="&#x2005;" horiz-adv-x="448" />
<glyph unicode="&#x2006;" horiz-adv-x="298" />
<glyph unicode="&#x2007;" horiz-adv-x="298" />
<glyph unicode="&#x2008;" horiz-adv-x="224" />
<glyph unicode="&#x2009;" horiz-adv-x="358" />
<glyph unicode="&#x200a;" horiz-adv-x="99" />
<glyph unicode="&#x2010;" horiz-adv-x="610" d="M102 643v188q0 41 41 41h324q41 0 41 -41v-188q0 -41 -41 -41h-324q-41 0 -41 41z" />
<glyph unicode="&#x2011;" horiz-adv-x="610" d="M102 643v188q0 41 41 41h324q41 0 41 -41v-188q0 -41 -41 -41h-324q-41 0 -41 41z" />
<glyph unicode="&#x2012;" horiz-adv-x="610" d="M102 643v188q0 41 41 41h324q41 0 41 -41v-188q0 -41 -41 -41h-324q-41 0 -41 41z" />
<glyph unicode="&#x2013;" horiz-adv-x="1079" d="M102 643v188q0 41 41 41h793q41 0 41 -41v-188q0 -41 -41 -41h-793q-41 0 -41 41z" />
<glyph unicode="&#x2014;" horiz-adv-x="1521" d="M102 643v188q0 41 41 41h1235q41 0 41 -41v-188q0 -41 -41 -41h-1235q-41 0 -41 41z" />
<glyph unicode="&#x2018;" horiz-adv-x="473" d="M102 1204v201q0 27 15 51l110 168q8 14 25 14h92q26 0 16 -24l-81 -180h51q41 0 41 -41v-189q0 -41 -41 -41h-187q-41 0 -41 41z" />
<glyph unicode="&#x2019;" horiz-adv-x="473" d="M102 1409v188q0 41 41 41h187q41 0 41 -41v-200q0 -27 -15 -51l-110 -168q-9 -15 -25 -15h-92q-12 0 -16.5 7.5t0.5 17.5l82 180h-52q-41 0 -41 41z" />
<glyph unicode="&#x201c;" horiz-adv-x="821" d="M102 1204v201q0 27 15 51l110 168q8 14 25 14h92q26 0 16 -24l-81 -180h51q41 0 41 -41v-189q0 -41 -41 -41h-187q-41 0 -41 41zM451 1204v201q0 29 14 51l110 168q8 14 25 14h92q12 0 17 -6.5t0 -17.5l-82 -180h51q41 0 41 -41v-189q0 -41 -41 -41h-186q-41 0 -41 41z " />
<glyph unicode="&#x201d;" horiz-adv-x="837" d="M102 1409v188q0 41 41 41h187q41 0 41 -41v-200q0 -27 -15 -51l-110 -168q-9 -15 -25 -15h-92q-12 0 -16.5 7.5t0.5 17.5l82 180h-52q-41 0 -41 41zM467 1409v188q0 41 41 41h186q41 0 41 -41v-200q0 -29 -14 -51l-111 -168q-9 -15 -24 -15h-92q-12 0 -17 7t0 18l82 180 h-51q-41 0 -41 41z" />
<glyph unicode="&#x2026;" horiz-adv-x="1292" d="M102 41v188q0 41 41 41h187q41 0 41 -41v-188q0 -41 -41 -41h-187q-41 0 -41 41zM512 41v188q0 41 41 41h186q41 0 41 -41v-188q0 -41 -41 -41h-186q-41 0 -41 41zM922 41v188q0 41 41 41h186q41 0 41 -41v-188q0 -41 -41 -41h-186q-41 0 -41 41z" />
<glyph unicode="&#x202f;" horiz-adv-x="358" />
<glyph unicode="&#x205f;" horiz-adv-x="448" />
<glyph unicode="&#x20ac;" horiz-adv-x="1185" d="M102 555l25 150q6 36 43 36h94v156h-82q-45 0 -39 43l25 150q6 36 45 36h51v215q0 146 76 224.5t219 72.5l483 -18q41 -3 41 -43v-168q0 -41 -41 -41h-426q-81 0 -81 -84v-158h350q43 0 37 -43l-25 -149q-6 -37 -43 -37h-319v-156h268q43 0 37 -43l-25 -149 q-6 -37 -43 -37h-237v-160q0 -82 81 -82h426q41 0 41 -41v-168q0 -40 -41 -43l-483 -18q-143 -6 -219 71.5t-76 223.5v217h-123q-45 0 -39 43z" />
<glyph unicode="&#xe000;" horiz-adv-x="1433" d="M0 0v1434h1434v-1434h-1434z" />
</font>
</defs>
</svg>
