<?xml version="1.0" standalone="no"?>
<!DOCTYPE svg PUBLIC "-//W3C//DTD SVG 1.1//EN" "http://www.w3.org/Graphics/SVG/1.1/DTD/svg11.dtd" >
<svg>
<metadata>
Created by FontForge 20090914 at Mon Feb 11 17:55:47 2019
 By www-data
Copyright (c) 2019 by creativeLAB. All rights reserved.
</metadata>
<defs>
<font id="AleriaScript" horiz-adv-x="405" >
  <font-face 
    font-family="Aleria Script"
    font-weight="400"
    font-stretch="normal"
    units-per-em="1000"
    panose-1="2 0 5 6 2 0 0 2 0 3"
    ascent="750"
    descent="-250"
    x-height="355"
    cap-height="623.001"
    bbox="-1046 -430.002 1911 786.122"
    underline-thickness="50"
    underline-position="-50"
    unicode-range="U+000D-U+E120"
  />
<missing-glyph horiz-adv-x="208" 
 />
    <glyph glyph-name=".notdef" horiz-adv-x="208" 
 />
    <glyph glyph-name="NULL" horiz-adv-x="0" 
 />
    <glyph glyph-name="NULL" horiz-adv-x="0" 
 />
    <glyph glyph-name="nonmarkingreturn" unicode="&#xd;" horiz-adv-x="208" 
 />
    <glyph glyph-name="space" unicode=" " horiz-adv-x="208" 
 />
    <glyph glyph-name="exclam" unicode="!" horiz-adv-x="228" 
d="M45 -109c-12 -0.666992 -19.665 4.5 -22.998 15.5s-3 23.167 1 36.5s11.167 25.5 21.5 36.5s23.166 16.5 38.499 16.5c12.667 0.666992 20.667 -4.33301 24 -15s2.83301 -22.667 -1.5 -36s-11.833 -25.5 -22.5 -36.5s-23.334 -16.833 -38.001 -17.5zM135.002 57
c-4.66699 -9.33301 -10.8369 -16.832 -18.5039 -22.499s-14.667 -8.83398 -21 -9.50098s-11.166 1.66602 -14.499 6.99902s-3 14.666 1 27.999c4.66699 18.667 12 43.667 22 75l33.5 101l38.5 110.5l38 104.5c12 32 22.833 59.333 32.5 82s16.834 37 21.501 43
c10.667 14.667 20.334 24.334 29.001 29.001s16 5.33398 22 2.00098s9.83301 -10 11.5 -20s0.833984 -21.667 -2.49902 -35c-3.33301 -14 -9.33301 -34 -18 -60l-30.5 -87.5l-38 -101l-40.5 -100.5l-37.5 -87c-11.667 -26 -21.167 -45.667 -28.5 -59z" />
    <glyph glyph-name="quotedbl" unicode="&#x22;" horiz-adv-x="392" 
d="M447 470c-2 -17.333 -7.66699 -36.335 -17 -57.002s-20 -39.5 -32 -56.5s-24.333 -30.333 -37 -40s-23 -12.167 -31 -7.5c-5.33301 2.66699 -6.33301 9.83398 -3 21.501s8.33301 25.334 15 41.001s14.167 32.334 22.5 50.001s14.833 33.834 19.5 48.501
c5.33301 17.333 11.833 30.166 19.5 38.499s15 12.166 22 11.499s12.667 -5.16699 17 -13.5s5.83301 -20.5 4.5 -36.5zM309 469.998c-2 -17.333 -7.66699 -36.334 -17 -57.001s-20 -39.5 -32 -56.5s-24.167 -30.333 -36.5 -40s-22.5 -12.167 -30.5 -7.5
c-5.33301 2.66699 -6.33301 9.83398 -3 21.501s8.5 25.334 15.5 41.001l22.5 50c8 17.667 14.333 33.834 19 48.501c5.33301 17.333 11.833 30.166 19.5 38.499s15 12.166 22 11.499s12.667 -5.16699 17 -13.5s5.5 -20.5 3.5 -36.5z" />
    <glyph glyph-name="numbersign" unicode="#" horiz-adv-x="585" 
d="M340 422c1.33301 6.66699 4.99805 12.165 10.998 16.498s12.667 6.5 20 6.5c6 0 10.5 -2.5 13.5 -7.5s3.5 -10.5 1.5 -16.5l-43 -126l84 -3l44 130c2.66699 6.66699 6.83398 12.167 12.501 16.5s11.5 6.5 17.5 6.5c7.33301 0 12.5 -2.5 15.5 -7.5
s3.16699 -10.5 0.5 -16.5l-45 -131l98 -4c3.33301 0 5.83301 -1.16699 7.5 -3.5s1.83398 -4.83301 0.500977 -7.5c-1.33301 -3.33301 -3.33301 -6.16602 -6 -8.49902s-5.66699 -3.5 -9 -3.5l-100 4l-25 -78l101 -5c8 0 10.667 -3.66699 8 -11
c-1.33301 -3.33301 -3.5 -6.16602 -6.5 -8.49902s-6.16699 -3.5 -9.5 -3.5l-101 4l-44 -125c-2 -6.66699 -5.83301 -12 -11.5 -16s-12.167 -6 -19.5 -6c-13.333 1.33301 -18.333 9.33301 -15 24l43 125l-83 4l-46 -131c-1.33301 -6.66699 -5 -12 -11 -16s-12.333 -6 -19 -6
c-6 0.666992 -10.5 3.16699 -13.5 7.5s-3.5 9.83301 -1.5 16.5l45 130l-98 4c-3.33301 0 -5.83301 1.16699 -7.5 3.5s-1.5 5.16602 0.5 8.49902c1.33301 8.66699 6 12.334 14 11.001l99 -4l27 79l-103 4c-6.66699 0 -9 4 -7 12c2.66699 7.33301 8 11 16 11l102 -4z
M391.998 189.998l26 79l-84 3l-26 -78z" />
    <glyph glyph-name="dollar" unicode="$" horiz-adv-x="504" 
d="M534 554c5.33301 6.66699 10.166 14.668 14.499 24.001s7.16602 18.5 8.49902 27.5s1 17.333 -1 25s-6.33301 13.5 -13 17.5c-9.33301 4.66699 -21.166 4.83398 -35.499 0.500977s-29 -11.5 -44 -21.5s-28.5 -22.333 -40.5 -37s-20 -30 -24 -46
c-4.66699 -20.667 -4.66699 -40.834 0 -60.501s11 -40 19 -61l24.5 -65c8.33301 -22.333 13.833 -46.5 16.5 -72.5s0.833984 -54 -5.49902 -84s-20.166 -63 -41.499 -99c-15.333 -25.333 -34.5 -47 -57.5 -65s-47.167 -31.667 -72.5 -41l-33 -97
c-2 -6 -5.83301 -11.333 -11.5 -16s-11.834 -6.66699 -18.501 -6c-6 0 -10.333 2.5 -13 7.5s-3.33398 10.5 -2.00098 16.5l28 84c-18 -2 -34.667 -1 -50 3s-28.166 11.333 -38.499 22s-17.166 24.667 -20.499 42s-2 38.666 4 63.999
c2.66699 13.333 7.83398 26.833 15.501 40.5s17 26.167 28 37.5s23.333 20.666 37 27.999s28.167 11.666 43.5 12.999c5.33301 0 7 -2.5 5 -7.5s-4.66699 -7.5 -8 -7.5c-13.333 0 -25.833 -3.33301 -37.5 -10s-22.167 -15 -31.5 -25s-17.166 -21.167 -23.499 -33.5
s-10.833 -24.166 -13.5 -35.499c-4 -16 -5.16699 -30.833 -3.5 -44.5s5.5 -25.334 11.5 -35.001s14 -16.834 24 -21.501s21.667 -6 35 -4c16.667 2 32.5 7.83301 47.5 17.5s28.5 21 40.5 34s22.667 27.333 32 43s17 30.5 23 44.5c18 43.333 24.667 82.333 20 117
s-14 67.667 -28 99c-20 43.333 -30 82.833 -30 118.5s6.5 67 19.5 94s30.333 49.333 52 67s44.167 30.167 67.5 37.5l27 81c2.66699 6 7 11.333 13 16s12 6.66699 18 6c6.66699 0 11.5 -2.16699 14.5 -6.5s3.5 -9.83301 1.5 -16.5l-25 -73c26 0 45.667 -8.33301 59 -25
c5.33301 -7.33301 9 -15.666 11 -24.999s2.16699 -19.333 0.5 -30s-4.83398 -21.5 -9.50098 -32.5s-11 -21.167 -19 -30.5c-16 -17.333 -32.5 -27.333 -49.5 -30s-31.833 2.33301 -44.5 15c-3.33301 2.66699 -4.83301 5.33398 -4.5 8.00098s1.16602 4.83398 2.49902 6.50098
s3.16602 2.66699 5.49902 3s4.5 -0.5 6.5 -2.5c10.667 -9.33301 22.167 -14.5 34.5 -15.5s25.5 6.5 39.5 22.5z" />
    <glyph glyph-name="percent" unicode="%" horiz-adv-x="414" 
d="M473 577c4.66699 6.66699 10.334 11.3311 17.001 13.998s12.667 3 18 1c5.33301 -3.33301 8.5 -7.66602 9.5 -12.999s-0.5 -11 -4.5 -17l-448 -667c-4 -5.33301 -9.33301 -9.33301 -16 -12s-12.667 -3.33398 -18 -2.00098c-5.33301 2.66699 -8.33301 6.83398 -9 12.501
s0.666016 11.834 3.99902 18.501zM325 147.997c-9.33301 0 -19.002 -7.66797 -29.002 -23.001s-18.667 -32 -26 -50c-3.33301 -10.667 -6.16602 -21 -8.49902 -31s-3.5 -18.667 -3.5 -26c0 -10.667 1.33301 -17.5 4 -20.5s6.33398 -4.16699 11.001 -3.5s10 3.66699 16 9
s12 12 18 20s11.667 16.833 17 26.5s9.33301 18.834 12 27.501c6 18 8.33301 34.333 7 49s-7.33301 22 -18 22zM322.998 155.996c12 0.666992 20.333 -2.99707 25 -10.9971s6.83398 -18.167 6.50098 -30.5s-3 -26 -8 -41s-11.5 -29 -19.5 -42s-17 -24.167 -27 -33.5
s-20.333 -14.333 -31 -15c-6.66699 -1.33301 -13 -1 -19 1s-11 4.66699 -15 8c-9.33301 7.33301 -14.833 18.166 -16.5 32.499s1.16602 30.166 8.49902 47.499c7.33301 21.333 19.333 40.666 36 57.999s36.667 26 60 26zM283.998 463.999c-10 0 -20.001 -7.5 -30.001 -22.5
s-18.333 -31.5 -25 -49.5c-3.33301 -10.667 -6.16602 -21.167 -8.49902 -31.5s-3.5 -19.166 -3.5 -26.499c-0.666992 -10 0.5 -16.667 3.5 -20s6.83301 -4.33301 11.5 -3c4.66699 0.666992 10.167 3.66699 16.5 9s12.5 12 18.5 20s11.5 16.667 16.5 26
s8.83301 18.666 11.5 27.999c5.33301 18 7.33301 34.167 6 48.5s-7 21.5 -17 21.5zM281.997 473.999c12 0.666992 20.498 -3.16602 25.498 -11.499s7.16699 -18.666 6.5 -30.999s-3.5 -26 -8.5 -41s-11.667 -29 -20 -42s-17.666 -24 -27.999 -33
s-20.833 -14.167 -31.5 -15.5c-6 -0.666992 -11.833 -0.166992 -17.5 1.5s-10.5 4.16699 -14.5 7.5c-9.33301 7.33301 -14.666 18.166 -15.999 32.499s1 30.166 7 47.499c4 10.667 9.16699 21 15.5 31s13.5 19 21.5 27s17 14.5 27 19.5s21 7.5 33 7.5z" />
    <glyph glyph-name="ampersand" unicode="&#x26;" horiz-adv-x="501" 
d="M439 124c8 18 12.8291 36.5029 14.4961 55.5029s-3.16602 34.167 -14.499 45.5c-13.333 11.333 -30.5 15.5 -51.5 12.5s-40.833 -12.833 -59.5 -29.5c-14 -12 -25.667 -28 -35 -48c-5.33301 -12 -8.16602 -22.833 -8.49902 -32.5s4.16699 -15.5 13.5 -17.5
c6.66699 0 11.334 0.666992 14.001 2h3l12.5 30c5 12 11.5 22.333 19.5 31c5.33301 6 11.833 10.833 19.5 14.5s14.167 3.5 19.5 -0.5c4 -2 6.33301 -5.16699 7 -9.5s0.666992 -9.16602 0 -14.499c-3.33301 -10 -10.333 -21 -21 -33s-25 -21.667 -43 -29
c-1.33301 -3.33301 -2.5 -6.66602 -3.5 -9.99902s-2.16699 -6.66602 -3.5 -9.99902c-4 -14.667 -7.16699 -27.834 -9.5 -39.501s-3.16602 -19.167 -2.49902 -22.5c2 -4.66699 -0.333008 -8.66699 -7 -12c-4.66699 -2.66699 -8.33398 -1.66699 -11.001 3
c-0.666992 4.66699 0.166016 13.667 2.49902 27s5.83301 28 10.5 44l4 14c-5.33301 -2 -11.333 -2.33301 -18 -1c-8 1.33301 -13.667 4 -17 8c-6 6.66699 -8 15 -6 25h-1c2 18 7.83301 35.167 17.5 51.5s21.834 30.833 36.501 43.5c24 19.333 48.833 30.666 74.5 33.999
s45.5 -2.66699 59.5 -18c12.667 -14 18.167 -31.5 16.5 -52.5s-6.83398 -42.167 -15.501 -63.5c-10.667 -25.333 -25.167 -50.166 -43.5 -74.499s-39.166 -45.833 -62.499 -64.5c-22 -17.333 -45.5 -30.333 -70.5 -39s-49.167 -12.334 -72.5 -11.001
c-29.333 0.666992 -51.166 9.83398 -65.499 27.501s-22.5 40 -24.5 67s1.83301 56.333 11.5 88s24 62.334 43 92.001s42 56.167 69 79.5s56.833 40 89.5 50c-20 3.33301 -34.833 10.666 -44.5 21.999s-14.834 24.833 -15.501 40.5s2.33301 32.667 9 51s16.5 36.5 29.5 54.5
s28.167 35.167 45.5 51.5s36.333 30.166 57 41.499c2.66699 20 10 39.167 22 57.5s30.333 31.166 55 38.499c6 1.33301 9.16699 -0.666992 9.5 -6s-3.16699 -9 -10.5 -11c-17.333 -5.33301 -30.666 -14.333 -39.999 -27s-15.333 -26.667 -18 -42
c13.333 5.33301 26.5 9.33301 39.5 12s26.167 3.66699 39.5 3c27.333 -1.33301 46.333 -10.833 57 -28.5s10.334 -39.834 -0.999023 -66.501c-9.33301 -19.333 -21.333 -34.5 -36 -45.5s-29 -16.167 -43 -15.5c-9.33301 0 -17.833 1.83301 -25.5 5.5s-14.5 8.5 -20.5 14.5
s-11 12.833 -15 20.5s-7 15.167 -9 22.5c-19.333 -17.333 -35.833 -36.166 -49.5 -56.499s-22.834 -39.666 -27.501 -57.999s-3.66699 -33.833 3 -46.5s21 -19.334 43 -20.001c4 0 9.83301 0.666992 17.5 2s13.834 1.66602 18.501 0.999023l-1 -5
c-38.667 -14.667 -71.834 -34.334 -99.501 -59.001s-50.5 -51.167 -68.5 -79.5s-31.167 -56.833 -39.5 -85.5s-12.166 -54.834 -11.499 -78.501s6 -43 16 -58s24 -22.833 42 -23.5c25.333 0 53.666 11.333 84.999 34c19.333 15.333 37.833 34.5 55.5 57.5
s31.167 46.167 40.5 69.5zM431.996 544.003c3.33301 -12.667 9.49805 -26 18.498 -40s21.5 -21.333 37.5 -22c11.333 -0.666992 22.5 2.83301 33.5 10.5s20.167 19.834 27.5 36.501c2.66699 6 4.83398 12.167 6.50098 18.5s2.16699 12.166 1.5 17.499
s-2.66699 9.66602 -6 12.999s-8.66602 5.33301 -15.999 6c-17.333 0.666992 -35 -2.66602 -53 -9.99902s-34.667 -17.333 -50 -30zM335.994 121.003c9.33301 3.33301 17.334 8.83398 24.001 16.501s11.667 14.5 15 20.5c3.33301 8.66699 2.66602 13.334 -2.00098 14.001
s-9.66699 -2 -15 -8c-5.33301 -6.66699 -10 -14.334 -14 -23.001s-6.66699 -15.334 -8 -20.001z" />
    <glyph glyph-name="quotesingle" unicode="'" horiz-adv-x="261" 
d="M314 470c-2 -17.333 -7.66699 -36.334 -17 -57.001s-20.166 -39.5 -32.499 -56.5s-24.833 -30.333 -37.5 -40s-23 -12.167 -31 -7.5c-4.66699 2.66699 -5.33398 9.83398 -2.00098 21.501s8.5 25.334 15.5 41.001l22.5 50c8 17.667 14.333 33.834 19 48.501
c4.66699 17.333 11 30.166 19 38.499s15.5 12.166 22.5 11.499s12.667 -5.16699 17 -13.5s5.83301 -20.5 4.5 -36.5z" />
    <glyph glyph-name="parenleft" unicode="(" horiz-adv-x="394" 
d="M238 -69c1.33301 -2.66699 1.50195 -5.49805 0.501953 -8.49805s-4.16699 -5.16699 -9.5 -6.5c-38 6 -65.833 20.833 -83.5 44.5s-27.667 52.667 -30 87s1.66699 72.5 12 114.5s24.5 84.667 42.5 128c22.667 54.667 48.5 101.834 77.5 141.501s59 72.5 90 98.5
s61.833 45.5 92.5 58.5s58.667 19.5 84 19.5c3.33301 -0.666992 4.33301 -3.16699 3 -7.5s-4.33301 -7.16602 -9 -8.49902c-30 -3.33301 -58.833 -16.333 -86.5 -39s-53 -49.334 -76 -80.001s-43.333 -62.834 -61 -96.501s-31.834 -62.834 -42.501 -87.501
c-6.66699 -16.667 -14.167 -36.5 -22.5 -59.5s-15.833 -47 -22.5 -72s-12 -50 -16 -75s-5 -48 -3 -69s7.66699 -38.833 17 -53.5s23.666 -24.334 42.999 -29.001z" />
    <glyph glyph-name="parenright" unicode=")" horiz-adv-x="357" 
d="M278 595c-1.33301 2.66699 -1.33594 5.66699 -0.00292969 9s4 5.66602 8 6.99902c38 -6 65.833 -20.833 83.5 -44.5s27.834 -52.834 30.501 -87.501s-1.16602 -73 -11.499 -115s-24.166 -84.333 -41.499 -127c-22.667 -54.667 -48.667 -102 -78 -142s-59.5 -73 -90.5 -99
s-61.833 -45.333 -92.5 -58s-58.334 -19 -83.001 -19c-3.33301 0 -4.5 2.16699 -3.5 6.5s3.83301 7.16602 8.5 8.49902c30 4 58.833 17.333 86.5 40s53 49.334 76 80.001s43.5 62.667 61.5 96s32 62.333 42 87c6.66699 16.667 14.167 36.5 22.5 59.5s16 47.167 23 72.5
s12.333 50.5 16 75.5s4.5 47.833 2.5 68.5s-7.66699 38.334 -17 53.001s-23.666 24.334 -42.999 29.001z" />
    <glyph glyph-name="asterisk" unicode="*" horiz-adv-x="414" 
d="M405 603c2.66699 6 6.66602 8.49609 11.999 7.49609s7 -4.5 5 -10.5l-32 -72l67 53c5.33301 4.66699 9.66602 4.83398 12.999 0.500977s2.33301 -8.5 -3 -12.5l-73 -58l79 -3c5.33301 0 7.16602 -2.83301 5.49902 -8.5s-5.5 -8.16699 -11.5 -7.5l-78 1l37 -57
c1.33301 -2 1.5 -4.16699 0.5 -6.5s-2.5 -4.16602 -4.5 -5.49902s-4.33301 -2.16602 -7 -2.49902s-4.66699 0.5 -6 2.5l-38 60l-34 -82c-2.66699 -5.33301 -6.66699 -7.5 -12 -6.5s-7 4.16699 -5 9.5l33 73l-67 -54c-5.33301 -4 -9.66602 -4 -12.999 0s-2.33301 8 3 12
l72 59l-79 1c-5.33301 0.666992 -7.16602 3.83398 -5.49902 9.50098s5.5 8.5 11.5 8.5l79 -2l-37 57c-1.33301 2 -1.66602 4.16699 -0.999023 6.5s2 4.33301 4 6s4.33301 2.5 7 2.5s4.66699 -1 6 -3l38 -58z" />
    <glyph glyph-name="plus" unicode="+" horiz-adv-x="477" 
d="M439 227c6.66699 0 9.33496 -3.66699 8.00195 -11c-1.33301 -3.33301 -3.5 -6.16602 -6.5 -8.49902s-6.16699 -3.5 -9.5 -3.5h-116l-40 -113c-2 -6.66699 -6 -12.334 -12 -17.001s-12.333 -7 -19 -7s-11.334 2.33301 -14.001 7s-3 10.334 -1 17.001l40 113h-115
c-3.33301 0 -5.83301 1.16699 -7.5 3.5s-1.83398 5.16602 -0.500977 8.49902c3.33301 7.33301 8.33301 11 15 11h116l40 114c2 6.66699 6 12.167 12 16.5s12.333 6.5 19 6.5s11.5 -2.16699 14.5 -6.5s3.16699 -9.83301 0.5 -16.5l-40 -114h116z" />
    <glyph glyph-name="comma" unicode="," horiz-adv-x="228" 
d="M139 133c6.66699 6 14.498 9.16797 23.498 9.50098s16.167 -1.83398 21.5 -6.50098c6 -6 7 -15.333 3 -28s-10.833 -26 -20.5 -40s-21.167 -27.333 -34.5 -40s-26.333 -22 -39 -28c-2.66699 -1.33301 -5 -1.5 -7 -0.5s-3.5 2.16699 -4.5 3.5s-1 3 0 5s3.16699 4 6.5 6
c2 1.33301 6.16699 4.83301 12.5 10.5s12.333 12 18 19s10 13.833 13 20.5s2.16699 12 -2.5 16c-7.33301 6 -9.66602 14.5 -6.99902 25.5s8.33398 20.167 17.001 27.5z" />
    <glyph glyph-name="hyphen" unicode="-" horiz-adv-x="462" 
d="M424 239c5.33301 0 9.50098 -2.16699 12.501 -6.5s3.83301 -9.16602 2.5 -14.499c-2.66699 -5.33301 -6.5 -10 -11.5 -14s-10.167 -6 -15.5 -6h-240c-5.33301 0 -9.5 2 -12.5 6s-3.83301 8.66699 -2.5 14c2 5.33301 5.66699 10.166 11 14.499s10.666 6.5 15.999 6.5h240z
" />
    <glyph glyph-name="period" unicode="." horiz-adv-x="249" 
d="M128 11c-12 0.666992 -19.167 5.00098 -21.5 13.001s-1.5 16.833 2.5 26.5s10.667 18.167 20 25.5s20 10.666 32 9.99902c11.333 0 18.333 -4 21 -12s2 -16.667 -2 -26s-10.667 -17.833 -20 -25.5s-20 -11.5 -32 -11.5z" />
    <glyph glyph-name="slash" unicode="/" horiz-adv-x="229" 
d="M331 597c3.33301 6 8.16797 10.832 14.501 14.499s12.166 4.83398 17.499 3.50098c6.66699 0 11 -2.66699 13 -8s1.66699 -11 -1 -17l-321 -701c-3.33301 -7.33301 -8 -12.833 -14 -16.5s-12.333 -4.83398 -19 -3.50098c-5.33301 1.33301 -9.33301 4.33301 -12 9
s-2 10.334 2 17.001z" />
    <glyph glyph-name="zero" unicode="0" horiz-adv-x="483" 
d="M439 531c30 0 50.333 -13 61 -39s14.167 -58.667 10.5 -98s-13.667 -81.666 -30 -126.999s-36.833 -87.666 -61.5 -126.999s-52.334 -72 -83.001 -98s-62.334 -39 -95.001 -39c-35.333 0 -60.5 13 -75.5 39s-21.5 58.667 -19.5 98s11 81.666 27 126.999
s37.333 87.666 64 126.999s57.334 72 92.001 98s71.334 39 110.001 39zM255 18c12.667 0 26.502 7.16699 41.502 21.5s30.167 33.166 45.5 56.499s30.333 50 45 80s28 60.667 40 92s21.833 62 29.5 92s12.5 56.667 14.5 80s0.666992 42.166 -4 56.499s-14 21.5 -28 21.5
c-15.333 0 -31.5 -7.16699 -48.5 -21.5s-34 -33.166 -51 -56.499s-33.333 -50 -49 -80s-29.5 -60.667 -41.5 -92s-21.667 -62 -29 -92s-11.333 -56.667 -12 -80s2.66602 -42.166 9.99902 -56.499s19.666 -21.5 36.999 -21.5z" />
    <glyph glyph-name="one" unicode="1" horiz-adv-x="256" 
d="M275 496c7.33301 6.66699 14.6699 10.668 22.0029 12.001s13.5 1 18.5 -1s8.83301 -5.16699 11.5 -9.5s3.33398 -8.5 2.00098 -12.5l-94 -231l-86 -226c-4 -10.667 -9.83301 -18.167 -17.5 -22.5s-14.834 -6 -21.501 -5s-11.834 4.5 -15.501 10.5
s-3.83398 13.667 -0.500977 23l97.5 243.5c30.333 74.333 58.166 147.166 83.499 218.499z" />
    <glyph glyph-name="two" unicode="2" horiz-adv-x="441" 
d="M350 43c3.33301 3.33301 6.17285 4.33105 8.50586 2.99805s2.83301 -3.66602 1.5 -6.99902c-2.66699 -4 -6.33398 -8.83301 -11.001 -14.5s-10.334 -11 -17.001 -16s-13.834 -9.16699 -21.501 -12.5s-15.834 -5 -24.501 -5c-12.667 0 -23.167 2.16699 -31.5 6.5
s-16 9 -23 14l-20.5 14.5c-6.66699 4.66699 -14.834 7.5 -24.501 8.5s-21.5 -0.666992 -35.5 -5s-31.333 -12.833 -52 -25.5c-8 -4.66699 -14.5 -7.66699 -19.5 -9s-6.83301 0.666992 -5.5 6c11.333 30.667 24.833 58.167 40.5 82.5s32.667 46.5 51 66.5s38 38.333 59 55
l64.5 49c44.667 33.333 76.5 64.166 95.5 92.499s29.167 52.833 30.5 73.5s-4 36.834 -16 48.501s-26.5 18 -43.5 19s-34.333 -4.16699 -52 -15.5s-31.167 -29.666 -40.5 -54.999c-4.66699 -12 -6.33398 -23 -5.00098 -33c-2 -4 -4.5 -6 -7.5 -6s-5.16699 2 -6.5 6
c-0.666992 5.33301 -0.333984 10.833 0.999023 16.5l4 16.5c8.66699 22.667 21.667 41.667 39 57s36.166 26.666 56.499 33.999s40.5 10.333 60.5 9s36.667 -7.16602 50 -17.499s22 -25.666 26 -45.999s0.333008 -45.5 -11 -75.5c-8 -21.333 -18.167 -40.333 -30.5 -57
s-26.166 -31.667 -41.499 -45s-31.5 -25.5 -48.5 -36.5l-52.5 -32.5l-22 -14c-17.333 -10 -33.166 -20.333 -47.499 -31s-27.5 -22 -39.5 -34s-22.833 -25.5 -32.5 -40.5s-18.834 -31.833 -27.501 -50.5c22.667 15.333 41.334 22.166 56.001 20.499s27.667 -6.5 39 -14.5
s22 -16.667 32 -26s21.667 -14 35 -14c12.667 0 23.5 4.16699 32.5 12.5s18.167 17.5 27.5 27.5z" />
    <glyph glyph-name="three" unicode="3" horiz-adv-x="420" 
d="M131 133c-17.333 -14.667 -27.332 -30.1758 -29.999 -46.5088s-0.5 -30.666 6.5 -42.999s17.667 -21.333 32 -27s29.833 -5.5 46.5 0.5c10 4 20.333 9.83301 31 17.5s21 16.667 31 27s19 21.666 27 33.999s14.333 24.833 19 37.5
c15.333 40.667 18.833 70.834 10.5 90.501s-27.833 36.167 -58.5 49.5l2 8c36 10.667 65.667 26 89 46s40.666 48 51.999 84c8.66699 28 10.167 48.667 4.5 62s-15 21.5 -28 24.5s-28 1.33301 -45 -5s-32.667 -15.333 -47 -27s-25.5 -25 -33.5 -40
s-9.66699 -30.167 -5 -45.5c-3.33301 -5.33301 -6.66602 -7.66602 -9.99902 -6.99902s-5.33301 3 -6 7c-1.33301 26.667 5 50 19 70s31.667 35.833 53 47.5s44 18.834 68 21.501s45.167 0.5 63.5 -6.5s31.5 -19.167 39.5 -36.5s6.33301 -40.333 -5 -69
c-9.33301 -28 -22.5 -50.333 -39.5 -67s-33.167 -29.667 -48.5 -39c-8.66699 -5.33301 -17 -9.66602 -25 -12.999s-16.667 -6.66602 -26 -9.99902v-1c11.333 -7.33301 21.5 -15 30.5 -23s16 -17.167 21 -27.5s7.66699 -22.166 8 -35.499s-2.83398 -28.666 -9.50098 -45.999
c-10 -25.333 -22.833 -47.666 -38.5 -66.999s-32.667 -35.5 -51 -48.5s-36.666 -22.667 -54.999 -29s-34.833 -9.5 -49.5 -9.5c-18.667 0 -35.334 4.16699 -50.001 12.5s-25.5 19.333 -32.5 33s-9 28.834 -6 45.501s12.833 33.667 29.5 51c3.33301 4 6.83301 6 10.5 6
s5.5 -2 5.5 -6z" />
    <glyph glyph-name="four" unicode="4" horiz-adv-x="382" 
d="M292 33l-3.99902 -7.99805c-2 -6 -6.5 -13.167 -13.5 -21.5s-15.167 -12.5 -24.5 -12.5c-10.667 0 -19 2.83301 -25 8.5s-7.66699 12.167 -5 19.5l4 7l49 131l-154 7c-1.33301 1.33301 -2.16602 3.66602 -2.49902 6.99902s1.16699 6.33301 4.5 9
c43.333 36.667 82.166 74 116.499 112s63.5 72.667 87.5 104s42.5 57.5 55.5 78.5s20.167 33.167 21.5 36.5c1.33301 2.66699 4.83301 4.66699 10.5 6s12.5 2 20.5 2c9.33301 0 17.833 -1.5 25.5 -4.5s10.167 -8.5 7.5 -16.5l-20 -51c-1.33301 -4 -3 -8.33301 -5 -13
s-4 -9.66699 -6 -15c-26.667 -66.667 -51.334 -131.834 -74.001 -195.501zM279.001 172.002l46 118.5c14.667 39 30.667 77.167 48 114.5l-42.5 -54c-11 -14.667 -23 -29.5 -36 -44.5s-28.833 -32.333 -47.5 -52s-44.667 -45.5 -78 -77.5z" />
    <glyph glyph-name="five" unicode="5" horiz-adv-x="435" 
d="M393 151c-8.66699 -22.667 -19.832 -43.835 -33.499 -63.502s-29.167 -36.834 -46.5 -51.501s-36.5 -26.334 -57.5 -35.001s-42.833 -13 -65.5 -13c-18.667 0 -35.334 4.33301 -50.001 13s-25.5 19.834 -32.5 33.501s-9 29 -6 46s12.5 34.167 28.5 51.5
c4 3.33301 7.66699 5 11 5s5 -1.66699 5 -5c-18.667 -16.667 -29.334 -33.167 -32.001 -49.5s0.166016 -30.333 8.49902 -42s20.666 -20 36.999 -25s34.166 -4 53.499 3s39 21 59 42s37.667 51.5 53 91.5c10 27.333 14.833 51.833 14.5 73.5s-5.66602 38 -15.999 49
s-25.5 15 -45.5 12s-44.667 -15.5 -74 -37.5c-3.33301 -2 -7.66602 -5.16699 -12.999 -9.5s-9.66602 -6.5 -12.999 -6.5c-13.333 0 -17.666 5.33301 -12.999 16c15.333 38.667 31.833 77.834 49.5 117.501s33.834 79.5 48.501 119.5c1.33301 3.33301 3.83301 7 7.5 11
s7.5 6 11.5 6c13.333 0 29 -1.33301 47 -4s36.5 -4.66699 55.5 -6s37.833 -1.16602 56.5 0.500977s35.667 7.16699 51 16.5c7.33301 5.33301 12.666 7.5 15.999 6.5s3.66602 -3.16699 0.999023 -6.5c-13.333 -10 -29.5 -18.333 -48.5 -25s-38.167 -11.834 -57.5 -15.501
s-37.5 -5.5 -54.5 -5.5s-30.5 2 -40.5 6l-84 -190c22.667 16.667 46.834 26.334 72.501 29.001s48 -1.5 67 -12.5s32.167 -28.667 39.5 -53s4 -55.166 -10 -92.499z" />
    <glyph glyph-name="six" unicode="6" horiz-adv-x="496" 
d="M266 5c16 0 32.833 7.33398 50.5 22.001s34.167 33.167 49.5 55.5s28.666 46.333 39.999 72s18.5 49.667 21.5 72s0.833008 41.166 -6.5 56.499s-22 23.333 -44 24c-5.33301 0 -10.833 -0.666992 -16.5 -2s-11.5 -3 -17.5 -5c-20 -8 -41.5 -25 -64.5 -51
s-45.167 -59 -66.5 -99c-4 -19.333 -6 -37.833 -6 -55.5s2 -33 6 -46s10.333 -23.5 19 -31.5s20.334 -12 35.001 -12zM225 199.001c14.667 26.667 31.0049 48.832 49.0049 66.499s36 31.167 54 40.5s35.333 14.666 52 15.999s31.667 -1 45 -7
c24.667 -11.333 38.667 -30 42 -56s-0.5 -54 -11.5 -84s-27 -59.167 -48 -87.5s-43.5 -50.833 -67.5 -67.5c-13.333 -8.66699 -26.833 -15.667 -40.5 -21s-27.5 -8 -41.5 -8c-25.333 0 -47.333 3.83301 -66 11.5s-32.334 21 -41.001 40s-11.667 44.5 -9 76.5s13 72 31 120
s38.5 89.333 61.5 124s47.333 63.334 73 86.001s51.667 39.5 78 50.5s51.833 16.5 76.5 16.5c10 0 19.167 -1.83301 27.5 -5.5s15.166 -8.5 20.499 -14.5s9.16602 -13.333 11.499 -22s2.16602 -18 -0.500977 -28c-2.66699 -4.66699 -5.16699 -6.66699 -7.5 -6
s-3.5 2.66699 -3.5 6c0 6 -0.5 12.333 -1.5 19s-3.33301 12.667 -7 18s-9 9.83301 -16 13.5s-16.167 5.5 -27.5 5.5c-19.333 0 -39.333 -7.83301 -60 -23.5s-40.834 -36.167 -60.501 -61.5s-38.167 -54.166 -55.5 -86.499s-32 -64.833 -44 -97.5
c-2.66699 -5.33301 -5 -11 -7 -17s-4 -11.667 -6 -17z" />
    <glyph glyph-name="seven" unicode="7" horiz-adv-x="436" 
d="M246 439c-2.66699 -3.33301 -5.50098 -4.99414 -8.50098 -4.99414s-5.16699 1.66699 -6.5 5c0.666992 9.33301 3.5 18.833 8.5 28.5s11.5 18.334 19.5 26.001s16.833 13.834 26.5 18.501s19.5 7 29.5 7c16 0 30 -0.833008 42 -2.5s23.667 -3.16699 35 -4.5
s23.5 -1.83301 36.5 -1.5s28.833 2.5 47.5 6.5c8 1.33301 16 1.66602 24 0.999023s11.667 -2.33398 11 -5.00098c-1.33301 -2.66699 -2.83301 -5.16699 -4.5 -7.5l-5.5 -7.5v1c-4.66699 -6.66699 -9 -13.167 -13 -19.5s-8.33301 -12.833 -13 -19.5l1 1l-75 -110l-82 -125.5
c-26.667 -42.333 -51.167 -83.5 -73.5 -123.5s-39.166 -75 -50.499 -105c-2 -5.33301 -6.66699 -7.83301 -14 -7.5s-14.833 2.16602 -22.5 5.49902s-14 8 -19 14s-6.16699 12.333 -3.5 19c6.66699 17.333 17.5 38.666 32.5 63.999s32.5 52.666 52.5 81.999l64 90l67 88
l62 76.5l48 56.5c-17.333 -4.66699 -32.5 -6.83398 -45.5 -6.50098s-25 1.5 -36 3.5s-22.167 4.16699 -33.5 6.5s-24 3.5 -38 3.5c-8 0 -15.833 -1.5 -23.5 -4.5s-14.5 -6.83301 -20.5 -11.5s-10.833 -10.334 -14.5 -17.001s-5.16699 -13.334 -4.5 -20.001z" />
    <glyph glyph-name="eight" unicode="8" horiz-adv-x="456" 
d="M426 519c28.667 0 49.6641 -5.16406 62.9971 -15.4971s21 -23.333 23 -39s-0.833008 -32.834 -8.5 -51.501s-18.5 -36.667 -32.5 -54s-30 -32.5 -48 -45.5s-36 -21.833 -54 -26.5c12.667 -15.333 21.834 -30.666 27.501 -45.999s9.16699 -32 10.5 -50
c1.33301 -25.333 -3.16699 -50 -13.5 -74s-24.666 -45.333 -42.999 -64s-40.166 -33.5 -65.499 -44.5s-52 -16.5 -80 -16.5c-17.333 0 -33 2.66699 -47 8s-25.333 13.166 -34 23.499s-13.834 23.5 -15.501 39.5s1.5 34.667 9.5 56c6 15.333 15 30.666 27 45.999
s25.833 29.5 41.5 42.5s32.167 24.667 49.5 35s34.333 18.166 51 23.499l-20.5 29.5c-7 9.66699 -12.833 20 -17.5 31s-7.5 22.833 -8.5 35.5s1.5 27 7.5 43c4 8.66699 9.83301 19.5 17.5 32.5s18.334 25.5 32.001 37.5s31 22.333 52 31s46.5 13 76.5 13zM208.997 4.00293
c18.667 0.666992 36.3311 7.50098 52.998 20.501s30.834 28.5 42.501 46.5s20.334 37 26.001 57s7.16699 37 4.5 51c-2.66699 15.333 -8.16699 29.333 -16.5 42l-23.5 36c-15.333 -4 -30.5 -10.833 -45.5 -20.5s-29 -20.834 -42 -33.501s-24.5 -26.334 -34.5 -41.001
s-17.667 -29 -23 -43c-6 -17.333 -8.66699 -33 -8 -47s4 -26.167 10 -36.5s14 -18.166 24 -23.499s21 -8 33 -8zM320.994 416.004c-6 -15.333 -5.8291 -31.6689 0.503906 -49.002s19.166 -39.666 38.499 -66.999c16.667 0.666992 32.667 6.33398 48 17.001
s28.666 23.5 39.999 38.5s20.166 31.167 26.499 48.5s9 33.5 8 48.5s-6.5 27.333 -16.5 37s-25.667 14.5 -47 14.5c-15.333 0 -32.333 -6.5 -51 -19.5s-34.334 -35.833 -47.001 -68.5z" />
    <glyph glyph-name="nine" unicode="9" horiz-adv-x="473" 
d="M317 473c-16 -8 -31.001 -20.1689 -45.001 -36.502s-26.333 -34.5 -37 -54.5s-19 -40.5 -25 -61.5s-8.5 -40.167 -7.5 -57.5s5.83301 -31.5 14.5 -42.5s22.334 -16.5 41.001 -16.5c18 0 35.333 5.33301 52 16s32 23.834 46 39.501s26.5 32.334 37.5 50.001
s20.167 33.5 27.5 47.5c7.33301 18.667 10.5 37.667 9.5 57s-6 35.333 -15 48s-21.667 20.667 -38 24s-36.5 -1 -60.5 -13zM408.999 308.998c-15.333 -26.667 -31.9941 -48.9951 -49.9941 -66.9951s-36.167 -31.833 -54.5 -41.5s-35.833 -15.167 -52.5 -16.5
s-31.334 1.66699 -44.001 9c-16 8.66699 -27.167 21.167 -33.5 37.5s-8.83301 34.333 -7.5 54s6.16602 40.5 14.499 62.5s19 42.833 32 62.5s28 37.5 45 53.5s34.833 28.333 53.5 37c36 16 67.167 21.167 93.5 15.5s46.666 -19.334 60.999 -41.001
s21.666 -50.167 21.999 -85.5s-7.83398 -75 -24.501 -119c-18 -48 -38.667 -89.5 -62 -124.5s-47.833 -64 -73.5 -87s-51.834 -40 -78.501 -51s-52.334 -16.5 -77.001 -16.5c-20 0 -36.333 6.66699 -49 20s-16.667 30.333 -12 51c3.33301 4.66699 6 6.66699 8 6
s3 -2.66699 3 -6c0 -6 0.666992 -12.333 2 -19s3.83301 -12.834 7.5 -18.501s8.83398 -10.334 15.501 -14.001s15.667 -5.5 27 -5.5c19.333 0 39.333 7.83301 60 23.5s41 36.167 61 61.5s38.667 54.166 56 86.499s32 65.166 44 98.499c2.66699 5.33301 5 10.833 7 16.5z" />
    <glyph glyph-name="colon" unicode=":" horiz-adv-x="298" 
d="M165 94c-12 0.666992 -19.333 5.00098 -22 13.001s-2 16.833 2 26.5s10.667 18.167 20 25.5s20 10.666 32 9.99902c11.333 0 18.333 -4 21 -12s2 -16.667 -2 -26s-10.5 -17.833 -19.5 -25.5s-19.5 -11.5 -31.5 -11.5zM239 295.001
c-12.667 0.666992 -20.333 5.16797 -23 13.501s-2 17.166 2 26.499s10.667 17.833 20 25.5s20 11.167 32 10.5c11.333 0 18.333 -4 21 -12s2.16699 -16.667 -1.5 -26s-10 -18 -19 -26s-19.5 -12 -31.5 -12z" />
    <glyph glyph-name="semicolon" unicode=";" horiz-adv-x="283" 
d="M238 298c-12.667 0.666992 -20.333 5.00293 -23 13.0029s-2 16.833 2 26.5s10.833 18.167 20.5 25.5s20.5 10.666 32.5 9.99902c11.333 0 18.333 -3.83301 21 -11.5s2 -16.334 -2 -26.001s-10.5 -18.334 -19.5 -26.001s-19.5 -11.5 -31.5 -11.5zM166.001 135.003
c7.33301 7.33301 15.501 11.1689 24.501 11.502s15.833 -2.16699 20.5 -7.5c6 -6 7.16699 -15.333 3.5 -28s-10.334 -26 -20.001 -40s-21.334 -27.333 -35.001 -40s-26.834 -22 -39.501 -28c-5.33301 -2.66699 -9.16602 -1.83398 -11.499 2.49902
s-0.166016 8.16602 6.50098 11.499c2.66699 1.33301 7.16699 4.83301 13.5 10.5s12.5 12 18.5 19s10.333 13.833 13 20.5s1.66699 12 -3 16c-7.33301 6 -9.83301 14.5 -7.5 25.5s7.83301 19.833 16.5 26.5z" />
    <glyph glyph-name="less" unicode="&#x3c;" horiz-adv-x="408" 
d="M150 219l249 153.001c4 1.33301 8 0.5 12 -2.5s7.33301 -6.66699 10 -11s4.16699 -9 4.5 -14s-0.833984 -8.83301 -3.50098 -11.5c-37.333 -23.333 -74.333 -45 -111 -65s-72 -42.333 -106 -67l98 -134c3.33301 -4 4.5 -8 3.5 -12s-3.16699 -7.33301 -6.5 -10
s-7.16602 -4.33398 -11.499 -5.00098s-7.5 1 -9.5 5z" />
    <glyph glyph-name="equal" unicode="=" horiz-adv-x="470" 
d="M459 314c5.33301 0 9.33398 -2.16699 12.001 -6.5s3.33398 -9.16602 2.00098 -14.499c-2 -5.33301 -5.5 -10 -10.5 -14s-10.167 -6 -15.5 -6h-241c-5.33301 0 -9.5 2 -12.5 6s-3.5 8.66699 -1.5 14c1.33301 5.33301 4.66602 10.166 9.99902 14.499s10.666 6.5 15.999 6.5
h241zM416.001 177c6 0 10.3311 -2.16797 12.998 -6.50098s3.33398 -9.16602 2.00098 -14.499s-4.66602 -9.83301 -9.99902 -13.5s-10.666 -5.5 -15.999 -5.5h-241c-12.667 0 -17.334 6.33301 -14.001 19c2 6 5.5 11 10.5 15s10.167 6 15.5 6h240z" />
    <glyph glyph-name="greater" unicode="&#x3e;" horiz-adv-x="428" 
d="M170 48c-5.33301 -4 -9.99902 -5.83496 -13.999 -5.50195s-6.83301 1.83301 -8.5 4.5s-1.83398 6.16699 -0.500977 10.5s5 8.5 11 12.5l181 133c-19.333 24.667 -41.5 47.167 -66.5 67.5s-48.167 42.166 -69.5 65.499c-1.33301 2.66699 -0.333008 6.33398 3 11.001
s7.5 9.33398 12.5 14.001s10.333 8.33398 16 11.001s10.167 3.66699 13.5 3l157 -153z" />
    <glyph glyph-name="question" unicode="?" horiz-adv-x="454" 
d="M122 15c14.667 37.333 30.168 69.668 46.501 97.001s32.833 51.666 49.5 72.999l41.5 52l55 72c19 26 37.333 52.667 55 80s31.667 53.333 42 78s15.333 46.5 15 65.5s-8.83301 32.833 -25.5 41.5c-17.333 9.33301 -36.666 10.833 -57.999 4.5s-41.333 -16.833 -60 -31.5
c-11.333 -8.66699 -22 -19.167 -32 -31.5s-17.5 -24.666 -22.5 -36.999s-6.66699 -23.5 -5 -33.5s8.5 -17 20.5 -21c9.33301 -3.33301 20.666 -3.16602 33.999 0.500977s27.666 11.5 42.999 23.5c5.33301 2.66699 9.5 2.16699 12.5 -1.5s1.83301 -8.16699 -3.5 -13.5
c-20 -16 -39.333 -26.333 -58 -31s-34 -4 -46 2c-14.667 7.33301 -22.667 18.666 -24 33.999s2.33398 31.666 11.001 48.999s21.5 34.833 38.5 52.5s36.833 32.667 59.5 45s47.167 20.833 73.5 25.5s53.166 3 80.499 -5c28.667 -8.66699 46 -23.167 52 -43.5
s4.16699 -43.833 -5.5 -70.5s-25.167 -55.5 -46.5 -86.5s-44.666 -61.5 -69.999 -91.5s-51 -58.5 -77 -85.5l-67 -67.5c-20.667 -20 -39.834 -41.333 -57.501 -64s-32.167 -47.667 -43.5 -75zM93.001 -86.998c-10.667 0 -16.333 4.66699 -17 14s1.5 19.5 6.5 30.5
s11.833 20.833 20.5 29.5s17.667 12.667 27 12c7.33301 0 11.833 -4.5 13.5 -13.5s0.666992 -18.833 -3 -29.5s-9.5 -20.5 -17.5 -29.5s-18 -13.5 -30 -13.5z" />
    <glyph glyph-name="at" unicode="@" horiz-adv-x="757" 
d="M472 575c20.667 7.33301 42.6562 12.668 65.9893 16.001s46.333 4.33301 69 3s43.667 -5.33301 63 -12s35.666 -16 48.999 -28c18 -18 31 -40.667 39 -68s11.333 -56.833 10 -88.5s-6.83301 -63.667 -16.5 -96s-22.834 -62.5 -39.501 -90.5s-36.5 -52.167 -59.5 -72.5
s-48.167 -33.833 -75.5 -40.5c-23.333 -6 -40.166 -5.5 -50.499 1.5s-16.333 17.833 -18 32.5s0 32 5 52s11.333 40.333 19 61s15.5 40.334 23.5 59.001s14.333 34 19 46l-47.5 -56c-20.333 -24 -42.166 -47.333 -65.499 -70c-19.333 -19.333 -39 -35.666 -59 -48.999
s-36.667 -20.333 -50 -21c-20.667 -0.666992 -33.167 7.5 -37.5 24.5s-2.66602 38.333 5.00098 64s20.5 53.334 38.5 83.001s38.833 57 62.5 82s49 45.167 76 60.5s53.5 21.333 79.5 18c27.333 -2 43 -18.667 47 -50l12 15c10 12 18.333 18 25 18
s11.834 -2.83301 15.501 -8.5s5.66699 -13 6 -22s-1.5 -16.5 -5.5 -22.5c-2.66699 -4 -7.83398 -14 -15.501 -30l-26 -57c-9.66699 -22 -19.167 -45.167 -28.5 -69.5s-16.666 -46.666 -21.999 -66.999s-7.83301 -36.833 -7.5 -49.5s5.83301 -18.334 16.5 -17.001
c6.66699 0 14.667 3.33301 24 10c18.667 12 35.834 28.5 51.501 49.5s29.167 44.167 40.5 69.5s20.333 51.666 27 78.999s9.83398 54 9.50098 80s-4.16602 49.833 -11.499 71.5s-19 39.5 -35 53.5c-12 10.667 -26.833 18.667 -44.5 24s-36.5 8.16602 -56.5 8.49902
s-40.167 -2.16699 -60.5 -7.5s-39.5 -13 -57.5 -23c-32 -18 -61.667 -41.167 -89 -69.5s-51.5 -59.333 -72.5 -93s-38.333 -69 -52 -106s-22.667 -73 -27 -108s-3.66602 -67.833 2.00098 -98.5s17.5 -56.667 35.5 -78c11.333 -12.667 25.5 -22.834 42.5 -30.501
s38.167 -11.5 63.5 -11.5c28 0 55.833 5.66699 83.5 17s53.334 24.666 77.001 39.999s43.834 30.5 60.501 45.5s28 26.5 34 34.5c2.66699 4 5.83398 6.83301 9.50098 8.5s6.83398 2.5 9.50098 2.5s4.5 -1 5.5 -3s0.166992 -5 -2.5 -9c-7.33301 -10 -20.5 -24 -39.5 -42
s-41.667 -35.833 -68 -53.5s-55.333 -33 -87 -46s-63.834 -19.5 -96.501 -19.5c-60.667 0 -108 13.333 -142 40s-56.667 60.834 -68 102.501s-12 88 -2 139s28.833 100.667 56.5 149s63.334 92.666 107.001 132.999s93.834 70.5 150.501 90.5zM612.989 421.002
c-3.33301 25.333 -9.99805 40.002 -19.998 44.002s-21.5 2.33301 -34.5 -5s-26.333 -18.333 -40 -33s-25.5 -28.334 -35.5 -41.001c-16 -20 -30.833 -41.167 -44.5 -63.5s-24.834 -43 -33.501 -62s-13.834 -34.667 -15.501 -47s1.5 -18.5 9.5 -18.5
c10 -0.666992 24 7.16602 42 23.499s37.333 36.333 58 60s41.167 48.5 61.5 74.5z" />
    <glyph glyph-name="A" unicode="A" horiz-adv-x="452" 
d="M225 175c28 44 54.6729 88.5029 80.0059 133.503s53.333 90.833 84 137.5l50.5 74.5c17.667 25 33.167 45.5 46.5 61.5c0.666992 14.667 -1.5 26.334 -6.5 35.001s-13.333 13.334 -25 14.001s-26.667 -3.33301 -45 -12s-40.5 -22.667 -66.5 -42
c-24.667 -18 -49.5 -39.833 -74.5 -65.5s-47.5 -54.334 -67.5 -86.001s-36.333 -66 -49 -103s-18.667 -75.833 -18 -116.5c-2 -6.66699 -5 -10.834 -9 -12.501s-6.33301 1.5 -7 9.5c0 53.333 9.66699 103.666 29 150.999s43.5 90 72.5 128s60.5 70.5 94.5 97.5
s65.333 47.167 94 60.5c32 14.667 60.167 17 84.5 7s40.166 -27.667 47.499 -53c6 -14.667 5.33301 -38.334 -2 -71.001s-17.666 -69.834 -30.999 -111.501s-28.333 -85.667 -45 -132s-31.334 -90.833 -44.001 -133.5s-21.667 -81.334 -27 -116.001s-3.33301 -60.667 6 -78
c4.66699 -9.33301 10.667 -13.5 18 -12.5s14.666 4.66699 21.999 11s14.333 14 21 23s11.667 16.833 15 23.5c0.666992 3.33301 2.66699 5.66602 6 6.99902s6.66602 1.83301 9.99902 1.5s5.83301 -1.83301 7.5 -4.5s1.5 -6.33398 -0.5 -11.001
c-5.33301 -8.66699 -12 -17.167 -20 -25.5s-16.5 -15.666 -25.5 -21.999s-18.5 -11.5 -28.5 -15.5s-19.667 -6 -29 -6c-23.333 0 -40 7.66699 -50 23s-15.333 35.333 -16 60s2.16602 52.167 8.49902 82.5s14 60.333 23 90s18 57.5 27 83.5l21.5 63l-67 22l-23 -42
c-10.667 -19.333 -23.334 -41.166 -38.001 -65.499l-47.5 -76c-17 -26.333 -33.833 -50.333 -50.5 -72s-32.667 -39.5 -48 -53.5s-28.333 -21 -39 -21s-18.334 4.33301 -23.001 13s-6.66699 19.5 -6 32.5s3.83398 27.167 9.50098 42.5s13.834 29.5 24.501 42.5
s23.667 24 39 33s32.666 13.833 51.999 14.5c4.66699 -0.666992 7.5 -2.5 8.5 -5.5s0.833008 -6 -0.5 -9s-3.5 -5.66699 -6.5 -8s-5.83301 -3.5 -8.5 -3.5c-16.667 0.666992 -31.334 -2.16602 -44.001 -8.49902s-23.167 -14.666 -31.5 -24.999s-14.666 -21.5 -18.999 -33.5
s-6.83301 -23.333 -7.5 -34s0.666016 -19.5 3.99902 -26.5s8.33301 -10.5 15 -10.5s14.667 4 24 12s19.5 18.833 30.5 32.5s22.5 29.167 34.5 46.5s24 35.666 36 54.999zM483.006 562.003c-24 -32.667 -47.167 -66.333 -69.5 -101l-63.5 -103l61 -21l23.5 62.5l21.5 56.5
c6.66699 18 12.5 35.667 17.5 53s8.16699 35 9.5 53z" />
    <glyph glyph-name="B" unicode="B" horiz-adv-x="575" 
d="M375 498c14 13.333 28.835 26.6729 44.502 40.0059s31.667 25.166 48 35.499s33 18.666 50 24.999s34.5 9.5 52.5 9.5c24 0 40 -5.83301 48 -17.5s10.333 -26.334 7 -44.001s-11.333 -37 -24 -58s-27.667 -41.167 -45 -60.5s-36 -36.333 -56 -51s-39 -24.334 -57 -29.001
c38 2.66699 66.167 -1.66602 84.5 -12.999s28.833 -27.5 31.5 -48.5s-1 -45.167 -11 -72.5s-24.167 -55.666 -42.5 -84.999s-39.833 -58.166 -64.5 -86.499s-49.667 -53.666 -75 -75.999s-50.333 -40.333 -75 -54s-46.334 -20.5 -65.001 -20.5c-20 0 -33.5 5 -40.5 15
s-9 22.167 -6 36.5s10.167 29.666 21.5 45.999s24.666 31.166 39.999 44.499c28.667 24 58.5 42.667 89.5 56l97.5 41c10 14 18.833 28.833 26.5 44.5s13.5 31.167 17.5 46.5s5.5 29.666 4.5 42.999s-5.83301 24.333 -14.5 33c-12.667 12 -29 20.5 -49 25.5
s-41 7.83301 -63 8.5l5 13c28 5.33301 53.167 14.833 75.5 28.5s41.333 29.167 57 46.5s28 35.333 37 54s14.333 35.5 16 50.5s-0.333008 27 -6 36s-15.334 12.833 -29.001 11.5s-31.5 -9.33301 -53.5 -24s-48.333 -38.334 -79 -71.001
c-4.66699 -19.333 -12 -44.666 -22 -75.999s-22.167 -64.666 -36.5 -99.999s-30.333 -70.833 -48 -106.5s-36.5 -68 -56.5 -97s-40.667 -52.5 -62 -70.5s-43 -27 -65 -27c-18.667 0 -27.167 9.66699 -25.5 29s9.16699 43.666 22.5 72.999s30.666 61.5 51.999 96.5
s42.833 68.167 64.5 99.5s41.5 58.5 59.5 81.5s30.333 37.5 37 43.5c3.33301 10 7 23.667 11 41s5.66699 33.666 5 48.999c0 13.333 -2.33301 24.333 -7 33s-12.167 13.5 -22.5 14.5s-24.166 -2.33301 -41.499 -10s-38.666 -20.834 -63.999 -39.501
c-24.667 -18 -49.5 -39.833 -74.5 -65.5s-47.5 -54.334 -67.5 -86.001s-36.333 -66 -49 -103s-18.667 -75.833 -18 -116.5c-2 -6.66699 -5 -10.834 -9 -12.501s-6.33301 1.5 -7 9.5c0 53.333 9.66699 103.666 29 150.999s43.5 90 72.5 128s60.5 70.5 94.5 97.5
s65.333 47.167 94 60.5c16 7.33301 31.167 11.333 45.5 12s27.333 -1.16602 39 -5.49902s21.667 -11.166 30 -20.499s14.5 -20.333 18.5 -33c3.33301 -9.33301 4.33301 -19 3 -29zM83.002 19.0068c8.66699 0 19.666 8.6709 32.999 26.0039s27.5 39.166 42.5 65.499
s30 55.166 45 86.499l41 89c12.333 28 22.333 52.5 30 73.5s11.5 34.167 11.5 39.5c-6 -4.66699 -16.667 -17.334 -32 -38.001s-32.166 -45 -50.499 -73s-36.833 -57.833 -55.5 -89.5s-34.5 -60.834 -47.5 -87.501s-21.667 -48.667 -26 -66s-1.5 -26 8.5 -26z
M247.001 24.0107c-17.333 -14 -29.8311 -28.4961 -37.498 -43.4961s-10.334 -26.833 -8.00098 -35.5s9.5 -12.334 21.5 -11.001s29.667 11.666 53 30.999c17.333 13.333 36.5 31.166 57.5 53.499s41.167 45.166 60.5 68.499c3.33301 4 6.16602 7.66699 8.49902 11l8.5 12
c-26 -8.66699 -53.5 -20 -82.5 -34s-56.167 -31.333 -81.5 -52z" />
    <glyph glyph-name="C" unicode="C" horiz-adv-x="476" 
d="M489 625c23.333 7.33301 45.667 10.8379 67 10.5049s38.666 -5 51.999 -14s21.333 -22.667 24 -41s-2.66602 -41.833 -15.999 -70.5c-6 -12.667 -15.333 -27.834 -28 -45.501s-26.834 -35.5 -42.501 -53.5s-32.334 -35 -50.001 -51s-34.667 -29 -51 -39
s-31.166 -15.833 -44.499 -17.5s-23.666 3.16602 -30.999 14.499c-2 3.33301 -2.33301 6.66602 -1 9.99902s3.5 6 6.5 8s6.33301 3.33301 10 4s6.83398 0 9.50098 -2c0.666992 -0.666992 1 -1.33398 1 -2.00098s0.333008 -1.66699 1 -3c3.33301 -8 9.83301 -10.667 19.5 -8
s21.334 8.83398 35.001 18.501s28.167 21.834 43.5 36.501s29.833 29.834 43.5 45.501s26 31.167 37 46.5s18.833 28.666 23.5 39.999c10.667 26 12.667 45.667 6 59s-18.834 20.666 -36.501 21.999s-39.167 -3.16699 -64.5 -13.5s-51 -26.166 -77 -47.499
c-28.667 -23.333 -56 -51.833 -82 -85.5s-49 -69 -69 -106s-36.167 -74 -48.5 -111s-19.166 -70.167 -20.499 -99.5c-1.33301 -23.333 1 -44 7 -62s15.833 -31.667 29.5 -41s31 -13 52 -11s46.5 11.667 76.5 29c16.667 10 33.167 22.5 49.5 37.5s31.666 31.167 45.999 48.5
s27.833 34.666 40.5 51.999l34 47l9 14c2 4 4 6.66699 6 8c6 1.33301 8.66699 -0.333984 8 -5.00098c0 -3.33301 -0.666992 -5.66602 -2 -6.99902l-5 -8c-21.333 -32.667 -45.5 -66 -72.5 -100s-56.5 -64 -88.5 -90c-40 -34 -76.667 -56.667 -110 -68
s-63.333 -15.666 -90 -12.999c-24 7.33301 -42.167 21.166 -54.5 41.499s-19.666 45.166 -21.999 74.499s0.166992 61.666 7.5 96.999s18.666 71.5 33.999 108.5s34.166 73.5 56.499 109.5s47.5 69.5 75.5 100.5s58.5 58.167 91.5 81.5s67.833 40.333 104.5 51z" />
    <glyph glyph-name="D" unicode="D" horiz-adv-x="637" 
d="M609 612c32 0 53.6699 -11.166 65.0029 -33.499s14.666 -51.333 9.99902 -87s-16.334 -75.834 -35.001 -120.501s-42 -89.667 -70 -135s-59.5 -88.666 -94.5 -129.999s-70.833 -76.333 -107.5 -105c-28 -22 -55 -38.667 -81 -50c-25.333 -11.333 -47.333 -16.333 -66 -15
s-32.334 7 -41.001 17s-11.5 23.167 -8.5 39.5s13.5 34.166 31.5 53.499c13.333 14.667 29.833 27.834 49.5 39.501s40.167 22 61.5 31s42.666 16.5 63.999 22.5s40.666 11 57.999 15c8.66699 10.667 21 28.834 37 54.501s32.5 54.667 49.5 87s32.833 65.833 47.5 100.5
s25 66.334 31 95.001s5.66699 52.167 -1 70.5s-22.334 27.5 -47.001 27.5c-9.33301 0 -21.666 -4 -36.999 -12s-30.5 -17.833 -45.5 -29.5s-28.5 -23.834 -40.5 -36.501s-19.667 -23.667 -23 -33c-6 -14 -13.333 -34.667 -22 -62s-18.667 -57.333 -30 -90
s-24.166 -66.167 -38.499 -100.5s-29.666 -65.333 -45.999 -93s-34 -50.5 -53 -68.5s-38.833 -27 -59.5 -27c-15.333 0 -25 5 -29 15s-4.33301 23.5 -1 40.5s10 36.333 20 58s21.5 44.167 34.5 67.5s26.833 46.833 41.5 70.5l42 65.5l35.5 52.5l22.5 32.5
c16 36.667 26.667 68.834 32 96.501s4.16602 47.667 -3.50098 60s-22.667 15.833 -45 10.5s-52.833 -22.333 -91.5 -51c-24.667 -18 -49.5 -39.833 -74.5 -65.5s-47.5 -54.334 -67.5 -86.001s-36.333 -66 -49 -103s-18.667 -75.833 -18 -116.5
c-2 -6.66699 -5 -10.834 -9 -12.501s-6.33301 1.5 -7 9.5c0 53.333 9.66699 103.666 29 150.999s43.5 90 72.5 128s60.5 70.5 94.5 97.5s65.333 47.167 94 60.5c21.333 10 41.333 14 60 12s34.334 -8.16699 47.001 -18.5s21.5 -24.333 26.5 -42s4.5 -37.5 -1.5 -59.5
c28 28 57.333 52 88 72s63.667 30 99 30zM224.003 37.001c-6 -8 -10.999 -16.1611 -14.999 -24.4941s-5.83301 -15.333 -5.5 -21s3.66602 -9.33398 9.99902 -11.001s16.833 0.166016 31.5 5.49902c9.33301 4 21 10.833 35 20.5s29.333 21.167 46 34.5
s33.667 28.166 51 44.499s34 33.166 50 50.499c-17.333 -4 -35.333 -8.66699 -54 -14s-37 -11.833 -55 -19.5s-35 -16.834 -51 -27.501s-30.333 -23.334 -43 -38.001zM317.004 391.007c-6 -7.33301 -15.334 -20.334 -28.001 -39.001s-26.5 -40.167 -41.5 -64.5
s-29.833 -49.833 -44.5 -76.5s-26.834 -51.167 -36.501 -73.5s-15.667 -41.166 -18 -56.499s1.83398 -23.666 12.501 -24.999c6.66699 -1.33301 14.667 4.66699 24 18s19.333 30.833 30 52.5s21.334 45.667 32.001 72s20.667 52.166 30 77.499l24.5 69z" />
    <glyph glyph-name="E" unicode="E" horiz-adv-x="470" 
d="M500 612c27.333 0 46.002 -8.65723 56.002 -25.9902s10.333 -38.333 1 -63c-6.66699 -18.667 -16.167 -37.167 -28.5 -55.5s-25.5 -33.5 -39.5 -45.5s-27.667 -19.167 -41 -21.5s-24.333 3.16699 -33 16.5c-2.66699 3.33301 -3.5 6.66602 -2.5 9.99902
s2.83301 6.16602 5.5 8.49902s5.83398 3.83301 9.50098 4.5s6.83398 0 9.50098 -2l2 -4c6 -10.667 13.667 -14.834 23 -12.501s19.166 8.5 29.499 18.5s20.166 22.5 29.499 37.5s16.666 30.167 21.999 45.5c4.66699 12.667 5.66699 23.167 3 31.5
s-7.83398 14.166 -15.501 17.499s-17.167 4.33301 -28.5 3s-23 -5 -35 -11c-17.333 -8 -34.166 -19.167 -50.499 -33.5s-31.166 -30.166 -44.499 -47.499s-24.166 -35 -32.499 -53s-12.833 -34.333 -13.5 -49s3.33301 -26.667 12 -36s23.334 -14 44.001 -14
c6 0 12.167 0.666992 18.5 2l18.5 4l-3 -7c-42.667 -18.667 -79.5 -41.834 -110.5 -69.501s-54.5 -62.167 -70.5 -103.5c-6 -17.333 -10.833 -36.333 -14.5 -57s-4.16699 -39.834 -1.5 -57.501s9 -32.5 19 -44.5s25.333 -18 46 -18c16 0 35.833 9 59.5 27
s47.667 39.833 72 65.5s47.666 52.667 69.999 81s40.166 53.166 53.499 74.499l4.5 9c1.66699 3.33301 3.83398 6 6.50098 8c2 1.33301 4 1.66602 6 0.999023s3 -2.33398 3 -5.00098c0 -0.666992 -0.333008 -1.66699 -1 -3s-1.33398 -2.83301 -2.00098 -4.5
s-1.66699 -3.83398 -3 -6.50098l-65.5 -96c-25 -35.333 -52.333 -68.333 -82 -99s-60.834 -56.334 -93.501 -77.001s-66 -31 -100 -31c-22.667 0 -40.167 6.33301 -52.5 19s-20.833 28.5 -25.5 47.5s-6.16699 39.333 -4.5 61s5.5 41.834 11.5 60.501
c8 26 17.5 49.333 28.5 70s24.167 39 39.5 55s33.333 30.333 54 43s45 24.667 73 36c-16.667 0 -30.834 3.16699 -42.501 9.5s-20.667 15 -27 26s-9.5 23.833 -9.5 38.5s3 30 9 46c8 22 20.5 43.5 37.5 64.5s36.333 39.667 58 56s44.5 29.666 68.5 39.999
s47.333 15.5 70 15.5z" />
    <glyph glyph-name="F" unicode="F" horiz-adv-x="363" 
d="M215 554c-18.667 -0.666992 -33.1689 -4.66016 -43.502 -11.9932s-17.166 -16 -20.499 -26s-3.33301 -19.833 0 -29.5s9.66602 -17.334 18.999 -23.001s21.5 -8 36.5 -7s32.5 7.5 52.5 19.5c1.33301 1.33301 2.66602 2 3.99902 2c4 1.33301 7.33301 1.33301 10 0
s4.33398 -3.33301 5.00098 -6s0.166992 -5.5 -1.5 -8.5s-4.83398 -5.83301 -9.50098 -8.5c-25.333 -14 -47.333 -20.833 -66 -20.5s-33.5 4.5 -44.5 12.5s-18.333 18.667 -22 32s-3.16699 26.5 1.5 39.5s13.667 24.333 27 34s31.666 15.167 54.999 16.5
c34.667 0.666992 68.334 -3.5 101.001 -12.5s64.667 -17.167 96 -24.5c19.333 22 39.666 40 60.999 54s45 21.667 71 23c8.66699 0 15.334 -2.5 20.001 -7.5s5.33398 -12.167 2.00098 -21.5c-2 -7.33301 -6.5 -14.5 -13.5 -21.5s-15.167 -13.5 -24.5 -19.5
s-19 -11.167 -29 -15.5s-19 -7.83301 -27 -10.5c-3.33301 -1.33301 -6.5 -2.33301 -9.5 -3s-6.16699 -1.33398 -9.5 -2.00098c-2 -3.33301 -3.33301 -6 -4 -8s-2 -4.66699 -4 -8c-6 -11.333 -12.333 -24 -19 -38s-13.167 -28.333 -19.5 -43l-19 -43
c-6.33301 -14 -12.5 -27 -18.5 -39c12 0.666992 24.5 1.66699 37.5 3s24.833 7.66602 35.5 18.999c6 6 10.167 7.83301 12.5 5.5s2.83301 -4.5 1.5 -6.5c-10 -10 -18.5 -17 -25.5 -21s-13.833 -6.83301 -20.5 -8.5s-13.667 -2.66699 -21 -3s-16.333 -1.5 -27 -3.5l-23.5 -55
c-9.66699 -22.667 -20.834 -47.167 -33.501 -73.5s-26.5 -53.5 -41.5 -81.5s-31.167 -54 -48.5 -78c-10.667 -14 -23.167 -28.667 -37.5 -44s-29.666 -28.833 -45.999 -40.5s-33.333 -20.667 -51 -27s-34.834 -7.83301 -51.501 -4.5c-18.667 4 -27.667 17 -27 39
s10.5 48.5 29.5 79.5s46.667 64 83 99s80.833 67.5 133.5 97.5l42 89c-8.66699 0 -17 0.166992 -25 0.5s-15.667 0 -23 -1s-14.833 -3.16699 -22.5 -6.5s-15.5 -8.33301 -23.5 -15c-7.33301 -6.66699 -11.833 -8.83398 -13.5 -6.50098s-1.16699 5.16602 1.5 8.49902
c10 10 19.667 17.333 29 22s18.666 7.83398 27.999 9.50098s18.833 2.5 28.5 2.5h29.5l22 44l25 51.5c8.66699 17.667 17.5 34.667 26.5 51s17.833 30.833 26.5 43.5c-17.333 3.33301 -33.166 7.16602 -47.499 11.499s-28.166 8.16602 -41.499 11.499
c-19.333 4.66699 -36.666 8.16699 -51.999 10.5s-30.666 3.16602 -45.999 2.49902zM240.998 207.007c-48 -28.667 -87.668 -58.335 -119.001 -89.002s-55.166 -59.167 -71.499 -85.5s-25.5 -48.666 -27.5 -66.999s2.66699 -29.5 14 -33.5
c9.33301 -3.33301 20.666 0.333984 33.999 11.001s27 25 41 43s28 38.5 42 61.5s27 45.333 39 67l31 58c8.66699 17 14.334 28.5 17.001 34.5zM545.997 594.006c-5.33301 0 -10.833 -1.83496 -16.5 -5.50195s-11.5 -8 -17.5 -13s-11.5 -10 -16.5 -15
s-8.83301 -9.5 -11.5 -13.5c-3.33301 -4 -6.33301 -7.83301 -9 -11.5s-5.66699 -7.5 -9 -11.5c2.66699 0.666992 5.5 1.33398 8.5 2.00098s6.16699 1.66699 9.5 3c6.66699 2 13.667 4.66699 21 8s14.5 7.33301 21.5 12s13 9.33398 18 14.001s8.5 9.66699 10.5 15
c1.33301 5.33301 1.33301 9.5 0 12.5s-4.33301 4.16699 -9 3.5z" />
    <glyph glyph-name="G" unicode="G" horiz-adv-x="404" 
d="M371 371c4 8 10.9971 15.6699 20.9971 23.0029s20.167 13.666 30.5 18.999s20 9.16602 29 11.499s14.5 2.16602 16.5 -0.500977l-19.5 -43.5l-27.5 -61.5l-32.5 -71l-35 -72.5c-11.667 -23.667 -23.334 -45.834 -35.001 -66.501s-22.5 -38 -32.5 -52
s-22.167 -28.5 -36.5 -43.5s-29.833 -28.333 -46.5 -40s-33.667 -20.667 -51 -27s-34.333 -7.83301 -51 -4.5c-19.333 4 -28.666 17 -27.999 39s10.5 48.5 29.5 79.5s46.667 64 83 99s80.5 67.5 132.5 97.5c3.33301 6 7.5 14.333 12.5 25l15.5 34
c-10 -9.33301 -20 -17.833 -30 -25.5s-20.333 -14.167 -31 -19.5c-43.333 -21.333 -77.166 -31.5 -101.499 -30.5s-40.833 9.5 -49.5 25.5s-10.5 37.5 -5.5 64.5s15 55.667 30 86s34.167 60.5 57.5 90.5s48.833 56 76.5 78s56.834 37.833 87.501 47.5
s60.667 9.83398 90 0.500977c17.333 -6.66699 27.5 -18.667 30.5 -36s-2.16699 -35.333 -15.5 -54c-8 -11.333 -18.667 -23.5 -32 -36.5s-26.666 -24 -39.999 -33s-25.333 -14.167 -36 -15.5s-17.667 4.66699 -21 18c-1.33301 5.33301 0.5 9 5.5 11s8.83301 1.33301 11.5 -2
c0 -0.666992 0.166992 -1 0.5 -1s0.5 -0.333008 0.5 -1c0.666992 -8.66699 4.83398 -11.834 12.501 -9.50098s16.667 7.5 27 15.5s20.833 17.333 31.5 28s19 20.667 25 30c12 16.667 16.333 29.334 13 38.001s-10.666 14 -21.999 16s-25 0.833008 -41 -3.5
s-30.667 -10.833 -44 -19.5c-28 -17.333 -53.833 -38.166 -77.5 -62.499s-43.834 -49.333 -60.501 -75s-29.334 -50.334 -38.001 -74.001s-12.167 -43.667 -10.5 -60s9 -27.5 22 -33.5s32.833 -4 59.5 6c14 5.33301 28.5 14 43.5 26l42.5 35zM308.997 238.003
c-47.333 -28 -86.667 -57.332 -118 -87.999s-55.166 -59.167 -71.499 -85.5s-25.5 -48.833 -27.5 -67.5s2.66699 -30 14 -34c9.33301 -3.33301 20.5 0.166992 33.5 10.5s26.5 24.666 40.5 42.999s28.167 39 42.5 62s27.333 45.333 39 67s21.667 41 30 58
s14.166 28.5 17.499 34.5z" />
    <glyph glyph-name="H" unicode="H" horiz-adv-x="435" 
d="M285 512c6 23.333 8.16992 42.6689 6.50293 58.002s-7.83398 25.166 -18.501 29.499s-26.167 2.66602 -46.5 -5.00098s-46.166 -23.167 -77.499 -46.5c-24.667 -18 -49.5 -39.833 -74.5 -65.5s-47.5 -54.334 -67.5 -86.001s-36.333 -66 -49 -103
s-18.667 -75.833 -18 -116.5c-2 -6.66699 -5 -10.834 -9 -12.501s-6.33301 1.5 -7 9.5c0 53.333 9.66699 103.666 29 150.999s43.5 90 72.5 128s60.5 70.5 94.5 97.5s65.333 47.167 94 60.5c31.333 14 59.166 16.333 83.499 7s40.5 -26.333 48.5 -51
c4.66699 -25.333 3.66699 -50 -3 -74s-14 -46.333 -22 -67l-25.5 -64c-7.66699 -19.333 -13.167 -34.333 -16.5 -45c14.667 -1.33301 28.834 -3 42.501 -5s27.5 -3.33301 41.5 -4l53.5 127c17.667 42.667 36.5 85 56.5 127c4 7.33301 10.5 14.333 19.5 21
s18.333 12.5 28 17.5s18.5 8.33301 26.5 10s13 1.16699 15 -1.5l-100.5 -228l-97.5 -228l-13 -31c-5.33301 -12.667 -10.333 -26.5 -15 -41.5s-8.83398 -30.167 -12.501 -45.5s-5.33398 -29.333 -5.00098 -42s2.83301 -23 7.5 -31s12.667 -12 24 -12
c11.333 -0.666992 23.333 6.33301 36 21s24.834 31.5 36.501 50.5s22 38 31 57l19.5 41.5c2.66699 5.33301 6.16699 7.83301 10.5 7.5s5.16602 -3.5 2.49902 -9.5l-27.5 -57c-11 -22.667 -23.667 -44.5 -38 -65.5s-30.333 -38.833 -48 -53.5s-37.167 -21.667 -58.5 -21
c-19.333 0.666992 -33.333 6.33398 -42 17.001s-13.667 24.167 -15 40.5s0.166992 34.833 4.5 55.5s10 41.167 17 61.5s14.333 39.833 22 58.5l19.5 47l38 93c-14.667 0 -28.834 1.33301 -42.501 4s-28.167 4 -43.5 4c-6.66699 -13.333 -14.5 -31.833 -23.5 -55.5l-30.5 -78
c-11.333 -28.333 -23.833 -57.166 -37.5 -86.499s-28.5 -55.833 -44.5 -79.5s-33.167 -43 -51.5 -58s-37.833 -22.167 -58.5 -21.5c-13.333 0 -23 3.5 -29 10.5s-9.5 15.833 -10.5 26.5s0.333008 22 4 34s8.5 23 14.5 33c1.33301 3.33301 3.83301 5.83301 7.5 7.5
s7.16699 2.16699 10.5 1.5s5.5 -2.5 6.5 -5.5s0.833008 -6.16699 -0.5 -9.5c0 -0.666992 -0.666992 -1 -2 -1c-4 -6 -8 -13.333 -12 -22s-7.16699 -17.167 -9.5 -25.5s-3 -15.5 -2 -21.5s5.16699 -9 12.5 -9c10 0 22.333 10.5 37 31.5s30.167 47.667 46.5 80
s33 67.833 50 106.5l47 111.5l37 94.5l20.5 55l16.5 45.5c5.66699 15.667 10.5 30.834 14.5 45.501z" />
    <glyph glyph-name="I" unicode="I" horiz-adv-x="341" 
d="M320 512c0 1.33301 0.167969 2.50488 0.500977 3.50488s0.5 2.16699 0.5 3.5c1.33301 4.66699 2.16602 9.16699 2.49902 13.5s0.833008 8.5 1.5 12.5c1.33301 16.667 -0.166992 30 -4.5 40s-12 15.667 -23 17s-25.833 -2.33398 -44.5 -11.001s-41.667 -23 -69 -43
c-24.667 -18 -49.5 -39.833 -74.5 -65.5s-47.5 -54.334 -67.5 -86.001s-36.333 -66 -49 -103s-18.667 -75.833 -18 -116.5c-2 -6.66699 -5 -10.834 -9 -12.501s-6.33301 1.5 -7 9.5c0 53.333 9.66699 103.666 29 150.999s43.5 90 72.5 128s60.5 70.5 94.5 97.5
s65.333 47.167 94 60.5c16 7.33301 31.5 11.333 46.5 12s28.667 -1.33301 41 -6s22.666 -11.834 30.999 -21.501s14.166 -20.834 17.499 -33.501h1c3.33301 -16.667 3.5 -36.667 0.5 -60s-8.16699 -48.166 -15.5 -74.499s-16 -53 -26 -80s-20.167 -52.333 -30.5 -76
s-20.166 -45.167 -29.499 -64.5s-16.666 -34 -21.999 -44c-14 -27.333 -29.833 -55.333 -47.5 -84s-36.667 -54.667 -57 -78s-41.833 -42.333 -64.5 -57s-45.667 -22 -69 -22c-10 0 -17.5 2.16699 -22.5 6.5s-8.33301 9.83301 -10 16.5s-1.83398 14 -0.500977 22
s3.33301 15.667 6 23c7.33301 19.333 18.5 38.833 33.5 58.5s32 38.5 51 56.5s39.333 35 61 51s42.834 30 63.501 42c11.333 18 21 36.167 29 54.5s15.333 36.833 22 55.5c3.33301 8 7.83301 19.667 13.5 35s11.5 32.5 17.5 51.5s11.833 38.833 17.5 59.5s10.167 40 13.5 58
zM15.001 -49.9951c7.33301 0 16.502 4.83105 27.502 14.498s22.667 21.834 35 36.501s24.833 31 37.5 49l35.5 52.5l29 46c8.33301 13.667 14.166 23.5 17.499 29.5c-18 -11.333 -36.5 -24.166 -55.5 -38.499s-37 -29.666 -54 -45.999s-32.167 -33.333 -45.5 -51
s-23.333 -34.834 -30 -51.501c-1.33301 -2.66699 -2.5 -6.33398 -3.5 -11.001s-1.83301 -9.16699 -2.5 -13.5s-0.333984 -8.16602 0.999023 -11.499s4 -5 8 -5z" />
    <glyph glyph-name="J" unicode="J" horiz-adv-x="365" 
d="M346 508c4.66699 20.667 3.83496 32.6699 -2.49805 36.0029s-15.5 1 -27.5 -7s-25.833 -20.333 -41.5 -37s-30.834 -34.834 -45.501 -54.501s-27.667 -39.167 -39 -58.5s-18.666 -35.833 -21.999 -49.5s-1.33301 -22.834 6 -27.501s22 -2.33398 44 6.99902h2
c2.66699 0.666992 5.33398 0 8.00098 -2s3.66699 -4.66699 3 -8c0 -2.66699 -1.16699 -5.66699 -3.5 -9s-5.16602 -5.33301 -8.49902 -6c-6 -2 -12.5 -3.66699 -19.5 -5s-14.167 -2 -21.5 -2s-14 0.666992 -20 2s-11 3.66602 -15 6.99902c-8 8 -9.83301 20.333 -5.5 37
s12.666 35.334 24.999 56.001s27.833 42.334 46.5 65.001s38 43.834 58 63.501s39.833 36.667 59.5 51s37.167 23.833 52.5 28.5s27.166 3 35.499 -5s11.166 -24.333 8.49902 -49c-3.33301 -27.333 -10.333 -59.166 -21 -95.499s-22.834 -72.333 -36.501 -108
s-27.334 -68.834 -41.001 -99.501s-24.834 -54.334 -33.501 -71.001c-14.667 -27.333 -31 -55.333 -49 -84s-37.167 -54.667 -57.5 -78s-41.833 -42.5 -64.5 -57.5s-46 -22.5 -70 -22.5c-10 0 -17.667 2.16699 -23 6.5s-8.66602 9.83301 -9.99902 16.5
s-1.5 14.167 -0.5 22.5s3.16699 16.166 6.5 23.499c8 19.333 19.5 39 34.5 59s32.167 39.167 51.5 57.5s39.833 35.333 61.5 51s42.834 29.5 63.501 41.5c11.333 18.667 21 37 29 55s15.667 36.333 23 55l33 97.5c10.667 33 19.667 65.5 27 97.5zM42.001 -46.9971
c7.33301 0 16.5 4.83008 27.5 14.4971s22.667 22 35 37s24.833 31.5 37.5 49.5l35.5 52.5c11 17 20.5 32.5 28.5 46.5s14 24 18 30c-18 -11.333 -36.667 -24.166 -56 -38.499s-37.5 -29.666 -54.5 -45.999s-32.167 -33.166 -45.5 -50.499s-23.333 -34.666 -30 -51.999
c-1.33301 -3.33301 -2.5 -7.33301 -3.5 -12s-1.66699 -9.33398 -2 -14.001s0.166992 -8.66699 1.5 -12s4 -5 8 -5z" />
    <glyph glyph-name="K" unicode="K" horiz-adv-x="539" 
d="M389 405l40.5029 36.5059l53 47.5l59 50.5c20.333 17 39.666 32.333 57.999 46s35.5 24.834 51.5 33.501s29 13 39 13c13.333 0 19.833 -5.16699 19.5 -15.5s-6.16602 -23.5 -17.499 -39.5l-14 2c6 7.33301 10.667 15.333 14 24s1.66602 12.667 -5.00098 12
c-10 0 -23.333 -4.83301 -40 -14.5s-34.834 -22 -54.501 -37s-40.334 -31.667 -62.001 -50l-62 -54l-53.5 -49.5c-16 -15.333 -28.667 -27 -38 -35v-1c28 -3.33301 49 -11.666 63 -24.999s23.333 -29.833 28 -49.5s5.66699 -41.5 3 -65.5s-6.66699 -48 -12 -72
s-11 -46.833 -17 -68.5s-10 -40.334 -12 -56.001s-0.833008 -27 3.5 -34s13.833 -7.83301 28.5 -2.5c10 3.33301 21 10.333 33 21s24 23.5 36 38.5s23.167 31.167 33.5 48.5s18.5 34.666 24.5 51.999c1.33301 5.33301 4.66602 8.16602 9.99902 8.49902
s6.66602 -2.5 3.99902 -8.5c-11.333 -32 -25 -60.833 -41 -86.5s-32.667 -47.5 -50 -65.5s-34.333 -31.833 -51 -41.5s-31.667 -14.5 -45 -14.5c-24 0.666992 -39.333 8.5 -46 23.5s-9 34.167 -7 57.5s6.5 49.166 13.5 77.499s12.333 56.166 16 83.499
s3.5 52.666 -0.5 75.999s-15.667 41.666 -35 54.999l-25.5 -55.5c-7.66699 -16.333 -14.167 -29.166 -19.5 -38.499c-14 -27.333 -29.833 -55.333 -47.5 -84s-36.667 -54.667 -57 -78s-41.833 -42.333 -64.5 -57s-46 -22 -70 -22c-10 0 -17.667 2.16699 -23 6.5
s-8.66602 9.83301 -9.99902 16.5s-1.5 14 -0.5 22s3.16699 15.667 6.5 23c7.33301 19.333 18.5 38.833 33.5 58.5s32.167 38.5 51.5 56.5s39.833 35 61.5 51s42.834 30 63.501 42c4.66699 4.66699 11.834 15.834 21.501 33.501s20.5 39 32.5 64s23.667 52 35 81
s20.666 56.667 27.999 83s11.833 50 13.5 71s-1.83301 36.167 -10.5 45.5s-23 11.333 -43 6s-48 -21.333 -84 -48c-24.667 -18 -49.5 -39.833 -74.5 -65.5s-47.5 -54.334 -67.5 -86.001s-36.333 -66 -49 -103s-18.667 -75.833 -18 -116.5c-2 -6.66699 -5 -10.834 -9 -12.501
s-6.33301 1.5 -7 9.5c0 53.333 9.66699 103.833 29 151.5s43.5 90.5 72.5 128.5s60.333 70.5 94 97.5s65.167 46.833 94.5 59.5c37.333 16 66.5 22.5 87.5 19.5s35.833 -12 44.5 -27s12.167 -34.333 10.5 -58s-5.83398 -47.834 -12.501 -72.501s-15.167 -48.167 -25.5 -70.5
s-20.166 -39.833 -29.499 -52.5zM65.0029 19.0059c7.33301 0 16.5029 4.82812 27.5029 14.4951s22.667 21.834 35 36.501s24.666 31 36.999 49l35 52.5l29 46c8.33301 13.667 14.166 23.5 17.499 29.5c-18 -11.333 -36.5 -24.166 -55.5 -38.499s-37 -29.666 -54 -45.999
s-32.333 -33.333 -46 -51s-23.834 -35.167 -30.501 -52.5c-0.666992 -2.66699 -1.66699 -6.16699 -3 -10.5s-2 -8.66602 -2 -12.999s0.666992 -8.16602 2 -11.499s4 -5 8 -5z" />
    <glyph glyph-name="L" unicode="L" horiz-adv-x="341" 
d="M5 387c14 34 31.3398 65.6611 52.0068 94.9941s42.667 55.833 66 79.5s47 44.167 71 61.5s46.667 30.666 68 39.999c16.667 7.33301 32.667 11.333 48 12s29.333 -1.5 42 -6.5s23.167 -12.5 31.5 -22.5s14.166 -22 17.499 -36c4 -19.333 3.16699 -42 -2.5 -68
s-13.334 -52.5 -23.001 -79.5s-20.167 -52.5 -31.5 -76.5s-20.666 -43 -27.999 -57l-63.5 -118.5l-43.5 -77c-11.333 -19.667 -20 -34 -26 -43s-9.33301 -13.833 -10 -14.5c8 -18.667 19.5 -35 34.5 -49s32.5 -22.667 52.5 -26s42.167 0.333984 66.5 11.001s49.5 31 75.5 61
c4.66699 4.66699 8.33398 5.83398 11.001 3.50098s2.66699 -5.16602 0 -8.49902c-27.333 -30 -53.666 -51.5 -78.999 -64.5s-48.833 -19 -70.5 -18s-41.334 8 -59.001 21s-32.834 30.5 -45.501 52.5l-24 -30.5c-7.33301 -9.66699 -15 -18.5 -23 -26.5
s-16.5 -15.167 -25.5 -21.5s-19.5 -11.166 -31.5 -14.499c-18 -5.33301 -32.167 -5.66602 -42.5 -0.999023s-16.833 12.167 -19.5 22.5s-1.33398 22.5 3.99902 36.5s14.666 27.667 27.999 41c17.333 17.333 35.666 29 54.999 35s34.666 7.66699 45.999 5
c5.33301 8 13.166 21.667 23.499 41s21.833 42 34.5 68l40 85c14 30.667 27.167 61.334 39.5 92.001s23.166 60 32.499 88s16 52.333 20 73c4 23.333 6 43.333 6 60s-4 28 -12 34s-21 5.66699 -39 -1s-42.667 -21.667 -74 -45s-62.5 -52.166 -93.5 -86.499
s-56.833 -73.5 -77.5 -117.5l-5 -18c-2 -6.66699 -5.5 -11 -10.5 -13s-7.83301 1 -8.5 9zM114.007 90.9941c-10.667 1.33301 -21 0.5 -31 -2.5s-19.167 -7.16699 -27.5 -12.5s-15.833 -11.666 -22.5 -18.999s-12 -15 -16 -23c-6 -10.667 -9.5 -20 -10.5 -28
s0.166992 -13.333 3.5 -16s9 -1.83398 17 2.49902s18 13.5 30 27.5l18.5 21l17.5 21c5.33301 6.66699 9.83301 12.667 13.5 18z" />
    <glyph glyph-name="M" unicode="M" horiz-adv-x="646" 
d="M362 453c0.666992 -1.33301 2.16016 -0.488281 4.49316 2.51172s5 6.66699 8 11l10.5 15l11 15.5c12.667 16 24.167 29.833 34.5 41.5s22.166 20.167 35.499 25.5c13.333 4.66699 24.5 5.5 33.5 2.5s15.833 -8.5 20.5 -16.5s7.33398 -17.5 8.00098 -28.5
s-0.666016 -21.833 -3.99902 -32.5l-5 -19l-14 -41l39 60c12 18.667 24 35.334 36 50.001c14.667 18.667 31.5 34.334 50.5 47.001s36.5 20.5 52.5 23.5s28.667 -0.333008 38 -10s11.333 -27.834 6 -54.501c-1.33301 -8 -3.66602 -17 -6.99902 -27s-7 -20 -11 -30
s-8.16699 -19.833 -12.5 -29.5s-8.5 -18.5 -12.5 -26.5l-17 -39c-8.66699 -20 -18.667 -44.333 -30 -73l-36 -93.5c-12.667 -33.667 -24 -66.834 -34 -99.501s-18.167 -63.167 -24.5 -91.5s-8.83301 -51.166 -7.5 -68.499c1.33301 -20.667 8.83301 -31.334 22.5 -32.001
s28.834 7.66602 45.501 24.999c8.66699 9.33301 17.167 20.833 25.5 34.5s15.833 27.334 22.5 41.001s12.334 26.5 17.001 38.5s7.66699 21.333 9 28c0 4.66699 2.33301 7.5 7 8.5s6.66699 -1.5 6 -7.5c-3.33301 -15.333 -8.83301 -34 -16.5 -56s-17.667 -43.667 -30 -65
s-27.166 -40.5 -44.499 -57.5s-37 -27.833 -59 -32.5c-27.333 -6 -47.5 -3.33301 -60.5 8s-20.667 28.666 -23 51.999s-0.333008 51.166 6 83.499s15.333 66.666 27 102.999s24.834 73 39.501 110l43 104l38.5 86.5c11.667 25.333 20.167 44.333 25.5 57
c8.66699 20 13.5 36 14.5 48s-0.833008 19.167 -5.5 21.5s-12.167 -0.166992 -22.5 -7.5s-22.833 -20.666 -37.5 -39.999c-13.333 -16 -27.5 -35.333 -42.5 -58l-42.5 -66.5l-36 -58c-10.667 -17 -18 -28.167 -22 -33.5c-6 -7.33301 -14.667 -13.5 -26 -18.5
s-20.666 -3.83301 -27.999 3.5l13 38.5l17 50c6 17.667 11.667 35.667 17 54s9.83301 35.166 13.5 50.499s6.16699 28.333 7.5 39s0.666016 17.667 -2.00098 21c-3.33301 -0.666992 -7.83301 -4.16699 -13.5 -10.5s-12.167 -14 -19.5 -23l-22.5 -29l-21 -29l-15.5 -22.5
c-4 -6 -6 -9.33301 -6 -10l-30 -81c-12 -32.667 -26 -66.5 -42 -101.5s-33.667 -69 -53 -102s-39.666 -60.5 -60.999 -82.5c-9.33301 -9.33301 -18.833 -17.5 -28.5 -24.5s-19.834 -12.833 -30.501 -17.5c-16 -8 -28.167 -8.5 -36.5 -1.5s-11.5 18.5 -9.5 34.5v-1
c1.33301 10.667 6 23.667 14 39s17.667 31.166 29 47.499s23.166 32.5 35.499 48.5l34.5 43l26 30c6.66699 7.33301 9.66699 10.666 9 9.99902c4 8.66699 8.66699 19.5 14 32.5l16.5 41l17 43c5.66699 14.333 10.5 27.166 14.5 38.499c2.66699 6 5 12 7 18
s3.66699 11.667 5 17c3.33301 12.667 6 24.667 8 36s3.66699 21.666 5 30.999c2 16.667 1.16699 30.667 -2.5 42s-11 18.333 -22 21s-25.833 0.166992 -44.5 -7.5s-42 -21.834 -70 -42.501c-24.667 -18 -49.5 -39.833 -74.5 -65.5s-47.5 -54.334 -67.5 -86.001
s-36.333 -66 -49 -103s-18.667 -75.833 -18 -116.5c-2 -6.66699 -5 -10.834 -9 -12.501s-6.33301 1.5 -7 9.5c0 53.333 9.66699 103.666 29 150.999s43.5 90 72.5 128s60.5 70.5 94.5 97.5s65.333 47.167 94 60.5c16.667 8 33.167 12.167 49.5 12.5s31 -2.16699 44 -7.5
s23.833 -13.333 32.5 -24s14 -23.334 16 -38.001c2 -8.66699 2.83301 -17.5 2.5 -26.5s-1.16602 -17.5 -2.49902 -25.5s-2.66602 -14.5 -3.99902 -19.5s-2 -7.83301 -2 -8.5zM94.9932 80.0117c-3.33301 -6 -6.33301 -12.6709 -9 -20.0039s-4 -12.666 -4 -15.999
s2.16699 -3.66602 6.5 -0.999023s11.833 11.334 22.5 26.001c8 10.667 16.167 22.834 24.5 36.501l24.5 41.5l22 39.5c6.66699 12.333 12 22.833 16 31.5c-20 -22.667 -38.833 -45.5 -56.5 -68.5s-33.167 -46.167 -46.5 -69.5z" />
    <glyph glyph-name="N" unicode="N" horiz-adv-x="561" 
d="M318 491c2.66699 24 2.99707 43.6699 0.99707 59.0029s-8 25.166 -18 29.499s-24.5 2.5 -43.5 -5.5s-44.167 -23.667 -75.5 -47c-24.667 -18 -49.5 -39.833 -74.5 -65.5s-47.5 -54.334 -67.5 -86.001s-36.333 -66 -49 -103s-18.667 -75.833 -18 -116.5
c-2 -6.66699 -5 -10.834 -9 -12.501s-6.33301 1.5 -7 9.5c0 53.333 9.66699 103.666 29 150.999s43.5 90 72.5 128s60.5 70.5 94.5 97.5s65.333 47.167 94 60.5c17.333 8 34.333 12 51 12s31.834 -3 45.501 -9s24.834 -14.833 33.501 -26.5s14 -25.167 16 -40.5
c2 -17.333 0.833008 -38 -3.5 -62s-9.83301 -45.667 -16.5 -65c8.66699 11.333 21 26.333 37 45l50 56.5c17.333 19 34.166 36.5 50.499 52.5s29.166 27 38.499 33c13.333 8.66699 26.5 15 39.5 19s24.167 4.66699 33.5 2s16 -9.16699 20 -19.5s4 -25.5 0 -45.5
c-2.66699 -16.667 -8.66699 -35.5 -18 -56.5l-25 -56.5c-2.66699 -5.33301 -8.16699 -18.166 -16.5 -38.499l-29.5 -73l-36 -93c-12.667 -33.667 -24.167 -66.834 -34.5 -99.501s-18.5 -63.167 -24.5 -91.5s-8.66699 -51.166 -8 -68.499
c1.33301 -20.667 8.83301 -31.5 22.5 -32.5s28.834 7.16699 45.501 24.5c8.66699 10 17.167 21.667 25.5 35s15.833 26.833 22.5 40.5s12.167 26.5 16.5 38.5s7.16602 21.333 8.49902 28c1.33301 5.33301 4.33301 8.33301 9 9s6.33398 -1.66602 5.00098 -6.99902
c-3.33301 -15.333 -8.83301 -34 -16.5 -56s-17.667 -43.667 -30 -65s-27.166 -40.5 -44.499 -57.5s-37 -28.167 -59 -33.5c-27.333 -6 -47.5 -3.16699 -60.5 8.5s-20.667 29.167 -23 52.5s-0.333008 51.166 6 83.499s15.333 66.5 27 102.5s24.834 72.667 39.501 110
l43 104.5l38.5 86c11.667 25 20.167 43.833 25.5 56.5c11.333 26 16.333 45.167 15 57.5s-6.66602 16.833 -15.999 13.5c-4 -2 -10.833 -7.66699 -20.5 -17s-21 -21 -34 -35s-26.667 -29.5 -41 -46.5l-42 -50l-37.5 -45.5l-27 -34l-37.5 -84.5
c-13.667 -29.667 -27.5 -58 -41.5 -85s-27.5 -51.167 -40.5 -72.5s-24.167 -36.666 -33.5 -45.999c-18 -18.667 -38 -33.334 -60 -44.001c-16 -7.33301 -28.167 -7.5 -36.5 -0.5s-11.5 18.167 -9.5 33.5c1.33301 10.667 6.16602 23.5 14.499 38.5s18 30.833 29 47.5
s22.833 33 35.5 49l34.5 43l25.5 30.5c6.66699 7.66699 9.66699 10.834 9 9.50098c4 8.66699 10 22.667 18 42l25 63.5c8.66699 23 16.667 46.167 24 69.5s12 43.666 14 60.999zM118.997 77.0029c-2.66699 -5.33301 -5.33301 -11.6689 -8 -19.002s-4 -12.666 -4 -15.999
s2 -3.66602 6 -0.999023s11.667 11 23 25c8 10.667 16.167 23 24.5 37l24.5 41.5c8 13.667 15.167 26.834 21.5 39.501l15.5 31c-19.333 -22 -38 -44.333 -56 -67s-33.667 -46.334 -47 -71.001z" />
    <glyph glyph-name="O" unicode="O" horiz-adv-x="588" 
d="M238 -86c-31.333 0 -54.668 9.99707 -70.001 29.9971s-24 46.333 -26 79s1.5 70 10.5 112s22.333 84.667 40 128s38.5 86 62.5 128s49.667 79.333 77 112s55.5 59 84.5 79s57.167 30 84.5 30c6 0 11.667 -0.666992 17 -2s10.333 -2.66602 15 -3.99902
c7.33301 3.33301 15 6.33301 23 9s16 4.33398 24 5.00098c30 1.33301 50.333 -8.16699 61 -28.5s14.334 -47 11.001 -80s-12.166 -70.333 -26.499 -112s-31.5 -83.667 -51.5 -126s-41.333 -82.666 -64 -120.999s-43.667 -70.833 -63 -97.5
c-11.333 -15.333 -23.833 -30 -37.5 -44s-27.167 -27 -40.5 -39c-21.333 -16 -42.833 -29.333 -64.5 -40s-43.834 -16.667 -66.501 -18zM423.998 301.997c8.66699 2 18.4961 9.8291 29.4961 23.4961s21.833 29.834 32.5 48.501s20.334 38.834 29.001 60.501
s15.334 41.5 20.001 59.5s6.5 33.167 5.5 45.5s-5.83301 18.5 -14.5 18.5c-24 0.666992 -48.333 -7.83301 -73 -25.5s-48.5 -41 -71.5 -70s-44.667 -62 -65 -99s-38.166 -75 -53.499 -114s-27.666 -77.167 -36.999 -114.5s-14.5 -70.5 -15.5 -99.5s2.66699 -52.5 11 -70.5
s22.5 -27 42.5 -27c15.333 2 30.833 6.83301 46.5 14.5s30.834 17.334 45.501 29.001s29 25.167 43 40.5s27.333 31.333 40 48s26.5 37 41.5 61s30.167 50.167 45.5 78.5s30 57.833 44 88.5s26.167 60.667 36.5 90s18.333 57.333 24 84s7.66699 49.834 6 69.501
s-7.33398 35.167 -17.001 46.5s-24.834 16.666 -45.501 15.999c-5.33301 -0.666992 -10.333 -1.5 -15 -2.5s-8.66699 -2.16699 -12 -3.5c12 -10.667 18.833 -25.167 20.5 -43.5s0 -38.5 -5 -60.5s-12.667 -44.5 -23 -67.5s-21.666 -44.333 -33.999 -64
s-24.833 -36.667 -37.5 -51s-24 -23.5 -34 -27.5c-14.667 -6 -30.834 -6.83301 -48.501 -2.5s-31.5 13.5 -41.5 27.5c-2 4 -2.5 7.66699 -1.5 11s3 6 6 8s6.16699 3.33301 9.5 4s6.33301 0 9 -2l3 -3c6 -11.333 13.833 -19.166 23.5 -23.499s19.834 -4.83301 30.501 -1.5z
" />
    <glyph glyph-name="P" unicode="P" horiz-adv-x="527" 
d="M158 540c-24.667 -18 -49.4961 -39.8281 -74.4961 -65.4951s-47.5 -54.334 -67.5 -86.001s-36.333 -66 -49 -103s-18.667 -75.833 -18 -116.5c-2 -6.66699 -5 -10.834 -9 -12.501s-6.33301 1.5 -7 9.5c0 53.333 9.66699 103.666 29 150.999s43.5 90 72.5 128
s60.5 70.5 94.5 97.5s65.333 47.167 94 60.5c26.667 12 50.334 16.167 71.001 12.5s37.167 -12.5 49.5 -26.5s20 -31.667 23 -53s0.5 -43.333 -7.5 -66c14 15.333 33.167 32.333 57.5 51s49.833 36.667 76.5 54c30.667 18.667 58.5 29.667 83.5 33s44.833 0.333008 59.5 -9
s23.167 -24.833 25.5 -46.5s-3.83398 -47.834 -18.501 -78.501c-9.33301 -18.667 -21 -39.167 -35 -61.5s-29.667 -44.166 -47 -65.499s-36 -41.333 -56 -60s-40 -33.334 -60 -44.001c-17.333 -9.33301 -34 -16.833 -50 -22.5s-30.333 -7.83398 -43 -6.50098
c-13.333 1.33301 -22.5 3.83301 -27.5 7.5s-5.16699 11.5 -0.5 23.5c3.33301 9.33301 10 18 20 26s21.333 15 34 21s25.167 10.667 37.5 14s22.5 5 30.5 5c4.66699 2.66699 14 11.667 28 27s28.833 33.833 44.5 55.5s30.5 44.167 44.5 67.5s23.667 44.333 29 63
c4 14 4.16699 25.333 0.5 34s-10 14.5 -19 17.5s-19.833 3.5 -32.5 1.5s-26 -6.66699 -40 -14s-28.333 -16 -43 -26s-28.834 -20.333 -42.501 -31s-25.834 -21 -36.501 -31s-19 -18.667 -25 -26c-2.66699 -16 -9.16699 -39.667 -19.5 -71s-23.333 -65.833 -39 -103.5
s-33.5 -76.334 -53.5 -116.001s-40.667 -75.834 -62 -108.501s-43.166 -59.667 -65.499 -81s-43.5 -32.666 -63.5 -33.999c-10.667 0 -18.334 3.5 -23.001 10.5s-7.33398 15.5 -8.00098 25.5s0 20.5 2 31.5s4.33301 20.5 7 28.5c4 11.333 11.167 27 21.5 47
s22.666 42.333 36.999 67l46.5 77l50 77c16.667 24.667 32.667 47.167 48 67.5s29 36.833 41 49.5l15 54c5.33301 19.333 9.16602 37.5 11.499 54.5s2.33301 31.833 0 44.5s-8.66602 20.834 -18.999 24.501s-25.333 1.66699 -45 -6s-45.5 -23.5 -77.5 -47.5z
M52.0039 -24.9951c10 2 21.665 12.166 34.998 30.499s27.333 41 42 68s29.334 56.667 44.001 89s28.334 63.833 41.001 94.5l33.5 83l21.5 55c-10 -11.333 -21.833 -26.5 -35.5 -45.5l-43 -62.5l-45.5 -71.5l-42.5 -71.5l-34 -61.5
c-9.66699 -18.333 -16.5 -32.5 -20.5 -42.5c-2 -5.33301 -4.16699 -11.5 -6.5 -18.5s-3.83301 -13.667 -4.5 -20s0 -12.166 2 -17.499s6.33301 -8.33301 13 -9zM340.002 235.004c4.66699 -0.666992 11.333 1.33496 20 6.00195s17.667 10.167 27 16.5
s18.333 13.166 27 20.499s15.334 13.666 20.001 18.999c-6 0 -13.667 -1 -23 -3s-18.833 -5.16699 -28.5 -9.5s-18.5 -9.5 -26.5 -15.5s-13.667 -12.667 -17 -20c-1.33301 -2.66699 -2.33301 -5.66699 -3 -9s0.666016 -5 3.99902 -5z" />
    <glyph glyph-name="Q" unicode="Q" horiz-adv-x="578" 
d="M263 -43c-32.667 4.66699 -56.832 18.335 -72.499 41.002s-24.5 50.834 -26.5 84.501s1.83301 71.167 11.5 112.5s23.667 83.166 42 125.499s39.666 83.5 63.999 123.5s50.166 75.667 77.499 107s55.333 56.5 84 75.5s56 28.5 82 28.5c7.33301 0 13.5 -0.333008 18.5 -1
s9.83301 -2.33398 14.5 -5.00098c17.333 9.33301 35 14.333 53 15s32.667 -4.33301 44 -15c14 -12.667 21.667 -31.5 23 -56.5s-1.66699 -53.5 -9 -85.5s-17.833 -66.167 -31.5 -102.5s-28.834 -71.5 -45.501 -105.5s-33.5 -65.5 -50.5 -94.5s-32.167 -52.833 -45.5 -71.5
c12 -10 21 -24.167 27 -42.5l17 -54c5.33301 -17.667 11.833 -33 19.5 -46s19.834 -18.833 36.501 -17.5l-2 -8c-13.333 -3.33301 -24.666 -2.83301 -33.999 1.5s-17.333 10.666 -24 18.999s-12.5 18.166 -17.5 29.499s-9.5 22.833 -13.5 34.5s-8.16699 22.334 -12.5 32.001
s-9.5 17.167 -15.5 22.5c-13.333 -17.333 -28 -34.5 -44 -51.5s-33 -32.333 -51 -46s-37 -25 -57 -34s-40.667 -14.167 -62 -15.5zM467.002 385.001c8.66699 2 18.3311 8.66797 28.998 20.001s21 25 31 41s19.167 33 27.5 51s14.166 34.667 17.499 50
s3.66602 28.166 0.999023 38.499s-9.66699 15.5 -21 15.5c-24 0.666992 -48.333 -7.83301 -73 -25.5s-48.5 -41 -71.5 -70s-44.667 -62.167 -65 -99.5s-38.166 -75.333 -53.499 -114s-27.666 -76.667 -36.999 -114s-14.5 -70.5 -15.5 -99.5s2.66699 -52.5 11 -70.5
s22.5 -27 42.5 -27c16 2 31.667 6.83301 47 14.5s30.5 17.5 45.5 29.5s29.5 25.667 43.5 41s27 31 39 47c-9.33301 10 -20.166 12.833 -32.499 8.5s-25.166 -13.166 -38.499 -26.499h-12c14 19.333 30.333 33.666 49 42.999s36.667 10 54 2
c11.333 15.333 25 36.666 41 63.999s32 57.166 48 89.499s31 66 45 101s25 68.333 33 100s11.667 59.834 11 84.501s-7.33398 43 -20.001 55c-18 16 -41.667 18.333 -71 7c14 -4.66699 23 -14 27 -28s4.33301 -30.667 1 -50s-9.5 -40 -18.5 -62s-19.5 -42.667 -31.5 -62
s-24.667 -36.166 -38 -50.499s-25.666 -23.5 -36.999 -27.5c-15.333 -5.33301 -31.5 -5.16602 -48.5 0.500977s-30.167 15.834 -39.5 30.501c-2.66699 3.33301 -3.5 6.66602 -2.5 9.99902s3 6.16602 6 8.49902s6.16699 3.83301 9.5 4.5s6.33301 0 9 -2l3 -3
c6 -11.333 14 -19 24 -23s20.333 -4.66699 31 -2z" />
    <glyph glyph-name="R" unicode="R" horiz-adv-x="577" 
d="M222 572c-24.667 -18 -49.4951 -39.8291 -74.4951 -65.4961s-47.5 -54.334 -67.5 -86.001s-36.333 -66 -49 -103s-18.667 -75.833 -18 -116.5c-2 -6.66699 -5 -10.834 -9 -12.501s-6.33301 1.5 -7 9.5c0 53.333 9.66699 103.666 29 150.999s43.5 90 72.5 128
s60.5 70.5 94.5 97.5s65.333 47.167 94 60.5c26.667 12 49.667 16.5 69 13.5s34.833 -11.167 46.5 -24.5s19.167 -30.333 22.5 -51s2.33301 -42.334 -3 -65.001l41 44c14.667 15.333 30 29.333 46 42s32.5 23 49.5 31s34.167 12 51.5 12c14.667 0 27.167 -2.83301 37.5 -8.5
s18.166 -13.334 23.499 -23.001s8.16602 -20.667 8.49902 -33s-1.83398 -24.833 -6.50098 -37.5c-8.66699 -23.333 -23.5 -47.166 -44.5 -71.499s-44.667 -46.833 -71 -67.5s-53.5 -38.334 -81.5 -53.001s-53.667 -24.334 -77 -29.001c26 -18.667 44.833 -39.167 56.5 -61.5
s17.834 -48.5 18.501 -78.5c0 -35.333 -7 -75.333 -21 -120c-5.33301 -17.333 -10 -33.166 -14 -47.499s-6.16699 -26.166 -6.5 -35.499s1.66699 -15.833 6 -19.5s12.166 -3.16699 23.499 1.5c10 4 21.167 11.333 33.5 22s24.666 23.5 36.999 38.5
s23.666 31.167 33.999 48.5s18.5 34.666 24.5 51.999c1.33301 5.33301 4.33301 8.16602 9 8.49902s6 -2.5 4 -8.5c-11.333 -32 -25 -60.833 -41 -86.5s-32.5 -47.5 -49.5 -65.5s-34 -31.833 -51 -41.5s-32.5 -14.5 -46.5 -14.5c-17.333 0 -29.833 4 -37.5 12
s-12.5 18.667 -14.5 32s-1.5 28.833 1.5 46.5s6.5 36.5 10.5 56.5l14.5 65.5c5 23 7.5 45.167 7.5 66.5s-4.16699 40.333 -12.5 57s-23.5 29 -45.5 37l-25.5 -56.5c-7.66699 -16.333 -14.167 -29.166 -19.5 -38.499c-14 -27.333 -29.833 -55.333 -47.5 -84
s-36.667 -54.667 -57 -78s-41.666 -42.333 -63.999 -57s-45.5 -22 -69.5 -22c-10 0 -17.667 2.16699 -23 6.5s-8.83301 9.83301 -10.5 16.5s-1.83398 14 -0.500977 22s3.33301 15.667 6 23c7.33301 19.333 18.5 38.833 33.5 58.5s32.167 38.667 51.5 57
s39.833 35.333 61.5 51s42.834 29.5 63.501 41.5c8 10 17.333 25.167 28 45.5s21.5 43.5 32.5 69.5s21.333 53.333 31 82s17.167 55.834 22.5 81.501s7.66602 48.5 6.99902 68.5s-5.66699 34.5 -15 43.5s-24 11 -44 6s-46.333 -19.5 -79 -43.5zM363.005 333.004
c12 4 26.667 11.168 44 21.501s35 22.833 53 37.5c27.333 20.667 53 44 77 70s40.333 50.333 49 73c7.33301 20 9.16602 33.833 5.49902 41.5s-10.834 11 -21.501 10s-23.667 -5.33301 -39 -13s-30.666 -17.167 -45.999 -28.5s-29.666 -23.5 -42.999 -36.5
s-23 -24.833 -29 -35.5c-1.33301 -4.66699 -4 -12.834 -8 -24.501l-13.5 -38.5l-15.5 -42.5zM48.0049 -27.9951c7.33301 0 16.502 4.82812 27.502 14.4951s22.667 21.834 35 36.501s24.666 31 36.999 49l35 52.5l29 46c8.33301 13.667 14.166 23.5 17.499 29.5
c-18 -11.333 -36.5 -24.166 -55.5 -38.499s-37 -29.666 -54 -45.999s-32.167 -33.166 -45.5 -50.499s-23.333 -34.666 -30 -51.999c-1.33301 -2.66699 -2.5 -6.33398 -3.5 -11.001s-1.66699 -9.16699 -2 -13.5s0.166992 -8.16602 1.5 -11.499s4 -5 8 -5z" />
    <glyph glyph-name="S" unicode="S" horiz-adv-x="486" 
d="M534 507c12.667 12.667 19.8369 27.002 21.5039 43.002s-3.5 28.667 -15.5 38c-8 6 -18.5 7.66699 -31.5 5s-26.333 -8.16699 -40 -16.5s-26.5 -19.333 -38.5 -33s-21 -28.5 -27 -44.5c-7.33301 -20.667 -10.166 -41.5 -8.49902 -62.5s5 -42.667 10 -65l15 -70
c5 -24.333 7 -50 6 -77s-6.5 -55.5 -16.5 -85.5s-27.667 -62.333 -53 -97c-18 -23.333 -38.667 -42.666 -62 -57.999s-46.833 -26.333 -70.5 -33s-46.334 -9 -68.001 -7s-39.5 8.66699 -53.5 20s-23 27.5 -27 48.5s-0.333008 47.167 11 78.5
c4.66699 13.333 11.5 26.666 20.5 39.999s19.5 25.166 31.5 35.499s25 18.5 39 24.5s28.333 8.66699 43 8c5.33301 -0.666992 6.66602 -3.33398 3.99902 -8.00098s-5.33398 -7 -8.00098 -7c-13.333 1.33301 -26 -0.666992 -38 -6s-23 -12.666 -33 -21.999
s-18.833 -19.833 -26.5 -31.5s-13.834 -23.5 -18.501 -35.5c-5.33301 -16 -8.16602 -31 -8.49902 -45s1.66699 -26.167 6 -36.5s10.833 -18.666 19.5 -24.999s19.667 -9.5 33 -9.5c16.667 0 32.667 4 48 12s29.833 18 43.5 30s26 25.5 37 40.5s20.167 29.5 27.5 43.5
c11.333 21.333 19.666 41.833 24.999 61.5s8.5 38.667 9.5 57s0.166992 36.166 -2.5 53.499s-6.33398 34.666 -11.001 51.999c-13.333 46.667 -17.333 88.167 -12 124.5s16 67.5 32 93.5s35.667 46.667 59 62s46.5 25.666 69.5 30.999s44.333 5.33301 64 0
s33.5 -15.666 41.5 -30.999c4 -8 6.5 -17 7.5 -27s0.166992 -20.333 -2.5 -31s-6.66699 -21.334 -12 -32.001s-12.333 -20 -21 -28c-8.66699 -8.66699 -18 -15 -28 -19s-19.667 -6.16699 -29 -6.5s-18 1.33398 -26 5.00098s-14.667 9.16699 -20 16.5
c-5.33301 6 -5.5 11.167 -0.5 15.5s9.16699 3.83301 12.5 -1.5c17.333 -22.667 41.333 -18.667 72 12z" />
    <glyph glyph-name="T" unicode="T" horiz-adv-x="410" 
d="M259 595c-18 -0.666992 -33.5039 -5.16602 -46.5039 -13.499s-23.333 -18 -31 -29s-12.334 -22 -14.001 -33s0 -20 5 -27s13.5 -10.333 25.5 -10s28 6.5 48 18.5l5 2c7.33301 2 12 -0.166992 14 -6.5s-1.66699 -12.166 -11 -17.499
c-25.333 -13.333 -45.833 -19.5 -61.5 -18.5s-27 6.16699 -34 15.5s-9.66699 21.333 -8 36s7 29 16 43s21.667 26.333 38 37s35.833 16.334 58.5 17.001c34.667 1.33301 68.334 -2.66699 101.001 -12s64.667 -17.333 96 -24c19.333 21.333 39.666 39.166 60.999 53.499
s45 21.833 71 22.5c8.66699 0.666992 15.5 -1.5 20.5 -6.5s5.83301 -12.167 2.5 -21.5c-2.66699 -7.33301 -7.5 -14.5 -14.5 -21.5s-15 -13.5 -24 -19.5s-18.5 -11.167 -28.5 -15.5s-19.333 -7.83301 -28 -10.5c-3.33301 -1.33301 -6.5 -2.33301 -9.5 -3
s-6.16699 -1 -9.5 -1l-3.5 -8.5c-1 -2.33301 -2.5 -5.16602 -4.5 -8.49902c-18 -36 -35.833 -74.5 -53.5 -115.5l-54.5 -124c-18.667 -41.667 -38 -82 -58 -121s-41.333 -74.5 -64 -106.5c-10.667 -14 -23.167 -28.5 -37.5 -43.5s-29.666 -28.333 -45.999 -40
s-33.166 -20.667 -50.499 -27s-34.333 -7.83301 -51 -4.5c-19.333 3.33301 -28.666 16.166 -27.999 38.499s10.334 49 29.001 80s46.167 64 82.5 99s80.833 67.5 133.5 97.5l34.5 71l39.5 81c13.333 27.333 26.833 53.5 40.5 78.5s26.5 45.5 38.5 61.5
c-18 4 -34.167 8.16699 -48.5 12.5s-28.166 8.16602 -41.499 11.499c-18.667 4.66699 -35.667 8.16699 -51 10.5s-31.333 3.16602 -48 2.49902zM285.996 247.001c-47.333 -28.667 -86.668 -58.332 -118.001 -88.999s-55.166 -59 -71.499 -85s-25.666 -48.167 -27.999 -66.5
s2.16699 -29.5 13.5 -33.5c10 -3.33301 21.5 0.166992 34.5 10.5s26.5 24.666 40.5 42.999s28 39 42 62l39 66.5c12 21.333 22.167 40.5 30.5 57.5s14.166 28.5 17.499 34.5zM591.994 636.003c-5.33301 0 -11 -1.83203 -17 -5.49902s-11.833 -8 -17.5 -13
s-11 -10.167 -16 -15.5s-8.83301 -10 -11.5 -14c-4 -4 -7.33301 -7.66699 -10 -11s-5.66699 -7.33301 -9 -12c2.66699 0.666992 5.5 1.16699 8.5 1.5s6.5 1.16602 10.5 2.49902c6 2 12.833 4.83301 20.5 8.5s14.834 7.66699 21.501 12s12.5 9 17.5 14s8.5 10.167 10.5 15.5
c3.33301 11.333 0.666016 17 -8.00098 17z" />
    <glyph glyph-name="U" unicode="U" horiz-adv-x="573" 
d="M155 495c-24.667 -18 -49.5039 -39.8359 -74.5039 -65.5029s-47.5 -54.334 -67.5 -86.001s-36.333 -66 -49 -103s-18.667 -75.833 -18 -116.5c-2 -6.66699 -5 -10.834 -9 -12.501s-6.33301 1.5 -7 9.5c0 53.333 9.66699 103.666 29 150.999s43.5 90 72.5 128
s60.5 70.5 94.5 97.5s65.333 47.167 94 60.5c17.333 8 34.333 12.667 51 14s31.834 -0.5 45.501 -5.5s25 -12.667 34 -23s14.5 -23.166 16.5 -38.499c2.66699 -19.333 -0.166016 -43.333 -8.49902 -72s-19.166 -59 -32.499 -91s-27.666 -64.167 -42.999 -96.5
s-28.166 -61.833 -38.499 -88.5s-16.833 -48.834 -19.5 -66.501s2 -28.167 14 -31.5s26 1.66699 42 15s32.833 31.666 50.5 54.999s36 50.5 55 81.5s37.5 63.167 55.5 96.5l52.5 99l45.5 88.5l34.5 66c9.66699 17.667 16.5 27.834 20.5 30.501
c4.66699 2.66699 11.5 5.83398 20.5 9.50098s17.5 6 25.5 7s14.333 -0.333008 19 -4s5 -11.5 1 -23.5l-162 -430c-20.667 -54 -33.334 -95.333 -38.001 -124s-4.5 -47.834 0.5 -57.501s14 -11.5 27 -5.5s26.833 17 41.5 33s29.167 35 43.5 57s25.5 44.333 33.5 67
c1.33301 5.33301 4.33301 8.16602 9 8.49902s6 -2.5 4 -8.5c-12.667 -35.333 -27.834 -66.666 -45.501 -93.999s-36.167 -50.166 -55.5 -68.499s-38 -31.166 -56 -38.499s-33.333 -8.5 -46 -3.5s-21.834 17 -27.501 36s-5.5 45.833 0.5 80.5
c4.66699 26 12.5 56.167 23.5 90.5s23.333 69.333 37 105l42 104.5l38.5 91c-10 -16.667 -22.333 -39.167 -37 -67.5l-49 -91c-18 -32.333 -37.5 -64.666 -58.5 -96.999s-42.833 -60.166 -65.5 -83.499s-45.667 -40.333 -69 -51s-46.666 -11 -69.999 -1
c-12 5.33301 -19.667 14.333 -23 27s-3.83301 27.334 -1.5 44.001s6.83301 34.5 13.5 53.5s14 37.667 22 56s15.833 35.333 23.5 51l18.5 38.5c6.66699 15.333 14.667 34.833 24 58.5s17.333 47.334 24 71.001s10.834 45.5 12.501 65.5s-1.5 34.667 -9.5 44
s-22.333 11 -43 5s-50 -23 -88 -51z" />
    <glyph glyph-name="V" unicode="V" horiz-adv-x="588" 
d="M288 507c6 23.333 8.16992 42.6729 6.50293 58.0059s-7.83398 25.166 -18.501 29.499s-26.167 2.66602 -46.5 -5.00098s-46.166 -23.167 -77.499 -46.5c-24.667 -18 -49.5 -39.833 -74.5 -65.5s-47.5 -54.334 -67.5 -86.001s-36.333 -66 -49 -103
s-18.667 -75.833 -18 -116.5c-2 -6.66699 -5 -10.834 -9 -12.501s-6.33301 1.5 -7 9.5c0 53.333 9.66699 103.666 29 150.999s43.5 90 72.5 128s60.5 70.5 94.5 97.5s65.333 47.167 94 60.5c17.333 8 34.5 12.333 51.5 13s32.5 -1.83301 46.5 -7.5s25.5 -14 34.5 -25
s14.5 -24.167 16.5 -39.5c2 -26.667 -1.16699 -59.167 -9.5 -97.5s-18.833 -78.5 -31.5 -120.5l-38.5 -125.5c-13 -41.667 -23.333 -79 -31 -112s-10.834 -59.833 -9.50098 -80.5s10.333 -31 27 -31c11.333 0 29 12 53 36c6 5.33301 14.333 13.5 25 24.5s22 23.5 34 37.5
l37.5 43.5l36 42.5l29.5 35.5c8.66699 10.333 14.667 17.833 18 22.5c-1.33301 8.66699 -2.33301 22.167 -3 40.5s-0.166992 38.5 1.5 60.5s4.66699 44.833 9 68.5s10.833 45.167 19.5 64.5s19.667 35.166 33 47.499s29.666 18.5 48.999 18.5c20.667 0 33.667 -6.5 39 -19.5
s5.66602 -29.5 0.999023 -49.5s-13 -42.333 -25 -67s-25 -48.667 -39 -72s-28 -44.666 -42 -63.999s-25 -34 -33 -44l-35.5 -42l-48 -56.5l-55 -62c-19 -21 -37.833 -40.333 -56.5 -58s-36.5 -32.5 -53.5 -44.5s-31.5 -19 -43.5 -21c-14 -1.33301 -25.333 0.5 -34 5.5
s-15.334 12.5 -20.001 22.5c-7.33301 14.667 -10.5 35.167 -9.5 61.5s4.83301 56 11.5 89s15.334 67.833 26.001 104.5l32.5 109.5l32.5 104.5c10.667 33.333 19 62.666 25 87.999zM609.003 506.007c-14 0 -26.1641 -5.5 -36.4971 -16.5s-19 -25 -26 -42
s-12.333 -35.833 -16 -56.5s-6.33398 -40.667 -8.00098 -60s-2.16699 -37 -1.5 -53s2 -28 4 -36l14.5 21l21 32l23.5 38.5c8 13.667 15.667 27.5 23 41.5c8.66699 16.667 16 32.834 22 48.501s9.66699 29.667 11 42s-0.333984 22.166 -5.00098 29.499s-13.334 11 -26.001 11
z" />
    <glyph glyph-name="W" unicode="W" horiz-adv-x="797" 
d="M127 543c-24.667 -18 -49.502 -39.835 -74.502 -65.502s-47.5 -54.334 -67.5 -86.001s-36.333 -66 -49 -103s-18.667 -75.833 -18 -116.5c-2 -6.66699 -5 -10.834 -9 -12.501s-6.33301 1.5 -7 9.5c0 53.333 9.66699 103.666 29 150.999s43.5 90 72.5 128
s60.5 70.5 94.5 97.5s65.333 47.167 94 60.5c17.333 8 34.5 12 51.5 12s32.333 -3.16699 46 -9.5s24.834 -15.333 33.501 -27s13.667 -25.167 15 -40.5c1.33301 -10.667 1.16602 -22 -0.500977 -34s-4.16699 -24.667 -7.5 -38c-4 -18.667 -10.667 -42.667 -20 -72l-29 -93
l-29 -98c-9.33301 -32.667 -16.5 -62.167 -21.5 -88.5s-6.5 -47.833 -4.5 -64.5s9 -25 21 -25c5.33301 0 13.5 4.83301 24.5 14.5s23.333 21.834 37 36.501s28.167 31.334 43.5 50.001l44 54l38 48.5c11.333 15 20.333 26.5 27 34.5c8 25.333 16.667 49 26 71
s19.333 44.333 30 67c5.33301 1.33301 9.33301 2 12 2s6.33398 -0.666992 11.001 -2c8 -1.33301 13.833 -4.66602 17.5 -9.99902s6.16699 -11.833 7.5 -19.5s1.5 -16.167 0.5 -25.5s-2.5 -18.333 -4.5 -27c-5.33301 -23.333 -11.833 -48 -19.5 -74l-23.5 -77.5
c-8 -25.667 -15.333 -50.334 -22 -74.001s-11 -44.5 -13 -62.5s-1.33301 -32.333 2 -43s11 -16 23 -16c6 0 15 4.83301 27 14.5s25.167 21.834 39.5 36.501s29.166 31 44.499 49l44 52l37.5 45l24.5 29c-3.33301 4.66699 -5.66602 14.834 -6.99902 30.501
s-1.33301 33.834 0 54.501s4.33301 42.334 9 65.001s11.334 43.334 20.001 62.001s19.5 34.167 32.5 46.5s28.5 18.5 46.5 18.5c16 0 27 -3.83301 33 -11.5s8.83301 -17.667 8.5 -30s-3.33301 -26 -9 -41s-12.167 -30 -19.5 -45s-15 -29.167 -23 -42.5l-20 -33
c-8.66699 -14 -17 -26.833 -25 -38.5s-16.167 -22.834 -24.5 -33.501l-25.5 -32l-29 -35l-56 -66c-20.667 -24 -41.5 -46.667 -62.5 -68s-41.333 -39.666 -61 -54.999s-36.5 -24 -50.5 -26c-23.333 -2 -40.333 6.66699 -51 26c-6 12.667 -9 29 -9 49s1.83301 42 5.5 66
s8.83398 49.333 15.501 76s14 52.667 22 78l-31 -38.5l-41 -50l-46.5 -54c-16.333 -18.333 -32 -35 -47 -50s-29.333 -27.5 -43 -37.5s-25.167 -15.667 -34.5 -17c-24 -3.33301 -40.333 5.66699 -49 27c-6 12.667 -9.16699 28.667 -9.5 48s1.16699 40.666 4.5 63.999
s8.16602 48 14.499 74s13.166 51.5 20.499 76.5s14.833 48.833 22.5 71.5l20.5 60c5.33301 13.333 10.166 27 14.499 41l12.5 41c8.66699 26 13.834 49.5 15.501 70.5s-1.66602 36.167 -9.99902 45.5s-23 11.166 -44 5.49902s-50.167 -22.5 -87.5 -50.5zM818.998 459.998
c-13.333 0 -24.832 -4.99805 -34.499 -14.998s-17.834 -23 -24.501 -39s-11.834 -33.5 -15.501 -52.5s-6.16699 -37.5 -7.5 -55.5s-1.83301 -34.5 -1.5 -49.5s1.5 -25.833 3.5 -32.5l22 31.5c10 14.333 20.333 30.666 31 48.999s20.834 37.166 30.501 56.499
s16.667 36.833 21 52.5s5 28.667 2 39s-11.833 15.5 -26.5 15.5z" />
    <glyph glyph-name="X" unicode="X" horiz-adv-x="771" 
d="M482 539c8 -16 14.167 -33.9912 18.5 -53.9912s7.66602 -39.833 9.99902 -59.5s3.83301 -38.5 4.5 -56.5s1.66699 -33.333 3 -46l46.5 55.5l56.5 64c20 21.667 40.833 42.834 62.5 63.501s43.667 39.167 66 55.5s44.5 29.5 66.5 39.5s43.333 15 64 15
c16 0 26.5 -4.5 31.5 -13.5s5.83301 -21.167 2.5 -36.5c-2 -6.66699 -6 -10.834 -12 -12.501s-9 0.833008 -9 7.5c8.66699 24.667 2.33398 37 -18.999 37c-18.667 0 -38.834 -5.5 -60.501 -16.5s-44 -25.5 -67 -43.5s-45.667 -38.333 -68 -61l-64 -67.5
c-20.333 -22.333 -38.666 -43.5 -54.999 -63.5l-40.5 -49c0.666992 -12 1.33398 -27.833 2.00098 -47.5s1.83398 -40.834 3.50098 -63.501s4.5 -45.334 8.5 -68.001s9.66699 -43.334 17 -62.001s16.666 -33.834 27.999 -45.501s25.666 -17.5 42.999 -17.5
c10 0 20.167 5.33301 30.5 16s20 23.167 29 37.5s17 29 24 44s12.167 26.833 15.5 35.5c1.33301 5.33301 4.5 8.16602 9.5 8.49902s6.5 -2.5 4.5 -8.5c-6 -17.333 -14.333 -37.166 -25 -59.499s-23.167 -43.5 -37.5 -63.5s-30.5 -37 -48.5 -51s-37.667 -21 -59 -21
c-28.667 0 -51.167 9 -67.5 27s-28.833 40.5 -37.5 67.5s-14.667 56 -18 87l-9 84.5l-76.5 -98.5c-27 -34.333 -55 -65.833 -84 -94.5s-58.5 -52.5 -88.5 -71.5s-60 -28.5 -90 -28.5c-18.667 0 -32.334 5.66699 -41.001 17s-13.334 25.666 -14.001 42.999s2.5 36.333 9.5 57
s16.667 40.5 29 59.5s27.333 35.667 45 50s36.834 23.5 57.501 27.5c5.33301 1.33301 7.5 -0.833984 6.5 -6.50098s-4.5 -9.5 -10.5 -11.5c-14 0 -27.667 -5.66699 -41 -17s-25.666 -25.333 -36.999 -42s-20.5 -34.667 -27.5 -54s-10.833 -37 -11.5 -53s2.33301 -29 9 -39
s18.667 -14 36 -12c27.333 2.66699 53.5 11.834 78.5 27.501s49.167 35 72.5 58s45.833 48.333 67.5 76l64.5 83.5l32.5 43.5c9 12.333 13.5 18.833 13.5 19.5c2.66699 8 4.33398 21.833 5.00098 41.5s0.166992 42 -1.5 67s-4.83398 50.667 -9.50098 77
s-11 50.166 -19 71.499c-4 10.667 -9 22 -15 34s-14.167 21.333 -24.5 28s-23.333 9 -39 7s-34.834 -11.667 -57.501 -29c-24.667 -18.667 -49.5 -40.834 -74.5 -66.501s-47.5 -54.167 -67.5 -85.5s-36.333 -65.5 -49 -102.5s-18.667 -75.833 -18 -116.5
c-2 -6.66699 -5 -10.834 -9 -12.501s-6.33301 1.5 -7 9.5c0 53.333 9.66699 103.666 29 150.999s43.5 90 72.5 128s60.5 70.5 94.5 97.5s65.333 47.167 94 60.5c35.333 16 65.333 17.833 90 5.5s43.334 -31.5 56.001 -57.5z" />
    <glyph glyph-name="Y" unicode="Y" horiz-adv-x="509" 
d="M241 492c10 24 14.165 43.6699 12.498 59.0029s-8.83398 25.166 -21.501 29.499s-30.167 2.5 -52.5 -5.5s-49.166 -23.667 -80.499 -47c-24.667 -18 -49.5 -39.833 -74.5 -65.5s-47.5 -54.334 -67.5 -86.001s-36.333 -66 -49 -103s-18.667 -75.833 -18 -116.5
c-2 -6.66699 -5 -10.834 -9 -12.501s-6.33301 1.5 -7 9.5c0 53.333 9.66699 103.666 29 150.999s43.5 90 72.5 128s60.5 70.5 94.5 97.5s65.333 47.167 94 60.5c17.333 8 35.5 13.333 54.5 16s36.333 2.5 52 -0.5s28.667 -9 39 -18s15.5 -21.167 15.5 -36.5
c0 -14.667 -3.66699 -32.167 -11 -52.5s-16 -41.666 -26 -63.999l-29.5 -67c-9.66699 -22.333 -17 -42.333 -22 -60s-6.16699 -32 -3.5 -43s11.667 -16.5 27 -16.5c9.33301 0 20.833 5.5 34.5 16.5s28.667 25.333 45 43s33 37.834 50 60.501l50 69
c16.333 23.333 31.333 46 45 68l34.5 57c4.66699 9.33301 10.667 17.666 18 24.999s15 13 23 17s15.5 5.83301 22.5 5.5s13.167 -3.83301 18.5 -10.5c2.66699 -3.33301 0.666992 -14.833 -6 -34.5s-16.167 -44.167 -28.5 -73.5l-43 -99l-49.5 -112l-50.5 -107
c-17.667 -36 -36.167 -70.833 -55.5 -104.5s-39.666 -65.334 -60.999 -95.001s-43 -55.5 -65 -77.5s-44.667 -39.333 -68 -52s-46.666 -19 -69.999 -19c-12 0 -21 2.16699 -27 6.5s-10 10.166 -12 17.499s-2.33301 15.333 -1 24s3.66602 17.667 6.99902 27
c10 26.667 23.333 51.667 40 75s35.834 45.5 57.501 66.5s44.667 41.333 69 61l74.5 57.5l43 32l22 43c32 70.667 62 141.667 90 213l-47 -69.5c-18.667 -27 -39 -52.833 -61 -77.5s-45 -45.5 -69 -62.5s-48 -25.5 -72 -25.5c-20.667 0 -35.5 4.33301 -44.5 13
s-13.833 20.334 -14.5 35.001s1.66602 31.5 6.99902 50.5s12.333 38.833 21 59.5s17.834 41.334 27.501 62.001zM102.998 -127.997c12.667 0 26.5 5.49805 41.5 16.498s30.167 25.167 45.5 42.5s30.666 36.833 45.999 58.5s29.666 43.5 42.999 65.5l36.5 62.5
c11 19.667 19.833 36.167 26.5 49.5c-36 -25.333 -70.833 -51.666 -104.5 -78.999s-63.167 -56 -88.5 -86c-3.33301 -4 -7.66602 -9.66699 -12.999 -17l-16.5 -23.5c-5.66699 -8.33301 -11.167 -17.166 -16.5 -26.499s-9.66602 -18 -12.999 -26
c-4 -10 -5.5 -18.667 -4.5 -26s6.83301 -11 17.5 -11z" />
    <glyph glyph-name="Z" unicode="Z" horiz-adv-x="637" 
d="M166 340c-21.333 -4 -35.667 0.173828 -43 12.5068s-8.83301 28.666 -4.5 48.999s14 42.666 29 66.999s34 47 57 68s49.333 37.833 79 50.5s61.5 17.667 95.5 15c26.667 -2 52.334 -6.16699 77.001 -12.5s49.334 -11.5 74.001 -15.5c18.667 23.333 38.5 42.333 59.5 57
s44.5 22.667 70.5 24c13.333 0.666992 22.166 -1.16602 26.499 -5.49902s5.33301 -10.333 3 -18s-7.33301 -16.167 -15 -25.5s-17 -17.833 -28 -25.5s-22.833 -14.334 -35.5 -20.001s-25.334 -8.5 -38.001 -8.5c-7.33301 -11.333 -15.833 -25.5 -25.5 -42.5l-32.5 -56
l-39 -64.5l-43 -68c9.33301 -2.66699 19.166 -6 29.499 -10s20.5 -6.66699 30.5 -8s19.833 -1 29.5 1s18.834 7.66699 27.501 17c5.33301 4.66699 9.5 6.16699 12.5 4.5s3.5 -4.16699 1.5 -7.5c-14 -12 -26.5 -19.667 -37.5 -23s-21.833 -4.33301 -32.5 -3
s-21.667 3.83301 -33 7.5s-24 6.5 -38 8.5l-44 -67l-49 -72l-49 -69l-43 -58c20 -13.333 41.333 -26.333 64 -39s46.667 -20.834 72 -24.501s52 -0.833984 80 8.49902s57.667 29.666 89 60.999c3.33301 3.33301 6.66602 4.83301 9.99902 4.5s4.33301 -3.16602 3 -8.49902
c-32.667 -34 -64.167 -56.833 -94.5 -68.5s-59.333 -16.334 -87 -14.001s-54 9.83301 -79 22.5s-48.5 26.667 -70.5 42c-11.333 -14 -23.333 -25.167 -36 -33.5s-24.5 -13.833 -35.5 -16.5s-20.667 -2.66699 -29 0s-14.5 8 -18.5 16c-3.33301 6.66699 -2.83301 15 1.5 25
s10.5 19.333 18.5 28s17.167 15.834 27.5 21.501s20.5 7.5 30.5 5.5l93.5 129c30.333 42.667 57.833 83 82.5 121c-14.667 3.33301 -31.5 3 -50.5 -1s-35.833 -13.667 -50.5 -29c-2.66699 -1.33301 -5 -1.5 -7 -0.5s-2.66699 2.83301 -2 5.5c8.66699 11.333 18.5 20 29.5 26
s22 10.167 33 12.5s21.667 3.33301 32 3s19.166 -0.833008 26.499 -1.5l146 221c-23.333 5.33301 -47 11.166 -71 17.499s-48.667 10.166 -74 11.499c-26.667 2 -52.5 -2.83301 -77.5 -14.5s-48 -26.5 -69 -44.5s-39.167 -37.667 -54.5 -59s-26.166 -41 -32.499 -59
s-7.66602 -32.667 -3.99902 -44s14.167 -15.666 31.5 -12.999c3.33301 -0.666992 5 -2.33398 5 -5.00098s-1.66699 -5.33398 -5 -8.00098zM581.999 569.007c13.333 0 26.667 3.33301 40 10s25.333 16 36 28c4 4.66699 7.5 9.66699 10.5 15s3.83301 9.33301 2.5 12
c0 7.33301 -5 10.166 -15 8.49902s-22.667 -11.167 -38 -28.5c-7.33301 -8 -14 -16.167 -20 -24.5s-11.333 -15.166 -16 -20.499zM173 57.0068c-4.66699 3.33301 -10.333 3.16797 -17 -0.499023s-13 -8.66699 -19 -15s-11 -13 -15 -20s-5.33301 -12.167 -4 -15.5
c2 -4 8.16699 -2.33301 18.5 5s22.5 22.666 36.5 45.999z" />
    <glyph glyph-name="bracketleft" unicode="[" horiz-adv-x="637" 
d="M415 598l92 -1l-8 -22h-44l-243 -650l47 -2l-7 -19l-98 2z" />
    <glyph glyph-name="backslash" unicode="\" horiz-adv-x="337" 
d="M198 -128c-1.33301 -6.66699 -4.49902 -12.498 -9.49902 -17.498s-10.5 -8.16699 -16.5 -9.5c-7.33301 -1.33301 -13 0 -17 4s-5.66699 9.33301 -5 16l109 701c1.33301 6.66699 4.66602 12.5 9.99902 17.5s11 7.83301 17 8.5c6.66699 1.33301 12 0.166016 16 -3.50098
s5.33301 -8.83398 4 -15.501z" />
    <glyph glyph-name="bracketright" unicode="]" horiz-adv-x="637" 
d="M245 -156h-94l9 23h44l243 649l-46 2l6 20l100 -3z" />
    <glyph glyph-name="asciicircum" unicode="^" horiz-adv-x="447" 
d="M390 515l72.998 -163c0 -3.33301 -1.66699 -6.83301 -5 -10.5s-7.16602 -7 -11.499 -10s-8.66602 -5.33301 -12.999 -7s-7.5 -1.5 -9.5 0.5c-11.333 23.333 -21.333 47.333 -30 72s-19.667 47.667 -33 69l-142 -111c-8.66699 -7.33301 -15 -8.5 -19 -3.5
s-2 11.167 6 18.5z" />
    <glyph glyph-name="underscore" unicode="_" horiz-adv-x="637" 
d="M348 -118c5.33301 0 9.33203 -1.99902 11.999 -5.99902s3.33398 -8.66699 2.00098 -14s-4.5 -9.83301 -9.5 -13.5s-10.167 -5.5 -15.5 -5.5h-241c-5.33301 0 -9.5 1.83301 -12.5 5.5s-3.83301 8.16699 -2.5 13.5c2 5.33301 5.66699 10.166 11 14.499s11 6.5 17 6.5z" />
    <glyph glyph-name="grave" unicode="`" horiz-adv-x="326" 
d="M310 351c-7.33301 -3.33301 -12.166 -4.33203 -14.499 -2.99902s-3.83301 4.16602 -4.5 8.49902s-1 9.5 -1 15.5s-1 11.667 -3 17c-3.33301 12.667 -8.33301 26.167 -15 40.5l-18.5 40.5c-5.66699 12.667 -9.66699 24 -12 34s-0.833008 17.667 4.5 23
c8.66699 8.66699 18.667 11.5 30 8.5s22.166 -9.66699 32.499 -20s19.5 -23.166 27.5 -38.499s13 -30.833 15 -46.5s0 -30.834 -6 -45.501s-17.667 -26 -35 -34z" />
    <glyph glyph-name="a" unicode="a" horiz-adv-x="380" 
d="M446 218l3.49414 3.50195c1 1 2.16699 1.83301 3.5 2.5s3 0.5 5 -0.5s2.66699 -2.83301 2 -5.5c-1.33301 -1.33301 -2.66602 -3.33301 -3.99902 -6l-22 -32.5l-31 -44.5l-35.5 -49l-35.5 -47c-11.333 -14.667 -21.833 -27.334 -31.5 -38.001s-17.5 -17.667 -23.5 -21
c-14 -10 -28.667 -14 -44 -12c-11.333 0.666992 -18.666 6.83398 -21.999 18.501s-4 26.167 -2 43.5s6 36.166 12 56.499s12.333 40.166 19 59.499s13 36.5 19 51.5s10.333 25.5 13 31.5l-20 -25l-26.5 -32l-31 -35l-33.5 -35
c-19.333 -19.333 -39.166 -35.833 -59.499 -49.5s-37.166 -20.834 -50.499 -21.501c-16 0 -27 5.33301 -33 16s-7.83301 25 -5.5 43s8.16602 38.167 17.499 60.5s21 44.833 35 67.5c16.667 24.667 35.334 47.834 56.001 69.501s42.667 39.167 66 52.5
c12 7.33301 25 13.333 39 18s27.333 7 40 7c15.333 0 28 -4.16699 38 -12.5s16 -21.166 18 -38.499l12 15c9.33301 12 17.5 18 24.5 18s12.333 -2.83301 16 -8.5s5.66699 -12.834 6 -21.501s-1.16699 -16 -4.5 -22c-3.33301 -5.33301 -8.66602 -16.166 -15.999 -32.499
l-24.5 -57l-27.5 -69c-9.33301 -24.333 -17.166 -46.5 -23.499 -66.5s-10.5 -36.833 -12.5 -50.5s-0.333008 -20.5 5 -20.5c2.66699 0 8.16699 4.66699 16.5 14s18 21.166 29 35.499l36 48l37 51l31 44c9 13 15.5 21.833 19.5 26.5zM309.994 298.002
c-2 19.333 -6.33301 32.5029 -13 39.5029s-14.5 9.5 -23.5 7.5s-18.667 -7 -29 -15s-20.5 -17.333 -30.5 -28c-10 -10 -20.667 -22.667 -32 -38s-22.5 -31.5 -33.5 -48.5s-21.167 -33.833 -30.5 -50.5s-16.833 -31.834 -22.5 -45.501s-8.66699 -24.834 -9 -33.501
s3.16699 -13.334 10.5 -14.001c10 0 24 8.16699 42 24.5s37.333 36.333 58 60s41.167 48.5 61.5 74.5z" />
    <glyph glyph-name="b" unicode="b" horiz-adv-x="371" 
d="M40 38c-8.66699 0.666992 -13.8291 6.33105 -15.4961 16.998s-0.833984 24.5 2.49902 41.5s8.5 36.167 15.5 57.5s14.5 42.666 22.5 63.999l32 72.5l24 54.5c6.66699 15.333 16.5 35.833 29.5 61.5s28 53.334 45 83.001s35.333 59.5 55 89.5s39.667 56.833 60 80.5
s40.5 42.667 60.5 57s39 20.5 57 18.5c12 -1.33301 19.5 -6.66602 22.5 -15.999s3.5 -20.333 1.5 -33s-5.5 -25.667 -10.5 -39s-9.5 -24.333 -13.5 -33c-25.333 -51.333 -57.5 -99.166 -96.5 -143.499s-83.5 -84.833 -133.5 -121.5l-31 -66l38 31.5
c12.667 10.333 25.5 19.333 38.5 27s26.333 13.667 40 18s27.834 5.5 42.501 3.5c22.667 -2.66699 37.334 -10.834 44.001 -24.501s8.5 -29.834 5.5 -48.501s-9.16699 -38.334 -18.5 -59.001s-19 -39 -29 -55c17.333 4 36.166 8.83301 56.499 14.5s37.5 14.834 51.5 27.501
l4 2l4 2c1.33301 0 2.66602 -0.833008 3.99902 -2.5s1.33301 -3.16699 0 -4.5c-0.666992 -2 -2 -4 -4 -6c-17.333 -15.333 -38 -26.166 -62 -32.499s-45.333 -11.5 -64 -15.5c-9.33301 -12 -22 -27.5 -38 -46.5s-33.167 -37.333 -51.5 -55s-36.833 -32.667 -55.5 -45
s-35.334 -17.5 -50.001 -15.5c-12 2 -21.667 7 -29 15s-7.33301 19.333 0 34c6.66699 14.667 15.834 28 27.501 40s24.5 22.5 38.5 31.5s28.5 17 43.5 24s29.833 12.833 44.5 17.5c7.33301 9.33301 13.833 19.166 19.5 29.499l16.5 30.5c4 8.66699 8.66699 19.5 14 32.5
s9.16602 25.5 11.499 37.5s2.16602 22.667 -0.500977 32s-10 14.666 -22 15.999c-10 0.666992 -20.833 -1.83301 -32.5 -7.5s-23.5 -12.667 -35.5 -21s-23.333 -17.5 -34 -27.5l-27 -25c-16 -31.333 -28.667 -59.666 -38 -84.999s-16.5 -47.166 -21.5 -65.499
s-8.5 -32.5 -10.5 -42.5s-3.66699 -15.333 -5 -16c-0.666992 -0.666992 -1.33398 -1 -2.00098 -1c-13.333 -7.33301 -27 -10.666 -41 -9.99902zM210.005 375.997c-2 -2 -2.33496 -2.66504 -1.00195 -1.99805s3.33301 2 6 4l8 6c2.66699 2 4.66699 3.33301 6 4
c80.667 67.333 142.667 144 186 230c2 4 4.83301 10.667 8.5 20s6.83398 18.833 9.50098 28.5s4 18.5 4 26.5s-3 12.333 -9 13c-7.33301 0.666992 -17.166 -5.83301 -29.499 -19.5s-25.833 -31.334 -40.5 -53.001s-30 -45.834 -46 -72.501l-44.5 -77l-36 -66.5z
M110.003 48.999c-1.33301 -3.33301 -2.50098 -6.83398 -3.50098 -10.501s-0.166992 -5.83398 2.5 -6.50098c3.33301 0 8.5 2.33301 15.5 7s14.5 10.167 22.5 16.5s15.5 12.666 22.5 18.999s11.833 10.833 14.5 13.5c6 5.33301 12.5 11.666 19.5 18.999l33.5 35
c-10.667 -3.33301 -22.167 -7.66602 -34.5 -12.999s-24.166 -11.666 -35.499 -18.999s-22 -15.666 -32 -24.999s-17.667 -19.666 -23 -30.999z" />
    <glyph glyph-name="c" unicode="c" horiz-adv-x="294" 
d="M50 3c-17.333 4 -29 13.1709 -35 27.5039s-7.83301 31.5 -5.5 51.5s8.33301 41.833 18 65.5s22.167 47.167 37.5 70.5c14 21.333 30 41.833 48 61.5s36.5 36.334 55.5 50.001s38.167 23.834 57.5 30.501s37.666 7.66699 54.999 3c10.667 -2.66699 17 -8.33398 19 -17.001
s1.5 -18.5 -1.5 -29.5s-7.5 -22 -13.5 -33l-16 -28.5c-4 -6.66699 -8.33301 -9.33398 -13 -8.00098c-2.66699 0.666992 -3.5 2.5 -2.5 5.5s2.16699 5.83301 3.5 8.5c5.33301 10 10.333 20.333 15 31s7 19.5 7 26.5s-3.5 11.167 -10.5 12.5s-19.167 -3 -36.5 -13
c-18.667 -10.667 -35.667 -25.667 -51 -45s-27.666 -36.333 -36.999 -51c-10 -16 -19.667 -34 -29 -54s-16.333 -39.167 -21 -57.5s-5.83398 -34.333 -3.50098 -48s10.833 -22.5 25.5 -26.5c10.667 -2.66699 23 -1.33398 37 3.99902s28.833 13.333 44.5 24
s31.5 23.167 47.5 37.5s31.167 28.666 45.5 42.999l39.5 41l30 32.5c1.33301 0.666992 2.33301 1.5 3 2.5s1.33398 1.83301 2.00098 2.5c6.66699 1.33301 9 -0.333984 7 -5.00098c0 -2 -0.666992 -4.33301 -2 -7l-4 -4l-2 -2v-1
c-5.33301 -6.66699 -12.833 -15.334 -22.5 -26.001s-20.167 -21.667 -31.5 -33c-26 -26.667 -53.167 -51.667 -81.5 -75s-59.5 -42 -93.5 -56c-15.333 -6 -30 -10.167 -44 -12.5s-27.667 -1.83301 -41 1.5z" />
    <glyph glyph-name="d" unicode="d" horiz-adv-x="388" 
d="M317 335l17.001 31.0068c7.33301 14 17.166 31 29.499 51s26.166 40.667 41.499 62s31.666 42.333 48.999 63s35 39 53 55s35.667 28.333 53 37s34 11.667 50 9c8 -1.33301 13.333 -4.83301 16 -10.5s3.33398 -12.334 2.00098 -20.001s-3.66602 -15.834 -6.99902 -24.501
s-7 -16.334 -11 -23.001c-12.667 -24 -28.167 -48.833 -46.5 -74.5s-38.5 -51 -60.5 -76s-45 -48.333 -69 -70s-48 -40.5 -72 -56.5l-6 -9l-20 -44.5l-25.5 -58.5l-26 -62.5c-8.33301 -21 -15.166 -40 -20.499 -57s-8.83301 -31 -10.5 -42s-0.166992 -16.5 4.5 -16.5
c2.66699 0 8.83398 4.66699 18.501 14s21.167 21.333 34.5 36l42.5 48.5l43 51l36.5 44l22 26.5c0.666992 0.666992 1.66699 1.5 3 2.5s2.66602 1.83301 3.99902 2.5c5.33301 1.33301 7.33301 -0.333984 6 -5.00098c0 -2.66699 -1 -5 -3 -7l-44 -53l-60.5 -72
c-21 -24.667 -41.167 -47.167 -60.5 -67.5s-33.333 -33.5 -42 -39.5c-15.333 -10 -30 -14 -44 -12c-10 1.33301 -16.5 7.16602 -19.5 17.499s-3.66699 23 -2 38s5.16699 31.667 10.5 50s11 36.166 17 53.499s12 33 18 47s10.667 24.333 14 31l-41 -48.5
c-16 -18.333 -32.667 -35.833 -50 -52.5c-19.333 -19.333 -38.833 -35.833 -58.5 -49.5s-36.5 -20.834 -50.5 -21.501c-16 0 -27 5.33301 -33 16s-8 24.834 -6 42.501s7.66699 37.667 17 60s21 44.833 35 67.5c17.333 25.333 36.166 48.833 56.499 70.5
s42.166 39.167 65.499 52.5c12.667 7.33301 25.834 13.166 39.501 17.499s27.167 6.5 40.5 6.5c25.333 0 42 -10 50 -30zM309.001 316.007c-4.66699 18 -12.1641 27.668 -22.4971 29.001s-21.833 -2 -34.5 -10s-25.334 -19 -38.001 -33s-23.334 -27 -32.001 -39
c-16 -20 -30.833 -41 -44.5 -63s-24.834 -42.167 -33.501 -60.5s-13.834 -33.833 -15.501 -46.5s1.5 -19.334 9.5 -20.001c8 0 19.167 5.66699 33.5 17s29.833 26 46.5 44s33.834 37.833 51.501 59.5l49.5 62.5zM596.004 564.008c0.666992 2 2.33398 5.66504 5.00098 10.998
s5.16699 10.833 7.5 16.5s4 10.834 5 15.501s0.5 7.33398 -1.5 8.00098c-4 0.666992 -11.167 -3.33301 -21.5 -12s-21.166 -18.5 -32.499 -29.5s-21.833 -22 -31.5 -33s-15.834 -18.5 -18.501 -22.5c-27.333 -32 -51.833 -65.833 -73.5 -101.5l-63.5 -107.5
c20 12.667 41 29.5 63 50.5s43.167 43.5 63.5 67.5s39.166 48 56.499 72s31.333 45.667 42 65z" />
    <glyph glyph-name="e" unicode="e" horiz-adv-x="297" 
d="M53 3c-15.333 4 -26.002 13.1699 -32.002 27.5029s-8 31.5 -6 51.5s7.5 41.833 16.5 65.5s20.167 47.167 33.5 70.5c12.667 20.667 26.667 40.167 42 58.5s31.5 34 48.5 47s34.5 23.167 52.5 30.5s36 10.333 54 9c20.667 -1.33301 33.167 -6.83301 37.5 -16.5
s3.33301 -21.5 -3 -35.5s-17.166 -29.5 -32.499 -46.5s-32.166 -33.333 -50.499 -49s-37 -30 -56 -43s-35.833 -22.5 -50.5 -28.5c-4.66699 -12 -8.33398 -24 -11.001 -36s-3.83398 -23 -3.50098 -33s2.5 -18.5 6.5 -25.5s10.333 -11.5 19 -13.5
c10.667 -2.66699 23.167 -1.33398 37.5 3.99902s29.333 13.333 45 24s31.5 23.167 47.5 37.5s31.167 28.666 45.5 42.999l39.5 41l30 32.5l2.5 2.5c1 1 2.16699 1.83301 3.5 2.5c2 0.666992 3.83301 0.5 5.5 -0.5s2.16699 -2.5 1.5 -4.5c0 -2 -1.33301 -4.33301 -4 -7l-3 -4
l-2 -2l-1 -1c-5.33301 -6.66699 -12.666 -15.334 -21.999 -26.001s-19.666 -21.667 -30.999 -33c-25.333 -26.667 -52.333 -51.667 -81 -75s-60 -42 -94 -56c-15.333 -6 -30 -10.167 -44 -12.5s-27.667 -1.83301 -41 1.5zM115.998 164.003
c36 20.667 67.501 43.333 94.501 68s46.5 46 58.5 64c15.333 22.667 19.333 36.167 12 40.5s-20.333 0.5 -39 -11.5s-39.834 -31.667 -63.501 -59s-44.5 -61.333 -62.5 -102z" />
    <glyph glyph-name="f" unicode="f" horiz-adv-x="263" 
d="M88 129c14.667 2.66699 33.666 6.49707 56.999 11.4971s47 11.167 71 18.5s46.333 16 67 26s36.334 21 47.001 33c3.33301 3.33301 5.66602 5.33301 6.99902 6s2.83301 0.5 4.5 -0.5s2.16699 -2.83301 1.5 -5.5c0 -2 -1 -4 -3 -6
c-13.333 -15.333 -30.833 -28.333 -52.5 -39s-44.5 -19.667 -68.5 -27s-47.833 -13.5 -71.5 -18.5s-43.5 -9.5 -59.5 -13.5c14 -21.333 24.167 -45.666 30.5 -72.999s8.83301 -56.166 7.5 -86.499s-6.16602 -61.5 -14.499 -93.5s-19.833 -63.333 -34.5 -94
c-17.333 -37.333 -38.166 -63 -62.499 -77s-46.833 -19.333 -67.5 -16c-20 2 -33.833 11.167 -41.5 27.5s-10.834 38 -9.50098 65s6.83301 58 16.5 93s22.167 72.333 37.5 112s33 80.5 53 122.5s40.667 83.333 62 124c24 44 49.333 85.5 76 124.5s53.167 72.833 79.5 101.5
s52.166 50.834 77.499 66.501s48.666 22.167 69.999 19.5c10 -1.33301 16.667 -4.83301 20 -10.5s4.83301 -12.5 4.5 -20.5s-2.16602 -16.333 -5.49902 -25l-10 -25c-10 -19.333 -24.167 -41.333 -42.5 -66s-38.833 -48.5 -61.5 -71.5s-46.167 -43.833 -70.5 -62.5
s-47.166 -31.667 -68.499 -39c-9.33301 -14 -17.5 -27.5 -24.5 -40.5zM58.999 -235.003c18.667 39.333 32.332 80.333 40.999 123s10.334 83 5.00098 121c-1.33301 18 -5 34.167 -11 48.5s-13.667 27.833 -23 40.5c-6 -10.667 -14.167 -27.834 -24.5 -51.501
s-21 -50.334 -32 -80.001s-21.5 -60.334 -31.5 -92.001s-17.5 -60.667 -22.5 -87s-6.66699 -48.333 -5 -66s8.83398 -27.167 21.501 -28.5c8.66699 -0.666992 17.167 1.33301 25.5 6s16.166 10.834 23.499 18.501s13.833 15.834 19.5 24.501s10.167 16.334 13.5 23.001z
M369.997 506.997c-7.33301 0.666992 -17.3311 -4.66992 -29.998 -16.0029s-26.667 -25.833 -42 -43.5s-31 -37.5 -47 -59.5l-45 -64l-37 -55.5c-10.667 -16.333 -18 -28.166 -22 -35.499c19.333 7.33301 40 19.833 62 37.5s43 37.334 63 59.001s38.333 43.667 55 66
s29 42.166 37 59.499c2 2.66699 4.16699 6.83398 6.5 12.501s4.16602 11.334 5.49902 17.001s1.66602 10.667 0.999023 15s-3 6.83301 -7 7.5z" />
    <glyph glyph-name="g" unicode="g" horiz-adv-x="384" 
d="M262 73c14 8 29.498 17.6641 46.498 28.9971s33.833 23.333 50.5 36s33 25.834 49 39.501s30 27.167 42 40.5l3.5 3.5c1 1 2.16699 1.83301 3.5 2.5c6 1.33301 8.33301 -0.666992 7 -6c-0.666992 -0.666992 -1.16699 -1.5 -1.5 -2.5s-0.833008 -2.16699 -1.5 -3.5
c-8.66699 -10 -19.167 -20.667 -31.5 -32s-25.333 -22.5 -39 -33.5l-41 -31.5l-36.5 -27c-9.33301 -6 -19 -11.833 -29 -17.5s-20.333 -11.167 -31 -16.5c-4.66699 -12.667 -11.167 -28.667 -19.5 -48s-18 -40.666 -29 -63.999s-23.333 -48 -37 -74
s-27.834 -51.5 -42.501 -76.5s-30 -48.833 -46 -71.5s-32 -42.667 -48 -60c-35.333 -33.333 -64.666 -52.666 -87.999 -57.999s-39.666 -0.666016 -48.999 14.001s-11.5 37.334 -6.5 68.001s18.833 65.667 41.5 105s54.334 80.666 95.001 123.999
s91.334 84.666 152.001 123.999c9.33301 21.333 19 45.5 29 72.5s20.667 54.167 32 81.5l-37.5 -43.5c-13.667 -15.667 -28.167 -30.834 -43.5 -45.501c-19.333 -19.333 -39 -36 -59 -50s-36.667 -21 -50 -21c-12.667 0 -21.5 5.5 -26.5 16.5s-6.66699 25.333 -5 43
s6.83398 37.667 15.501 60s20 44.833 34 67.5c16.667 24.667 34.667 47.834 54 69.501s40.333 39.167 63 52.5c12.667 7.33301 25.834 13.333 39.501 18s27.167 7 40.5 7c24.667 0 41.667 -11 51 -33c3.33301 4 8.16602 7.5 14.499 10.5s11.833 4.5 16.5 4.5
c5.33301 -0.666992 10.166 -2.5 14.499 -5.5s8.16602 -6.5 11.499 -10.5zM166.998 16.9971c-27.333 -19.333 -51.8301 -38.167 -73.4971 -56.5s-43.834 -39.833 -66.501 -64.5c-39.333 -44 -69 -85.5 -89 -124.5s-31.333 -71.167 -34 -96.5
c-2 -13.333 -1.83301 -23.5 0.5 -30.5s7 -10.333 14 -10s16 5 27 14s24.5 23.167 40.5 42.5c19.333 24.667 38.666 53.167 57.999 85.5s37.166 64.333 53.499 96s30.5 60.667 42.5 87s21 45.5 27 57.5zM302.001 318.996c-5.33301 16.667 -13.167 25.335 -23.5 26.002
s-21.5 -3.16602 -33.5 -11.499s-24.167 -19.333 -36.5 -33s-22.833 -26.167 -31.5 -37.5c-16 -20 -30.833 -41 -44.5 -63s-24.834 -42.333 -33.501 -61s-14 -34.334 -16 -47.001s1.33301 -19.334 10 -20.001c7.33301 0 17 4.66699 29 14s25.333 21.666 40 36.999
s29.834 32.333 45.501 51l45.5 56l21.5 45c7 14 14.167 26.333 21.5 37z" />
    <glyph glyph-name="h" unicode="h" horiz-adv-x="331" 
d="M396 218c1.33301 1.33301 2.6582 2.49707 3.99121 3.49707s2.66602 1.83301 3.99902 2.5c4.66699 1.33301 7 -0.666992 7 -6c-0.666992 -0.666992 -1.16699 -1.5 -1.5 -2.5s-1.16602 -2.16699 -2.49902 -3.5c-17.333 -23.333 -35.666 -46.5 -54.999 -69.5l-55 -67.5
c-11.333 -14.667 -22.833 -27.667 -34.5 -39s-22.167 -20.666 -31.5 -27.999c-3.33301 -2.66699 -7.66602 -5.16699 -12.999 -7.5s-9.66602 -3.83301 -12.999 -4.5c-18 -3.33301 -29.5 0.333984 -34.5 11.001s-5.66699 25.5 -2 44.5s10.334 40.5 20.001 64.5
s20 47.667 31 71l31.5 64.5c10 19.667 17.333 34.834 22 45.501c4 11.333 7.16699 21.333 9.5 30s-1.5 12.334 -11.5 11.001c-11.333 -2.66699 -24.5 -11.167 -39.5 -25.5s-29.5 -30.333 -43.5 -48s-26.667 -34.834 -38 -51.501s-19 -29 -23 -37
c-2 -4.66699 -4.16699 -10.167 -6.5 -16.5s-5.16602 -13.166 -8.49902 -20.499l-2 -7c-8.66699 -26 -14.167 -46.5 -16.5 -61.5s-4.16602 -22.833 -5.49902 -23.5c0 -1.33301 -0.666992 -2 -2 -2c-14 -8 -28.667 -11 -44 -9c-5.33301 0.666992 -8.66602 5.66699 -9.99902 15
s-1 22.166 1 38.499s5.83301 35.5 11.5 57.5s12.5 45.667 20.5 71c12 35.333 26.667 72.666 44 111.999s36.333 77.833 57 115.5s42.834 73.334 66.501 107.001s48 63 73 88s50.167 44.167 75.5 57.5s50.333 18.333 75 15c16 -2 26.5 -7.16699 31.5 -15.5
s6.5 -18.5 4.5 -30.5s-6.66699 -24.833 -14 -38.5s-15.333 -26.834 -24 -39.501c-14 -20.667 -30.833 -41.667 -50.5 -63s-39.834 -42 -60.501 -62l-60.5 -56l-51.5 -45c-11.333 -9.33301 -21 -17 -29 -23s-12.667 -9.66699 -14 -11l-20.5 -46
c-7.66699 -17.333 -13.834 -32.333 -18.501 -45l-3 -4l-2 -8c10 14 21.833 29.667 35.5 47s28.334 33.333 44.001 48s31.5 26.834 47.5 36.501s31.667 14.167 47 13.5c8.66699 -0.666992 15.334 -3.5 20.001 -8.5s7.66699 -11.333 9 -19s1.16602 -16.167 -0.500977 -25.5
s-4.16699 -18 -7.5 -26c-14 -34 -29.5 -67.333 -46.5 -100s-32.167 -66.667 -45.5 -102c-9.33301 -20 -14.5 -34.167 -15.5 -42.5s0.166992 -12.5 3.5 -12.5c4.66699 0 11.334 4.16699 20.001 12.5s18.334 18.833 29.001 31.5l32.5 39.5l33 41.5l28 35.5zM199.992 354.997
l67.5 57.001c27 23.333 53.833 48.166 80.5 74.499s51 53 73 80s37.333 51.833 46 74.5s10.334 37.167 5.00098 43.5s-14 7.5 -26 3.5s-25.5 -11.5 -40.5 -22.5s-28.167 -22.5 -39.5 -34.5c-18 -20 -35.5 -43 -52.5 -69s-32.833 -52 -47.5 -78s-27.834 -50.5 -39.501 -73.5
s-20.5 -41.5 -26.5 -55.5z" />
    <glyph glyph-name="i" unicode="i" horiz-adv-x="183" 
d="M248 218c4.66699 4.66699 8.50195 6.17285 11.502 4.50586s2.5 -5.5 -1.5 -11.5l-1 -1l-27 -33.5l-37 -46.5c-13.333 -16.667 -27.5 -33.5 -42.5 -50.5s-30 -32.167 -45 -45.5s-29.167 -24 -42.5 -32s-25.333 -11 -36 -9c-9.33301 1.33301 -16.166 5.5 -20.499 12.5
s-7 15.667 -8 26s-0.333008 21.666 2 33.999s5.83301 25.166 10.5 38.499l22 59.5c9.33301 25 20 50.167 32 75.5s25.333 48 40 68s30.334 32 47.001 36c10.667 2.66699 19.667 2 27 -2s8.33301 -12.333 3 -25l-17 -29l-29 -51.5c-10.667 -19.667 -21.167 -40.667 -31.5 -63
s-19 -42.833 -26 -61.5s-11 -34.334 -12 -47.001s2.83301 -19.334 11.5 -20.001c5.33301 -0.666992 12.666 2.66602 21.999 9.99902s19.666 16.833 30.999 28.5s23.166 24.667 35.499 39l35 41l29 35c8.33301 10.333 14.166 17.166 17.499 20.499zM171.002 356.006
c-11.333 4 -17.333 11.0029 -18 21.0029s2.16602 19.667 8.49902 29s15 17.166 26 23.499s22.167 7.83301 33.5 4.5c10 -2.66699 15.167 -8.83398 15.5 -18.501s-2.5 -19.5 -8.5 -29.5s-14.167 -18.333 -24.5 -25s-21.166 -8.33398 -32.499 -5.00098z" />
    <glyph glyph-name="j" unicode="j" horiz-adv-x="198" 
d="M161 353c-11.333 4 -17.5 10.834 -18.5 20.501s1.5 19.334 7.5 29.001s14.333 17.667 25 24s22 8.16602 34 5.49902c10 -2.66699 15.333 -8.83398 16 -18.501s-1.83301 -19.5 -7.5 -29.5s-13.5 -18.5 -23.5 -25.5s-21 -8.83301 -33 -5.5zM85 73.001
c14 8 29.001 17.6631 45.001 28.9961s31.833 23.333 47.5 36s30.834 25.834 45.501 39.501s28 27.167 40 40.5c4 4.66699 7.83301 6.5 11.5 5.5s3.83398 -4.83301 0.500977 -11.5c-8.66699 -10 -18.834 -20.667 -30.501 -32s-24 -22.5 -37 -33.5l-39 -31.5l-35.5 -27
c-18 -12 -36.667 -23.333 -56 -34c-4.66699 -12.667 -11 -28.667 -19 -48s-17.5 -40.666 -28.5 -63.999l-36 -73.5c-13 -25.667 -27.167 -51.167 -42.5 -76.5s-31.333 -49.333 -48 -72s-34 -42.667 -52 -60c-35.333 -33.333 -64.666 -52.666 -87.999 -57.999
s-39.833 -0.666016 -49.5 14.001s-11.834 37.334 -6.50098 68.001s19.166 65.667 41.499 105s53.833 80.666 94.5 123.999s91.667 84.666 153 123.999c14.667 34 27.5 66.333 38.5 97l30.5 84c14 32.667 27.833 59.5 41.5 80.5s30.167 34.167 49.5 39.5
c8.66699 2.66699 16.667 2.83398 24 0.500977s8.66602 -8.5 3.99902 -18.5zM-11.999 16.9971c-27.333 -19.333 -51.998 -38.167 -73.998 -56.5s-44 -39.833 -66 -64.5c-40 -44 -70.167 -85.5 -90.5 -124.5s-31.833 -71.167 -34.5 -96.5c-2 -13.333 -1.66699 -23.5 1 -30.5
s7.33398 -10.333 14.001 -10s15.667 5 27 14s24.666 23.167 39.999 42.5c20 24.667 39.667 53.167 59 85.5s37.166 64.333 53.499 96s30.666 60.667 42.999 87z" />
    <glyph glyph-name="k" unicode="k" horiz-adv-x="330" 
d="M395 218c2 1.33301 3.49512 2.5 4.49512 3.5s2.16699 1.83301 3.5 2.5c2 0.666992 3.83301 0.5 5.5 -0.5s2.16699 -2.83301 1.5 -5.5c-0.666992 -0.666992 -1.16699 -1.5 -1.5 -2.5s-1.16602 -2.16699 -2.49902 -3.5l-40.5 -49.5
c-18.333 -22.333 -37.833 -44.666 -58.5 -66.999s-41 -42 -61 -59s-36 -25.5 -48 -25.5c-10 0 -17 3.5 -21 10.5s-6.16699 16.167 -6.5 27.5s0.666992 24.166 3 38.499s5.16602 29.166 8.49902 44.499c2.66699 14 5.16699 28 7.5 42s3.5 26.833 3.5 38.5
s-1.33301 21.334 -4 29.001s-8 12.167 -16 13.5l-23.5 -27.5c-8.33301 -9.66699 -15.166 -18.167 -20.499 -25.5c-3.33301 -5.33301 -7.5 -16.333 -12.5 -33l-15 -52l-14 -49c-4.33301 -14.667 -7.5 -22.334 -9.5 -23.001c-13.333 -8 -27.666 -11 -42.999 -9
c-8 0.666992 -13.333 5.5 -16 14.5s-1.66699 20.833 3 35.5l20 63.5l23 68.5c14.667 38.667 30.834 78.167 48.501 118.5s37.334 79.833 59.001 118.5s44.834 75.334 69.501 110.001s51.334 65.334 80.001 92.001c20 18.667 40.333 33.5 61 44.5s41.334 16.167 62.001 15.5
c17.333 0 28.666 -7.16699 33.999 -21.5s4.66602 -30.833 -2.00098 -49.5c-11.333 -26 -27.666 -53 -48.999 -81s-44.5 -55.167 -69.5 -81.5s-50 -51 -75 -74l-65.5 -58.5l-29 -26c-8 -7.33301 -13.667 -12.666 -17 -15.999c-7.33301 -11.333 -13 -22.833 -17 -34.5
s-8.66699 -23.834 -14 -36.501l-1 -2c0 -0.666992 -0.166992 -1.16699 -0.5 -1.5s-0.5 -0.833008 -0.5 -1.5l53.5 59c19 20.667 38.5 39.5 58.5 56.5s39.833 31 59.5 42s38.5 16.5 56.5 16.5c9.33301 0 16.5 -2.66699 21.5 -8s8 -12 9 -20s0 -16.833 -3 -26.5
s-7.5 -18.5 -13.5 -26.5c-8 -10 -17.5 -19.833 -28.5 -29.5s-22.833 -18.334 -35.5 -26.001s-26 -14 -40 -19s-28 -7.83301 -42 -8.5c8 -6 13.5 -14.167 16.5 -24.5s4.16699 -21.833 3.5 -34.5s-2.33398 -25.834 -5.00098 -39.501s-5.66699 -26.834 -9 -39.501
c-6 -21.333 -7 -34.166 -3 -38.499s11 -3.16602 21 3.50098s21.667 17 35 31l40 44l37 43.5zM461.995 646c2.66699 9.33301 3.99707 19.1699 3.99707 29.5029s-5.33301 16.833 -16 19.5c-16 -1.33301 -32.5 -8.83301 -49.5 -22.5s-34.167 -31.167 -51.5 -52.5
s-34.166 -45 -50.499 -71s-31.666 -51.833 -45.999 -77.5s-27.166 -49.834 -38.499 -72.501s-20.333 -41.334 -27 -56.001c45.333 37.333 83.833 71.166 115.5 101.499s57.167 56.833 76.5 79.5c28 32 48 58.5 60 79.5s19.667 35.167 23 42.5zM326.992 382.004
c-6.66699 0 -15.5 -3.66602 -26.5 -10.999s-23.333 -16.833 -37 -28.5s-27.667 -24.5 -42 -38.5l-41.5 -41l43 3c14.667 2.66699 28.167 7.16699 40.5 13.5s23.166 13.666 32.499 21.999s17.333 17 24 26s11.334 17.5 14.001 25.5c3.33301 8 4.5 14.833 3.5 20.5
s-4.5 8.5 -10.5 8.5z" />
    <glyph glyph-name="l" unicode="l" horiz-adv-x="245" 
d="M194 348c-4 -8.66699 -10.3301 -23.167 -18.9971 -43.5s-17.834 -43.333 -27.501 -69s-18.834 -52.167 -27.501 -79.5s-15 -52.333 -19 -75s-4.66699 -41.334 -2 -56.001s10.334 -22 23.001 -22c8 0 17.5 4.16699 28.5 12.5s22.5 19 34.5 32s24 27.5 36 43.5l35 48l31 45
l23 34c4 5.33301 8 7 12 5s3.33301 -5.66699 -2 -11c-12.667 -16.667 -28.167 -38.834 -46.5 -66.501s-38.333 -54.667 -60 -81s-43.834 -49.166 -66.501 -68.499s-44.334 -29 -65.001 -29c-21.333 0 -36 7.83301 -44 23.5s-11.5 35.667 -10.5 60s5.16699 51.333 12.5 81
s15.666 58.5 24.999 86.5c10 26.667 19.667 51.167 29 73.5l22 51.5c6.66699 14.667 16.5 34.834 29.5 60.501s28 53.334 45 83.001s35.333 59.5 55 89.5s39.834 57 60.501 81s41 43.167 61 57.5s39 20.5 57 18.5c11.333 -1.33301 18.5 -6.83301 21.5 -16.5
s3.5 -20.834 1.5 -33.501s-5.5 -25.667 -10.5 -39s-9.5 -24.333 -13.5 -33c-25.333 -51.333 -57.5 -99 -96.5 -143s-83.167 -84 -132.5 -120zM206.003 373c-2 -2 -2.33203 -2.66602 -0.999023 -1.99902s3.16602 2 5.49902 4l7.5 6.5c2.66699 2.33301 4.66699 3.83301 6 4.5
c80.667 65.333 142.667 141.666 186 228.999c2 4 4.83301 10.667 8.5 20s7 19 10 29s4.33301 18.833 4 26.5s-3.5 12.167 -9.5 13.5c-6.66699 0.666992 -16.167 -5.83301 -28.5 -19.5s-26 -31.5 -41 -53.5s-30.333 -46.167 -46 -72.5l-44 -77l-36 -67z" />
    <glyph glyph-name="m" unicode="m" horiz-adv-x="490" 
d="M316 -33c-13.333 2 -22.0029 8.3291 -26.0029 18.9961s-4.66699 24 -2 40s7.66699 33.5 15 52.5s15.5 37.833 24.5 56.5s17.833 35.834 26.5 51.501l21 37.5c20 33.333 34 59.833 42 79.5s10 31 6 34s-14.5 -3 -31.5 -18s-40.833 -40.167 -71.5 -75.5l-34 -38.5
c-12 -13 -23.667 -25 -35 -36s-21.5 -19.833 -30.5 -26.5s-15.5 -10 -19.5 -10c-8 0.666992 -12.167 5.33398 -12.5 14.001s1.5 19.5 5.5 32.5s9.66699 27.5 17 43.5l21.5 47l19.5 42c6 12.667 9.66699 22 11 28l-61.5 -74.5l-43.5 -54l-30 -37.5
c-8 -10 -14.667 -18.667 -20 -26c-4.66699 -6.66699 -9 -14.834 -13 -24.501l-11.5 -29c-3.66699 -9.66699 -7.33398 -18.834 -11.001 -27.501s-6.83398 -15.334 -9.50098 -20.001c-7.33301 -5.33301 -16 -8.5 -26 -9.5s-18.667 -1.16699 -26 -0.5
c-4 9.33301 -5.16699 20.666 -3.5 33.999s5.33398 28 11.001 44s12.667 32.833 21 50.5l25.5 52.5l21.5 44c7 14.667 13 28.334 18 41.001s8.16699 24.334 9.5 35.001s0.333008 19.667 -3 27c8.66699 4 18 7.5 28 10.5s19.167 5 27.5 6s15.333 0.333008 21 -2
s9.16699 -6.83301 10.5 -13.5c0.666992 -4 -1.16602 -12 -5.49902 -24s-9.83301 -25.5 -16.5 -40.5l-20.5 -45l-17.5 -37.5l-6 -12l148 179c6 6 12.667 10.667 20 14s14.333 5 21 5s12 -2.16699 16 -6.5s5.66699 -11.166 5 -20.499
c-0.666992 -5.33301 -3 -13.166 -7 -23.499l-13.5 -34c-5 -12.333 -10.5 -24.833 -16.5 -37.5l-16 -34l-11 -24c-2.66699 -6 -3.33398 -8.33301 -2.00098 -7l40.5 45l34 38.5l35 38c12.333 13 26.833 27.5 43.5 43.5c4.66699 4.66699 10.834 9.33398 18.501 14.001
s15.167 7.83398 22.5 9.50098s14 1.16699 20 -1.5s10 -8.33398 12 -17.001c2.66699 -8.66699 3.83398 -17.834 3.50098 -27.501s-2.66602 -21 -6.99902 -34s-10.5 -27.833 -18.5 -44.5s-18.333 -36 -31 -58c-2 -4 -6.33301 -12.167 -13 -24.5l-23 -43.5l-26.5 -52.5
c-9 -18.333 -16.5 -35.166 -22.5 -50.499s-9.83301 -28.166 -11.5 -38.499s0.833008 -15.833 7.5 -16.5c2.66699 0 8.83398 4.66699 18.501 14s21 21.333 34 36l42.5 48.5l43.5 51l36 44c10.333 13 17.5 21.833 21.5 26.5c1.33301 0.666992 2.5 1.5 3.5 2.5
s2.16699 1.83301 3.5 2.5c5.33301 1.33301 7.33301 -0.333984 6 -5.00098c0 -3.33301 -0.666992 -5.66602 -2 -6.99902l-44 -53l-60.5 -72c-21 -24.667 -41.167 -47.167 -60.5 -67.5s-33.333 -33.5 -42 -39.5c-15.333 -10 -30 -14 -44 -12z" />
    <glyph glyph-name="n" unicode="n" horiz-adv-x="365" 
d="M191 -32c-18 2.66699 -27.8369 12.002 -29.5039 28.002s1.5 35.667 9.5 59s19.167 49.166 33.5 77.499l42.5 83c14 27 25.833 52 35.5 75s13.834 41.167 12.501 54.5c-1.33301 16.667 -10.5 18.5 -27.5 5.5s-37.5 -37.833 -61.5 -74.5l-23.5 -34.5l-30 -44.5l-31.5 -45.5
c-10.667 -15 -20.334 -27.5 -29.001 -37.5c-3.33301 -6.66699 -6.66602 -13.834 -9.99902 -21.501s-6.66602 -14.834 -9.99902 -21.501l-8.5 -16.5c-2.33301 -4.33301 -3.83301 -6.5 -4.5 -6.5c-1.33301 -2 -4.5 -3.66699 -9.5 -5s-10.333 -2.5 -16 -3.5
s-11 -1.66699 -16 -2s-8.16699 -0.5 -9.5 -0.5c-6 0.666992 -8 6.33398 -6 17.001s6 24.5 12 41.5s13.667 36.167 23 57.5l28 65l23 52c7.33301 16.667 13 31.667 17 45s6.33301 24.5 7 33.5s-1.33301 14.5 -6 16.5c14.667 6.66699 30 11.667 46 15s27.667 2.33301 35 -3
c4.66699 -4 4.16699 -15.167 -1.5 -33.5s-13 -38.833 -22 -61.5s-18.333 -44.667 -28 -66s-16.167 -37 -19.5 -47l25.5 38.5l18 27l12.5 19.5c3.33301 5.33301 6.66602 10.333 9.99902 15c13.333 20 24.833 36.333 34.5 49s18.5 22.834 26.5 30.501s15.333 13.667 22 18
l20 12.5c10 6 20.167 10 30.5 12s19.833 1.83301 28.5 -0.5s15.5 -6.5 20.5 -12.5s7.5 -14 7.5 -24c0 -16.667 -4.66699 -36.834 -14 -60.501s-20.666 -48.667 -33.999 -75s-27.5 -52.333 -42.5 -78s-27.667 -49 -38 -70s-16.833 -38 -19.5 -51s1 -19.833 11 -20.5
c2.66699 -0.666992 8.83398 3.83301 18.501 13.5s21.167 21.834 34.5 36.501l42.5 48.5l43 51l36.5 43.5l22 26c4 5.33301 7.83301 6.83301 11.5 4.5s2.83398 -5.83301 -2.49902 -10.5l-26 -32.5l-36 -44.5l-41.5 -49l-41.5 -47
c-13.333 -14.667 -25.333 -27.334 -36 -38.001s-19 -17.667 -25 -21c-15.333 -10.667 -30 -14.667 -44 -12z" />
    <glyph glyph-name="o" unicode="o" horiz-adv-x="344" 
d="M417 222c6 0 7.67188 -2.67285 5.00488 -8.00586c-1.33301 -2.66699 -3.33301 -4.33398 -6 -5.00098l-24 -19.5c-8.66699 -7 -18.5 -13.333 -29.5 -19s-23 -10 -36 -13s-26.833 -3.5 -41.5 -1.5l-19 -29c-8 -12 -17.333 -25.167 -28 -39.5s-22.667 -28.666 -36 -42.999
s-27.5 -27.333 -42.5 -39s-30.5 -21.334 -46.5 -29.001s-32.333 -11.5 -49 -11.5c-22.667 0 -38.167 7.83301 -46.5 23.5s-11.333 35.834 -9 60.501s8.66602 51.834 18.999 81.501s22.833 58.834 37.5 87.501c10.667 20 22 39 34 57s23.833 33.667 35.5 47
s22.5 23.833 32.5 31.5s19 11.5 27 11.5c4.66699 0 8.5 -2.16699 11.5 -6.5s5.33301 -9.16602 7 -14.499s2.66699 -10.833 3 -16.5s0.166016 -10.5 -0.500977 -14.5c8.66699 28.667 19.667 49.834 33 63.501s26.166 21.167 38.499 22.5s23.5 -3.16699 33.5 -13.5
s16.5 -25.5 19.5 -45.5s1.16699 -44.167 -5.5 -72.5s-20.334 -60.166 -41.001 -95.499c19.333 -3.33301 39.166 -0.5 59.499 8.5s39.5 21.5 57.5 37.5l4 2c1.33301 0.666992 2.33301 1.33398 3 2.00098zM140.005 15.9941c16.667 9.33301 35.833 25.166 57.5 47.499
s45.5 55.166 71.5 98.499c-25.333 14.667 -42.5 33.334 -51.5 56.001s-10.833 51 -5.5 85v-1c-2.66699 4.66699 -8 3.33398 -16 -3.99902s-17 -18.5 -27 -33.5s-20.167 -32.667 -30.5 -53s-19.833 -41 -28.5 -62s-15.667 -41.167 -21 -60.5s-7.33301 -35.833 -6 -49.5
s6.33301 -23 15 -28s22.667 -3.5 42 4.5zM279.004 177.994c20 30 33.5 59.166 40.5 87.499s8.83301 52.166 5.5 71.499c-2.66699 14 -7.16699 25.167 -13.5 33.5s-13.833 12.833 -22.5 13.5s-17.5 -3.16602 -26.5 -11.499s-17.5 -22.166 -25.5 -41.499
c-6.66699 -16 -10.667 -32.167 -12 -48.5s-0.333008 -31.5 3 -45.5s9.33301 -26.333 18 -37s19.667 -18 33 -22z" />
    <glyph glyph-name="p" unicode="p" 
d="M470 218c1.33301 1.33301 2.66016 2.33105 3.99316 2.99805l4 2c4.66699 1.33301 7 -0.333984 7 -5.00098c-0.666992 -1.33301 -1.16699 -2.5 -1.5 -3.5s-1.16602 -2.16699 -2.49902 -3.5l-3 -4c-29.333 -34 -59.333 -57.667 -90 -71s-64.667 -19 -102 -17
c-5.33301 -6 -10.5 -11.5 -15.5 -16.5l-14.5 -14.5c-18.667 -19.333 -40 -36 -64 -50s-47.333 -20.333 -70 -19s-35.167 8.33301 -37.5 21s2.33398 26.334 14.001 41.001s28.834 28 51.501 40s47.334 18 74.001 18c3.33301 4 8.83301 11.667 16.5 23s15.667 24.333 24 39
s15.833 29.834 22.5 45.501s11.334 29.667 14.001 42s2.33398 22 -0.999023 29s-11.666 9.5 -24.999 7.5c-7.33301 -1.33301 -15.666 -5.16602 -24.999 -11.499s-19 -14.166 -29 -23.499c-2 -1.33301 -6.5 -5.5 -13.5 -12.5l-23.5 -22.5l-24.5 -22.5
c-7.66699 -7 -12.834 -11.833 -15.501 -14.5s-5.33398 -7.5 -8.00098 -14.5s-6 -15.167 -10 -24.5l-38 -91c-15.333 -37.333 -32.833 -77.5 -52.5 -120.5s-40.834 -86.333 -63.501 -130s-46.667 -83 -72 -118s-51.5 -63.667 -78.5 -86s-54.167 -33.5 -81.5 -33.5
c-15.333 0 -26.333 6.5 -33 19.5s-8.66699 30.5 -6 52.5s10.334 47.5 23.001 76.5s30.834 59.667 54.501 92s53.167 65.333 88.5 99s77 66.167 125 97.5l14 35l18 44l20 50l21 52l34 80c10.667 24.667 19.667 43.667 27 57c0.666992 2 5 5.5 13 10.5s16.167 8.33301 24.5 10
s15 0.166992 20 -4.5s5.5 -15.334 1.5 -32.001c-3.33301 -15.333 -8.5 -31.833 -15.5 -49.5l-17.5 -44.5c11.333 10 24.333 22.167 39 36.5s30 28 46 41s32.5 24 49.5 33s33.5 13.167 49.5 12.5c17.333 -1.33301 29.833 -6.5 37.5 -15.5s11.5 -20.167 11.5 -33.5
s-2.83301 -28.5 -8.5 -45.5s-12.667 -33.833 -21 -50.5s-17.5 -32.667 -27.5 -48s-19.333 -28.333 -28 -39c10 -1.33301 21.833 -1.33301 35.5 0s28.167 5 43.5 11s30.833 14.667 46.5 26s30.5 26.333 44.5 45zM-16.0059 15.998c-28 -18.667 -52.834 -37.167 -74.501 -55.5
s-43.5 -39.833 -65.5 -64.5c-40 -44 -70 -85.667 -90 -125s-31.667 -71.333 -35 -96c-2.66699 -16.667 -1 -28.5 5 -35.5s15.333 -7.16699 28 -0.5c16 8 32.333 22.5 49 43.5s32.834 43.833 48.501 68.5s29.667 49 42 73l29.5 57l38.5 81.5zM211.993 121.998
c-16 0.666992 -31.502 -2.5 -46.502 -9.5s-27.833 -15 -38.5 -24s-18.167 -17.833 -22.5 -26.5s-4.16602 -14.334 0.500977 -17.001c4.66699 -2 12.334 -0.166992 23.001 5.5s21.667 13 33 22s21.833 18.333 31.5 28s16.167 16.834 19.5 21.501z" />
    <glyph glyph-name="q" unicode="q" horiz-adv-x="413" 
d="M257 43c19.333 6.66699 39.4932 16.6719 60.4932 30.0049s41.333 28.166 61 44.499s38.167 33.333 55.5 51s32.333 34.167 45 49.5c4.66699 5.33301 8.66699 6.66602 12 3.99902s1.33301 -7.66699 -6 -15c-30 -35.333 -64.667 -69.5 -104 -102.5s-80 -58.167 -122 -75.5
c13.333 -16 23.666 -34.167 30.999 -54.5s12.333 -41.833 15 -64.5s2.83398 -46.334 0.500977 -71.001s-6.16602 -49.334 -11.499 -74.001c-2.66699 -14 -7.16699 -32 -13.5 -54s-15.166 -43.5 -26.499 -64.5s-25.166 -39 -41.499 -54s-35.833 -22.5 -58.5 -22.5
c-26.667 0 -44.5 12 -53.5 36s-12.167 55 -9.5 93s9.83398 80.5 21.501 127.5s25 93.5 40 139.5s30.333 89 46 129l38.5 96l-37.5 -43.5c-13.667 -15.667 -28.167 -30.834 -43.5 -45.501c-19.333 -19.333 -39 -35.833 -59 -49.5s-36.667 -20.834 -50 -21.501
c-16.667 0 -27.667 5.33301 -33 16s-6.66602 25 -3.99902 43s9 38.167 19 60.5s22 44.833 36 67.5c16 24.667 33.833 47.834 53.5 69.501s40.834 39.167 63.501 52.5c12.667 7.33301 25.834 13.333 39.501 18s27.167 7 40.5 7c24.667 0 41.667 -11 51 -33h1
c3.33301 4 8 7.5 14 10.5s11.333 4.16699 16 3.5c2.66699 0 6.16699 -0.833008 10.5 -2.5s8.66602 -3.5 12.999 -5.5s8.33301 -4.16699 12 -6.5s6.16699 -4.5 7.5 -6.5c-13.333 -15.333 -26.5 -35.333 -39.5 -60s-25.333 -50.5 -37 -77.5s-22.167 -53.333 -31.5 -79
s-16.666 -47.5 -21.999 -65.5zM301.993 319.005c-10 17.333 -23.333 23.5 -40 18.5s-34.167 -16.667 -52.5 -35s-36.333 -40.5 -54 -66.5s-32.667 -51 -45 -75s-20.5 -44.667 -24.5 -62s-1.66699 -26.333 7 -27c7.33301 0 17 4.66699 29 14s25.333 21.5 40 36.5
s29.834 32 45.501 51l45.5 55.5c5.33301 13.333 12.666 28.333 21.999 45s18.333 31.667 27 45zM245.993 13.0049c-4 -10.667 -9.99902 -28.167 -17.999 -52.5s-16.333 -52 -25 -83s-17 -63 -25 -96s-13.667 -63.167 -17 -90.5s-3.83301 -49.833 -1.5 -67.5
s9.5 -26.5 21.5 -26.5c14.667 0 27.667 7.83301 39 23.5s21.166 33.5 29.499 53.5s14.833 39.667 19.5 59l10 41c9.33301 46 12 89.333 8 130s-17.667 77 -41 109z" />
    <glyph glyph-name="r" unicode="r" horiz-adv-x="287" 
d="M234 292c-1.33301 -2 -6.83789 -11.167 -16.5049 -27.5l-33.5 -59.5c-12.667 -23.333 -25 -47.666 -37 -72.999s-21 -48 -27 -68s-7.16699 -35 -3.5 -45s14.834 -11.333 33.501 -4c13.333 5.33301 29.833 16.666 49.5 33.999s39.5 36.5 59.5 57.5s38.667 41.833 56 62.5
s30.333 37 39 49l4 4c1.33301 1.33301 2.66602 2 3.99902 2c1.33301 0.666992 3 0.5 5 -0.5s2.66699 -2.83301 2 -5.5c-2 -2 -3.33301 -4 -4 -6l-32 -40.5l-42 -50c-15.333 -17.667 -31.666 -35.167 -48.999 -52.5s-34.666 -33 -51.999 -47s-34.166 -25.333 -50.499 -34
s-31.5 -13 -45.5 -13c-22 0 -36.167 6.66699 -42.5 20s-7.83301 30.666 -4.5 51.999s10.5 45 21.5 71s23 51.667 36 77s26 49.166 39 71.499l30.5 52.5c3.33301 4.66699 1.33301 8.33398 -6 11.001l-42 -57c-14 -19.333 -29.333 -37.666 -46 -54.999
c-1.33301 -1.33301 -2.5 -2.83301 -3.5 -4.5s-2.5 -2.83398 -4.5 -3.50098c-3.33301 -1.33301 -6.16602 -1.66602 -8.49902 -0.999023s-1.83301 3.66699 1.5 9c21.333 25.333 39 47.166 53 65.499l40 53.5c-10.667 2.66699 -18.667 7.16699 -24 13.5
s-8.66602 13.333 -9.99902 21s-1.33301 15.667 0 24s3 15.5 5 21.5c6 16.667 14.667 30.334 26 41.001s22.666 18 33.999 22s21.5 4.5 30.5 1.5s14.333 -9.83301 16 -20.5s-1.66602 -25.667 -9.99902 -45s-23.833 -43.333 -46.5 -72c6.66699 -1.33301 14.667 -2.5 24 -3.5
s17.5 -3 24.5 -6s11.667 -7.83301 14 -14.5s-0.166992 -16 -7.5 -28zM168.995 349c16 20.667 27.834 38.3311 35.501 52.998s12.667 26.5 15 35.5s2.83301 15.5 1.5 19.5s-3.33301 6 -6 6c-8.66699 0 -16.834 -5.16699 -24.501 -15.5s-14 -22.166 -19 -35.499
s-8 -26.166 -9 -38.499s1.16699 -20.5 6.5 -24.5z" />
    <glyph glyph-name="s" unicode="s" horiz-adv-x="220" 
d="M139 125c20.667 0.666992 43.9961 8.33105 69.9961 22.998s51.667 38 77 70c2 1.33301 4 3 6 5c6.66699 1.33301 9.33398 -0.333984 8.00098 -5.00098l-2 -4c-0.666992 -1.33301 -2.66699 -3.66602 -6 -6.99902c-24.667 -29.333 -49 -53 -73 -71s-51 -28 -81 -30
c-4 -35.333 -13.667 -63.5 -29 -84.5s-32.166 -35.667 -50.499 -44s-35.666 -10.666 -51.999 -6.99902s-27.5 12.167 -33.5 25.5c-3.33301 7.33301 -4.33301 16.5 -3 27.5s5.33301 22.167 12 33.5s16.334 22.5 29.001 33.5s29 20.167 49 27.5
c1.33301 11.333 2.16602 25.666 2.49902 42.999s1.16602 36.333 2.49902 57c2 22.667 5 45.834 9 69.501s10.333 45.5 19 65.5s20.334 36.833 35.001 50.5s33.667 21.834 57 24.501c5.33301 0.666992 11.333 0.5 18 -0.5s12.667 -2.83301 18 -5.5s9.66602 -6.5 12.999 -11.5
s4.33301 -11.5 3 -19.5c-2 -12.667 -8.66699 -25.5 -20 -38.5s-22.666 -24.167 -33.999 -33.5c-9.33301 -7.33301 -20 -14.333 -32 -21c-3.33301 -17.333 -5.66602 -35 -6.99902 -53s-2.5 -34.833 -3.5 -50.5s-1.5 -29 -1.5 -40v-21.5v-8zM155.996 321.997
c4 0.666992 8.66504 2.83105 13.998 6.49805s10.833 8.33398 16.5 14.001s10.834 11.5 15.501 17.5s8.33398 12 11.001 18c6 11.333 5.83301 18.5 -0.5 21.5s-13.833 1.16699 -22.5 -5.5c-7.33301 -6 -14 -15.667 -20 -29s-10.667 -27.666 -14 -42.999zM58.9941 98.9941
c-14 -3.33301 -26.333 -9.66699 -37 -19s-18.834 -19.166 -24.501 -29.499s-8.66699 -20.166 -9 -29.499s2.83398 -15 9.50098 -17c4 -1.33301 8.33301 -0.833008 13 1.5s9 5.66602 13 9.99902s7.66699 8.83301 11 13.5s6 9 8 13c6 9.33301 10.167 18.666 12.5 27.999
s3.5 19 3.5 29z" />
    <glyph glyph-name="t" unicode="t" horiz-adv-x="257" 
d="M-73 508c16 13.333 34.1641 22.666 54.4971 27.999s41.833 8 64.5 8c24 0 48.833 -2 74.5 -6s51.5 -8.66699 77.5 -14l9 -2c23.333 42.667 42.166 75.5 56.499 98.5s25.166 34.5 32.499 34.5c12 0 21.667 -4.33301 29 -13s7.66602 -19.667 0.999023 -33l-17.5 -32.5
l-12 -22.5l-10.5 -19.5c-3.33301 -6.33301 -7.33301 -14.5 -12 -24.5l39 -4c12.667 -1.33301 25 -2 37 -2c18.667 0 36.334 1.66699 53.001 5s32.167 9.33301 46.5 18s27.333 20 39 34s21.834 32 30.501 54l11 -6c-8.66699 -22.667 -19.334 -41.5 -32.001 -56.5
s-26.667 -26.833 -42 -35.5s-32 -14.834 -50 -18.501s-36.667 -5.5 -56 -5.5c-13.333 0 -26.666 0.666992 -39.999 2s-27 3.33301 -41 6c-14 -26 -26.167 -49.5 -36.5 -70.5l-28 -58l-23 -50c-7 -15.667 -13.5 -31.167 -19.5 -46.5c-10.667 -26 -21.334 -54.667 -32.001 -86
s-19 -60.5 -25 -87.5s-8.16699 -49.667 -6.5 -68s9.83398 -27.5 24.501 -27.5c12 0 27.333 8.66699 46 26s37.834 37.5 57.501 60.5s38.167 46.333 55.5 70l41 54.5c2 1.33301 3.5 3 4.5 5s3.16699 3.66699 6.5 5c2 0.666992 3.83301 0.333984 5.5 -0.999023
s1.83398 -2.66602 0.500977 -3.99902c0 -3.33301 -1 -5.33301 -3 -6l-31 -41.5l-39 -52c-14 -18.333 -29 -36.5 -45 -54.5s-32 -34.167 -48 -48.5s-31.833 -26 -47.5 -35s-30.5 -13.5 -44.5 -13.5c-20 0 -34.333 6.5 -43 19.5s-13 30.5 -13 52.5s3.5 48 10.5 78
s16.5 62 28.5 96c10 26 21 52.833 33 80.5l37 83.5l27 53.5l40 76.5l-6 1c-26 5.33301 -51.667 10 -77 14s-49.666 6 -72.999 6c-21.333 0 -41.666 -2.5 -60.999 -7.5s-36.333 -13.167 -51 -24.5z" />
    <glyph glyph-name="u" unicode="u" horiz-adv-x="411" 
d="M49 0c-15.333 0 -25.1709 6.82617 -29.5039 20.4932s-4.83301 31 -1.5 52s9.5 44.333 18.5 70s18.5 50.834 28.5 75.501l32 64.5c10 19.667 18 34.167 24 43.5c7.33301 11.333 14.5 20.833 21.5 28.5s14.167 12.834 21.5 15.501c7.33301 1.33301 15.333 0.833008 24 -1.5
s18.667 -7.16602 30 -14.499c-6.66699 -2.66699 -15.167 -12 -25.5 -28s-21.166 -35.167 -32.499 -57.5s-22 -46.166 -32 -71.499s-18.167 -48.833 -24.5 -70.5s-9.66602 -39.667 -9.99902 -54s3.5 -21.5 11.5 -21.5c3.33301 0 10.833 7.66699 22.5 23l42.5 57.5l53.5 75.5
l54 77c17 24 32.333 44.5 46 61.5s23.167 26.833 28.5 29.5c12.667 6 25.334 7.33301 38.001 4s23.667 -8.33301 33 -15c-10 -3.33301 -21.167 -14.666 -33.5 -33.999s-24.833 -42.5 -37.5 -69.5s-24.5 -55.667 -35.5 -86s-20.167 -58.5 -27.5 -84.5s-12 -47.667 -14 -65
s-0.333008 -26.333 5 -27c2.66699 0 9 4.66699 19 14s21.667 21.333 35 36l42.5 49l43 51.5l36.5 43.5l22 26c1.33301 1.33301 2.33301 2.5 3 3.5s1.66699 1.83301 3 2.5c5.33301 0 8 -2 8 -6c-2 -3.33301 -3.66699 -5.33301 -5 -6l-26 -32.5l-36 -44.5l-41.5 -49l-41.5 -47
c-13.333 -14.667 -25.333 -27.334 -36 -38.001s-19 -17.667 -25 -21c-14 -10 -28.667 -14 -44 -12c-12.667 0.666992 -21 6.83398 -25 18.501s-5.33301 26.334 -4 44.001s4.83301 37.167 10.5 58.5s12 42.333 19 63s13.833 39.834 20.5 57.501l16 41.5l-35.5 -53l-42 -60
l-43 -57.5c-14.333 -18.333 -27.166 -33.166 -38.499 -44.499c-12.667 -12.667 -24 -21.834 -34 -27.501s-20.667 -8.5 -32 -8.5z" />
    <glyph glyph-name="v" unicode="v" horiz-adv-x="346" 
d="M260 303c10.667 28.667 23.6699 50.502 39.0029 65.502s28.666 22.5 39.999 22.5c8 0 14 -4 18 -12s4.33301 -21.333 1 -40c-3.33301 -13.333 -8.66602 -28.166 -15.999 -44.499s-15.333 -32 -24 -47s-16.834 -28.333 -24.501 -40s-13.167 -19.834 -16.5 -24.501
c6.66699 -8 15.667 -13 27 -15s23.166 -1.16699 35.499 2.5s24.666 9.5 36.999 17.5s23.5 18 33.5 30c2 1.33301 4 3 6 5c6.66699 1.33301 9.33398 -0.333984 8.00098 -5.00098c0 -1.33301 -0.333008 -2.5 -1 -3.5s-1.33398 -2.16699 -2.00098 -3.5l-5 -4
c-10.667 -12 -22.667 -22.5 -36 -31.5s-27 -15.5 -41 -19.5s-27.333 -5.33301 -40 -4s-24 6.33301 -34 15l-31.5 -50.5c-13 -21 -27.333 -41.667 -43 -62s-31.834 -37.833 -48.501 -52.5s-33 -22 -49 -22c-13.333 0 -23.5 7.83301 -30.5 23.5s-11.167 35.167 -12.5 58.5
s-0.666016 49 2.00098 77s7 54.333 13 79c8 29.333 17.833 55.666 29.5 78.999s24.5 38.666 38.5 45.999c14 6 34.667 5 62 -3c-8 -4.66699 -16 -15.667 -24 -33s-15.5 -37.833 -22.5 -61.5s-13.167 -48.834 -18.5 -75.501s-9.33301 -51.167 -12 -73.5
s-3.33398 -40.833 -2.00098 -55.5s5 -22 11 -22c4.66699 0 10.834 3.5 18.501 10.5s16 15.667 25 26s18.167 22 27.5 35l26 37c8 11.667 14.833 22.167 20.5 31.5s9.5 16 11.5 20c-8 16.667 -11.667 35.834 -11 57.501s5.66699 43.834 15 66.501zM268.003 195.002
c35.333 51.333 56.998 91 64.998 119c8.66699 24 11.834 40.5 9.50098 49.5s-7.16602 12.167 -14.499 9.5s-16 -10.5 -26 -23.5s-18.667 -28.833 -26 -47.5c-6.66699 -18 -11.167 -36.5 -13.5 -55.5s-0.5 -36.167 5.5 -51.5z" />
    <glyph glyph-name="w" unicode="w" horiz-adv-x="529" 
d="M445 303c10.667 28.667 23.6748 50.499 39.0078 65.499s28.666 22.5 39.999 22.5c7.33301 0 13.166 -4 17.499 -12s4.5 -21.333 0.5 -40c-2.66699 -13.333 -7.83398 -28.166 -15.501 -44.499s-15.667 -32 -24 -47s-16.333 -28.333 -24 -40s-13.167 -19.834 -16.5 -24.501
c6.66699 -8 15.5 -13 26.5 -15s22.667 -1.16699 35 2.5s24.666 9.5 36.999 17.5s23.5 18 33.5 30c2 1.33301 3.33301 2.33301 4 3s1.66699 1.33398 3 2.00098c5.33301 1.33301 8 -0.333984 8 -5.00098c-0.666992 -1.33301 -1.16699 -2.5 -1.5 -3.5
s-1.16602 -2.16699 -2.49902 -3.5l-4 -4c-10.667 -12 -22.667 -22.5 -36 -31.5s-27 -15.5 -41 -19.5s-27.333 -5.33301 -40 -4s-24 6.33301 -34 15l-35 -51.5c-15.333 -22.333 -32.333 -44.333 -51 -66s-37.834 -39.667 -57.501 -54s-37.834 -19.5 -54.501 -15.5
c-9.33301 2 -15.666 9.33301 -18.999 22s-5 27 -5 43s1.16699 32.167 3.5 48.5l5.5 39.5l-29.5 -38.5c-12.333 -16.333 -25.666 -32.666 -39.999 -48.999s-29 -30.833 -44 -43.5s-28.833 -20 -41.5 -22c-14 -2.66699 -24.167 3.33301 -30.5 18s-9.66602 34 -9.99902 58
s1.66699 50.5 6 79.5s10.166 56.5 17.499 82.5c8.66699 28.667 18.167 54.334 28.5 77.001s21.166 38.667 32.499 48c6.66699 5.33301 15.167 7.16602 25.5 5.49902s22.166 -4.5 35.499 -8.5c-8 -4.66699 -16 -15.667 -24 -33s-15.5 -37.833 -22.5 -61.5
s-13.333 -48.834 -19 -75.501s-9.83398 -51.167 -12.501 -73.5s-3.33398 -40.833 -2.00098 -55.5s5 -22 11 -22c5.33301 0 13.666 5.83301 24.999 17.5s23.166 25.5 35.499 41.5l36.5 49.5l29 41.5l9 39.5c4 17.667 9 35.667 15 54s13.167 35.166 21.5 50.499
s17.833 25.333 28.5 30c7.33301 2.66699 15.833 3.83398 25.5 3.50098s21.167 -2.5 34.5 -6.5c-7.33301 -4.66699 -15 -15.667 -23 -33s-15.667 -37.833 -23 -61.5s-13.833 -48.834 -19.5 -75.501s-9.66699 -51.167 -12 -73.5s-3 -40.833 -2 -55.5s4.5 -22 10.5 -22
c4.66699 0 10.834 3.5 18.501 10.5s16 15.667 25 26s18.333 22 28 35l26.5 37c8 11.667 14.833 22.167 20.5 31.5s9.5 16 11.5 20c-7.33301 16.667 -10.5 35.834 -9.5 57.501s6.16699 43.834 15.5 66.501zM452.008 194.999c17.333 25.333 31.3301 48 41.9971 68
s18.667 37 24 51c8.66699 24 11.834 40.5 9.50098 49.5s-7.16602 12.167 -14.499 9.5s-16 -10.5 -26 -23.5s-18.667 -28.833 -26 -47.5c-7.33301 -18 -12.166 -36.5 -14.499 -55.5s-0.5 -36.167 5.5 -51.5z" />
    <glyph glyph-name="x" unicode="x" horiz-adv-x="359" 
d="M424 218c4 5.33301 7.49414 6.99902 10.4941 4.99902s2.83301 -5.66699 -0.5 -11l-26 -31l-38.5 -43.5c-14.333 -15.667 -29.666 -31.5 -45.999 -47.5s-32 -30.667 -47 -44s-29 -24.166 -42 -32.499s-23.5 -12.5 -31.5 -12.5c-11.333 0 -19 4.5 -23 13.5
s-6.16699 19.833 -6.5 32.5s-0.166016 25.167 0.500977 37.5s0.333984 22.166 -0.999023 29.499l-28 -33c-11.333 -13.333 -23.833 -27.166 -37.5 -41.499l-41 -41c-13.667 -13 -26.5 -23.167 -38.5 -30.5c-13.333 -9.33301 -23.666 -12 -30.999 -8s-8.33301 13.333 -3 28
c0.666992 2 1.66699 4.33301 3 7c2 1.33301 4 1.83301 6 1.5s3 -1.16602 3 -2.49902c0.666992 -2 0.666992 -4 0 -6c-2.66699 -11.333 -0.666992 -16 6 -14s16 7.83301 28 17.5s25.333 21.834 40 36.501s28.667 29.5 42 44.5s24.833 28.667 34.5 41s15.5 20.833 17.5 25.5
c1.33301 4 3 12.833 5 26.5s3.83301 28.667 5.5 45s2.83398 32.333 3.50098 48s0.333984 27.834 -0.999023 36.501c-2 12.667 -8 16.334 -18 11.001s-21.167 -14.166 -33.5 -26.499s-24.166 -25.5 -35.499 -39.5s-19.333 -23.667 -24 -29
c-1.33301 -1.33301 -3.66602 -3.33301 -6.99902 -6c-2 -0.666992 -3.83301 -0.333984 -5.5 0.999023s-1.83398 2.66602 -0.500977 3.99902c0 1.33301 0.333008 2.66602 1 3.99902s1 2.66602 1 3.99902c8.66699 10 19.334 23.333 32.001 40s26.5 33 41.5 49
s30.167 29.667 45.5 41s29.666 17 42.999 17c12.667 0 21 -6.33301 25 -19s5.83301 -27.5 5.5 -44.5s-1.5 -34 -3.5 -51s-2.66699 -29.833 -2 -38.5l19 21l37 40.5l41.5 42.5c13.667 13.333 26.334 24.5 38.001 33.5s21.167 13.5 28.5 13.5
c9.33301 0 15.166 -2.5 17.499 -7.5s1.83301 -11.833 -1.5 -20.5c-2 -7.33301 -5.33301 -14.666 -10 -21.999h-13c2 4 3.83301 8 5.5 12s3.16699 6.66699 4.5 8c1.33301 2.66699 2.16602 6.16699 2.49902 10.5s-1.5 6.5 -5.5 6.5s-10.333 -3.33301 -19 -10
s-18.5 -15.167 -29.5 -25.5l-35 -34l-35 -36.5l-29.5 -32.5c-8.66699 -9.66699 -14.667 -16.834 -18 -21.501c-0.666992 -4 -1.5 -10 -2.5 -18s-1.66699 -17 -2 -27l-1 -31c-0.333008 -10.667 0.166992 -20.334 1.5 -29.001c2 -11.333 5.66699 -18 11 -20
c4.66699 -2.66699 11.5 -1.33398 20.5 3.99902s19 12.833 30 22.5s22.5 20.834 34.5 33.501l34 37.5l29 33.5z" />
    <glyph glyph-name="y" unicode="y" horiz-adv-x="386" 
d="M271 73c14.667 8 30.0039 17.4932 46.0039 28.4932s31.833 23 47.5 36l46 40c15 13.667 28.5 27.167 40.5 40.5c2 1.33301 3.33301 2.33301 4 3s1.66699 1.33398 3 2.00098c5.33301 1.33301 8 -0.333984 8 -5.00098c-0.666992 -1.33301 -1.33398 -2.5 -2.00098 -3.5
s-1.33398 -2.16699 -2.00098 -3.5c-8.66699 -10 -18.834 -20.5 -30.501 -31.5s-24 -22 -37 -33l-39 -31.5l-35.5 -27l-27 -17.5c-8.66699 -5.66699 -18.667 -11.167 -30 -16.5c-4.66699 -12.667 -11 -28.667 -19 -48s-17.333 -40.666 -28 -63.999l-35.5 -74
c-13 -26 -27.167 -51.5 -42.5 -76.5s-31.5 -48.833 -48.5 -71.5s-34.5 -42.667 -52.5 -60c-35.333 -33.333 -64.666 -52.666 -87.999 -57.999s-39.666 -0.666016 -48.999 14.001s-11.333 37.334 -6 68.001s19.166 65.5 41.499 104.5s53.833 80.167 94.5 123.5
s91.667 85 153 125c17.333 40 32.166 77.167 44.499 111.5s24.166 65.166 35.499 92.499l-36 -52.5l-40.5 -57l-40.5 -54c-13.333 -17 -25.333 -30.833 -36 -41.5c-22 -24 -43.333 -36 -64 -36c-14 0 -23.167 6.83301 -27.5 20.5s-5 31 -2 52s9 44.333 18 70
s19.167 50.834 30.5 75.501c15.333 31.333 31.5 58.5 48.5 81.5s31.167 36.167 42.5 39.5c14 2.66699 32.333 -2.66602 55 -15.999c-6.66699 -2.66699 -15.167 -11.167 -25.5 -25.5s-20.833 -31.5 -31.5 -51.5s-20.834 -41.5 -30.501 -64.5s-17.5 -44.167 -23.5 -63.5
s-9.33301 -35.333 -10 -48s3 -19 11 -19c3.33301 0 10.5 7 21.5 21s24 31.667 39 53l49 69.5l50 71c15.667 22.333 30 41.333 43 57s22.167 24.834 27.5 27.501c11.333 6.66699 23.5 8.33398 36.5 5.00098s24.167 -8.33301 33.5 -15c-5.33301 -2 -10.166 -5 -14.499 -9
s-8.5 -9.5 -12.5 -16.5s-8.5 -15.667 -13.5 -26l-17.5 -36.5zM174.004 15.9932c-28 -18.667 -52.8311 -37.168 -74.498 -55.501s-43.5 -39.833 -65.5 -64.5c-39.333 -44 -69 -85.667 -89 -125s-31.333 -71.333 -34 -96c-2 -13.333 -1.83301 -23.5 0.5 -30.5
s6.83301 -10.333 13.5 -10s15.667 5 27 14s25 23.167 41 42.5c19.333 24 38.666 52.333 57.999 85s37.166 64.834 53.499 96.501s30.5 60.5 42.5 86.5s21 45 27 57z" />
    <glyph glyph-name="z" unicode="z" 
d="M233 149c10.667 -4.66699 19.499 -9.1748 26.499 -13.5078s12.5 -9.33301 16.5 -15s6.83301 -12.5 8.5 -20.5s2.16699 -18 1.5 -30c14.667 7.33301 30.167 16.833 46.5 28.5s32.666 24.167 48.999 37.5s32.166 27 47.499 41s29 27.667 41 41
c4.66699 3.33301 8.16699 4 10.5 2s2.16602 -5 -0.500977 -9c-8 -10 -17.833 -20.5 -29.5 -31.5s-24 -22 -37 -33l-39 -31.5l-35.5 -27c-18 -12 -36.667 -23.333 -56 -34c-4.66699 -12.667 -11.167 -28.667 -19.5 -48l-28.5 -64c-10.667 -23.333 -22.667 -48 -36 -74
s-27.5 -51.5 -42.5 -76.5s-30.833 -48.833 -47.5 -71.5s-34 -42.667 -52 -60c-35.333 -33.333 -64.666 -52.666 -87.999 -57.999s-39.833 -0.666016 -49.5 14.001s-11.834 37.334 -6.50098 68.001s19.166 65.5 41.499 104.5s53.833 80.167 94.5 123.5s91.667 85 153 125
c2.66699 7.33301 6 15.5 10 24.5s7 17.833 9 26.5s2.5 16.667 1.5 24s-5.16699 13 -12.5 17l-3 -2c-13.333 -10 -26.333 -17.667 -39 -23c-10 -4 -18 -5.16699 -24 -3.5s-10 4.83398 -12 9.50098s-2 10 0 16s6 11 12 15c8.66699 7.33301 19.334 12.333 32.001 15
s26.667 2.33398 42 -0.999023c17.333 14.667 32.833 34 46.5 58s25.167 48.333 34.5 73c8 21.333 11.333 39.833 10 55.5s-9 23.5 -23 23.5c-16 0 -33.667 -5.66699 -53 -17s-38.666 -25 -57.999 -41s-38 -33.167 -56 -51.5l-47 -48.5
c-3.33301 -4.66699 -6.16602 -5.5 -8.49902 -2.5s-1.83301 7.5 1.5 13.5l40.5 42l44 43c15 14 30.167 26.833 45.5 38.5s30.666 21.5 45.999 29.5c30.667 16.667 56.834 23.834 78.501 21.501s36.667 -11.166 45 -26.499s9.33301 -35.666 3 -60.999
s-22.166 -52.333 -47.499 -81c-12 -14.667 -25.667 -28.5 -41 -41.5s-30.666 -24.167 -45.999 -33.5zM192.999 15.9922c-27.333 -18.667 -52 -37.168 -74 -55.501s-44 -39.833 -66 -64.5c-40 -44 -69.833 -85.667 -89.5 -125s-31.167 -71.333 -34.5 -96
c-2 -13.333 -1.66699 -23.5 1 -30.5s7.33398 -10.333 14.001 -10s15.667 5 27 14s24.666 23.167 39.999 42.5c19.333 24 38.5 52.333 57.5 85s36.833 64.834 53.5 96.501s31.167 60.5 43.5 86.5zM145.999 119.991c0.666992 -6 3.83301 -8.33105 9.5 -6.99805
s12 3.83301 19 7.5s13.5 7.66699 19.5 12s9.33301 7.16602 10 8.49902c-3.33301 2 -8.33301 3 -15 3s-13.167 -0.833008 -19.5 -2.5s-12 -4.33398 -17 -8.00098s-7.16699 -8.16699 -6.5 -13.5z" />
    <glyph glyph-name="braceleft" unicode="{" horiz-adv-x="294" 
d="M75 -50c2 10 6 22.498 12 37.498l18.5 47.5l19 51.5c6.33301 17.667 11.333 34.334 15 50.001s5.33398 30.167 5.00098 43.5s-3.83301 24 -10.5 32c-2.66699 4 -4.16699 8.83301 -4.5 14.5s2.16699 10.5 7.5 14.5c1.33301 1.33301 4 3 8 5s6.66699 3.66699 8 5
c18 10.667 33.5 27.167 46.5 49.5s24.833 46.166 35.5 71.499s20 50 28 74s16 43.667 24 59c8 14.667 18.167 26 30.5 34s25.5 14 39.5 18s28 6.16699 42 6.5s27 0.166016 39 -0.500977c3.33301 -2 4.16602 -4.83301 2.49902 -8.5s-4.16699 -5.83398 -7.5 -6.50098
c-30.667 2.66699 -54.5 -2.5 -71.5 -15.5s-30.333 -30.167 -40 -51.5s-17.834 -45.333 -24.501 -72s-15.167 -52 -25.5 -76s-24.333 -45.333 -42 -64s-42.5 -31 -74.5 -37c-4 -2 -4.33301 -3.33301 -1 -4c24 -15.333 37 -34.166 39 -56.499s-1.16699 -45.666 -9.5 -69.999
s-19.166 -48.833 -32.499 -73.5s-23 -47 -29 -67s-5.83301 -36.833 0.5 -50.5s24.833 -21.5 55.5 -23.5c2.66699 -1.33301 3.5 -3.83301 2.5 -7.5s-3.83301 -6.16699 -8.5 -7.5c-11.333 0.666992 -23.5 2.5 -36.5 5.5s-24.5 7.33301 -34.5 13s-17.667 13.334 -23 23.001
s-6.33301 21.834 -3 36.501z" />
    <glyph glyph-name="bar" unicode="|" horiz-adv-x="232" 
d="M274 607c2.66699 6.66699 6.83496 12.168 12.502 16.501s11.167 6.5 16.5 6.5c7.33301 0 12.5 -2.33301 15.5 -7s3.5 -10.334 1.5 -17.001l-221 -710c-2.66699 -6 -6.83398 -11.333 -12.501 -16s-11.834 -7 -18.501 -7c-6 0 -10.667 2.33301 -14 7s-4 10 -2 16z" />
    <glyph glyph-name="braceright" unicode="}" horiz-adv-x="329" 
d="M382 486c-2.66699 -10.667 -6.82715 -23.165 -12.4941 -37.498l-18.5 -46.5c-6.66699 -16.667 -13.167 -33.834 -19.5 -51.501s-11.333 -34.334 -15 -50.001s-5.33398 -30.167 -5.00098 -43.5s3.83301 -24 10.5 -32c3.33301 -4 5.16602 -9 5.49902 -15
s-2.16699 -11 -7.5 -15l-16 -9c-18 -11.333 -33.5 -28 -46.5 -50s-24.833 -45.667 -35.5 -71s-20 -50 -28 -74s-16 -43.333 -24 -58s-18.167 -26.167 -30.5 -34.5s-25.5 -14.5 -39.5 -18.5s-28 -6.16699 -42 -6.5s-26.667 -0.166016 -38 0.500977c-4 2 -5 5 -3 9
s4.33301 6 7 6c30.667 -2.66699 54.5 2.5 71.5 15.5s30.5 30.333 40.5 52s18.167 45.667 24.5 72s14.666 51.666 24.999 75.999s24.333 45.833 42 64.5s42.5 30.667 74.5 36c3.33301 2 3.66602 3.66699 0.999023 5c-24 15.333 -37 34 -39 56s1.33301 45.167 10 69.5
s19.5 48.833 32.5 73.5s22.667 47 29 67s6.16602 36.833 -0.500977 50.5s-25.334 21.834 -56.001 24.501c-2.66699 0.666992 -3.5 2.83398 -2.5 6.50098s4.16699 5.83398 9.5 6.50098c11.333 -0.666992 23.333 -2.33398 36 -5.00098s24 -6.83398 34 -12.501
s17.667 -13.334 23 -23.001s6.33301 -22.167 3 -37.5z" />
    <glyph glyph-name="asciitilde" unicode="~" horiz-adv-x="512" 
d="M490 300c9.33301 -6.66699 13.333 -17.332 12 -31.999s-4.33301 -28 -9 -40c-11.333 -25.333 -25.333 -41.5 -42 -48.5s-34.667 -9 -54 -6s-39.333 8.66699 -60 17s-40.334 15.333 -59.001 21s-36.167 7.5 -52.5 5.5s-29.5 -12 -39.5 -30
c-5.33301 -9.33301 -9.83301 -15.833 -13.5 -19.5s-6.5 -5 -8.5 -4s-3.16699 3.83301 -3.5 8.5s0.166992 10.667 1.5 18c6 30.667 14.667 52.834 26 66.501s24.333 22 39 25s30.5 2 47.5 -3s34 -11.333 51 -19l49.5 -21.5c16 -6.66699 30.5 -10.334 43.5 -11.001
s23.833 3.33301 32.5 12s14.334 24.667 17.001 48c1.33301 5.33301 4 9.66602 8 12.999s8.66699 3.33301 14 0z" />
    <glyph glyph-name="circumflex" unicode="&#x2c6;" horiz-adv-x="447" 
d="M390 515l72.998 -163c0 -3.33301 -1.66699 -6.83301 -5 -10.5s-7.16602 -7 -11.499 -10s-8.66602 -5.33301 -12.999 -7s-7.5 -1.5 -9.5 0.5c-11.333 23.333 -21.333 47.333 -30 72s-19.667 47.667 -33 69l-142 -111c-8.66699 -7.33301 -15 -8.5 -19 -3.5
s-2 11.167 6 18.5z" />
    <glyph glyph-name="quoteleft" unicode="&#x2018;" horiz-adv-x="227" 
d="M262 401c-7.33301 -6.66699 -15.667 -10.1699 -25 -10.5029s-16.333 2.16699 -21 7.5c-6.66699 6 -8 15.167 -4 27.5s10.833 25.5 20.5 39.5s21.334 27.333 35.001 40s26.834 22.334 39.501 29.001c5.33301 2.66699 9.16602 1.83398 11.499 -2.49902
s0.166016 -8.16602 -6.50098 -11.499c-2.66699 -1.33301 -7.16699 -4.83301 -13.5 -10.5s-12.5 -12 -18.5 -19s-10.333 -13.833 -13 -20.5s-1.66699 -12 3 -16c7.33301 -6 9.83301 -14.5 7.5 -25.5s-7.5 -20.167 -15.5 -27.5z" />
    <glyph glyph-name="quoteright" unicode="&#x2019;" horiz-adv-x="219" 
d="M255 525c7.33301 7.33301 15.5 11.1689 24.5 11.502s15.833 -1.83398 20.5 -6.50098c6 -6 7.16699 -15.333 3.5 -28s-10.334 -26 -20.001 -40s-21.167 -27.333 -34.5 -40s-26.333 -22 -39 -28c-5.33301 -3.33301 -9.33301 -2.83301 -12 1.5s-1 8.16602 5 11.499
c2.66699 1.33301 7.16699 4.83301 13.5 10.5s12.5 12 18.5 19s10.5 13.833 13.5 20.5s2.16699 12 -2.5 16c-7.33301 6 -9.66602 14.5 -6.99902 25.5s8 19.833 16 26.5z" />
    <glyph glyph-name="quotesinglbase" unicode="&#x201a;" horiz-adv-x="246" 
d="M142 133c7.33301 6 15.5 9.33203 24.5 9.99902s15.833 -1.33301 20.5 -6c6 -6 7.16699 -15.333 3.5 -28s-10.334 -26 -20.001 -40s-21.167 -27.333 -34.5 -40s-26.333 -22 -39 -28c-4.66699 -2.66699 -8.16699 -2 -10.5 2s-0.833008 7.66699 4.5 11
c2.66699 1.33301 7.16699 4.83301 13.5 10.5s12.5 12 18.5 19s10.333 13.833 13 20.5s1.66699 12 -3 16c-7.33301 6.66699 -9.66602 15.334 -6.99902 26.001s8 19.667 16 27z" />
    <glyph glyph-name="quotedblleft" unicode="&#x201c;" horiz-adv-x="349" 
d="M371 401c-8 -6.66699 -16.502 -10.1689 -25.502 -10.502s-15.833 1.83398 -20.5 6.50098c-6.66699 6 -8 15.333 -4 28s10.833 26 20.5 40s21.334 27.333 35.001 40s26.834 22 39.501 28c4 2.66699 7.33301 1.83398 10 -2.49902s1 -8.16602 -5 -11.499
c-2.66699 -1.33301 -7.16699 -4.83301 -13.5 -10.5s-12.5 -12 -18.5 -19s-10.5 -13.833 -13.5 -20.5s-2.16699 -11.667 2.5 -15c8 -6.66699 10.667 -15.334 8 -26.001s-7.66699 -19.667 -15 -27zM257.998 400.998c-7.33301 -6.66699 -15.499 -10.1689 -24.499 -10.502
s-16.167 1.83398 -21.5 6.50098c-6 6 -7 15.333 -3 28s10.833 26 20.5 40s21.167 27.333 34.5 40s26.333 22 39 28c4.66699 2.66699 8.33398 1.83398 11.001 -2.49902s1 -8.16602 -5 -11.499c-2.66699 -1.33301 -7.33398 -4.83301 -14.001 -10.5s-12.834 -12 -18.501 -19
s-10 -13.833 -13 -20.5s-2.16699 -11.667 2.5 -15c7.33301 -6.66699 9.83301 -15.334 7.5 -26.001s-7.5 -19.667 -15.5 -27z" />
    <glyph glyph-name="quotedblright" unicode="&#x201d;" horiz-adv-x="340" 
d="M252 524c7.33301 6.66699 15.501 10.333 24.501 11s16.167 -1.33301 21.5 -6c6.66699 -6 8 -15.5 4 -28.5s-10.833 -26.5 -20.5 -40.5s-21.334 -27.167 -35.001 -39.5s-26.834 -21.5 -39.501 -27.5c-4 -2.66699 -7.33301 -2 -10 2s-1 7.66699 5 11
c2.66699 1.33301 7.16699 4.83301 13.5 10.5s12.5 12 18.5 19s10.333 13.833 13 20.5s1.66699 12 -3 16c-7.33301 6 -9.66602 14.5 -6.99902 25.5s7.66699 19.833 15 26.5zM365.001 523.999c7.33301 6.66699 15.499 10.333 24.499 11s16.167 -1.33301 21.5 -6
c6 -6 7 -15.5 3 -28.5s-10.833 -26.5 -20.5 -40.5s-21.334 -27.167 -35.001 -39.5s-26.834 -21.5 -39.501 -27.5c-4.66699 -2.66699 -8.16699 -2 -10.5 2s-0.5 7.66699 5.5 11c2.66699 1.33301 7.33398 4.83301 14.001 10.5s12.834 12 18.501 19s9.83398 13.833 12.501 20.5
s1.66699 12 -3 16c-7.33301 6 -9.83301 14.5 -7.5 25.5s7.83301 19.833 16.5 26.5z" />
    <glyph glyph-name="quotedblbase" unicode="&#x201e;" horiz-adv-x="335" 
d="M126 134c7.33301 6.66699 15.5 10.168 24.5 10.501s16.167 -1.83398 21.5 -6.50098c6 -6 7 -15.333 3 -28s-11 -26 -21 -40s-21.667 -27.333 -35 -40s-26.333 -22 -39 -28c-4.66699 -2.66699 -8.16699 -2 -10.5 2s-0.5 7.66699 5.5 11
c2.66699 1.33301 7.16699 4.83301 13.5 10.5s12.5 12 18.5 19s10.333 14 13 21s1.66699 12.5 -3 16.5c-3.33301 2.66699 -5.5 6.16699 -6.5 10.5s-1 9 0 14s2.83301 10 5.5 15s6 9.16699 10 12.5zM238 134.001c7.33301 6.66699 15.501 10.168 24.501 10.501
s16.167 -1.83398 21.5 -6.50098c6 -6 7 -15.333 3 -28s-11 -26 -21 -40s-21.667 -27.333 -35 -40s-26.333 -22 -39 -28c-4.66699 -2.66699 -8.33398 -2 -11.001 2s-0.666992 7.66699 6 11c2.66699 1.33301 7.16699 4.83301 13.5 10.5s12.5 12 18.5 19s10.333 14 13 21
s1.66699 12.5 -3 16.5c-7.33301 5.33301 -9.83301 13.5 -7.5 24.5s7.83301 20.167 16.5 27.5z" />
    <glyph glyph-name="a.001" unicode="&#xe000;" horiz-adv-x="380" 
d="M-638 0c3.33301 -23.333 12.8262 -43.6631 28.4932 -60.9961s38.834 -27.666 69.501 -30.999c34.667 -4 73.834 2.66699 117.501 20s89.334 40.666 137.001 69.999s95.834 62.166 144.501 98.499l139 105.5l126.5 97c38.333 28 69.5 46.667 93.5 56h1
c27.333 10 50.5 11.5 69.5 4.5s30.167 -22.167 33.5 -45.5l12 15c9.33301 12 17.5 18 24.5 18s12.333 -2.83301 16 -8.5s5.66699 -12.834 6 -21.501s-1.16699 -16 -4.5 -22c-3.33301 -5.33301 -8.66602 -16.166 -15.999 -32.499l-24.5 -57l-27.5 -69
c-9.33301 -24.333 -17.166 -46.5 -23.499 -66.5s-10.5 -36.667 -12.5 -50s-0.333008 -20.333 5 -21c2.66699 -0.666992 8.16699 3.83301 16.5 13.5s18 21.667 29 36l36 48l37 51l31 44c9 13 15.5 21.833 19.5 26.5l3.5 3.5c1 1 2.16699 1.83301 3.5 2.5s3 0.5 5 -0.5
s2.66699 -2.83301 2 -5.5l-4 -6l-22 -32.5l-31 -44.5l-35.5 -49l-35.5 -47c-11.333 -14.667 -21.833 -27.334 -31.5 -38.001s-17.5 -17.667 -23.5 -21c-14 -10 -28.667 -14 -44 -12c-11.333 0.666992 -18.666 6.83398 -21.999 18.501s-4 26.167 -2 43.5s6 36.166 12 56.499
s12.333 40.166 19 59.499s13.167 36.5 19.5 51.5s10.5 25.5 12.5 31.5l-20 -25l-26.5 -32l-31 -35l-33.5 -35c-19.333 -19.333 -39.166 -35.833 -59.499 -49.5s-37.166 -20.834 -50.499 -21.501c-16 0 -27 5.33301 -33 16s-7.83301 25 -5.5 43s8.16602 38.167 17.499 60.5
s21 44.833 35 67.5l16.5 22l16.5 22l-92 -72l-141.5 -107.5c-49.667 -37 -98.834 -70.5 -147.501 -100.5s-95.667 -53.833 -141 -71.5s-86.333 -24.167 -123 -19.5c-36 4.66699 -62.833 17.167 -80.5 37.5s-27.167 44.5 -28.5 72.5zM309.993 298.003
c-6.66699 27.333 -17.8311 41 -33.498 41s-32.834 -8.33301 -51.501 -25s-37.334 -38.5 -56.001 -65.5s-34.834 -53.5 -48.501 -79.5s-23.167 -48.5 -28.5 -67.5s-3.66602 -28.833 5.00098 -29.5c10 0 24 8.16699 42 24.5s37.333 36.333 58 60s41.167 48.5 61.5 74.5z" />
    <glyph glyph-name="b.001" unicode="&#xe001;" horiz-adv-x="371" 
d="M-671 -1c3.33301 -23.333 12.6729 -43.5039 28.0059 -60.5039s38.333 -27.167 69 -30.5c34.667 -4 74 2.66699 118 20s89.833 40.666 137.5 69.999s95.834 62.166 144.501 98.499l139 105.5l73.5 57.5l65.5 49.5l17 36c6.66699 15.333 16.5 35.833 29.5 61.5
s28 53.334 45 83.001s35.333 59.5 55 89.5s39.667 56.833 60 80.5s40.5 42.667 60.5 57s39 20.5 57 18.5c12 -1.33301 19.5 -6.66602 22.5 -15.999s3.5 -20.333 1.5 -33s-5.5 -25.667 -10.5 -39s-9.5 -24.333 -13.5 -33c-25.333 -51.333 -57.5 -99.166 -96.5 -143.499
s-83.5 -84.833 -133.5 -121.5l-31 -66l38 31.5c12.667 10.333 25.5 19.333 38.5 27s26.333 13.667 40 18s27.834 5.5 42.501 3.5c22.667 -2.66699 37.334 -10.834 44.001 -24.501s8.5 -29.834 5.5 -48.501s-9.16699 -38.334 -18.5 -59.001s-19 -39 -29 -55
c17.333 4 36.166 8.83301 56.499 14.5s37.5 14.834 51.5 27.501l8 4c1.33301 0 2.66602 -0.833008 3.99902 -2.5s1.33301 -3.16699 0 -4.5c-0.666992 -2 -2 -4 -4 -6c-17.333 -15.333 -38 -26.166 -62 -32.499s-45.333 -11.5 -64 -15.5c-9.33301 -12 -22 -27.5 -38 -46.5
s-33.167 -37.333 -51.5 -55s-36.833 -32.667 -55.5 -45s-35.334 -17.5 -50.001 -15.5c-12 2 -21.667 7 -29 15s-7.33301 19.333 0 34c6.66699 14.667 15.834 28 27.501 40s24.5 22.5 38.5 31.5s28.5 17 43.5 24s29.833 12.833 44.5 17.5
c7.33301 9.33301 13.833 19.166 19.5 29.499l16.5 30.5c4 8.66699 8.66699 19.5 14 32.5s9.16602 25.5 11.499 37.5s2.16602 22.667 -0.500977 32s-10 14.666 -22 15.999c-10 0.666992 -20.833 -1.83301 -32.5 -7.5s-23.5 -12.667 -35.5 -21s-23.333 -17.5 -34 -27.5
l-27 -25c-16 -31.333 -28.667 -59.666 -38 -84.999s-16.5 -47.166 -21.5 -65.499s-8.5 -32.5 -10.5 -42.5s-3.66699 -15.333 -5 -16c-0.666992 -0.666992 -1.33398 -1 -2.00098 -1c-13.333 -7.33301 -27 -10.666 -41 -9.99902
c-8.66699 0.666992 -13.834 6.33398 -15.501 17.001s-0.833984 24.5 2.49902 41.5s8.5 36.167 15.5 57.5s14.5 42.666 22.5 63.999l13.5 33.5c4.33301 11 9.16602 21.167 14.499 30.5l-57.5 -42.5l-62.5 -49.5l-93 -71.5l-97.5 -71c-33 -23 -65.833 -44.667 -98.5 -65
s-64.5 -37.666 -95.5 -51.999s-60.833 -25.166 -89.5 -32.499s-55.334 -9.66602 -80.001 -6.99902c-36.667 4.66699 -63.5 17 -80.5 37s-26.5 44 -28.5 72zM210.007 375.996c-2 -2 -2.33496 -2.66504 -1.00195 -1.99805s3.33301 2 6 4l8 6c2.66699 2 4.66699 3.33301 6 4
c80.667 67.333 142.667 144 186 230c2 4 4.83301 10.667 8.5 20s6.83398 18.833 9.50098 28.5s4 18.5 4 26.5s-3 12.333 -9 13c-7.33301 0.666992 -17.166 -5.83301 -29.499 -19.5s-25.833 -31.334 -40.5 -53.001s-30 -45.834 -46 -72.501l-44.5 -77l-36 -66.5z
M110.005 48.998c-1.33301 -3.33301 -2.50098 -6.83398 -3.50098 -10.501s-0.166992 -5.83398 2.5 -6.50098c3.33301 0 8.5 2.33301 15.5 7s14.5 10.167 22.5 16.5s15.5 12.666 22.5 18.999s11.833 10.833 14.5 13.5c6 5.33301 12.5 11.666 19.5 18.999l33.5 35
c-10.667 -3.33301 -22.167 -7.66602 -34.5 -12.999s-24.166 -11.666 -35.499 -18.999s-22 -15.666 -32 -24.999s-17.667 -19.666 -23 -30.999z" />
    <glyph glyph-name="c.001" unicode="&#xe002;" horiz-adv-x="294" 
d="M-638 1c3.33301 -24 12.6631 -44.501 27.9961 -61.501s38.666 -27.5 69.999 -31.5c34.667 -4 73.834 2.66699 117.501 20s89.334 40.666 137.001 69.999s95.834 62.166 144.501 98.499l139 105.5l89.5 69.5c27.667 21 52.5 38.833 74.5 53.5
c20 15.333 40.167 26.5 60.5 33.5s39.833 8.5 58.5 4.5c10.667 -2.66699 17 -8.33398 19 -17.001s1.5 -18.5 -1.5 -29.5s-7.5 -22 -13.5 -33l-16 -28.5c-4 -6.66699 -8.33301 -9.33398 -13 -8.00098c-2.66699 0.666992 -3.5 2.5 -2.5 5.5s2.16699 5.83301 3.5 8.5
c5.33301 10 10.333 20.333 15 31s7 19.5 7 26.5s-3.5 11.167 -10.5 12.5s-19.167 -3 -36.5 -13c-18.667 -10.667 -35.667 -25.667 -51 -45s-27.666 -36.333 -36.999 -51c-10 -16 -19.667 -34 -29 -54s-16.333 -39.167 -21 -57.5s-5.83398 -34.333 -3.50098 -48
s10.833 -22.5 25.5 -26.5c10.667 -3.33301 23.334 -2 38.001 4s29.834 14.5 45.501 25.5s31.667 23.833 48 38.5s31.833 29.5 46.5 44.5l40.5 42.5l30.5 32c4.66699 0.666992 7 -0.333008 7 -3s-0.666992 -5.66699 -2 -9l-28 -32c-10 -11.333 -20.667 -22.666 -32 -33.999
c-26 -26.667 -53.167 -51.667 -81.5 -75s-59.5 -42 -93.5 -56c-15.333 -6 -30 -10.167 -44 -12.5s-27.667 -1.83301 -41 1.5c-17.333 4 -29 13.167 -35 27.5s-7.83301 31.5 -5.5 51.5s8.33301 41.833 18 65.5s22.167 47.167 37.5 70.5l33 44l-92 -72l-93 -71.5l-97.5 -71
c-33 -23 -65.833 -44.667 -98.5 -65s-64.5 -37.666 -95.5 -51.999s-60.833 -25.166 -89.5 -32.499s-55 -9.66602 -79 -6.99902c-37.333 4.66699 -64.833 17.334 -82.5 38.001s-27.167 45 -28.5 73z" />
    <glyph glyph-name="d.001" unicode="&#xe003;" horiz-adv-x="388" 
d="M-638 1c3.33301 -24 12.6631 -44.4941 27.9961 -61.4941s38.666 -27.5 69.999 -31.5c34.667 -4 73.834 2.66699 117.501 20s89.334 40.666 137.001 69.999s95.834 62.166 144.501 98.499l139 105.5l89.5 70c27.667 21.333 53.167 39.333 76.5 54l11.5 8
c3.66699 2.66699 7.5 5 11.5 7c12.667 7.33301 25.834 13.166 39.501 17.499s27.167 6.5 40.5 6.5c25.333 0 42 -10 50 -30l17 31c7.33301 14 17.166 31 29.499 51s26.166 40.667 41.499 62s31.666 42.333 48.999 63s35 39 53 55s35.667 28.333 53 37s34 11.667 50 9
c8 -1.33301 13.333 -4.83301 16 -10.5s3.33398 -12.334 2.00098 -20.001s-3.66602 -15.834 -6.99902 -24.501s-7 -16.334 -11 -23.001c-12.667 -24 -28.167 -48.833 -46.5 -74.5s-38.5 -51 -60.5 -76s-45 -48.333 -69 -70s-48 -40.5 -72 -56.5l-6 -9l-20 -44.5l-25.5 -58.5
l-26 -62.5c-8.33301 -21 -15.166 -40 -20.499 -57s-8.83301 -31 -10.5 -42s-0.166992 -16.5 4.5 -16.5c2.66699 0 8.83398 4.66699 18.501 14s21.167 21.333 34.5 36l42.5 48.5l43 51l36.5 44l22 26.5c0.666992 0.666992 1.66699 1.5 3 2.5s2.66602 1.83301 3.99902 2.5
c5.33301 1.33301 7.33301 -0.333984 6 -5.00098c0 -2.66699 -1 -5 -3 -7l-44 -53l-60.5 -72c-21 -24.667 -41.167 -47.167 -60.5 -67.5s-33.333 -33.5 -42 -39.5c-15.333 -10 -30 -14 -44 -12c-10 1.33301 -16.5 7.16602 -19.5 17.499s-3.66699 23 -2 38
s5.16699 31.667 10.5 50s11 36.166 17 53.499s12 33 18 47s10.667 24.333 14 31l-41 -48.5c-16 -18.333 -32.667 -35.833 -50 -52.5c-19.333 -19.333 -38.833 -35.833 -58.5 -49.5s-36.5 -20.834 -50.5 -21.501c-16 0 -27 5.33301 -33 16s-8 24.834 -6 42.501
s7.66699 37.667 17 60s21 44.833 35 67.5l16 21.5l17 21.5l-92 -71l-93 -71.5l-97.5 -71c-33 -23 -65.833 -44.667 -98.5 -65s-64.5 -37.666 -95.5 -51.999s-60.833 -25.166 -89.5 -32.499s-55 -9.66602 -79 -6.99902c-36.667 4.66699 -63.667 17.167 -81 37.5
s-26.666 44.5 -27.999 72.5h18zM308.997 316.006c-4.66699 18 -12.1641 27.668 -22.4971 29.001s-21.833 -2 -34.5 -10s-25.334 -19 -38.001 -33s-23.334 -27 -32.001 -39c-16 -20 -30.833 -41 -44.5 -63s-24.834 -42.167 -33.501 -60.5s-13.834 -33.833 -15.501 -46.5
s1.5 -19.334 9.5 -20.001c8 0 19.167 5.66699 33.5 17s29.833 26 46.5 44s33.834 37.833 51.501 59.5l49.5 62.5zM596 564.007c0.666992 2 2.33398 5.66504 5.00098 10.998s5.16699 10.833 7.5 16.5s4 10.834 5 15.501s0.5 7.33398 -1.5 8.00098
c-4 0.666992 -11.167 -3.33301 -21.5 -12s-21.166 -18.5 -32.499 -29.5s-21.833 -22 -31.5 -33s-15.834 -18.5 -18.501 -22.5c-27.333 -32 -51.833 -65.833 -73.5 -101.5l-63.5 -107.5c20 12.667 41 29.5 63 50.5s43.167 43.5 63.5 67.5s39.166 48 56.499 72
s31.333 45.667 42 65z" />
    <glyph glyph-name="e.001" unicode="&#xe004;" horiz-adv-x="297" 
d="M-637 1c3.33301 -23.333 12.832 -43.166 28.499 -59.499s38.5 -26.166 68.5 -29.499c23.333 -2.66699 48.833 -0.5 76.5 6.5s56.5 17.667 86.5 32s61 31.333 93 51s64 41 96 64l95.5 70.5l91.5 70l80.5 61.5c25.667 19.667 49.167 36.834 70.5 51.501
c20.667 16.667 41.667 28.667 63 36l6 4h4c11.333 4 24.333 5.33301 39 4c20.667 -1.33301 33.167 -6.83301 37.5 -16.5s3.33301 -21.5 -3 -35.5s-17.166 -29.5 -32.499 -46.5s-32.166 -33.333 -50.499 -49s-37 -30 -56 -43s-35.833 -22.5 -50.5 -28.5
c-4.66699 -12 -8.33398 -24 -11.001 -36s-3.83398 -23 -3.50098 -33s2.5 -18.5 6.5 -25.5s10.333 -11.5 19 -13.5c10.667 -2.66699 23.167 -1.33398 37.5 3.99902s29.333 13.333 45 24s31.5 23.167 47.5 37.5s31.167 28.666 45.5 42.999l39.5 41l30 32.5l2.5 2.5
c1 1 2.16699 1.83301 3.5 2.5c2 0.666992 3.83301 0.5 5.5 -0.5s2.16699 -2.5 1.5 -4.5c0 -2 -1.33301 -4.33301 -4 -7l-3 -4l-2 -2l-1 -1c-5.33301 -6.66699 -12.666 -15.334 -21.999 -26.001s-19.666 -21.667 -30.999 -33c-25.333 -26.667 -52.333 -51.667 -81 -75
s-60 -42 -94 -56c-15.333 -6 -30 -10.167 -44 -12.5s-27.667 -1.83301 -41 1.5c-15.333 4 -26 13.167 -32 27.5s-8 31.5 -6 51.5s7.5 41.833 16.5 65.5s20.167 47.167 33.5 70.5l32 45l-90 -69l-141 -107.5c-49.333 -37 -98.5 -70.5 -147.5 -100.5s-96.333 -53.667 -142 -71
s-86.834 -24 -123.501 -20c-35.333 4 -61.5 15.833 -78.5 35.5s-26.833 43.5 -29.5 71.5zM115.999 164c36 20.667 67.501 43.333 94.501 68s46.5 46 58.5 64c15.333 22.667 19.333 36.167 12 40.5s-20.333 0.5 -39 -11.5s-39.834 -31.667 -63.501 -59
s-44.5 -61.333 -62.5 -102z" />
    <glyph glyph-name="f.001" unicode="&#xe005;" horiz-adv-x="263" 
d="M-543 156c4 -22.667 13.666 -42.1689 28.999 -58.502s38 -26.166 68 -29.499c34.667 -4 74 2.66699 118 20s89.667 40.666 137 69.999s95.333 62.333 144 99l138 106l112 84.5c34 25.667 63.667 45.167 89 58.5c26.667 18 52 26 76 24
c10 -1.33301 16.667 -4.83301 20 -10.5s4.83301 -12.5 4.5 -20.5s-2.16602 -16.333 -5.49902 -25l-10 -25c-10 -19.333 -24.167 -41.333 -42.5 -66s-38.833 -48.5 -61.5 -71.5s-46.167 -43.833 -70.5 -62.5s-47.166 -31.667 -68.499 -39
c-9.33301 -14 -17.5 -27.5 -24.5 -40.5l-21.5 -40.5c14.667 2.66699 33.667 6.5 57 11.5s47 11.167 71 18.5s46.333 16 67 26s36.334 21 47.001 33c3.33301 3.33301 5.66602 5.33301 6.99902 6s2.83301 0.5 4.5 -0.5s2.16699 -2.83301 1.5 -5.5c0 -2 -1 -4 -3 -6
c-13.333 -15.333 -30.833 -28.333 -52.5 -39s-44.5 -19.667 -68.5 -27s-47.833 -13.5 -71.5 -18.5s-43.5 -9.5 -59.5 -13.5c14 -21.333 24.167 -45.666 30.5 -72.999s8.83301 -56.166 7.5 -86.499s-6.16602 -61.5 -14.499 -93.5s-19.833 -63.333 -34.5 -94
c-17.333 -37.333 -38.166 -63 -62.499 -77s-46.833 -19.333 -67.5 -16c-20 2 -33.833 11.167 -41.5 27.5s-10.834 38 -9.50098 65s6.83301 58 16.5 93s22.167 72.333 37.5 112s33 80.5 53 122.5s40.667 83.333 62 124c23.333 42.667 48.166 83.167 74.499 121.5
s52.5 71.833 78.5 100.5c-17.333 -12 -36 -25.667 -56 -41l-62 -49l-141 -107.5c-49.333 -37 -98.5 -70.333 -147.5 -100s-96.333 -53.334 -142 -71.001s-86.834 -24.5 -123.501 -20.5c-34.667 4 -60.5 15.833 -77.5 35.5s-27.167 42.834 -30.5 69.501h19zM58.999 -235.002
c18.667 39.333 32.332 80.333 40.999 123s10.334 83 5.00098 121c-1.33301 18 -5 34.167 -11 48.5s-13.667 27.833 -23 40.5c-6 -10.667 -14.167 -27.834 -24.5 -51.501s-21 -50.334 -32 -80.001s-21.5 -60.334 -31.5 -92.001s-17.5 -60.667 -22.5 -87
s-6.66699 -48.333 -5 -66s8.83398 -27.167 21.501 -28.5c8.66699 -0.666992 17.167 1.33301 25.5 6s16.166 10.834 23.499 18.501s13.833 15.834 19.5 24.501s10.167 16.334 13.5 23.001zM369.997 506.998c-7.33301 0.666992 -17.3311 -4.66992 -29.998 -16.0029
s-26.667 -25.833 -42 -43.5s-31 -37.5 -47 -59.5l-45 -64l-37 -55.5c-10.667 -16.333 -18 -28.166 -22 -35.499c19.333 7.33301 40 19.833 62 37.5s43 37.334 63 59.001s38.333 43.667 55 66s29 42.166 37 59.499c2 2.66699 4.16699 6.83398 6.5 12.501
s4.16602 11.334 5.49902 17.001s1.66602 10.667 0.999023 15s-3 6.83301 -7 7.5z" />
    <glyph glyph-name="g.001" unicode="&#xe006;" horiz-adv-x="384" 
d="M-637 2c0.666992 -13.333 4 -25.3369 10 -36.0039s13.5 -20 22.5 -28s19.167 -14.333 30.5 -19s22.666 -7.66699 33.999 -9c34.667 -4 74 2.66699 118 20s89.833 40.666 137.5 69.999s95.667 62.166 144 98.499l138.5 105.5l82.5 63c25.667 20 49.167 37.333 70.5 52
c5.33301 3.33301 10.5 6.83301 15.5 10.5s10.167 7.16699 15.5 10.5c12.667 7.33301 25.834 13.333 39.501 18s27.167 7 40.5 7c24.667 0 41.667 -11 51 -33c3.33301 4 8.16602 7.5 14.499 10.5s11.833 4.5 16.5 4.5c5.33301 -0.666992 10.166 -2.5 14.499 -5.5
s8.16602 -6.5 11.499 -10.5l-108 -258c14 8 29.5 17.667 46.5 29s33.833 23.333 50.5 36s33 25.834 49 39.501s30 27.167 42 40.5l3.5 3.5c1 1 2.16699 1.83301 3.5 2.5c6 1.33301 8.33301 -0.666992 7 -6l-3 -6c-8.66699 -10 -19.167 -20.667 -31.5 -32
s-25.333 -22.5 -39 -33.5l-41 -31.5l-36.5 -27c-9.33301 -6 -19 -11.833 -29 -17.5s-20.333 -11.167 -31 -16.5c-4.66699 -12.667 -11.167 -28.667 -19.5 -48s-18 -40.666 -29 -63.999s-23.333 -48 -37 -74s-27.834 -51.5 -42.501 -76.5s-30 -48.833 -46 -71.5
s-32 -42.667 -48 -60c-35.333 -33.333 -64.666 -52.666 -87.999 -57.999s-39.666 -0.666016 -48.999 14.001s-11.5 37.334 -6.5 68.001s18.833 65.667 41.5 105s54.334 80.666 95.001 123.999s91.334 84.666 152.001 123.999c9.33301 21.333 19 45.5 29 72.5
s20.667 54.167 32 81.5l-37.5 -43.5c-13.667 -15.667 -28.167 -30.834 -43.5 -45.501c-19.333 -19.333 -39 -36 -59 -50s-36.667 -21 -50 -21c-12.667 0 -21.5 5.5 -26.5 16.5s-6.66699 25.333 -5 43s6.83398 37.667 15.501 60s20 44.833 34 67.5l16 22.5l16 22.5
c-13.333 -11.333 -27.666 -22.666 -42.999 -33.999l-48 -37l-93 -71.5l-97 -71c-32.667 -23 -65.334 -44.667 -98.001 -65s-64.5 -37.666 -95.5 -51.999s-60.833 -25.166 -89.5 -32.499s-55.334 -9.66602 -80.001 -6.99902c-36 4 -62.5 16 -79.5 36s-26.5 43.667 -28.5 71v1
zM167 16.9961c-27.333 -19.333 -51.8301 -38.167 -73.4971 -56.5s-43.834 -39.833 -66.501 -64.5c-39.333 -44 -69 -85.5 -89 -124.5s-31.333 -71.167 -34 -96.5c-2 -13.333 -1.83301 -23.5 0.5 -30.5s7 -10.333 14 -10s16 5 27 14s24.5 23.167 40.5 42.5
c19.333 24.667 38.666 53.167 57.999 85.5s37.166 64.333 53.499 96s30.5 60.667 42.5 87s21 45.5 27 57.5zM302.003 318.995c-5.33301 16.667 -13.167 25.335 -23.5 26.002s-21.5 -3.16602 -33.5 -11.499s-24.167 -19.333 -36.5 -33s-22.833 -26.167 -31.5 -37.5
c-16 -20 -30.833 -41 -44.5 -63s-24.834 -42.333 -33.501 -61s-14 -34.334 -16 -47.001s1.33301 -19.334 10 -20.001c7.33301 0 17 4.66699 29 14s25.333 21.666 40 36.999s29.834 32.333 45.501 51l45.5 56l21.5 45c7 14 14.167 26.333 21.5 37z" />
    <glyph glyph-name="h.001" unicode="&#xe007;" horiz-adv-x="331" 
d="M-631 1c4.66699 -20.667 14.668 -38.333 30.001 -53s37 -23.667 65 -27c34.667 -4 74 2.66699 118 20s89.833 40.833 137.5 70.5s95.667 62.667 144 99l138.5 105.5l88 69c13.333 34 28.666 69.167 45.999 105.5s35.833 71.166 55.5 104.499s40.167 64.5 61.5 93.5
s43.166 53.5 65.499 73.5s44.666 34.667 66.999 44s44.5 11.333 66.5 6c16 0 26.667 -4 32 -12s7.16602 -18.167 5.49902 -30.5s-5.83398 -25.666 -12.501 -39.999s-14.334 -27.833 -23.001 -40.5c-14 -20.667 -30.833 -41.667 -50.5 -63s-39.834 -42 -60.501 -62l-60.5 -56
l-51.5 -45l-43 -34l-20.5 -46c-7.66699 -17.333 -13.834 -32.333 -18.501 -45l-3 -4l-2 -8c10 14 21.833 29.667 35.5 47s28.334 33.333 44.001 48s31.5 26.834 47.5 36.501s31.667 14.167 47 13.5c8.66699 -0.666992 15.334 -3.5 20.001 -8.5s7.66699 -11.333 9 -19
s1.16602 -16.167 -0.500977 -25.5s-4.16699 -18 -7.5 -26c-14 -34 -29.5 -67.333 -46.5 -100s-32.167 -66.667 -45.5 -102c-9.33301 -20 -14.5 -34.167 -15.5 -42.5s0.166992 -12.5 3.5 -12.5c4.66699 0 11.334 4.16699 20.001 12.5s18.334 18.833 29.001 31.5l32.5 39.5
l33 41.5l28 35.5l18.5 22.5c1.33301 1.33301 2.66602 2.5 3.99902 3.5s2.66602 1.83301 3.99902 2.5c4.66699 1.33301 7 -0.666992 7 -6c-0.666992 -0.666992 -1.16699 -1.5 -1.5 -2.5s-1.16602 -2.16699 -2.49902 -3.5c-17.333 -23.333 -35.666 -46.5 -54.999 -69.5
l-55 -67.5c-11.333 -14.667 -22.833 -27.667 -34.5 -39s-22.167 -20.666 -31.5 -27.999c-3.33301 -2.66699 -7.66602 -5.16699 -12.999 -7.5s-9.66602 -3.83301 -12.999 -4.5c-18 -3.33301 -29.5 0.333984 -34.5 11.001s-5.66699 25.5 -2 44.5s10.334 40.5 20.001 64.5
s20 47.667 31 71l31.5 64.5c10 19.667 17.333 34.834 22 45.501c4 11.333 7.16699 21.333 9.5 30s-1.5 12.334 -11.5 11.001c-11.333 -2.66699 -24.5 -11.167 -39.5 -25.5s-29.5 -30.333 -43.5 -48s-26.667 -34.834 -38 -51.501s-19 -29 -23 -37l-15 -37l-2 -7
c-8.66699 -26 -14.167 -46.5 -16.5 -61.5s-4.16602 -22.833 -5.49902 -23.5c0 -1.33301 -0.666992 -2 -2 -2c-14 -8 -28.667 -11 -44 -9c-5.33301 0.666992 -8.66602 5.66699 -9.99902 15s-1 22.166 1 38.499s5.83301 35.5 11.5 57.5s12.5 45.667 20.5 71
c3.33301 6 6 12.333 8 19s4.33301 13.667 7 21l-70 -55l-141 -107.5c-49.333 -37 -98.5 -70.333 -147.5 -100s-96.333 -53.334 -142 -71.001s-86.834 -24.5 -123.501 -20.5c-33.333 3.33301 -58.5 14.166 -75.5 32.499s-27.5 40.166 -31.5 65.499zM200.001 355.001
l67.5 57.001c27 23.333 53.833 48.166 80.5 74.499s51 53 73 80s37.333 51.833 46 74.5s10.334 37.167 5.00098 43.5s-14 7.5 -26 3.5s-25.5 -11.5 -40.5 -22.5s-28.167 -22.5 -39.5 -34.5c-18 -20 -35.5 -43 -52.5 -69s-32.833 -52 -47.5 -78s-27.834 -50.5 -39.501 -73.5
s-20.5 -41.5 -26.5 -55.5z" />
    <glyph glyph-name="i.001" unicode="&#xe008;" horiz-adv-x="183" 
d="M-701 1c0.666992 -29.333 9.33496 -53.832 26.002 -73.499s40.667 -31.167 72 -34.5c34.667 -4 74 2.66699 118 20s89.667 40.666 137 69.999s95.333 62.166 144 98.499l139 105.5l121.5 92.5c36.333 27 66.833 46.167 91.5 57.5c2 1.33301 4 2.33301 6 3
s4.33301 1.66699 7 3c10.667 2.66699 19.667 2 27 -2s8.33301 -12.333 3 -25l-15.5 -26c-7.66699 -12.667 -16 -27.5 -25 -44.5s-18 -35 -27 -54s-16.167 -36.333 -21.5 -52s-8 -29 -8 -40s4.33301 -16.833 13 -17.5c8 -0.666992 18.833 5 32.5 17s27.667 25.833 42 41.5
s27.666 31.167 39.999 46.5s21.166 25.666 26.499 30.999c4.66699 4.66699 8.5 6.16699 11.5 4.5s2.5 -5.5 -1.5 -11.5l-1 -1l-41 -49c-17.333 -20.667 -35.666 -40.667 -54.999 -60s-38.833 -35.666 -58.5 -48.999s-37.5 -18.666 -53.5 -15.999
c-9.33301 1.33301 -15.833 5.5 -19.5 12.5s-5.66699 15.667 -6 26s1 21.666 4 33.999s6.5 25.166 10.5 38.499l27 71l22.5 42.5c7.66699 14.333 15.167 27.5 22.5 39.5c-21.333 -14.667 -46.333 -32.834 -75 -54.501l-91 -70.5l-93 -71.5l-97.5 -71
c-33 -23 -65.833 -44.667 -98.5 -65s-64.5 -37.666 -95.5 -51.999s-60.833 -25.166 -89.5 -32.499s-55.334 -9.66602 -80.001 -6.99902c-36.667 4 -64 17.667 -82 41s-27 51 -27 83zM180.001 356.001c-11.333 4 -17.333 11.0029 -18 21.0029s2.16602 19.667 8.49902 29
s15 17.166 26 23.499s22.167 7.83301 33.5 4.5c10 -2.66699 15.167 -8.83398 15.5 -18.501s-2.5 -19.5 -8.5 -29.5s-14.167 -18.333 -24.5 -25s-21.166 -8.33398 -32.499 -5.00098z" />
    <glyph glyph-name="j.001" unicode="&#xe009;" horiz-adv-x="198" 
d="M-708 4c-1.33301 -30.667 6.66406 -56.6689 23.9971 -78.002s42.333 -33.666 75 -36.999c34.667 -4 73.834 2.66699 117.501 20s89.334 40.666 137.001 69.999s95.834 62.166 144.501 98.499l139 105.5l119 91c36.667 27.333 67 46.666 91 57.999
c2.66699 1.33301 5.33398 2.5 8.00098 3.5s5.66699 1.83301 9 2.5c8.66699 2.66699 16.667 2.83398 24 0.500977s8.66602 -8.5 3.99902 -18.5l-99 -247c14 8 29 17.667 45 29s31.833 23.333 47.5 36s30.834 25.834 45.501 39.501s28 27.167 40 40.5
c4 4.66699 7.83301 6.5 11.5 5.5s3.83398 -4.83301 0.500977 -11.5c-8.66699 -10 -18.834 -20.667 -30.501 -32s-24 -22.5 -37 -33.5l-39 -31.5l-35.5 -27c-18 -12 -36.667 -23.333 -56 -34c-4.66699 -12.667 -11 -28.667 -19 -48s-17.5 -40.666 -28.5 -63.999l-36 -73.5
c-13 -25.667 -27.167 -51.167 -42.5 -76.5s-31.333 -49.333 -48 -72s-34 -42.667 -52 -60c-35.333 -33.333 -64.666 -52.666 -87.999 -57.999s-39.833 -0.666016 -49.5 14.001s-11.834 37.334 -6.50098 68.001s19.166 65.667 41.499 105s53.833 80.666 94.5 123.999
s91.667 84.666 153 123.999c14.667 34 27.5 66.333 38.5 97l30.5 84l18.5 41.5c5.66699 12.333 12.167 23.833 19.5 34.5c-22 -14.667 -47.167 -32.667 -75.5 -54l-90.5 -69l-141.5 -107.5c-49.667 -37 -99 -70.5 -148 -100.5s-96.167 -53.667 -141.5 -71
s-86.333 -24 -123 -20c-38 4 -66 18.833 -84 44.5s-26.333 55.5 -25 89.5zM-12.0029 16.998c-27.333 -19.333 -51.998 -38.167 -73.998 -56.5s-44 -39.833 -66 -64.5c-40 -44 -70.167 -85.5 -90.5 -124.5s-31.833 -71.167 -34.5 -96.5c-2 -13.333 -1.66699 -23.5 1 -30.5
s7.33398 -10.333 14.001 -10s15.667 5 27 14s24.666 23.167 39.999 42.5c20 24.667 39.667 53.167 59 85.5s37.166 64.333 53.499 96s30.666 60.667 42.999 87zM160.999 352.997c-11.333 4 -17.5 10.834 -18.5 20.501s1.5 19.334 7.5 29.001s14.333 17.667 25 24
s22 8.16602 34 5.49902c10 -2.66699 15.333 -8.83398 16 -18.501s-1.83301 -19.5 -7.5 -29.5s-13.5 -18.5 -23.5 -25.5s-21 -8.83301 -33 -5.5z" />
    <glyph glyph-name="k.001" unicode="&#xe00a;" horiz-adv-x="330" 
d="M-640 0c2.66699 -26.667 12.3311 -48.9951 28.998 -66.9951s39.667 -28.667 69 -32c34.667 -4 74 2.66699 118 20s89.667 40.666 137 69.999s95.333 62.166 144 98.499l139 105.5l87 68c14 36 29.5 72.333 46.5 109s35.5 72 55.5 106s41.333 66.333 64 97s47 58 73 82
c20 18.667 40.333 33.5 61 44.5s41.334 16.167 62.001 15.5c17.333 0 28.666 -7.16699 33.999 -21.5s4.66602 -30.833 -2.00098 -49.5c-11.333 -26 -27.666 -53 -48.999 -81s-44.5 -55.167 -69.5 -81.5s-50 -51 -75 -74l-65.5 -58.5l-29 -26
c-8 -7.33301 -13.667 -12.666 -17 -15.999c-7.33301 -11.333 -13 -22.833 -17 -34.5s-8.66699 -23.834 -14 -36.501l-1 -2c0 -0.666992 -0.166992 -1.16699 -0.5 -1.5s-0.5 -0.833008 -0.5 -1.5l53.5 59c19 20.667 38.5 39.5 58.5 56.5s39.833 31 59.5 42
s38.5 16.5 56.5 16.5c9.33301 0 16.5 -2.66699 21.5 -8s8 -12 9 -20s0 -16.833 -3 -26.5s-7.5 -18.5 -13.5 -26.5c-8 -10 -17.5 -19.833 -28.5 -29.5s-22.833 -18.334 -35.5 -26.001s-26 -14 -40 -19s-28 -7.83301 -42 -8.5c8 -6 13.5 -14.167 16.5 -24.5
s4.16699 -21.833 3.5 -34.5s-2.33398 -25.834 -5.00098 -39.501s-5.66699 -26.834 -9 -39.501c-6 -21.333 -7 -34.166 -3 -38.499s11 -3.16602 21 3.50098s21.667 17 35 31l40 44l37 43.5l24 29.5c2 1.33301 3.5 2.5 4.5 3.5s2.16699 1.83301 3.5 2.5
c2 0.666992 3.83301 0.5 5.5 -0.5s2.16699 -2.83301 1.5 -5.5c-0.666992 -0.666992 -1.16699 -1.5 -1.5 -2.5s-1.16602 -2.16699 -2.49902 -3.5l-40.5 -49.5c-18.333 -22.333 -37.833 -44.666 -58.5 -66.999s-41 -42 -61 -59s-36 -25.5 -48 -25.5c-10 0 -17 3.5 -21 10.5
s-6.16699 16.167 -6.5 27.5s0.666992 24.166 3 38.499s5.16602 29.166 8.49902 44.499c2.66699 14 5.16699 28 7.5 42s3.5 26.833 3.5 38.5s-1.33301 21.334 -4 29.001s-8 12.167 -16 13.5l-23.5 -27.5c-8.33301 -9.66699 -15.166 -18.167 -20.499 -25.5
c-3.33301 -5.33301 -7.5 -16.333 -12.5 -33l-15 -52l-14 -49c-4.33301 -14.667 -7.5 -22.334 -9.5 -23.001c-13.333 -8 -27.666 -11 -42.999 -9c-8 0.666992 -13.333 5.5 -16 14.5s-1.66699 20.833 3 35.5l20 63.5l23 68.5c3.33301 7.33301 6 14 8 20l-33 -26.5
c-11.333 -9 -23.666 -18.167 -36.999 -27.5l-140 -108c-49.333 -37.333 -98.333 -70.833 -147 -100.5s-96 -53.334 -142 -71.001s-87.333 -24.5 -124 -20.5c-34.667 4 -61 17.167 -79 39.5s-27.667 48.833 -29 79.5zM461.997 646.005
c2.66699 9.33301 3.99707 19.1699 3.99707 29.5029s-5.33301 16.833 -16 19.5c-16 -1.33301 -32.5 -8.83301 -49.5 -22.5s-34.167 -31.167 -51.5 -52.5s-34.166 -45 -50.499 -71s-31.666 -51.833 -45.999 -77.5s-27.166 -49.834 -38.499 -72.501
s-20.333 -41.334 -27 -56.001c45.333 37.333 83.833 71.166 115.5 101.499s57.167 56.833 76.5 79.5c28 32 48 58.5 60 79.5s19.667 35.167 23 42.5zM326.994 382.009c-6.66699 0 -15.5 -3.66602 -26.5 -10.999s-23.333 -16.833 -37 -28.5s-27.667 -24.5 -42 -38.5
l-41.5 -41l43 3c14.667 2.66699 28.167 7.16699 40.5 13.5s23.166 13.666 32.499 21.999s17.333 17 24 26s11.334 17.5 14.001 25.5c3.33301 8 4.5 14.833 3.5 20.5s-4.5 8.5 -10.5 8.5z" />
    <glyph glyph-name="l.001" unicode="&#xe00b;" horiz-adv-x="245" 
d="M-612 -1c16.667 -30.667 44.3389 -48.3301 83.0059 -52.9971c34.667 -4 74.167 2.66699 118.5 20s90.166 40.833 137.499 70.5s95.166 62.667 143.499 99l138.5 105.5l94 73l13 29c6.66699 14.667 16.5 34.834 29.5 60.501s28 53.334 45 83.001s35.333 59.5 55 89.5
s39.834 57 60.501 81s41 43.167 61 57.5s39 20.5 57 18.5c11.333 -1.33301 18.5 -6.83301 21.5 -16.5s3.5 -20.834 1.5 -33.501s-5.5 -25.667 -10.5 -39s-9.5 -24.333 -13.5 -33c-25.333 -51.333 -57.5 -99 -96.5 -143s-83.167 -84 -132.5 -120
c-4 -8.66699 -10.333 -23.167 -19 -43.5s-17.834 -43.333 -27.501 -69s-18.834 -52.167 -27.501 -79.5s-15 -52.333 -19 -75s-4.66699 -41.334 -2 -56.001s10.334 -22 23.001 -22c8 0 17.5 4.16699 28.5 12.5s22.5 19 34.5 32s24 27.5 36 43.5l35 48l31 45l23 34
c4 5.33301 8 7 12 5s3.33301 -5.66699 -2 -11c-12.667 -16.667 -28.167 -38.834 -46.5 -66.501s-38.333 -54.667 -60 -81s-43.834 -49.166 -66.501 -68.499s-44.334 -29 -65.001 -29c-21.333 0 -36 7.83301 -44 23.5s-11.5 35.667 -10.5 60s5.16699 51.333 12.5 81
s15.666 58.5 24.999 86.5l27 68l-74 -57l-141 -108c-49.333 -37.333 -98.5 -70.833 -147.5 -100.5s-96.333 -53.334 -142 -71.001s-86.834 -24.5 -123.501 -20.5c-25.333 3.33301 -46.333 11.166 -63 23.499s-28.667 28.166 -36 47.499zM206.005 373.004
c-2 -2 -2.33203 -2.66602 -0.999023 -1.99902s3.16602 2 5.49902 4l7.5 6.5c2.66699 2.33301 4.66699 3.83301 6 4.5c80.667 65.333 142.667 141.666 186 228.999c2 4 4.83301 10.667 8.5 20s7 19 10 29s4.33301 18.833 4 26.5s-3.5 12.167 -9.5 13.5
c-6.66699 0.666992 -16.167 -5.83301 -28.5 -19.5s-26 -31.5 -41 -53.5s-30.333 -46.167 -46 -72.5l-44 -77l-36 -67z" />
    <glyph glyph-name="m.001" unicode="&#xe00c;" horiz-adv-x="490" 
d="M-742 2c5.33301 -22.667 15.999 -41.499 31.999 -56.499s37 -24.167 63 -27.5c34.667 -4 74 2.66699 118 20s89.833 40.666 137.5 69.999s95.667 62.166 144 98.499l138.5 105.5l127.5 96.5c38.333 28.333 69.166 47.166 92.499 56.499c8.66699 4 18 7.5 28 10.5
s19.167 5 27.5 6s15.333 0.333008 21 -2s9.16699 -6.83301 10.5 -13.5c0.666992 -4 -1.16602 -12 -5.49902 -24s-9.83301 -25.5 -16.5 -40.5l-20.5 -45l-17.5 -37.5l-6 -12l148 179c6 6 12.667 10.667 20 14s14.333 5 21 5s12 -2.16699 16 -6.5s5.66699 -11.166 5 -20.499
c-0.666992 -5.33301 -3 -13.166 -7 -23.499l-13.5 -34c-5 -12.333 -10.5 -24.833 -16.5 -37.5l-16 -34l-11 -24c-2.66699 -6 -3.33398 -8.33301 -2.00098 -7l40.5 45l34 38.5l35 38c12.333 13 26.833 27.5 43.5 43.5c4.66699 4.66699 10.834 9.33398 18.501 14.001
s15.167 7.83398 22.5 9.50098s14 1.16699 20 -1.5s10 -8.33398 12 -17.001c2.66699 -8.66699 3.83398 -17.834 3.50098 -27.501s-2.66602 -21 -6.99902 -34s-10.5 -27.833 -18.5 -44.5s-18.333 -36 -31 -58c-2 -4 -6.33301 -12.167 -13 -24.5l-23 -43.5l-26.5 -52.5
c-9 -18.333 -16.5 -35.166 -22.5 -50.499s-9.83301 -28.166 -11.5 -38.499s0.833008 -15.833 7.5 -16.5c2.66699 0 8.83398 4.66699 18.501 14s21 21.333 34 36l42.5 48.5l43.5 51l36 44c10.333 13 17.5 21.833 21.5 26.5l7 5c5.33301 1.33301 7.33301 -0.333984 6 -5.00098
c0 -3.33301 -0.666992 -5.66602 -2 -6.99902l-44 -53l-60.5 -72c-21 -24.667 -41.167 -47.167 -60.5 -67.5s-33.333 -33.5 -42 -39.5c-15.333 -10 -30 -14 -44 -12c-13.333 2 -22 8.33301 -26 19s-4.66699 24 -2 40s7.66699 33.5 15 52.5s15.5 37.833 24.5 56.5
s17.833 35.834 26.5 51.501l21 37.5c20 33.333 34 59.833 42 79.5s10 31 6 34s-14.5 -3 -31.5 -18s-40.833 -40.167 -71.5 -75.5l-34 -38.5c-12 -13 -23.667 -25 -35 -36s-21.5 -19.833 -30.5 -26.5s-15.5 -10 -19.5 -10c-8 0.666992 -12.167 5.33398 -12.5 14.001
s1.5 19.5 5.5 32.5s9.66699 27.5 17 43.5l21.5 47l19.5 42c6 12.667 9.66699 22 11 28l-61.5 -74.5l-43.5 -54l-30 -37.5c-8 -10 -14.667 -18.667 -20 -26c-4.66699 -6.66699 -9 -14.834 -13 -24.501l-11.5 -29c-3.66699 -9.66699 -7.33398 -18.834 -11.001 -27.501
s-6.83398 -15.334 -9.50098 -20.001c-7.33301 -5.33301 -16 -8.5 -26 -9.5s-18.667 -1.16699 -26 -0.5c-4 9.33301 -5.16699 20.666 -3.5 33.999s5.33398 28 11.001 44s12.667 32.833 21 50.5l25.5 52.5c13.333 25.333 25 49.5 35 72.5s15 42.167 15 57.5h-1
c-22.667 -8.66699 -52.5 -26.5 -89.5 -53.5l-124.5 -94.5l-141.5 -107.5c-49.667 -37 -99 -70.5 -148 -100.5s-96.333 -53.667 -142 -71s-86.834 -24 -123.501 -20c-32 3.33301 -56.833 14.5 -74.5 33.5s-28.5 41.833 -32.5 68.5z" />
    <glyph glyph-name="n.001" unicode="&#xe00d;" horiz-adv-x="365" 
d="M-748 1c5.33301 -22.667 16.001 -41.333 32.001 -56s37 -23.667 63 -27c34.667 -4 74 2.66699 118 20s89.833 40.666 137.5 69.999s95.667 62.166 144 98.499l138.5 105.5l127.5 97c37.667 28 68.834 46.667 93.501 56h1c14.667 6.66699 29.834 11.667 45.501 15
s27.167 2.33301 34.5 -3c4.66699 -4 4.16699 -15.167 -1.5 -33.5s-13 -38.833 -22 -61.5s-18.333 -44.667 -28 -66s-16.167 -37 -19.5 -47l25.5 38.5l18 27l12.5 19.5c3.33301 5.33301 6.66602 10.333 9.99902 15c13.333 20 25.166 36.667 35.499 50
s19.666 24.333 27.999 33s16 15.5 23 20.5s13.833 9.5 20.5 13.5c10 6 20.167 9.83301 30.5 11.5s19.833 1.33398 28.5 -0.999023s15.667 -6.5 21 -12.5s8 -14 8 -24c0 -16.667 -4.83301 -37 -14.5 -61s-21.5 -49.333 -35.5 -76l-43.5 -79.5
c-15 -26.333 -27.833 -50.166 -38.5 -71.499s-17.5 -38.666 -20.5 -51.999s0.5 -20.333 10.5 -21c2.66699 -0.666992 8.83398 3.83301 18.501 13.5s21.167 21.834 34.5 36.501l42.5 48.5l43 51l36.5 43.5l22 26c4 5.33301 7.83301 6.83301 11.5 4.5
s2.83398 -5.83301 -2.49902 -10.5l-26 -32.5l-36 -44.5l-41.5 -49l-41.5 -47c-13.333 -14.667 -25.333 -27.334 -36 -38.001s-19 -17.667 -25 -21c-15.333 -10.667 -30 -14.667 -44 -12c-18 2.66699 -27.667 12.167 -29 28.5s2.16699 36.5 10.5 60.5s19.833 50.333 34.5 79
l43.5 84c14.333 27.333 26.5 52.666 36.5 75.999s14.333 41.666 13 54.999c-0.666992 8.66699 -3.66699 13 -9 13s-12.333 -3.5 -21 -10.5s-18.5 -17.167 -29.5 -30.5s-22.5 -29 -34.5 -47l-23.5 -34.5l-30 -44.5l-31.5 -45.5c-10.667 -15 -20.334 -27.5 -29.001 -37.5
c-3.33301 -6.66699 -6.66602 -13.834 -9.99902 -21.501s-6.66602 -14.834 -9.99902 -21.501l-8.5 -16.5c-2.33301 -4.33301 -3.83301 -6.5 -4.5 -6.5c-1.33301 -2 -4.5 -3.66699 -9.5 -5s-10.333 -2.5 -16 -3.5s-11 -1.66699 -16 -2s-8.16699 -0.5 -9.5 -0.5
c-6 0.666992 -8 6.33398 -6 17.001s6 24.5 12 41.5s13.667 36.167 23 57.5l28 65c13.333 28 24.5 54 33.5 78s13.167 42.667 12.5 56c-1.33301 -2 -2.33301 -3 -3 -3c-22.667 -8.66699 -52.334 -26.667 -89.001 -54l-124 -94l-93.5 -72l-98 -71.5
c-33 -23 -65.833 -44.667 -98.5 -65s-64.5 -37.666 -95.5 -51.999s-60.833 -25.166 -89.5 -32.499s-55.334 -9.66602 -80.001 -6.99902c-31.333 3.33301 -55.833 14.166 -73.5 32.499s-28.834 40.5 -33.501 66.5z" />
    <glyph glyph-name="o.001" unicode="&#xe00e;" horiz-adv-x="344" 
d="M-667 -1c5.33301 -22 16.0049 -40.3359 32.0049 -55.0029s37 -23.667 63 -27c34.667 -4 74 2.66699 118 20s89.667 40.666 137 69.999s95.333 62.166 144 98.499l139 105.5l115.5 88c35 26 65.167 45.333 90.5 58l7.5 4.5c1.66699 1 4.16699 1.83301 7.5 2.5h2
c0.666992 0.666992 2.33398 1 5.00098 1c4.66699 0 8.5 -2.16699 11.5 -6.5s5.33301 -9.16602 7 -14.499s2.66699 -10.833 3 -16.5s0.166016 -10.5 -0.500977 -14.5c8.66699 28.667 19.667 49.834 33 63.501s26.166 21.167 38.499 22.5s23.5 -3.16699 33.5 -13.5
s16.5 -25.5 19.5 -45.5s1.16699 -44.167 -5.5 -72.5s-20.334 -60.166 -41.001 -95.499c19.333 -3.33301 39.166 -0.5 59.499 8.5s39.5 21.5 57.5 37.5l7 4c6 0 7.66699 -2.66699 5 -8c-1.33301 -2.66699 -3.33301 -4.33398 -6 -5.00098l-24.5 -19.5
c-9 -7 -19 -13.167 -30 -18.5s-23.167 -9.33301 -36.5 -12s-27.333 -3 -42 -1l-31.5 -48c-14.333 -21.333 -31.166 -42.666 -50.499 -63.999s-40.833 -40.166 -64.5 -56.499s-47.834 -24.5 -72.501 -24.5c-22.667 0 -38.167 7.83301 -46.5 23.5s-11.333 35.834 -9 60.501
s8.66602 51.834 18.999 81.501s22.833 58.834 37.5 87.501l30 50.5c10 16.333 20.667 31.166 32 44.499c-21.333 -14 -44.833 -30.833 -70.5 -50.5l-82.5 -63.5l-140.5 -107.5c-49.667 -37 -99 -70.5 -148 -100.5s-96.333 -53.667 -142 -71s-86.834 -24 -123.501 -20
c-31.333 3.33301 -55.833 14.166 -73.5 32.499s-28.5 40.833 -32.5 67.5zM140.005 15.9971c16.667 9.33301 35.5 25.166 56.5 47.499s44.833 55.166 71.5 98.499c-26 14.667 -43.167 33.334 -51.5 56.001s-9.83301 51 -4.5 85v-1c-2.66699 4.66699 -8 3.33398 -16 -3.99902
s-17 -18.5 -27 -33.5s-20.167 -32.667 -30.5 -53s-19.833 -41 -28.5 -62s-15.667 -41.167 -21 -60.5s-7.33301 -35.833 -6 -49.5s6.33301 -23 15 -28s22.667 -3.5 42 4.5zM279.005 177.997c20 30 33.5 59.166 40.5 87.499s8.83301 52.166 5.5 71.499
c-2.66699 14 -7.16699 25.167 -13.5 33.5s-13.833 12.833 -22.5 13.5s-17.5 -3.16602 -26.5 -11.499s-17.5 -22.166 -25.5 -41.499c-6.66699 -16 -10.667 -32.167 -12 -48.5s-0.333008 -31.5 3 -45.5s9.33301 -26.333 18 -37s19.667 -18 33 -22z" />
    <glyph glyph-name="p.001" unicode="&#xe00f;" 
d="M-741 -142c0 -30 8.49512 -55.333 25.4951 -76s41.167 -32.667 72.5 -36c34.667 -4 74.167 2.66699 118.5 20s90.166 40.666 137.499 69.999s95.333 62.333 144 99l139 106l75.5 57l65.5 49l28 71l34 80c10.667 24.667 19.667 43.667 27 57c0.666992 2 5 5.5 13 10.5
s16.167 8.33301 24.5 10s15 0.166992 20 -4.5s5.5 -15.334 1.5 -32.001c-3.33301 -15.333 -8.5 -31.833 -15.5 -49.5l-17.5 -44.5c11.333 10 24.333 22.167 39 36.5s30 28 46 41s32.5 24 49.5 33s33.5 13.167 49.5 12.5c17.333 -1.33301 29.833 -6.5 37.5 -15.5
s11.5 -20.167 11.5 -33.5s-2.83301 -28.5 -8.5 -45.5s-12.667 -33.833 -21 -50.5s-17.5 -32.667 -27.5 -48s-19.333 -28.333 -28 -39c10 -1.33301 21.833 -1.33301 35.5 0s28.167 5 43.5 11s30.833 14.667 46.5 26s30.5 26.333 44.5 45
c1.33301 1.33301 2.66602 2.33301 3.99902 3l4 2c4.66699 1.33301 7 -0.333984 7 -5.00098c-0.666992 -1.33301 -1.16699 -2.5 -1.5 -3.5s-1.16602 -2.16699 -2.49902 -3.5l-3 -4c-29.333 -34 -59.333 -57.667 -90 -71s-64.667 -19 -102 -17l-30 -31
c-18.667 -19.333 -40 -36 -64 -50s-47.333 -20.333 -70 -19s-35.167 8.33301 -37.5 21s2.33398 26.334 14.001 41.001s28.834 28 51.501 40s47.334 18 74.001 18c3.33301 4 8.83301 11.667 16.5 23s15.667 24.333 24 39s15.833 29.834 22.5 45.501s11.334 29.667 14.001 42
s2.33398 22 -0.999023 29s-11.666 9.5 -24.999 7.5c-7.33301 -1.33301 -15.666 -5.16602 -24.999 -11.499s-19 -14.166 -29 -23.499c-2 -1.33301 -6.5 -5.5 -13.5 -12.5l-23.5 -22.5l-24.5 -22.5c-7.66699 -7 -12.834 -11.833 -15.501 -14.5s-5.33398 -7.5 -8.00098 -14.5
s-6 -15.167 -10 -24.5l-38 -91c-15.333 -37.333 -32.833 -77.5 -52.5 -120.5s-40.834 -86.333 -63.501 -130s-46.667 -83 -72 -118s-51.5 -63.667 -78.5 -86s-54.167 -33.5 -81.5 -33.5c-15.333 0 -26.333 6.5 -33 19.5s-8.66699 30.5 -6 52.5s10.334 47.5 23.001 76.5
s30.834 59.667 54.501 92s53.167 65.333 88.5 99s77 66.167 125 97.5l34 85l-56.5 -43.5l-65.5 -50.5l-141 -107.5c-49.333 -37 -98.5 -70.333 -147.5 -100s-96.333 -53.334 -142 -71.001s-86.834 -24.5 -123.501 -20.5c-37.333 4.66699 -65.166 19 -83.499 43
s-26.833 52.667 -25.5 86h18zM-16.0049 16c-28 -18.667 -52.834 -37.167 -74.501 -55.5s-43.5 -39.833 -65.5 -64.5c-40 -44 -70 -85.667 -90 -125s-31.667 -71.333 -35 -96c-2.66699 -16.667 -1 -28.5 5 -35.5s15.333 -7.16699 28 -0.5c16 8 32.333 22.5 49 43.5
s32.834 43.833 48.501 68.5s29.667 49 42 73l29.5 57l38.5 81.5zM211.994 122c-16 0.666992 -31.502 -2.5 -46.502 -9.5s-27.833 -15 -38.5 -24s-18.167 -17.833 -22.5 -26.5s-4.16602 -14.334 0.500977 -17.001c4.66699 -2 12.334 -0.166992 23.001 5.5s21.667 13 33 22
s21.833 18.333 31.5 28s16.167 16.834 19.5 21.501z" />
    <glyph glyph-name="q.001" unicode="&#xe010;" horiz-adv-x="413" 
d="M-638 2c3.33301 -25.333 13.3232 -46.4961 29.9902 -63.4961s39.334 -27.167 68.001 -30.5c34.667 -4 73.834 2.66699 117.501 20s89.334 40.666 137.001 69.999s95.834 62.166 144.501 98.499l139 105.5l76.5 60c24.333 18.667 46.833 35 67.5 49l20 16
c6 4.66699 12.667 9 20 13c12.667 7.33301 25.834 13.333 39.501 18s27.167 7 40.5 7c24.667 0 41.667 -11 51 -33h1c3.33301 4 8 7.5 14 10.5s11.333 4.16699 16 3.5c2.66699 0 6.16699 -0.833008 10.5 -2.5s8.66602 -3.5 12.999 -5.5s8.33301 -4.16699 12 -6.5
s6.16699 -4.5 7.5 -6.5c-13.333 -15.333 -26.5 -35.333 -39.5 -60s-25.333 -50.5 -37 -77.5s-22.167 -53.333 -31.5 -79s-16.666 -47.5 -21.999 -65.5c19.333 6.66699 39.5 16.667 60.5 30s41.333 28.166 61 44.499s38.167 33.333 55.5 51s32.333 34.167 45 49.5
c4.66699 5.33301 8.66699 6.66602 12 3.99902s1.33301 -7.66699 -6 -15c-30 -35.333 -64.667 -69.5 -104 -102.5s-80 -58.167 -122 -75.5c13.333 -16 23.666 -34.167 30.999 -54.5s12.333 -41.833 15 -64.5s2.83398 -46.334 0.500977 -71.001
s-6.16602 -49.334 -11.499 -74.001c-2.66699 -14 -7.16699 -32 -13.5 -54s-15.166 -43.5 -26.499 -64.5s-25.166 -39 -41.499 -54s-35.833 -22.5 -58.5 -22.5c-26.667 0 -44.5 12 -53.5 36s-12.167 55 -9.5 93s9.83398 80.5 21.501 127.5s25 93.5 40 139.5s30.333 89 46 129
l38.5 96l-37.5 -43.5c-13.667 -15.667 -28.167 -30.834 -43.5 -45.501c-19.333 -19.333 -39 -35.833 -59 -49.5s-36.667 -20.834 -50 -21.501c-16.667 0 -27.667 5.33301 -33 16s-6.66602 25 -3.99902 43s9 38.167 19 60.5s22 44.833 36 67.5l14 20
c4.66699 6.66699 9.66699 13.334 15 20.001l-88 -68l-93 -71.5l-97.5 -71c-33 -23 -65.833 -44.667 -98.5 -65s-64.5 -37.666 -95.5 -51.999s-60.833 -25.166 -89.5 -32.499s-55 -9.66602 -79 -6.99902c-34 4 -59.833 16.167 -77.5 36.5s-28.167 44.833 -31.5 73.5z
M245.99 13.0039c-4 -10.667 -9.99902 -28.167 -17.999 -52.5s-16.333 -52 -25 -83s-17 -63 -25 -96s-13.667 -63.167 -17 -90.5s-3.83301 -49.833 -1.5 -67.5s9.5 -26.5 21.5 -26.5c14.667 0 27.667 7.83301 39 23.5s21.166 33.5 29.499 53.5s14.833 39.667 19.5 59l10 41
c9.33301 46 12 89.333 8 130s-17.667 77 -41 109zM301.991 319.004c-10 17.333 -23.333 23.5 -40 18.5s-34.167 -16.667 -52.5 -35s-36.333 -40.5 -54 -66.5s-32.667 -51 -45 -75s-20.5 -44.667 -24.5 -62s-1.66699 -26.333 7 -27c7.33301 0 17 4.66699 29 14
s25.333 21.5 40 36.5s29.834 32 45.501 51l45.5 55.5c5.33301 13.333 12.666 28.333 21.999 45s18.333 31.667 27 45z" />
    <glyph glyph-name="r.001" unicode="&#xe011;" horiz-adv-x="287" 
d="M-495 -136c4.66699 -16 11.9971 -30.167 21.9971 -42.5s22.167 -21.833 36.5 -28.5s30.5 -10.5 48.5 -11.5s37 1.5 57 7.5c38 11.333 75.833 33 113.5 65s74.5 69.5 110.5 112.5s70.833 88.833 104.5 137.5l95.5 140l63 93c-10.667 2.66699 -18.5 7.33398 -23.5 14.001
s-8.16699 13.834 -9.5 21.501s-1.16602 15.5 0.500977 23.5s3.5 15 5.5 21c6 16.667 14.5 30.5 25.5 41.5s21.833 18.833 32.5 23.5s20.167 5.66699 28.5 3s13.333 -9.5 15 -20.5s-1.33301 -26.333 -9 -46s-21.834 -44.5 -42.501 -74.5
c6.66699 -1.33301 14.667 -2.5 24 -3.5s17.5 -3 24.5 -6s11.667 -7.83301 14 -14.5s-0.166992 -16 -7.5 -28c-1.33301 -2 -6.83301 -11.167 -16.5 -27.5l-33.5 -59.5c-12.667 -23.333 -25 -47.666 -37 -72.999s-21 -48 -27 -68s-7.16699 -35 -3.5 -45
s14.834 -11.333 33.501 -4c13.333 5.33301 29.833 16.666 49.5 33.999s39.5 36.5 59.5 57.5s38.667 41.833 56 62.5s30.333 37 39 49l4 4c1.33301 1.33301 2.66602 2 3.99902 2c1.33301 0.666992 3 0.5 5 -0.5s2.66699 -2.83301 2 -5.5c-2 -2 -3.33301 -4 -4 -6l-32 -40.5
l-42 -50c-15.333 -17.667 -31.666 -35.167 -48.999 -52.5s-34.666 -33 -51.999 -47s-34.166 -25.333 -50.499 -34s-31.5 -13 -45.5 -13c-22 0 -36.167 6.66699 -42.5 20s-7.83301 30.666 -4.5 51.999s10.5 45 21.5 71s23 51.667 36 77s26 49.166 39 71.499l30.5 52.5
c3.33301 4 1.66602 7.33301 -5.00098 10l-60 -91l-97.5 -143.5c-34.333 -49.667 -70.166 -96.167 -107.499 -139.5s-75.833 -81.333 -115.5 -114s-79.5 -55 -119.5 -67c-24 -7.33301 -46.167 -10.166 -66.5 -8.49902s-38.5 6.66699 -54.5 15s-29.333 19.666 -40 33.999
s-18 30.5 -22 48.5zM166.997 350l27 44c10 18.667 16 32.834 18 42.501s1.33301 15.5 -2 17.5s-8 0.666992 -14 -4s-12 -11.334 -18 -20.001c-7.33301 -10 -12.5 -22 -15.5 -36s-1.5 -28.667 4.5 -44z" />
    <glyph glyph-name="s.001" unicode="&#xe012;" horiz-adv-x="220" 
d="M-643 105c1.33301 -23.333 7.99707 -43.668 19.9971 -61.001s29.667 -29.666 53 -36.999c32 -10 70 -9.83301 114 0.5s91 26.833 141 49.5s101.167 48.667 153.5 78l149.5 86l43 26.5l41 23.5c2.66699 18.667 6.5 37 11.5 55s12 34.167 21 48.5s20 26.333 33 36
s28.833 15.5 47.5 17.5c5.33301 0.666992 11.333 0.5 18 -0.5s12.667 -2.83301 18 -5.5s9.66602 -6.5 12.999 -11.5s4.33301 -11.5 3 -19.5c-2 -12.667 -8.66699 -25.5 -20 -38.5s-22.666 -24.167 -33.999 -33.5c-9.33301 -7.33301 -20 -14.333 -32 -21
c-3.33301 -17.333 -5.66602 -35 -6.99902 -53s-2.5 -34.833 -3.5 -50.5s-1.5 -29 -1.5 -40v-21.5v-8c20.667 0.666992 44 8.33398 70 23.001s51.667 38 77 70l6 5c6.66699 1.33301 9.33398 -0.333984 8.00098 -5.00098l-2 -4
c-0.666992 -1.33301 -2.66699 -3.66602 -6 -6.99902c-24.667 -29.333 -49 -53 -73 -71s-51 -28 -81 -30c-4 -35.333 -13.667 -63.5 -29 -84.5s-32.166 -35.667 -50.499 -44s-35.666 -10.666 -51.999 -6.99902s-27.5 12.167 -33.5 25.5
c-3.33301 7.33301 -4.33301 16.5 -3 27.5s5.33301 22.167 12 33.5s16.334 22.5 29.001 33.5s29 20.167 49 27.5c1.33301 11.333 2.16602 25.666 2.49902 42.999s1.16602 36.333 2.49902 57l4 34l-37 -22l-39 -23l-151.5 -88c-53 -30 -105 -56.333 -156 -79
s-99.5 -39.334 -145.5 -50.001s-85.667 -10.667 -119 0c-28 9.33301 -48.5 24.333 -61.5 45s-19.833 44 -20.5 70h18zM58.9971 98.998c-14 -3.33301 -26.333 -9.66699 -37 -19s-18.834 -19.166 -24.501 -29.499s-8.66699 -20.166 -9 -29.499s2.83398 -15 9.50098 -17
c4 -1.33301 8.33301 -0.833008 13 1.5s9 5.66602 13 9.99902s7.66699 8.83301 11 13.5s6 9 8 13c6 9.33301 10.167 18.666 12.5 27.999s3.5 19 3.5 29zM155.997 321.997c4 0.666992 8.66504 2.83105 13.998 6.49805s10.833 8.33398 16.5 14.001s10.834 11.5 15.501 17.5
s8.33398 12 11.001 18c6 11.333 5.83301 18.5 -0.5 21.5s-13.833 1.16699 -22.5 -5.5c-7.33301 -6 -14 -15.667 -20 -29s-10.667 -27.666 -14 -42.999z" />
    <glyph glyph-name="t.001" unicode="&#xe013;" horiz-adv-x="257" 
d="M-696 3c3.33301 -25.333 13.3281 -46.665 29.9951 -63.998s39.334 -27.666 68.001 -30.999c34.667 -4 74 2.66699 118 20s89.833 40.666 137.5 69.999s95.667 62.166 144 98.499l138.5 105.5l93 72.5c28.667 22.333 54.334 40.833 77.001 55.5
c4 9.33301 8.16699 18.166 12.5 26.499s8.5 16.833 12.5 25.5l37 74.5c12 24.333 24.333 47.166 37 68.499h-99c-4 0 -5.33301 2.66699 -4 8c1.33301 4.66699 4.33301 7 9 7h102c12 22.667 23.667 43.5 35 62.5s21.5 35.333 30.5 49s16.667 24.334 23 32.001
s10.5 11.5 12.5 11.5c12.667 0 22.667 -4.33301 30 -13s7.33301 -19.667 0 -33l-58 -109h98c4 0 6 -2.33301 6 -7c-1.33301 -5.33301 -4.33301 -8 -9 -8h-103l-63.5 -122c-20.333 -40.667 -39.166 -83 -56.499 -127c-10.667 -26 -21.334 -54.667 -32.001 -86
s-19 -60.5 -25 -87.5s-8.16699 -49.667 -6.5 -68s9.83398 -27.5 24.501 -27.5c12 0 27.333 8.66699 46 26s37.834 37.5 57.501 60.5s38.167 46.333 55.5 70l41 54.5c2 1.33301 3.5 3 4.5 5s3.16699 3.66699 6.5 5c2 0.666992 3.83301 0.333984 5.5 -0.999023
s1.83398 -2.66602 0.500977 -3.99902c0 -3.33301 -1 -5.33301 -3 -6l-31 -41.5l-39 -52c-14 -18.333 -29 -36.5 -45 -54.5s-32 -34.167 -48 -48.5s-31.833 -26 -47.5 -35s-30.5 -13.5 -44.5 -13.5c-20 0 -34.333 6.5 -43 19.5s-13 30.5 -13 52.5s3.5 48 10.5 78
s16.5 62 28.5 96l35 86c-21.333 -14 -44.666 -30.833 -69.999 -50.5l-81 -63.5l-141.5 -107.5c-49.667 -37 -99 -70.333 -148 -100s-96.333 -53.334 -142 -71.001s-86.834 -24.5 -123.501 -20.5c-33.333 4 -59 16.167 -77 36.5s-28.333 45.166 -31 74.499z" />
    <glyph glyph-name="u.001" unicode="&#xe014;" horiz-adv-x="411" 
d="M-689 3c5.33301 -22 15.9961 -40.1689 31.9961 -54.502s37 -23.166 63 -26.499c34.667 -4 74 2.66699 118 20s89.833 40.666 137.5 69.999s95.667 62.333 144 99l138.5 106l121 91.5c36.667 27 67 46.167 91 57.5l8 4h1c14 2 31.667 -3.33301 53 -16
c-6.66699 -2.66699 -15.167 -12 -25.5 -28s-21.166 -35.167 -32.499 -57.5s-22 -46.166 -32 -71.499s-18.167 -48.833 -24.5 -70.5s-9.66602 -39.667 -9.99902 -54s3.5 -21.5 11.5 -21.5c3.33301 0 10.833 7.66699 22.5 23l42.5 57.5l53.5 75.5l54 77
c17 24 32.333 44.5 46 61.5s23.167 26.833 28.5 29.5c12.667 6 25.334 7.33301 38.001 4s23.667 -8.33301 33 -15c-10 -3.33301 -21.167 -14.666 -33.5 -33.999s-24.833 -42.5 -37.5 -69.5s-24.5 -55.667 -35.5 -86s-20.167 -58.5 -27.5 -84.5s-12 -47.667 -14 -65
s-0.333008 -26.333 5 -27c2.66699 0 9 4.66699 19 14s21.667 21.333 35 36l42.5 49l43 51.5l36.5 43.5l22 26c1.33301 1.33301 2.33301 2.5 3 3.5s1.66699 1.83301 3 2.5c5.33301 0 8 -2 8 -6c-2 -3.33301 -3.66699 -5.33301 -5 -6l-26 -32.5l-36 -44.5l-41.5 -49l-41.5 -47
c-13.333 -14.667 -25.333 -27.334 -36 -38.001s-19 -17.667 -25 -21c-14 -10 -28.667 -14 -44 -12c-12.667 0.666992 -21 6.83398 -25 18.501s-5.33301 26.334 -4 44.001s4.83301 37.167 10.5 58.5s12 42.333 19 63s13.833 39.834 20.5 57.501l16 41.5l-35.5 -53l-42 -60
l-43 -57.5c-14.333 -18.333 -27.166 -33.166 -38.499 -44.499c-12.667 -12.667 -24 -21.834 -34 -27.501s-20.667 -8.5 -32 -8.5c-15.333 0 -25.166 6.83301 -29.499 20.5s-4.83301 31 -1.5 52s9.5 44.333 18.5 70s18.5 50.834 28.5 75.501l32 64.5
c10 19.667 18 34.167 24 43.5c0 1.33301 1 3 3 5c-22 -14 -47.667 -32.167 -77 -54.5l-95 -72.5l-141 -107.5c-49.333 -37 -98.5 -70.333 -147.5 -100s-96.167 -53.334 -141.5 -71.001s-86.333 -24.5 -123 -20.5c-31.333 3.33301 -55.833 14.166 -73.5 32.499
s-28.834 40.166 -33.501 65.499h19z" />
    <glyph glyph-name="v.001" unicode="&#xe015;" horiz-adv-x="346" 
d="M-721 2c1.33301 -28.667 10.1729 -52.8291 26.5059 -72.4961s39.833 -31.167 70.5 -34.5c34.667 -4 74 2.66699 118 20s90 40.666 138 69.999s96.167 62.166 144.5 98.499l138.5 105.5l120.5 91.5c36.333 27 66.833 46.167 91.5 57.5l6 5c14 6 34.667 5 62 -3
c-8 -4.66699 -16 -15.667 -24 -33s-15.5 -37.833 -22.5 -61.5s-13.167 -48.834 -18.5 -75.501s-9.33301 -51.167 -12 -73.5s-3.33398 -40.833 -2.00098 -55.5s5 -22 11 -22c7.33301 0 17.5 7.16699 30.5 21.5s26.167 30.833 39.5 49.5s25.5 36.667 36.5 54l22.5 35
c-7.33301 16 -10.833 35 -10.5 57s5.16602 44.333 14.499 67c10.667 28.667 23.667 50.5 39 65.5s28.666 22.5 39.999 22.5c8 0 14 -4 18 -12s4.33301 -21.333 1 -40c-3.33301 -13.333 -8.66602 -28.166 -15.999 -44.499s-15.333 -32 -24 -47s-16.834 -28.333 -24.501 -40
s-13.167 -19.834 -16.5 -24.501c6.66699 -8 15.667 -13 27 -15s23.166 -1.16699 35.499 2.5s24.666 9.5 36.999 17.5s23.5 18 33.5 30l6 5c6.66699 1.33301 9.33398 -0.333984 8.00098 -5.00098c0 -1.33301 -0.333008 -2.5 -1 -3.5s-1.33398 -2.16699 -2.00098 -3.5l-5 -4
c-10.667 -12 -22.667 -22.5 -36 -31.5s-27 -15.5 -41 -19.5s-27.333 -5.33301 -40 -4s-24 6.33301 -34 15c-8 -11.333 -18.5 -27.5 -31.5 -48.5s-27.333 -41.833 -43 -62.5s-31.834 -38.5 -48.501 -53.5s-33 -22.5 -49 -22.5c-13.333 0 -23.5 7.83301 -30.5 23.5
s-11.167 35.167 -12.5 58.5s-0.666016 49 2.00098 77s7 54.333 13 79c5.33301 16.667 10.833 32.667 16.5 48s11.834 29 18.501 41c-22.667 -14 -48.834 -32.333 -78.501 -55l-98.5 -75l-141 -107.5c-49.333 -37 -98.5 -70.5 -147.5 -100.5s-96.333 -53.667 -142 -71
s-86.834 -24 -123.501 -20c-36 4 -63.167 18 -81.5 42s-27.5 52 -27.5 84zM268.007 195.005c35.333 51.333 56.998 91 64.998 119c8.66699 24 11.834 40.5 9.50098 49.5s-7.16602 12.167 -14.499 9.5s-16 -10.5 -26 -23.5s-18.667 -28.833 -26 -47.5
c-6.66699 -18 -11.167 -36.5 -13.5 -55.5s-0.5 -36.167 5.5 -51.5z" />
    <glyph glyph-name="w.001" unicode="&#xe016;" horiz-adv-x="529" 
d="M-721 1c2 -27.333 11.3428 -50.1719 28.0098 -68.5049s40 -29.166 70 -32.499c34.667 -4 74 2.66699 118 20s90 40.666 138 69.999s96.167 62.333 144.5 99l138.5 106l120.5 91c36.333 26.667 66.5 45.667 90.5 57c4 2.66699 7 4.33398 9 5.00098h1
c12 2 28.667 -0.666992 50 -8c-8 -4.66699 -16 -15.667 -24 -33s-15.5 -37.833 -22.5 -61.5s-13.333 -48.834 -19 -75.501s-9.83398 -51.167 -12.501 -73.5s-3.33398 -40.833 -2.00098 -55.5s5 -22 11 -22c5.33301 0 13.666 5.83301 24.999 17.5s23.166 25.5 35.499 41.5
l36.5 49.5l29 41.5l9 39.5c4 17.667 9 35.667 15 54s13.167 35.166 21.5 50.499s17.833 25.333 28.5 30c7.33301 2.66699 15.833 3.83398 25.5 3.50098s21.167 -2.5 34.5 -6.5c-7.33301 -4.66699 -15 -15.667 -23 -33s-15.667 -37.666 -23 -60.999
s-13.833 -48.166 -19.5 -74.499s-9.83398 -50.5 -12.501 -72.5s-3.5 -40.167 -2.5 -54.5s4.83301 -21.5 11.5 -21.5c4.66699 0 10.834 3.33301 18.501 10s16 15.167 25 25.5s18.333 21.666 28 33.999s18.5 24.333 26.5 36s14.833 22 20.5 31s9.5 15.5 11.5 19.5
c-7.33301 16.667 -10.5 35.834 -9.5 57.501s6.16699 43.834 15.5 66.501c10.667 28.667 23.667 50.5 39 65.5s28.666 22.5 39.999 22.5c7.33301 0 13.166 -4 17.499 -12s4.5 -21.333 0.5 -40c-2.66699 -13.333 -7.83398 -28.166 -15.501 -44.499s-15.667 -32 -24 -47
s-16.333 -28.333 -24 -40s-13.167 -19.834 -16.5 -24.501c6.66699 -8 15.5 -13 26.5 -15s22.667 -1.16699 35 2.5s24.666 9.5 36.999 17.5s23.5 18 33.5 30c2 1.33301 3.33301 2.33301 4 3s1.66699 1.33398 3 2.00098c5.33301 1.33301 8 -0.333984 8 -5.00098
c-0.666992 -1.33301 -1.16699 -2.5 -1.5 -3.5s-1.16602 -2.16699 -2.49902 -3.5l-4 -4c-10.667 -12 -22.667 -22.5 -36 -31.5s-27 -15.5 -41 -19.5s-27.333 -5.33301 -40 -4s-24 6.33301 -34 15l-35 -51.5c-15.333 -22.333 -32.333 -44.333 -51 -66
s-37.834 -39.667 -57.501 -54s-37.834 -19.5 -54.501 -15.5c-9.33301 2 -15.666 9.33301 -18.999 22s-5 27 -5 43s1.16699 32.167 3.5 48.5l5.5 39.5l-29.5 -38.5c-12.333 -16.333 -25.666 -32.666 -39.999 -48.999s-29 -30.833 -44 -43.5s-28.833 -20 -41.5 -22
c-14 -2.66699 -24.167 3.33301 -30.5 18s-9.66602 34 -9.99902 58s1.66699 50.5 6 79.5s10.166 56.5 17.499 82.5c5.33301 18 11.166 35.167 17.499 51.5s13.166 30.833 20.499 43.5c-23.333 -13.333 -50 -31.5 -80 -54.5l-99 -76.5l-141 -107.5
c-49.333 -37 -98.5 -70.5 -147.5 -100.5s-96.333 -53.667 -142 -71s-86.834 -24 -123.501 -20c-34.667 4 -61 16.833 -79 38.5s-27.667 47.834 -29 78.501zM452.01 194.994c17.333 25.333 31.3301 48 41.9971 68s18.667 37 24 51c8.66699 24 11.834 40.5 9.50098 49.5
s-7.16602 12.167 -14.499 9.5s-16 -10.5 -26 -23.5s-18.667 -28.833 -26 -47.5c-7.33301 -18 -12.166 -36.5 -14.499 -55.5s-0.5 -36.167 5.5 -51.5z" />
    <glyph glyph-name="x.001" unicode="&#xe017;" horiz-adv-x="359" 
d="M-645 0c4.66699 -23.333 14.9951 -42.502 30.9951 -57.502s37.667 -24.167 65 -27.5c34.667 -4 73.834 2.66699 117.501 20s89.334 40.666 137.001 69.999s95.667 62.333 144 99l138.5 106l127.5 96c38.333 28 69.5 47 93.5 57h1c3.33301 1.33301 6.33301 2 9 2h8
c12.667 0 21 -6.33301 25 -19s5.83301 -27.5 5.5 -44.5s-1.5 -34 -3.5 -51s-2.66699 -29.833 -2 -38.5l19 21l37 40.5l41.5 42.5c13.667 13.333 26.334 24.5 38.001 33.5s21.167 13.5 28.5 13.5c9.33301 0 15.166 -2.5 17.499 -7.5s1.83301 -11.833 -1.5 -20.5
c-2 -7.33301 -5.33301 -14.666 -10 -21.999h-13l10 20c1.33301 2.66699 2.16602 6.16699 2.49902 10.5s-1.5 6.5 -5.5 6.5s-10.333 -3.33301 -19 -10s-18.5 -15.167 -29.5 -25.5l-35 -34l-35 -36.5l-29.5 -32.5c-8.66699 -9.66699 -14.667 -16.834 -18 -21.501
c-0.666992 -4 -1.5 -10 -2.5 -18s-1.66699 -17 -2 -27l-1 -31c-0.333008 -10.667 0.166992 -20.334 1.5 -29.001c2 -11.333 5.66699 -18 11 -20c4.66699 -2.66699 11.5 -1.33398 20.5 3.99902s19 12.833 30 22.5s22.5 20.834 34.5 33.501l34 37.5l29 33.5l19 22
c4 5.33301 7.5 7 10.5 5s2.83301 -5.66699 -0.5 -11l-26 -31l-38.5 -43.5c-14.333 -15.667 -29.666 -31.5 -45.999 -47.5s-32 -30.667 -47 -44s-29 -24.166 -42 -32.499s-23.5 -12.5 -31.5 -12.5c-11.333 0 -19 4.5 -23 13.5s-6.16699 19.833 -6.5 32.5
s-0.166016 25.167 0.500977 37.5s0.333984 22.166 -0.999023 29.499l-28 -33c-11.333 -13.333 -23.833 -27.166 -37.5 -41.499l-41 -41c-13.667 -13 -26.5 -23.167 -38.5 -30.5c-13.333 -9.33301 -23.666 -12 -30.999 -8s-8.33301 13.333 -3 28l3 7
c2 1.33301 4 1.83301 6 1.5s3 -1.16602 3 -2.49902c0.666992 -2 0.666992 -4 0 -6c-2.66699 -11.333 -0.666992 -16 6 -14s16 7.83301 28 17.5s25.333 21.834 40 36.501s28.667 29.5 42 44.5s24.833 28.667 34.5 41s15.5 20.833 17.5 25.5
c0.666992 8.66699 2.5 21.334 5.5 38.001s5.33301 34.5 7 53.5s2 37.333 1 55s-4.83301 31.834 -11.5 42.501c-23.333 -13.333 -50.166 -31.5 -80.499 -54.5l-98.5 -76.5l-141 -107.5c-49.333 -37 -98.5 -70.333 -147.5 -100s-96.333 -53.334 -142 -71.001
s-86.834 -24.5 -123.501 -20.5c-32 3.33301 -56.833 14.5 -74.5 33.5s-28.5 42.167 -32.5 69.5z" />
    <glyph glyph-name="y.001" unicode="&#xe018;" horiz-adv-x="386" 
d="M-700 6c-0.666992 -30.667 7.50293 -56.5059 24.5029 -77.5059s41.5 -33.5 73.5 -37.5c34.667 -4 74 2.66699 118 20s89.667 40.666 137 69.999s95.333 62.333 144 99l139 106l120 91.5c36 27 66.333 46.167 91 57.5c1.33301 1.33301 2.83301 2.16602 4.5 2.49902
s3.16699 0.833008 4.5 1.5h1c14 2.66699 32 -2.66602 54 -15.999c-6.66699 -2.66699 -15.167 -11.167 -25.5 -25.5s-20.833 -31.5 -31.5 -51.5s-20.834 -41.5 -30.501 -64.5s-17.5 -44.167 -23.5 -63.5s-9.33301 -35.333 -10 -48s3 -19 11 -19c3.33301 0 10.5 7 21.5 21
s24 31.667 39 53l49 69.5l50 71c15.667 22.333 30 41.333 43 57s22.167 24.834 27.5 27.501c11.333 6.66699 23.5 8.33398 36.5 5.00098s24.167 -8.33301 33.5 -15c-5.33301 -2 -10.166 -5 -14.499 -9s-8.5 -9.5 -12.5 -16.5s-8.5 -15.667 -13.5 -26l-17.5 -36.5l-72 -179
c14.667 8 30 17.5 46 28.5s31.833 23 47.5 36l46 40c15 13.667 28.5 27.167 40.5 40.5c2 1.33301 3.33301 2.33301 4 3s1.66699 1.33398 3 2.00098c5.33301 1.33301 8 -0.333984 8 -5.00098l-4 -7c-8.66699 -10 -18.834 -20.5 -30.501 -31.5s-24 -22 -37 -33l-39 -31.5
l-35.5 -27l-27 -17.5c-8.66699 -5.66699 -18.667 -11.167 -30 -16.5c-4.66699 -12.667 -11 -28.667 -19 -48s-17.333 -40.666 -28 -63.999l-35.5 -74c-13 -26 -27.167 -51.5 -42.5 -76.5s-31.5 -48.833 -48.5 -71.5s-34.5 -42.667 -52.5 -60
c-35.333 -33.333 -64.666 -52.666 -87.999 -57.999s-39.666 -0.666016 -48.999 14.001s-11.333 37.334 -6 68.001s19.166 65.5 41.499 104.5s53.833 80.167 94.5 123.5s91.667 85 153 125c17.333 40 32.166 77.167 44.499 111.5s24.166 65.166 35.499 92.499l-36 -52.5
l-40.5 -57l-40.5 -54c-13.333 -17 -25.333 -30.833 -36 -41.5c-22 -24 -43.333 -36 -64 -36c-14 0 -23.167 6.83301 -27.5 20.5s-5 31 -2 52s9 44.333 18 70s19.167 50.834 30.5 75.501c15.333 29.333 30.333 55.666 45 78.999c-21.333 -14 -46.166 -31.833 -74.499 -53.5
l-90.5 -70.5l-93 -71.5l-97.5 -71c-33 -23 -65.833 -44.667 -98.5 -65s-64.5 -37.666 -95.5 -51.999s-60.833 -25.166 -89.5 -32.499s-55.334 -9.66602 -80.001 -6.99902c-37.333 4.66699 -65.333 19.167 -84 43.5s-27.334 53.166 -26.001 86.499zM174.003 15.9941
c-28 -18.667 -52.8311 -37.168 -74.498 -55.501s-43.5 -39.833 -65.5 -64.5c-39.333 -44 -69 -85.667 -89 -125s-31.333 -71.333 -34 -96c-2 -13.333 -1.83301 -23.5 0.5 -30.5s6.83301 -10.333 13.5 -10s15.667 5 27 14s25 23.167 41 42.5
c19.333 24 38.666 52.333 57.999 85s37.166 64.834 53.499 96.501s30.5 60.5 42.5 86.5s21 45 27 57z" />
    <glyph glyph-name="z.001" unicode="&#xe019;" 
d="M-580 4l2.00391 -5.00391c7.33301 -17.333 18.5 -31.5 33.5 -42.5s33.167 -17.833 54.5 -20.5c34.667 -4 74.167 2.66699 118.5 20s90.166 40.833 137.499 70.5s95.166 62.667 143.499 99l138.5 105.5l122 93c36.667 27.333 67.667 46.333 93 57v1
c26.667 10.667 49.167 13.5 67.5 8.5s30.666 -15.333 36.999 -31s6 -35.5 -1 -59.5s-22.5 -49.333 -46.5 -76c-12 -14.667 -25.667 -28.5 -41 -41.5s-30.666 -24.167 -45.999 -33.5c10.667 -4.66699 19.5 -9.16699 26.5 -13.5s12.5 -9.33301 16.5 -15
s6.83301 -12.5 8.5 -20.5s2.16699 -18 1.5 -30c14.667 7.33301 30.167 16.833 46.5 28.5s32.666 24.167 48.999 37.5s32.166 27 47.499 41s29 27.667 41 41c4.66699 3.33301 8.16699 4 10.5 2s2.16602 -5 -0.500977 -9c-8 -10 -17.833 -20.5 -29.5 -31.5s-24 -22 -37 -33
l-39 -31.5l-35.5 -27c-18 -12 -36.667 -23.333 -56 -34c-4.66699 -12.667 -11.167 -28.667 -19.5 -48l-28.5 -64c-10.667 -23.333 -22.667 -48 -36 -74s-27.5 -51.5 -42.5 -76.5s-30.833 -48.833 -47.5 -71.5s-34 -42.667 -52 -60
c-35.333 -33.333 -64.666 -52.666 -87.999 -57.999s-39.833 -0.666016 -49.5 14.001s-11.834 37.334 -6.50098 68.001s19.166 65.5 41.499 104.5s53.833 80.167 94.5 123.5s91.667 85 153 125c2.66699 7.33301 6 15.5 10 24.5s7 17.833 9 26.5s2.5 16.667 1.5 24
s-5.16699 13 -12.5 17l-3 -2c-13.333 -10 -26.333 -17.667 -39 -23c-10 -4 -18 -5.16699 -24 -3.5s-10 4.83398 -12 9.50098s-2 10 0 16s6 11 12 15c8.66699 7.33301 19.334 12.333 32.001 15s26.667 2.33398 42 -0.999023c17.333 14.667 32.833 34 46.5 58
s25.167 48.333 34.5 73c4 10 6.83301 20.667 8.5 32s1.33398 21 -0.999023 29s-7 13.833 -14 17.5s-17.5 3.16699 -31.5 -1.5c-23.333 -11.333 -52.666 -29.833 -87.999 -55.5s-74 -55.5 -116 -89.5l-141 -107.5c-49.333 -37 -98.5 -70.333 -147.5 -100
s-96.333 -53.334 -142 -71.001s-86.834 -24.5 -123.501 -20.5c-26 3.33301 -47.333 11.833 -64 25.5s-28.667 30.5 -36 50.5l-2 6zM193.004 15.9961c-27.333 -18.667 -52 -37.168 -74 -55.501s-44 -39.833 -66 -64.5c-40 -44 -69.833 -85.667 -89.5 -125
s-31.167 -71.333 -34.5 -96c-2 -13.333 -1.66699 -23.5 1 -30.5s7.33398 -10.333 14.001 -10s15.667 5 27 14s24.666 23.167 39.999 42.5c19.333 24 38.5 52.333 57.5 85s36.833 64.834 53.5 96.501s31.167 60.5 43.5 86.5zM146.004 119.995
c0.666992 -6 3.83301 -8.33105 9.5 -6.99805s12 3.83301 19 7.5s13.5 7.66699 19.5 12s9.33301 7.16602 10 8.49902c-3.33301 2 -8.33301 3 -15 3s-13.167 -0.833008 -19.5 -2.5s-12 -4.33398 -17 -8.00098s-7.16699 -8.16699 -6.5 -13.5z" />
    <glyph glyph-name="a.002" unicode="&#xe01a;" horiz-adv-x="380" 
d="M1225 3c-21.333 -29.333 -47.3359 -54.665 -78.0029 -75.998s-62.667 -33.666 -96 -36.999c-26.667 -2.66699 -52.167 1.5 -76.5 12.5s-47.833 26.5 -70.5 46.5s-44.834 43 -66.501 69l-64.5 79l-79.5 95.5c-25.667 30.333 -51.834 53.166 -78.501 68.499
c-12.667 7.33301 -25.167 12.5 -37.5 15.5s-25 2.83301 -38 -0.5s-26.333 -10.166 -40 -20.499s-28.167 -25.166 -43.5 -44.499l-23.5 -32l-31.5 -44l-35 -49l-35 -47c-11.333 -14.667 -21.666 -27.334 -30.999 -38.001s-17 -17.667 -23 -21c-14 -10 -28.667 -14 -44 -12
c-11.333 0.666992 -18.666 6.83398 -21.999 18.501s-4 26.167 -2 43.5s6 36.166 12 56.499s12.333 40.166 19 59.499s13.167 36.5 19.5 51.5s10.5 25.5 12.5 31.5l-20 -25l-26.5 -32l-31 -35l-33.5 -35c-19.333 -19.333 -39.166 -35.833 -59.499 -49.5
s-37.166 -20.834 -50.499 -21.501c-16 0 -27 5.33301 -33 16s-7.83301 25 -5.5 43s8.16602 38.167 17.499 60.5s21 44.833 35 67.5c16.667 24.667 35.334 47.834 56.001 69.501s42.667 39.167 66 52.5c12 7.33301 25 13.333 39 18s27.333 7 40 7
c15.333 0 28 -4.16699 38 -12.5s16 -21.166 18 -38.499l12 15c9.33301 12 17.5 18 24.5 18s12.333 -2.83301 16 -8.5s5.66699 -12.834 6 -21.501s-1.16699 -16 -4.5 -22c-3.33301 -5.33301 -8.66602 -16.166 -15.999 -32.499l-24.5 -57l-27.5 -69
c-9.33301 -24.333 -17.166 -46.5 -23.499 -66.5s-10.5 -36.667 -12.5 -50s-0.333008 -20.333 5 -21c2.66699 -0.666992 8.16699 3.83301 16.5 13.5s18 21.667 29 36l36 48l37 51l31 44c9 13 15.5 21.833 19.5 26.5l4 4c32 38.667 62 61.167 90 67.5
s56.333 1.16602 85 -15.501c27.333 -16 54.166 -39.167 80.499 -69.5l80.5 -96.5l63 -77.5c21.333 -25.667 43 -48.167 65 -67.5s44.5 -34.5 67.5 -45.5s46.833 -15.5 71.5 -13.5c30 3.33301 58.5 14.166 85.5 32.499s50.167 40.166 69.5 65.499zM309.997 298.001
c-2 19.333 -6.33301 32.5029 -13 39.5029s-14.5 9.5 -23.5 7.5s-18.667 -7 -29 -15s-20.5 -17.333 -30.5 -28s-20.667 -23.5 -32 -38.5s-22.5 -31 -33.5 -48s-21.167 -33.833 -30.5 -50.5s-16.833 -31.834 -22.5 -45.501s-8.66699 -24.834 -9 -33.501
s3.16699 -13.334 10.5 -14.001c10 0 24 8.16699 42 24.5s37.333 36.333 58 60s41.167 48.5 61.5 74.5z" />
    </font>
</defs>
</svg>
