<?xml version="1.0" standalone="no"?>
<!DOCTYPE svg PUBLIC "-//W3C//DTD SVG 1.1//EN" "http://www.w3.org/Graphics/SVG/1.1/DTD/svg11.dtd" >
<svg>
<metadata>
Created by FontForge 20090914 at Wed Jan 23 16:53:03 2019
 By www-data
Copyright (c) 2019 by Creative LAB. All rights reserved.
</metadata>
<defs>
<font id="AllianaScript" horiz-adv-x="364" >
  <font-face 
    font-family="Alliana Script"
    font-weight="400"
    font-stretch="normal"
    units-per-em="1000"
    panose-1="2 0 5 5 0 0 0 2 0 4"
    ascent="750"
    descent="-250"
    x-height="361.002"
    cap-height="699.999"
    bbox="-692.064 -601.556 1141.33 899.265"
    underline-thickness="50"
    underline-position="-50"
    unicode-range="U+000D-U+E185"
  />
<missing-glyph horiz-adv-x="210" 
 />
    <glyph glyph-name=".notdef" horiz-adv-x="210" 
 />
    <glyph glyph-name="NULL" horiz-adv-x="0" 
 />
    <glyph glyph-name="NULL" horiz-adv-x="0" 
 />
    <glyph glyph-name="nonmarkingreturn" unicode="&#xd;" horiz-adv-x="210" 
 />
    <glyph glyph-name="space" unicode=" " horiz-adv-x="210" 
 />
    <glyph glyph-name="exclam" unicode="!" horiz-adv-x="177" 
d="M-3 9c-3.33301 1.33301 -4.66797 3.33008 -4.00098 5.99707c4.66699 26.667 9.66699 56.834 15 90.501l17 105.5l18.5 112.5l18.5 112l17 103.5c5.33301 32.667 10.333 62 15 88c0 2 2.83301 4 8.5 6s11.834 3.66699 18.501 5s12.834 2.5 18.501 3.5l8.5 1.5
c4 0 6 -2 6 -6l-45 -241l-18.5 -102l-18.5 -98.5l-16.5 -90c-5 -28.333 -9.16699 -53.5 -12.5 -75.5c0 -1.33301 -2.16699 -3.16602 -6.5 -5.49902s-9.33301 -4.66602 -15 -6.99902s-10.834 -4.33301 -15.501 -6s-7.66699 -2.5 -9 -2.5zM7.99805 -62.0029
c-10 0.666992 -17.166 4.16699 -21.499 10.5s-6.33301 13.333 -6 21s3 14.5 8 20.5s12.167 9 21.5 9s17.166 -3.83301 23.499 -11.5s8.5 -16.5 6.5 -26.5c-1.33301 -6 -5 -11.5 -11 -16.5s-13 -7.16699 -21 -6.5z" />
    <glyph glyph-name="quotedbl" unicode="&#x22;" horiz-adv-x="385" 
d="M117 696c20 0 31.334 -7.49805 34.001 -22.498s0.166992 -31.833 -7.5 -50.5s-19.334 -36 -35.001 -52s-32.167 -25 -49.5 -27c-2.66699 0 -4.33398 1.16699 -5.00098 3.5s0.333008 4.16602 3 5.49902c10.667 6 20.334 15.667 29.001 29s15.334 25.666 20.001 36.999
c-12 2 -20.333 7.16699 -25 15.5s-6.33398 17 -5.00098 26s5.5 17.167 12.5 24.5s16.5 11 28.5 11zM268.001 694.002c20 0 31.334 -7.49805 34.001 -22.498s0.166992 -31.833 -7.5 -50.5s-19.334 -36 -35.001 -52s-32.167 -25 -49.5 -27
c-2.66699 0 -4.33398 1.16699 -5.00098 3.5s0.333008 4.16602 3 5.49902c10.667 6 20.334 15.667 29.001 29s15.334 25.666 20.001 36.999c-12 2 -20.333 7.16699 -25 15.5s-6.33398 17 -5.00098 26s5.5 17.167 12.5 24.5s16.5 11 28.5 11z" />
    <glyph glyph-name="numbersign" unicode="#" horiz-adv-x="602" 
d="M254 540c1.33301 4.66699 3.83398 8 7.50098 10s7.5 2.66699 11.5 2s7.33301 -2.66699 10 -6s3.66699 -7.66602 3 -12.999l-39 -188h130l40 195c0.666992 4.66699 3 8 7 10s7.83301 2.66699 11.5 2s6.83398 -2.66699 9.50098 -6s3.66699 -7.66602 3 -12.999l-38 -188h100
c5.33301 0 9.33301 -1.66699 12 -5s4 -7 4 -11s-1.33301 -7.66699 -4 -11s-6.66699 -5 -12 -5h-107l-21 -104h99c5.33301 0 9.33301 -1.66699 12 -5s4 -7.16602 4 -11.499s-1.33301 -8.16602 -4 -11.499s-6.66699 -5 -12 -5h-106l-37 -182
c-1.33301 -5.33301 -3.83301 -8.83301 -7.5 -10.5s-7.33398 -2.16699 -11.001 -1.5s-7 2.66699 -10 6s-3.83301 7.66602 -2.5 12.999l36 175h-130l-37 -182c-1.33301 -5.33301 -3.83301 -8.83301 -7.5 -10.5s-7.33398 -2.16699 -11.001 -1.5s-7 2.66699 -10 6
s-3.83301 7.66602 -2.5 12.999l36 175h-90c-5.33301 0 -9.33301 1.66699 -12 5s-4 7.16602 -4 11.499s1.33301 8.16602 4 11.499s6.66699 5 12 5h96l21 104h-126c-5.33301 0 -9.33301 1.66699 -12 5s-4 7 -4 11s1.33301 7.66699 4 11s6.66699 5 12 5h133zM241.001 313
l-21 -104h129l21 104h-129z" />
    <glyph glyph-name="dollar" unicode="$" horiz-adv-x="294" 
d="M249 403c-1.33301 -3.33301 -3.50195 -4.33203 -6.50195 -2.99902s-3.83301 3.66602 -2.5 6.99902c9.33301 22.667 15.333 46 18 70s-1.66602 44.667 -12.999 62c-8.66699 14 -18 22.667 -28 26l-46 -279l23.5 -37c7.66699 -12 14.5 -24.167 20.5 -36.5
s11 -25.5 15 -39.5s6 -29 6 -45c0 -17.333 -2 -33.666 -6 -48.999s-10.333 -28.833 -19 -40.5s-20 -21 -34 -28s-30.667 -10.5 -50 -10.5h-4l-8 -45c-0.666992 -3.33301 -2 -5.5 -4 -6.5s-4.33301 -1.33301 -7 -1s-4.83398 1.33301 -6.50098 3s-2.16699 4.16699 -1.5 7.5
l8 46c-11.333 4 -21.5 10.833 -30.5 20.5s-15.5 21 -19.5 34s-5 27 -3 42s8 29.833 18 44.5c2 3.33301 4.16699 4 6.5 2s2.83301 -4.33301 1.5 -7c-10 -14.667 -15.667 -30.167 -17 -46.5s1.66699 -31.5 9 -45.5c8 -16.667 20.333 -28 37 -34l37 225l-21.5 34l-20.5 34
c-20 36 -32.833 72.167 -38.5 108.5s0.5 70.166 18.5 101.499c12.667 21.333 29.834 38 51.501 50s44.167 16.333 67.5 13l8 46c0.666992 2.66699 2 4.66699 4 6s4.33301 1.83301 7 1.5s4.83398 -1.5 6.50098 -3.5s2.16699 -4.33301 1.5 -7l-8 -49
c15.333 -6.66699 27.333 -17.5 36 -32.5s13 -32.5 13 -52.5c0 -24 -6.33301 -52.667 -19 -86zM197.998 564.001c-3.33301 -0.666992 -6.33301 -1.66895 -9 -3.00195s-5.66699 -2.66602 -9 -3.99902c-28 -15.333 -46.667 -38 -56 -68s-10 -62.333 -2 -97
c3.33301 -15.333 7.83301 -29.666 13.5 -42.999s12.167 -26 19.5 -38zM125.998 18.999c22 10 36.833 26.333 44.5 49s11.167 45.667 10.5 69c-0.666992 14 -3 27.333 -7 40s-9 24.667 -15 36z" />
    <glyph glyph-name="percent" unicode="%" horiz-adv-x="449" 
d="M259 630c0.666992 5.33301 3 9 7 11s8 2.66699 12 2s7.33301 -2.66699 10 -6s3.66699 -7.33301 3 -12l-111 -668c-1.33301 -5.33301 -3.83301 -9 -7.5 -11s-7.5 -2.66699 -11.5 -2s-7.33301 2.5 -10 5.5s-3.66699 7.16699 -3 12.5zM130 427
c-11.333 -4 -19.835 -12.667 -25.502 -26s-8.83398 -27.5 -9.50098 -42.5s1.33301 -29 6 -42s12.334 -21.833 23.001 -26.5c10 4.66699 17.667 13.5 23 26.5s8.33301 27 9 42s-1.16602 29.167 -5.49902 42.5s-11.166 22 -20.499 26zM161.998 330
c-3.33301 -14.667 -9.33301 -26.999 -18 -36.999s-19.667 -15 -33 -15c-18 0 -31.333 8.33301 -40 25s-12.5 35.167 -11.5 55.5s6.33301 38.833 16 55.5s24.167 25 43.5 25c8.66699 0 16.167 -2.33301 22.5 -7s11.333 -10.834 15 -18.501s6.16699 -16 7.5 -25
s2 -17.5 2 -25.5c0 -12 -1.33301 -23 -4 -33zM343.998 297.001c-11.333 -4 -20.0039 -12.667 -26.0039 -26s-9.33301 -27.5 -10 -42.5s1.33301 -29 6 -42s12.334 -21.833 23.001 -26.5c10 4.66699 17.833 13.5 23.5 26.5s8.83398 27 9.50098 42
s-1.16602 29.167 -5.49902 42.5s-11.166 22 -20.499 26zM375.994 200.001c-4 -14.667 -10.1699 -27 -18.5029 -37s-19.166 -15 -32.499 -15c-18 0 -31.333 8.33301 -40 25s-12.667 35.167 -12 55.5s5.83398 38.833 15.501 55.5s24.167 25 43.5 25
c8.66699 0 16.167 -2.5 22.5 -7.5s11.333 -11.167 15 -18.5s6.33398 -15.5 8.00098 -24.5s2.5 -17.5 2.5 -25.5c0 -5.33301 -0.333008 -10.833 -1 -16.5s-1.66699 -11.167 -3 -16.5z" />
    <glyph glyph-name="ampersand" unicode="&#x26;" horiz-adv-x="507" 
d="M19 549c0 3.33301 1.67285 4.98828 5.00586 4.98828s5 -1.66699 5 -5c0 -54 12.5 -97.333 37.5 -130s60.167 -50.667 105.5 -54c3.33301 0 6.66602 -0.166992 9.99902 -0.5s6.66602 -0.166016 9.99902 0.500977c-10 20.667 -15.333 43.5 -16 68.5s3.33301 48.5 12 70.5
s21.834 40.333 39.501 55s40.167 22 67.5 22c11.333 0 22.5 -1.83301 33.5 -5.5s20.5 -10.167 28.5 -19.5c8.66699 -10 13.834 -21.5 15.501 -34.5s0.833984 -26.167 -2.49902 -39.5c-6 -28.667 -20.333 -53.167 -43 -73.5s-48.667 -35.166 -78 -44.499
c6 -11.333 13.667 -21.5 23 -30.5s20.333 -15.833 33 -20.5c0.666992 0 2.16699 -0.166992 4.5 -0.5s3.16602 -2.16602 2.49902 -5.49902c0 -4 -2.33301 -5.33301 -7 -4c-5.33301 1.33301 -14.833 1.33301 -28.5 0s-26.167 -3.66602 -37.5 -6.99902
c-10 -2.66699 -20.167 -6.16699 -30.5 -10.5s-20.166 -10.166 -29.499 -17.499c-16 -11.333 -29.5 -25.666 -40.5 -42.999s-19 -35.666 -24 -54.999s-6.5 -38.833 -4.5 -58.5s8.66699 -37.5 20 -53.5c13.333 -19.333 28.666 -32 45.999 -38s35 -7.33301 53 -4
s35.5 10.333 52.5 21s31.833 23.334 44.5 38.001c15.333 17.333 26.666 34.5 33.999 51.5s12.333 32.333 15 46s3.83398 24.834 3.50098 33.501s-0.166016 13.667 0.500977 15c0 2 1 3 3 3c22 7.33301 38.333 16.666 49 27.999s17.167 22.333 19.5 33
s1.33301 19.834 -3 27.501s-10.833 11.5 -19.5 11.5c-6.66699 0 -12.334 -1.83301 -17.001 -5.5s-7.5 -8.16699 -8.5 -13.5s0.166992 -11.166 3.5 -17.499s10 -11.833 20 -16.5c3.33301 -1.33301 4.16602 -3.5 2.49902 -6.5s-3.83398 -3.83301 -6.50098 -2.5
c-12 6 -20.167 13.167 -24.5 21.5s-5.83301 16.333 -4.5 24s5.16602 14 11.499 19s14.166 7.5 23.499 7.5c11.333 0 20.166 -4.5 26.499 -13.5s8.5 -19.833 6.5 -32.5s-8.66699 -25.667 -20 -39s-29 -24.333 -53 -33c1.33301 -27.333 -3 -53.833 -13 -79.5
s-23.667 -48.5 -41 -68.5c-14 -15.333 -31.833 -29.5 -53.5 -42.5s-43.5 -21.167 -65.5 -24.5c-19.333 -2.66699 -39.833 -1.66699 -61.5 3s-40.167 13 -55.5 25c-18.667 14.667 -31.167 33.334 -37.5 56.001s-7.83301 45.834 -4.5 69.501s11.333 46.5 24 68.5
s28.667 39.667 48 53c16 11.333 33.833 19.833 53.5 25.5s38.5 9.16699 56.5 10.5c-16.667 10.667 -30.334 25 -41.001 43c-18.667 -1.33301 -37 0.166992 -55 4.5s-34.667 11.833 -50 22.5c-21.333 14.667 -38.833 35.667 -52.5 63s-20.5 62 -20.5 104zM253.006 522.988
c-13.333 -21.333 -20.667 -45.832 -22 -73.499s3 -53.167 13 -76.5c16 4.66699 31.167 11.334 45.5 20.001s27 18.667 38 30s19.833 24.166 26.5 38.499s10 29.5 10 45.5c0 15.333 -4 27.666 -12 36.999s-17.667 15 -29 17s-23.333 0 -36 -6s-24 -16.667 -34 -32z" />
    <glyph glyph-name="quotesingle" unicode="'" horiz-adv-x="210" 
d="M105 696c20 0 31.334 -7.49805 34.001 -22.498s0.166992 -31.833 -7.5 -50.5s-19.334 -36 -35.001 -52s-32.167 -25 -49.5 -27c-2.66699 0 -4.33398 1.16699 -5.00098 3.5s0.333008 4.16602 3 5.49902c10.667 6 20.334 15.667 29.001 29s15.334 25.666 20.001 36.999
c-12 2 -20.333 7.16699 -25 15.5s-6.33398 17 -5.00098 26s5.5 17.167 12.5 24.5s16.5 11 28.5 11z" />
    <glyph glyph-name="parenleft" unicode="(" horiz-adv-x="227" 
d="M250 617c-13.333 -6.66699 -25.668 -16.501 -37.001 -29.501s-21.666 -28.167 -30.999 -45.5c-12 -22 -22.5 -47.5 -31.5 -76.5s-16.5 -59.833 -22.5 -92.5s-10.333 -66.5 -13 -101.5s-3.16699 -69 -1.5 -102s5.5 -64.333 11.5 -94s14.667 -55.5 26 -77.5
c6 -12 12.833 -22.5 20.5 -31.5s16.167 -16.167 25.5 -21.5c2.66699 -1.33301 3.66699 -3.33301 3 -6s-2.66699 -3.66699 -6 -3c-28 3.33301 -51.167 16.333 -69.5 39s-32.833 52 -43.5 88c-8 28 -13.5 58 -16.5 90s-3.66699 64.5 -2 97.5s5.16699 65.833 10.5 98.5
s12.333 63 21 91c8 25.333 17.167 48.833 27.5 70.5s22 40.834 35 57.501s27 30 42 40s31.167 16 48.5 18c3.33301 0.666992 5.33301 -0.333008 6 -3s-0.333008 -4.66699 -3 -6z" />
    <glyph glyph-name="parenright" unicode=")" horiz-adv-x="261" 
d="M8 -54c13.333 6.66699 25.667 16.3301 37 28.9971s21.666 27.667 30.999 45c17.333 32.667 32 73 44 121s19.833 97.833 23.5 149.5s2.66699 101.834 -3 150.501s-16.834 89.667 -33.501 123c-12.667 26.667 -28 44.667 -46 54c-2.66699 1.33301 -3.66699 3.33301 -3 6
s2.66699 3.66699 6 3c28 -3.33301 51.167 -16.5 69.5 -39.5s32.833 -52.167 43.5 -87.5c8 -28 13.333 -58 16 -90s3.33398 -64.5 2.00098 -97.5s-4.66602 -65.833 -9.99902 -98.5s-12.333 -63 -21 -91c-8 -25.333 -17.167 -49 -27.5 -71s-22 -41.167 -35 -57.5
s-27 -29.666 -42 -39.999s-31.167 -16.166 -48.5 -17.499c-3.33301 -0.666992 -5.33301 0.333008 -6 3s0.333008 4.66699 3 6z" />
    <glyph glyph-name="asterisk" unicode="*" horiz-adv-x="326" 
d="M226 573c3.33301 2.66699 7.16602 3.49902 11.499 2.49902s7.83301 -3.5 10.5 -7.5c2.66699 -3.33301 3.5 -7.16602 2.5 -11.499s-3.16699 -7.83301 -6.5 -10.5l-60 -41l49 -35c4 -2.66699 6.33301 -6.16699 7 -10.5s-0.333008 -8.16602 -3 -11.499
c-2.66699 -4 -6.16699 -6.33301 -10.5 -7s-8.16602 0.333008 -11.499 3l-44 31l-5 -68c-1.33301 -10 -7 -15 -17 -15c-4.66699 0.666992 -8.5 2.66699 -11.5 6s-4.16699 7.33301 -3.5 12l5 64l-44 -30c-4 -2.66699 -8.16699 -3.66699 -12.5 -3s-7.83301 3 -10.5 7
c-2.66699 3.33301 -3.5 7.16602 -2.5 11.499s3.5 7.83301 7.5 10.5l51 35l-50 36c-3.33301 2.66699 -5.5 6.16699 -6.5 10.5s0.166992 8.16602 3.5 11.499c2.66699 3.33301 6.16699 5.5 10.5 6.5s8.16602 0.166992 11.499 -2.5l47 -33l6 75
c0 4.66699 1.66699 8.33398 5 11.001s7.33301 4 12 4c4.66699 -0.666992 8.33398 -2.66699 11.001 -6s4 -7 4 -11l-6 -68z" />
    <glyph glyph-name="plus" unicode="+" horiz-adv-x="443" 
d="M92 138c-5.33301 0 -9.49805 1.66699 -12.498 5s-4.5 7 -4.5 11s1.5 7.66699 4.5 11s7.16699 5 12.5 5h115l11 110c0.666992 5.33301 2.66699 9.16602 6 11.499s7 3.33301 11 3s7.66699 -2 11 -5s4.66602 -7.16699 3.99902 -12.5l-11 -107h113
c5.33301 0 9.33301 -1.66699 12 -5s4 -7 4 -11s-1.33301 -7.66699 -4 -11s-6.66699 -5 -12 -5h-116l-10 -111c-0.666992 -5.33301 -2.83398 -9.16602 -6.50098 -11.499s-7.5 -3.33301 -11.5 -3s-7.5 2 -10.5 5s-4.16699 7.16699 -3.5 12.5l10 108h-112z" />
    <glyph glyph-name="comma" unicode="," horiz-adv-x="833" 
d="M355 151c19.333 0 30.499 -7.49805 33.499 -22.498s0.5 -31.833 -7.5 -50.5s-19.667 -36 -35 -52s-31.666 -25 -48.999 -27c-2.66699 0 -4.33398 1.16699 -5.00098 3.5s0.333008 4.16602 3 5.49902c10.667 6 20.334 15.667 29.001 29s15.334 25.666 20.001 36.999
c-12 2 -20.333 7.16699 -25 15.5s-6.33398 17 -5.00098 26s5.5 17.167 12.5 24.5s16.5 11 28.5 11z" />
    <glyph glyph-name="hyphen" unicode="-" horiz-adv-x="430" 
d="M80 76c-5.33301 0 -9.33301 1.66699 -12 5s-4 7 -4 11s1.33301 7.66699 4 11s6.66699 5 12 5h266c5.33301 0 9.33301 -1.66699 12 -5s4 -7 4 -11s-1.33301 -7.66699 -4 -11s-6.66699 -5 -12 -5h-266z" />
    <glyph glyph-name="period" unicode="." horiz-adv-x="226" 
d="M112 79c8.66699 0 16.0039 -2.33301 22.0039 -7s10.167 -10.334 12.5 -17.001s2.66602 -14 0.999023 -22s-5.83398 -15 -12.501 -21s-13.834 -9.5 -21.501 -10.5s-14.834 0 -21.501 3s-12 7.5 -16 13.5s-5.66699 13.333 -5 22c0.666992 10.667 5 19.834 13 27.501
s17.333 11.5 28 11.5z" />
    <glyph glyph-name="slash" unicode="/" horiz-adv-x="169" 
d="M111 645c0.666992 5.33301 2.83301 9 6.5 11s7.5 2.66699 11.5 2s7.33301 -2.66699 10 -6s3.66699 -7.33301 3 -12l-111 -668c-1.33301 -5.33301 -3.83301 -9 -7.5 -11s-7.5 -2.66699 -11.5 -2s-7.33301 2.5 -10 5.5s-3.66699 7.16699 -3 12.5z" />
    <glyph glyph-name="zero" unicode="0" horiz-adv-x="459" 
d="M302 99c13.333 24.667 24.8311 52.6699 34.498 84.0029s17 63.666 22 96.999s7.83301 66.5 8.5 99.5s-1.33301 63.167 -6 90.5c-7.33301 43.333 -18.833 70.5 -34.5 81.5s-32.667 10.167 -51 -2.5s-36.666 -34.834 -54.999 -66.501s-33.5 -68.5 -45.5 -110.5
s-19.5 -86.833 -22.5 -134.5s1.16699 -93.834 12.5 -138.501c5.33301 -21.333 11.5 -37.833 18.5 -49.5s14.833 -19.5 23.5 -23.5c14.667 -7.33301 30.334 -4 47.001 10s32.667 35 48 63zM331.998 564.003c9.33301 -10 17.167 -23.001 23.5 -39.001s11.166 -34 14.499 -54
c4.66699 -28 6.83398 -58.333 6.50098 -91s-3 -65.667 -8 -99s-12.333 -65.833 -22 -97.5s-21.167 -60.167 -34.5 -85.5c-18 -34 -37.667 -59.333 -59 -76s-41.833 -24.167 -61.5 -22.5s-37.5 12.667 -53.5 33s-27.333 50.166 -34 89.499c-6 36 -8 74.333 -6 115
s7 79.334 15 116.001c5.33301 26.667 12.333 52.167 21 76.5s19 46.5 31 66.5s25.333 37 40 51s31 24 49 30c14.667 5.33301 28.667 7.33301 42 6s25.333 -7.66602 36 -18.999z" />
    <glyph glyph-name="one" unicode="1" horiz-adv-x="159" 
d="M84 583c0.666992 0 3.33203 0.166992 7.99902 0.5s10 0.5 16 0.5h17.5h11.5l-25 -228l-19 -179.5c-6 -59 -11.333 -117.833 -16 -176.5h-50c-3.33301 0 -5 2 -5 6c4.66699 56.667 10 114.5 16 173.5s12.333 118.167 19 177.5l23 214l-32 -13
c-3.33301 -1.33301 -5.66602 -0.5 -6.99902 2.5s-0.333008 5.16699 3 6.5z" />
    <glyph glyph-name="two" unicode="2" horiz-adv-x="377" 
d="M115 307c1.33301 -3.33301 0.663086 -5.6709 -2.00391 -7.00391s-4.66699 -0.666016 -6 2.00098c-8 14 -14.667 30.667 -20 50s-8.66602 39.666 -9.99902 60.999s-0.5 42.166 2.5 62.499s9 38.833 18 55.5s21.333 30 37 40s35.5 15 59.5 15c22 0 40 -4.33301 54 -13
s24.667 -20.167 32 -34.5s11.833 -30.666 13.5 -48.999s1.5 -37.166 -0.5 -56.499s-5.33301 -38.166 -10 -56.499s-9.66699 -34.5 -15 -48.5c-12 -31.333 -26.167 -62.833 -42.5 -94.5s-33.833 -61.5 -52.5 -89.5s-37.834 -53.5 -57.501 -76.5s-38.5 -41.167 -56.5 -54.5
h202c3.33301 0 5 -1.5 5 -4.5s-1.66699 -4.5 -5 -4.5h-263c-2.66699 0 -4.16699 1 -4.5 3s0.5 4 2.5 6c18.667 11.333 38.667 28.833 60 52.5s42.166 50.834 62.499 81.501s39.333 63.334 57 98.001s32.334 69 44.001 103s19.334 66 23.001 96s1.83398 55.667 -5.49902 77
c-5.33301 14 -12.5 25.167 -21.5 33.5s-18.833 13.5 -29.5 15.5s-21.667 1 -33 -3s-22 -11 -32 -21c-14 -14 -23.667 -31.667 -29 -53s-7.66602 -43.333 -6.99902 -66s3.83398 -44.667 9.50098 -66s12.5 -39.333 20.5 -54z" />
    <glyph glyph-name="three" unicode="3" horiz-adv-x="395" 
d="M133 450c1.33301 -3.33301 0.5 -5.6709 -2.5 -7.00391s-5.16699 -0.333008 -6.5 3c-9.33301 23.333 -11 43.5 -5 60.5s16.167 31.333 30.5 43s31.333 20.334 51 26.001s39.167 8.5 58.5 8.5c42.667 0 82.334 -6.66699 119.001 -20
c-4.66699 -2.66699 -12.667 -9.33398 -24 -20.001l-39 -38.5l-45 -47l-41.5 -46l-30 -35.5c-7.66699 -9.33301 -10.5 -14.333 -8.5 -15c26.667 -8.66699 49 -22.167 67 -40.5s32 -39.166 42 -62.499s16 -48.166 18 -74.499s-0.166992 -51.166 -6.5 -74.499
s-16.5 -44.333 -30.5 -63s-31.667 -32 -53 -40c-30.667 -12 -56.667 -15.333 -78 -10s-38.333 16.333 -51 33s-21.167 37.167 -25.5 61.5s-5 49.5 -2 75.5s9.5 51.333 19.5 76s23.333 45.334 40 62.001c2.66699 2.66699 5.16699 2.83398 7.5 0.500977
s2.16602 -4.5 -0.500977 -6.5c-11.333 -12 -21.5 -26.833 -30.5 -44.5s-15.833 -36.5 -20.5 -56.5s-7.16699 -40.333 -7.5 -61s2.16699 -39.667 7.5 -57c4.66699 -14.667 11.667 -27.167 21 -37.5s19.833 -17.833 31.5 -22.5s24.167 -5.83398 37.5 -3.50098
s26.666 8.83301 39.999 19.5c12.667 10 23.5 23.333 32.5 40s15.333 34.834 19 54.501s4.5 40 2.5 61s-7.83301 41.167 -17.5 60.5s-23.5 37 -41.5 53s-41 28.667 -69 38c-9.33301 3.33301 -12 9.66602 -8 18.999c6.66699 16 17.834 33.167 33.501 51.5s33 36.833 52 55.5
l57 54c19 17.333 34.833 32.666 47.5 45.999c-22 3.33301 -44.5 5 -67.5 5s-45.167 -4.33301 -66.5 -13c-25.333 -10 -43.833 -24.167 -55.5 -42.5s-12.167 -41.166 -1.5 -68.499z" />
    <glyph glyph-name="four" unicode="4" horiz-adv-x="439" 
d="M143 310l174 0.00292969l27 270c1.33301 2.66699 3 4 5 4h46c3.33301 0 5 -1.66699 5 -5l-58 -571c0 -4.66699 -1.66699 -6 -5 -4h-46c-2.66699 0 -4 1.66699 -4 5l29 291h-216c-10.667 0 -16 2.66699 -16 8c0 3.33301 2.66699 7.16602 8 11.499l22 17.5
c12.667 8.66699 27.834 20 45.501 34s36 30.667 55 50s37.333 41.833 55 67.5s32.5 54.834 44.5 87.501c1.33301 3.33301 3.16602 4.66602 5.49902 3.99902s3.5 -2.33398 3.5 -5.00098c0 -36 -6.16699 -67.833 -18.5 -95.5s-27 -51.834 -44 -72.501s-34.667 -38 -53 -52
s-33.833 -25 -46.5 -33z" />
    <glyph glyph-name="five" unicode="5" horiz-adv-x="477" 
d="M165 570c0.666992 2.66699 2.16211 3.99805 4.49512 3.99805h6.5h257c3.33301 0 5 -1.66699 5 -5s-1.66699 -5 -5 -5h-214l-44 -215c12.667 0 27.167 -1 43.5 -3s32.833 -5 49.5 -9s32.5 -9 47.5 -15s27.833 -13.333 38.5 -22c20.667 -18 35 -40 43 -66
s10.5 -52.5 7.5 -79.5s-11.333 -53 -25 -78s-31.834 -45.167 -54.501 -60.5c-11.333 -7.33301 -23.833 -13.166 -37.5 -17.499s-27.667 -7.16602 -42 -8.49902s-28.833 -1.16602 -43.5 0.500977s-28 5.16699 -40 10.5c-22 9.33301 -39.333 24 -52 44s-21.667 41.667 -27 65
c-4 21.333 -5 43.666 -3 66.999s7.66699 45.666 17 66.999c1.33301 3.33301 3.33301 4.33301 6 3s3.33398 -3.33301 2.00098 -6c-11.333 -27.333 -16.833 -56.166 -16.5 -86.499s5.83301 -57.666 16.5 -81.999s26.834 -43.333 48.501 -57s48.5 -17.167 80.5 -10.5
c30.667 6 55.834 20.667 75.501 44s32.834 49.666 39.501 78.999s6.33398 59 -0.999023 89s-22.666 55 -45.999 75c-10 8.66699 -22.667 16 -38 22s-31.333 11 -48 15s-33.167 6.83301 -49.5 8.5s-30.833 2.5 -43.5 2.5h-6z" />
    <glyph glyph-name="six" unicode="6" horiz-adv-x="448" 
d="M378 571c3.33301 -0.666992 4.66895 -2.5 4.00195 -5.5s-2.33398 -4.16699 -5.00098 -3.5c-28.667 2 -54.5 -2.66699 -77.5 -14s-43.5 -27.333 -61.5 -48c-28 -30.667 -49.5 -67.5 -64.5 -110.5s-25.167 -86.5 -30.5 -130.5c24.667 16.667 50.334 26.334 77.001 29.001
s50.834 -1.33301 72.501 -12s39.167 -27 52.5 -49s18.666 -49 15.999 -81c-2.66699 -33.333 -12 -61.333 -28 -84s-35.167 -39.334 -57.5 -50.001s-45.833 -14.5 -70.5 -11.5s-46.667 14.167 -66 33.5c-22.667 22 -39.167 55.5 -49.5 100.5s-8.5 103.167 5.5 174.5
c4.66699 22.667 11 46 19 70s18 47.333 30 70s25.833 43.5 41.5 62.5s33.167 34.333 52.5 46s40.666 19.167 63.999 22.5s48.666 0.333008 75.999 -9zM141.003 247c-2.66699 -30 -2.83203 -56.5 -0.499023 -79.5s6.16602 -43.5 11.499 -61.5
c8.66699 -26 19.334 -45.833 32.001 -59.5s26.167 -22.334 40.5 -26.001s28.666 -3 42.999 2s27.5 13.333 39.5 25s22 26 30 43s12.667 35.5 14 55.5c2.66699 30.667 -2.5 56.5 -15.5 77.5s-30 36.167 -51 45.5s-44.333 12.333 -70 9s-50.167 -13.666 -73.5 -30.999z" />
    <glyph glyph-name="seven" unicode="7" horiz-adv-x="215" 
d="M13 -1c-3.33301 0 -4.99902 2.00098 -4.99902 6.00098c13.333 104.667 44.666 204.167 93.999 298.5s108.666 182.5 177.999 264.5h-261c-3.33301 0 -5 1.66699 -5 5s1.66699 5 5 5h314c2.66699 0 4.33398 -1.5 5.00098 -4.5s0.333984 -5.16699 -0.999023 -6.5
c-38 -45.333 -72.833 -91.333 -104.5 -138s-59.167 -94.334 -82.5 -143.001c-22.667 -46 -41.334 -92.5 -56.001 -139.5s-25 -94.5 -31 -142.5c0 -3.33301 -1.66699 -5 -5 -5h-45z" />
    <glyph glyph-name="eight" unicode="8" horiz-adv-x="503" 
d="M122 238c16 23.333 33.668 44.1631 53.001 62.4961s35.333 31.833 48 40.5c-21.333 19.333 -40.333 39.833 -57 61.5s-25.334 43.5 -26.001 65.5c-0.666992 20.667 3.33301 38.5 12 53.5s20 27 34 36s29.5 15.167 46.5 18.5s33.667 3.33301 50 0s30.833 -10 43.5 -20
s22 -23.333 28 -40c7.33301 -20.667 7 -46.5 -1 -77.5s-27.333 -67.5 -58 -109.5l58 -55.5c18 -17.667 33.667 -38.5 47 -62.5c13.333 -24.667 20 -50 20 -76c0 -28.667 -8.33301 -53.167 -25 -73.5s-37.5 -36 -62.5 -47s-52.167 -17.167 -81.5 -18.5
s-56.5 2.83398 -81.5 12.501s-45.833 24.834 -62.5 45.501s-25 47.334 -25 80.001c0 17.333 3.83301 34.833 11.5 52.5s17.167 34.834 28.5 51.501zM251.001 314.997c-11.333 -10 -23.667 -21.832 -37 -35.499s-25.666 -28.5 -36.999 -44.5s-20.833 -32.667 -28.5 -50
s-11.5 -34.333 -11.5 -51c0 -38.667 11.333 -69.334 34 -92.001c22 -22 45.667 -32.5 71 -31.5s49.666 9.83301 72.999 26.5c14.667 10.667 26.667 24 36 40s14 35.333 14 58c0 26.667 -6.83301 51.167 -20.5 73.5s-29.5 43.166 -47.5 62.499
c-6 6.66699 -13 13.834 -21 21.501s-16.333 15.167 -25 22.5zM287 335.998c30 40 48.8311 74.667 56.498 104s8.16699 53.666 1.5 72.999c-7.33301 21.333 -19.333 35.333 -36 42s-33.667 7.5 -51 2.5s-32.333 -15.333 -45 -31s-18.667 -35.167 -18 -58.5
c0 -11.333 2.83301 -22.666 8.5 -33.999s12.834 -22.5 21.501 -33.5s18.334 -22 29.001 -33s21.667 -21.5 33 -31.5z" />
    <glyph glyph-name="nine" unicode="9" horiz-adv-x="479" 
d="M86 58c-1.33301 2.66699 -0.662109 5.00391 2.00488 7.00391c2.66699 1.33301 4.66699 0.666016 6 -2.00098c14 -23.333 28.667 -38.333 44 -45s30.666 -7.66699 45.999 -3s30.166 13.667 44.499 27s27.666 28.666 39.999 45.999s23.166 35.166 32.499 53.499
s16.666 34.5 21.999 48.5c5.33301 15.333 10 31 14 47s7.66699 32 11 48c-26 -13.333 -51.333 -19.333 -76 -18c-29.333 1.33301 -53.5 10 -72.5 26s-33 35.5 -42 58.5s-12.833 47.667 -11.5 74s7.33301 50.833 18 73.5s26 41.5 46 56.5s44.667 22.5 74 22.5
c16 0 30.5 -3.33301 43.5 -10s24.333 -15.5 34 -26.5s17.834 -23.833 24.501 -38.5s12 -30.334 16 -47.001c6 -26 9 -55 9 -87c0 -38 -4.16699 -76.833 -12.5 -116.5s-20.5 -76.5 -36.5 -110.5c-12.667 -27.333 -30.334 -53.5 -53.001 -78.5s-47.167 -43.5 -73.5 -55.5
s-52.833 -15.167 -79.5 -9.5s-50 25.5 -70 59.5zM350.004 297.004c4 33.333 5.66504 65.9971 4.99805 97.9971s-6.66699 63 -18 93c-9.33301 24 -21.5 41.833 -36.5 53.5s-30.833 17.334 -47.5 17.001s-32.667 -6.66602 -48 -18.999s-27.666 -30.5 -36.999 -54.5
c-8 -21.333 -12.167 -43.833 -12.5 -67.5s3.83398 -45.667 12.501 -66s21.5 -37.5 38.5 -51.5s38.833 -21.667 65.5 -23c26 -1.33301 52 5.33398 78 20.001z" />
    <glyph glyph-name="colon" unicode=":" horiz-adv-x="261" 
d="M123 128c8.66699 0 16.0039 -2.33301 22.0039 -7s10.167 -10.334 12.5 -17.001s2.66602 -14 0.999023 -22s-5.83398 -15 -12.501 -21s-13.834 -9.5 -21.501 -10.5s-14.834 0 -21.501 3s-12 7.5 -16 13.5s-5.66699 13.333 -5 22c0.666992 10.667 5 19.834 13 27.501
s17.333 11.5 28 11.5zM140.004 276c8.66699 0 16.0039 -2.33105 22.0039 -6.99805s10.167 -10.334 12.5 -17.001s2.66602 -13.834 0.999023 -21.501s-5.83398 -14.5 -12.501 -20.5s-13.834 -9.5 -21.501 -10.5s-14.834 -0.166992 -21.501 2.5s-12 7.16699 -16 13.5
s-5.66699 13.833 -5 22.5c0.666992 10.667 5 19.667 13 27s17.333 11 28 11z" />
    <glyph glyph-name="semicolon" unicode=";" horiz-adv-x="275" 
d="M160 113c20 0 31.334 -7.49805 34.001 -22.498s0.166992 -31.833 -7.5 -50.5s-19.334 -36 -35.001 -52s-32.167 -25 -49.5 -27c-2.66699 0 -4.33398 1.16699 -5.00098 3.5s0.333008 4.16602 3 5.49902c10.667 6 20.334 15.667 29.001 29s15.334 25.666 20.001 36.999
c-12 2 -20.333 7.16699 -25 15.5s-6.33398 17 -5.00098 26s5.5 17.167 12.5 24.5s16.5 11 28.5 11zM165.001 277.002c8.66699 0 16.0039 -2.33105 22.0039 -6.99805s10.167 -10.334 12.5 -17.001s2.66602 -13.834 0.999023 -21.501s-5.83398 -14.5 -12.501 -20.5
s-13.834 -9.5 -21.501 -10.5s-14.834 -0.166992 -21.501 2.5s-12 7.16699 -16 13.5s-5.66699 13.833 -5 22.5c0.666992 10.667 5 19.667 13 27s17.333 11 28 11z" />
    <glyph glyph-name="less" unicode="&#x3c;" horiz-adv-x="319" 
d="M44 146c-1.33301 0.666992 -2 1.83105 -2 3.49805s0.666992 3.16699 2 4.5l224 138c2 2 4.5 4.33301 7.5 7s5.5 2 7.5 -2c1.33301 -3.33301 0.833008 -5.66602 -1.5 -6.99902l-8.5 -5l-169 -135l169 -135c2.66699 -1.33301 5.66699 -3.16602 9 -5.49902
s3.33301 -5.16602 0 -8.49902c-2 -2.66699 -4.16699 -2.83398 -6.5 -0.500977s-4.83301 4.5 -7.5 6.5z" />
    <glyph glyph-name="equal" unicode="=" horiz-adv-x="390" 
d="M59 191c-5.33301 0 -9.33301 1.66699 -12 5s-4 7 -4 11s1.33301 7.66699 4 11s6.66699 5 12 5h266c5.33301 0 9.33301 -1.66699 12 -5s4 -7 4 -11s-1.33301 -7.66699 -4 -11s-6.66699 -5 -12 -5h-266zM59 76c-5.33301 0 -9.33301 1.66699 -12 5s-4 7 -4 11
s1.33301 7.66699 4 11s6.66699 5 12 5h266c5.33301 0 9.33301 -1.66699 12 -5s4 -7 4 -11s-1.33301 -7.66699 -4 -11s-6.66699 -5 -12 -5h-266z" />
    <glyph glyph-name="greater" unicode="&#x3e;" horiz-adv-x="344" 
d="M57 6c-2.66699 -2 -5.16699 -4.16406 -7.5 -6.49707s-4.5 -2.16602 -6.5 0.500977c-3.33301 3.33301 -3.33301 6.16602 0 8.49902s6.33301 4.16602 9 5.49902l169 135l-169 135l-8.5 5c-2.33301 1.33301 -2.83301 3.66602 -1.5 6.99902c2 4 4.5 4.66699 7.5 2
s5.5 -5 7.5 -7l224 -138c1.33301 -1.33301 2 -2.83301 2 -4.5s-0.666992 -2.83398 -2 -3.50098z" />
    <glyph glyph-name="question" unicode="?" horiz-adv-x="336" 
d="M44 102c-3.33301 1.33301 -5 2.99902 -5 4.99902c2 34.667 6.5 65.167 13.5 91.5s16 49.833 27 70.5s23.333 39.5 37 56.5l41.5 49.5l33 40c11.333 14.667 21.833 29.834 31.5 45.501s17.334 31.5 23.001 47.5s9 31.833 10 47.5s-1.16699 30.834 -6.5 45.501
c-4.66699 12.667 -11.167 24 -19.5 34s-18 17.5 -29 22.5s-22.833 7.16699 -35.5 6.5s-25.334 -5 -38.001 -13c-20 -12.667 -36.167 -31.834 -48.5 -57.501s-16.166 -59.5 -11.499 -101.5c0.666992 -3.33301 -0.5 -5.33301 -3.5 -6s-4.83301 0.666016 -5.5 3.99902
c-4 36 -1.83301 66.667 6.5 92s20.333 45.666 36 60.999s33.5 25.666 53.5 30.999s39.667 6.33301 59 3s37 -11 53 -23s28 -27.667 36 -47c9.33301 -23.333 10.5 -51.666 3.5 -84.999s-27.5 -71 -61.5 -113c-7.33301 -9.33301 -15 -18.333 -23 -27l-25 -26l-42 -47
c-14 -16 -26.833 -33.667 -38.5 -53s-21.334 -41.166 -29.001 -65.499s-12.167 -52.166 -13.5 -83.499c0 -3.33301 -1.66699 -5 -5 -5h-24zM53 77.999c8.66699 0 16.0029 -2.33008 22.0029 -6.99707s10.167 -10.334 12.5 -17.001s2.66602 -13.834 0.999023 -21.501
s-5.83398 -14.5 -12.501 -20.5s-13.834 -9.66699 -21.501 -11s-14.834 -0.5 -21.501 2.5s-12 7.5 -16 13.5s-5.66699 13.333 -5 22c1.33301 11.333 5.83301 20.666 13.5 27.999s16.834 11 27.501 11z" />
    <glyph glyph-name="at" unicode="@" horiz-adv-x="567" 
d="M566 161c2 2 4.33691 2.3291 7.00391 0.996094c2.66699 -2.66699 3 -5 1 -7c-25.333 -38 -54.333 -68.833 -87 -92.5s-66.667 -40.5 -102 -50.5c-24.667 -7.33301 -49.834 -11.333 -75.501 -12s-50.5 2.16602 -74.5 8.49902s-46.667 16.5 -68 30.5s-40 32 -56 54
c-20 28 -34.333 61.833 -43 101.5s-8.66699 85.167 0 136.5c7.33301 44 19.666 82.5 36.999 115.5s37.666 61.167 60.999 84.5c34 34 72.333 55.667 115 65c45.333 10.667 87.166 6.16699 125.499 -13.5s69.166 -50.834 92.499 -93.501c22 -41.333 31.5 -86 28.5 -134
s-15.833 -94 -38.5 -138c-12 -24 -25.667 -42.833 -41 -56.5s-30.666 -22.167 -45.999 -25.5c-16.667 -3.33301 -31.834 -1.5 -45.501 5.5s-24.834 18.167 -33.501 33.5s-14.334 35 -17.001 59s-1 52 5 84c-13.333 -21.333 -26.333 -37.666 -39 -48.999
c-12 -10.667 -23 -17.5 -33 -20.5s-18.5 -2.5 -25.5 1.5s-12 11.167 -15 21.5s-3.5 23.166 -1.5 38.499c2 13.333 5.83301 27.666 11.5 42.999s13 29.833 22 43.5s19.167 25.334 30.5 35.001s23.666 15.5 36.999 17.5c15.333 2 27.166 -1.66699 35.499 -11
s13.5 -21.666 15.5 -36.999c0.666992 -3.33301 -0.666016 -5.16602 -3.99902 -5.49902s-5.33301 1.16699 -6 4.5c-4 21.333 -10 31.833 -18 31.5s-16.667 -6.66602 -26 -18.999s-18.166 -28 -26.499 -47s-14.666 -36.667 -18.999 -53s-5.66602 -28.666 -3.99902 -36.999
s8.16699 -8.16602 19.5 0.500977c8.66699 7.33301 17.167 16.833 25.5 28.5s17.166 26.167 26.499 43.5c1.33301 4 2.5 8 3.5 12s2.16699 8.33301 3.5 13c0.666992 1.33301 1.33398 2.16602 2.00098 2.49902s1.33398 0.833008 2.00098 1.5l47 14
c2 0.666992 3.66699 0.166992 5 -1.5s1.66602 -3.16699 0.999023 -4.5c-4 -12.667 -8 -30 -12 -52s-6.33301 -44.5 -7 -67.5s1.33301 -44.5 6 -64.5s13.667 -34.333 27 -43c12 -8.66699 25.833 -7.16699 41.5 4.5s30.5 31.5 44.5 59.5c21.333 42 33.5 86.5 36.5 133.5
s-6.16699 90.5 -27.5 130.5c-12 22 -25.833 40.5 -41.5 55.5s-32.834 26.833 -51.501 35.5c-18 8.66699 -36 12.5 -54 11.5s-35.5 -5 -52.5 -12s-33 -16.5 -48 -28.5s-28.5 -25 -40.5 -39c-22 -25.333 -40.167 -55.666 -54.5 -90.999s-23.666 -72 -27.999 -110
s-3 -75.5 4 -112.5s21.167 -69.5 42.5 -97.5c38.667 -52 89.334 -80 152.001 -84c24.667 -1.33301 49 1.83398 73 9.50098s46.833 18.5 68.5 32.5s41.667 30.333 60 49s33.833 37.667 46.5 57z" />
    <glyph glyph-name="A" unicode="A" horiz-adv-x="901" 
d="M901 246c1.33301 3.33301 3.16797 4.33301 5.50098 3s3.5 -3.33301 3.5 -6c-13.333 -43.333 -25.5 -79.833 -36.5 -109.5s-21.5 -53.5 -31.5 -71.5s-19.333 -31 -28 -39s-17 -12 -25 -12c-12 0 -20.5 7.66699 -25.5 23s-7.5 36 -7.5 62
c0 17.333 0.833008 37.166 2.5 59.499s4 45.666 7 69.999l9 74c3 25 6.16699 49.167 9.5 72.5l-176 2l-42.5 -141c-13.667 -45.333 -28.834 -85.333 -45.501 -120s-35.5 -62.334 -56.5 -83.001s-46.167 -31 -75.5 -31c-14.667 0 -28.5 3.16699 -41.5 9.5
s-24.333 15.333 -34 27s-17.334 25.334 -23.001 41.001s-8.5 32.834 -8.5 51.501c0 3.33301 0.166992 6.83301 0.5 10.5s0.833008 7.5 1.5 11.5l-30.5 27.5c-10.333 9.66699 -21 18.834 -32 27.501s-22.167 15.834 -33.5 21.501s-22.666 8.5 -33.999 8.5
c-15.333 0 -28.5 -3 -39.5 -9s-20.167 -13.667 -27.5 -23s-12.833 -19.666 -16.5 -30.999s-5.5 -22.666 -5.5 -33.999c0 -16.667 4 -31.167 12 -43.5s20 -18.5 36 -18.5c3.33301 0 5 -1.66699 5 -5c0 -2.66699 -1.66699 -4 -5 -4c-19.333 0 -33.833 7.16699 -43.5 21.5
s-14.5 31.166 -14.5 50.499c0 12.667 2 25.334 6 38.001s10.167 24 18.5 34s18.833 18.167 31.5 24.5s27.334 9.5 44.001 9.5c12 0 23.667 -2.83301 35 -8.5s22.5 -12.667 33.5 -21s21.667 -17.333 32 -27l30.5 -27.5c3.33301 19.333 10.833 36.166 22.5 50.499
s28.167 21.5 49.5 21.5c19.333 0 33.333 -5.66699 42 -17s13 -24 13 -38c0 -15.333 -5 -29.833 -15 -43.5s-24 -20.5 -42 -20.5c-8.66699 0 -18.334 2.16699 -29.001 6.5s-22 11.5 -34 21.5c0 -2 -0.166992 -3.83301 -0.5 -5.5s-0.5 -3.5 -0.5 -5.5
c0 -12.667 1.66699 -25.834 5 -39.501s8.33301 -26 15 -37s15.334 -20 26.001 -27s23 -10.5 37 -10.5c18 0 34.333 7.83301 49 23.5s28 36.667 40 63s23.333 56.666 34 90.999l33 108.5l31 107c12 40 26.5 79.333 43.5 118s37.5 73.667 61.5 105s52.667 53.666 86 66.999
c8.66699 3.33301 16.334 5 23.001 5c14.667 0 24.5 -10.833 29.5 -32.5s7.5 -49.167 7.5 -82.5c0 -24.667 -1 -50.667 -3 -78s-4.33301 -53.166 -7 -77.499s-5.33398 -45.833 -8.00098 -64.5s-4.33398 -31.334 -5.00098 -38.001c-6 -44.667 -11.333 -87.667 -16 -129
s-7 -77 -7 -107c0 -23.333 1.66699 -41.666 5 -54.999s9.33301 -20 18 -20c13.333 0 29 17 47 51s39.667 92 65 174zM785.002 382c5.33301 40 9.83691 78.5 13.5039 115.5s5.5 70.167 5.5 99.5c0 32.667 -2.33301 56.5 -7 71.5s-10.334 22.5 -17.001 22.5
c-3.33301 0 -6.33301 -1 -9 -3c-18.667 -11.333 -36.334 -29.833 -53.001 -55.5s-31.834 -53.667 -45.501 -84s-25.834 -60.5 -36.501 -90.5s-19 -55 -25 -75zM297.006 171c-1.33301 -2.66699 -2.16797 -5.33301 -2.50098 -8s-0.833008 -5.66699 -1.5 -9
c23.333 -20 44 -30 62 -30c14.667 0 26.167 5.5 34.5 16.5s12.5 23.167 12.5 36.5c0 12 -3.66699 22.667 -11 32s-18.666 14 -33.999 14s-28 -4.83301 -38 -14.5s-17.333 -22.167 -22 -37.5z" />
    <glyph glyph-name="B" unicode="B" horiz-adv-x="903" 
d="M105 68c3.33301 0 4.83496 -1.49219 4.50195 -4.49219s-1.83301 -4.5 -4.5 -4.5c-19.333 0 -34 7.16699 -44 21.5s-15 31.166 -15 50.499c0 12.667 2 25.334 6 38.001s10.167 24 18.5 34s18.833 18.167 31.5 24.5s27.334 9.5 44.001 9.5c12 0 23.667 -2.83301 35 -8.5
s22.5 -12.667 33.5 -21s21.667 -17.333 32 -27l30.5 -27.5c4 19.333 11.833 36.166 23.5 50.499s28.167 21.5 49.5 21.5c18.667 0 32.334 -5.66699 41.001 -17s13 -24 13 -38c0 -15.333 -4.83301 -29.666 -14.5 -42.999s-23.5 -20 -41.5 -20
c-8.66699 0 -18.334 2.16699 -29.001 6.5s-22.334 11.5 -35.001 21.5c0 -2 -0.166992 -4 -0.5 -6s-0.5 -3.66699 -0.5 -5c0 -13.333 1.66699 -26.833 5 -40.5s8.33301 -26 15 -37s15.167 -20 25.5 -27s22.5 -10.5 36.5 -10.5c14.667 0 28 7.16699 40 21.5
s22.333 32.666 31 54.999s16.167 47.333 22.5 75s11.666 54.667 15.999 81s7.66602 50.666 9.99902 72.999l5.5 52.5c1.33301 17.333 3.16602 37.666 5.49902 60.999s3.5 47 3.5 71c0 22.667 -1.66699 45 -5 67s-8.5 41.5 -15.5 58.5s-16.333 30.667 -28 41
s-25.834 15.5 -42.501 15.5c-14.667 0 -28.667 -4 -42 -12s-25.166 -18.5 -35.499 -31.5s-18.5 -28 -24.5 -45s-9 -34.5 -9 -52.5c0 -16.667 2.5 -33.334 7.5 -50.001s12.667 -32.5 23 -47.5s23.666 -28.5 39.999 -40.5s35.5 -21.333 57.5 -28
c2 -1.33301 3 -2.66602 3 -3.99902c0 -3.33301 -1.33301 -5 -4 -5h-2c-43.333 13.333 -76.666 36 -99.999 68s-35 67.333 -35 106c0 22 3.83301 42.667 11.5 62s18 36.333 31 51s28.5 26.167 46.5 34.5s37.667 12.5 59 12.5c15.333 0 30.333 -3.16699 45 -9.5
s27.334 -17.166 38.001 -32.499c0.666992 0 1.33398 0.333008 2.00098 1c20.667 16.667 43.167 28.667 67.5 36s46.166 11 65.499 11c22.667 0 43.167 -4 61.5 -12s34 -18.833 47 -32.5s23 -29.334 30 -47.001s10.5 -36.167 10.5 -55.5c0 -18 -3.5 -36.833 -10.5 -56.5
s-18 -38.334 -33 -56.001s-34.5 -33.167 -58.5 -46.5s-52.667 -22.666 -86 -27.999c38 -4.66699 70.333 -12.5 97 -23.5s48.167 -24 64.5 -39s28.333 -31.667 36 -50s11.5 -37.166 11.5 -56.499c0 -26 -5.5 -51.167 -16.5 -75.5s-25.667 -46 -44 -65
s-39.333 -34.167 -63 -45.5s-48.167 -17 -73.5 -17c-28 0 -48.5 7.5 -61.5 22.5s-19.5 33.167 -19.5 54.5c0 17.333 4.16699 35.5 12.5 54.5s20.833 36.333 37.5 52s36.834 28.667 60.501 39s51.167 15.5 82.5 15.5c2.66699 0 4 -1.5 4 -4.5s-1.33301 -4.5 -4 -4.5
c-28 0 -53.333 -4.83301 -76 -14.5s-42 -21.834 -58 -36.501s-28.333 -30.834 -37 -48.501s-13 -34.834 -13 -51.501c0 -20.667 5.5 -36 16.5 -46s23.167 -15 36.5 -15c16 0 33.667 5.5 53 16.5s37.166 25.5 53.499 43.5s30 38.5 41 61.5s16.5 46.167 16.5 69.5
c0 16.667 -3.83301 33.667 -11.5 51s-20.334 33.166 -38.001 47.499s-41 26.666 -70 36.999s-64.5 17.166 -106.5 20.499c-2 -18 -4.16699 -39.5 -6.5 -64.5s-6 -50.833 -11 -77.5s-11.667 -53.334 -20 -80.001s-18.833 -50.334 -31.5 -71.001s-28.167 -37.5 -46.5 -50.5
s-39.833 -19.5 -64.5 -19.5c-15.333 0 -28.833 3.66699 -40.5 11s-21.167 16.833 -28.5 28.5s-12.833 24.834 -16.5 39.501s-5.5 29.334 -5.5 44.001v9.5c0 3 0.333008 6.16699 1 9.5l-30 27c-10.667 10 -21.5 19.333 -32.5 28s-22.167 16 -33.5 22s-22.666 9 -33.999 9
c-15.333 0 -28.5 -3 -39.5 -9s-20.167 -13.667 -27.5 -23s-12.833 -19.833 -16.5 -31.5s-5.5 -22.834 -5.5 -33.501c0 -17.333 4 -32.166 12 -44.499s20.333 -18.5 37 -18.5zM286.002 146.008c22.667 -19.333 43.332 -29 61.999 -29c14.667 0 26.167 5.5 34.5 16.5
s12.5 23.167 12.5 36.5c0 12 -3.66699 22.667 -11 32s-18.666 14 -33.999 14c-20 0 -35 -7.33301 -45 -22s-16.333 -30.667 -19 -48zM525 650.008c-0.666992 -0.666992 -1.33301 -1.00098 -2 -1.00098c12 -19.333 20 -42.333 24 -69s6 -54 6 -82
c0 -22.667 -0.833008 -44.5 -2.5 -65.5l-4.5 -55.5c36 4.66699 66.833 13.334 92.5 26.001s46.5 27.5 62.5 44.5s27.667 35.333 35 55s11 38.5 11 56.5c0 17.333 -2.83301 34 -8.5 50s-13.667 30 -24 42s-22.833 21.5 -37.5 28.5s-30.667 10.5 -48 10.5
c-16 0 -33.333 -3.5 -52 -10.5s-36 -16.833 -52 -29.5z" />
    <glyph glyph-name="C" unicode="C" horiz-adv-x="350" 
d="M267 655c-14 -12 -26.832 -26.8311 -38.499 -44.498s-22.5 -36.5 -32.5 -56.5s-19 -40.667 -27 -62s-14.667 -42 -20 -62c18.667 -2.66699 37.167 -2.33398 55.5 0.999023s35.833 8.66602 52.5 15.999c19.333 8.66699 36.166 20.667 50.499 36s26 32 35 50
s15.167 36.167 18.5 54.5s3 35.166 -1 50.499c-7.33301 26.667 -20 40.334 -38 41.001s-36.333 -7.33301 -55 -24zM350.001 236.002c1.33301 3.33301 3.32715 4.32422 5.99414 2.99121s3.33398 -3.66602 2.00098 -6.99902c-8.66699 -19.333 -20.167 -42.166 -34.5 -68.499
s-30.166 -51.666 -47.499 -75.999s-36 -45 -56 -62s-40 -25.5 -60 -25.5c-25.333 0 -45.5 10.5 -60.5 31.5s-25.833 48.5 -32.5 82.5c-4 24 -6.16699 49.667 -6.5 77s0.833984 55 3.50098 83s6.66699 55.833 12 83.5s11.666 53.5 18.999 77.5
c-19.333 8.66699 -37.166 21 -53.499 37s-30.5 36.667 -42.5 62c-1.33301 2.66699 -0.5 4.83398 2.5 6.50098s5.16699 0.833984 6.5 -2.49902c11.333 -23.333 24.833 -42.666 40.5 -57.999s32.167 -27 49.5 -35c10 34 21.833 66.333 35.5 97s29 57.5 46 80.5
s35.5 41.167 55.5 54.5s41 20 63 20c19.333 0 34.833 -5.16699 46.5 -15.5s19.667 -23.5 24 -39.5s5 -33.833 2 -53.5s-9.16699 -39.167 -18.5 -58.5s-21.666 -37.166 -36.999 -53.499s-33.333 -29.166 -54 -38.499c-17.333 -8 -35.833 -13.667 -55.5 -17
s-39.5 -3.66602 -59.5 -0.999023c-3.33301 -13.333 -7.16602 -31 -11.499 -53s-8 -46.167 -11 -72.5s-5.16699 -53.5 -6.5 -81.5s-0.833008 -54.5 1.5 -79.5s6.83301 -47.167 13.5 -66.5s16.667 -33.666 30 -42.999c8.66699 -6 20.834 -5.66699 36.501 1
s32.5 20.667 50.5 42s35.5 46.666 52.5 75.999s33.167 60.333 48.5 93z" />
    <glyph glyph-name="D" unicode="D" horiz-adv-x="933" 
d="M123 73c3.33301 0 4.99023 -1.33691 4.99023 -4.00391c0 -3.33301 -1.66699 -5 -5 -5c-14.667 0 -26.667 4.5 -36 13.5s-15.666 20 -18.999 33s-3.83301 27.333 -1.5 43s7.5 30 15.5 43s18.833 23.833 32.5 32.5s30.167 13 49.5 13c12 0 23.667 -2.83301 35 -8.5
s22.5 -12.667 33.5 -21s21.667 -17.333 32 -27l30.5 -27.5c4 19.333 11.833 36.166 23.5 50.499s28.167 21.5 49.5 21.5c16.667 0 29.334 -4.5 38.001 -13.5s14 -19.5 16 -31.5s0.5 -24.167 -4.5 -36.5s-12.667 -21.833 -23 -28.5s-23.333 -9 -39 -7s-33.5 11 -53.5 27
c-1.33301 -21.333 1 -41 7 -59c5.33301 -18.667 14.166 -34.334 26.499 -47.001s28.166 -19.334 47.499 -20.001c17.333 0.666992 32.666 10.834 45.999 30.501s25 44.834 35 75.501s18.5 64.834 25.5 102.501s12.5 74.834 16.5 111.501s6.83301 70.5 8.5 101.5
s2.5 55.5 2.5 73.5c-0.666992 21.333 -2.16699 42.166 -4.5 62.499s-7.16602 39.166 -14.499 56.499c-6.66699 16.667 -16.167 29.667 -28.5 39s-25.833 14.666 -40.5 15.999s-29.5 -1.66699 -44.5 -9s-28.5 -19.333 -40.5 -36
c-15.333 -21.333 -24.666 -45.166 -27.999 -71.499s-0.666016 -52.166 8.00098 -77.499c8.66699 -23.333 22.667 -45 42 -65s45 -35 77 -45c3.33301 -1.33301 4.5 -3.5 3.5 -6.5s-3.16699 -3.83301 -6.5 -2.5c-32.667 10.667 -59.167 26.167 -79.5 46.5s-35 42.833 -44 67.5
s-12.5 49.834 -10.5 75.501s9 49.167 21 70.5s28.833 38.666 50.5 51.999s47.5 20 77.5 20c20.667 0 38 -4.33301 52 -13s25.333 -20 34 -34s15.167 -29.667 19.5 -47s7.16602 -34.666 8.49902 -51.999c22.667 40.667 47 72.667 73 96c38 35.333 70 53 96 53
s46.5 -11.833 61.5 -35.5s25 -56.5 30 -98.5s5.66699 -87.667 2 -137s-11.5 -99.333 -23.5 -150s-27.5 -96.667 -46.5 -138s-41.167 -75.166 -66.5 -101.499s-53 -39.5 -83 -39.5c-22 0 -38.667 5.66699 -50 17s-17.666 25.666 -18.999 42.999s2.16699 36.166 10.5 56.499
s20.833 39.333 37.5 57s37.5 32.5 62.5 44.5s53.5 18.333 85.5 19c8 25.333 14.833 51.333 20.5 78s10.167 53.334 13.5 80.001c5.33301 44 7.33301 85.667 6 125s-6.66602 73 -15.999 101c-12.667 38 -28 57 -46 57s-41 -12.667 -69 -38
c-13.333 -12 -26.666 -26.833 -39.999 -44.5s-25.666 -38.834 -36.999 -63.501c0.666992 -17.333 0.666992 -37.666 0 -60.999s-2 -47.5 -4 -72.5s-4.5 -49.5 -7.5 -73.5s-5.83301 -45.333 -8.5 -64c-3.33301 -22.667 -7.66602 -46.167 -12.999 -70.5
s-12 -47.666 -20 -69.999s-17.667 -42.666 -29 -60.999s-24.333 -32.833 -39 -43.5c-16 -12 -31.833 -19 -47.5 -21s-30.334 -0.166992 -44.001 5.5s-25.667 14.834 -36 27.501s-18.166 28 -23.499 46c-6.66699 22 -8.33398 44.667 -5.00098 68c-10 8 -20.167 17 -30.5 27
s-21 19.333 -32 28s-22.167 16 -33.5 22s-22.666 9 -33.999 9c-17.333 0 -32.166 -3.83301 -44.499 -11.5s-22.166 -17.5 -29.499 -29.5s-12.166 -24.833 -14.499 -38.5s-2 -26.5 1 -38.5s8.33301 -22 16 -30s17.834 -12 30.501 -12zM735.99 231.996
c-28 -1.33301 -53 -7.00098 -75 -17.001s-40.833 -22.5 -56.5 -37.5s-27.834 -31.167 -36.501 -48.5s-13.667 -33.666 -15 -48.999c-0.666992 -5.33301 -0.5 -11.333 0.5 -18s2.66699 -13 5 -19s5.83301 -11 10.5 -15s10.334 -6 17.001 -6c8 0 16.5 2.66699 25.5 8
s17.5 11.833 25.5 19.5s15.333 15.5 22 23.5s11.667 14.667 15 20c14 22 26.167 45.5 36.5 70.5s18.833 47.833 25.5 68.5zM306.99 166.995c-0.666992 -2.66699 -1.16699 -5.33105 -1.5 -7.99805s-0.833008 -5.33398 -1.5 -8.00098
c15.333 -12.667 29.833 -21.334 43.5 -26.001s26.167 -4.33398 37.5 0.999023c10 4.66699 17.333 12.167 22 22.5s6.5 20.833 5.5 31.5s-5 20.167 -12 28.5s-17.833 12.5 -32.5 12.5c-16 0 -29 -5.16699 -39 -15.5s-17.333 -23.166 -22 -38.499z" />
    <glyph glyph-name="E" unicode="E" horiz-adv-x="578" 
d="M578 231c0 2.66699 1.83105 3.83105 5.49805 3.49805s4.83398 -2.16602 3.50098 -5.49902c-5.33301 -32 -16.666 -61.667 -33.999 -89s-37.666 -51 -60.999 -71c-24.667 -20.667 -52.167 -37.334 -82.5 -50.001s-60.833 -18.334 -91.5 -17.001
c-34 0.666992 -62.667 7.33398 -86 20.001s-41.833 29 -55.5 49s-22.667 42.167 -27 66.5s-4.33301 48.5 0 72.5s12.666 46.833 24.999 68.5s28.166 39.834 47.499 54.501c19.333 14 40.5 24.5 63.5 31.5s45.5 11.167 67.5 12.5c-14 7.33301 -26.333 16.833 -37 28.5
s-19.667 24.5 -27 38.5c-36 0 -69.5 4.66699 -100.5 14s-57.167 27.666 -78.5 54.999c-15.333 19.333 -26.5 41.666 -33.5 66.999s-10.5 52.666 -10.5 81.999c0 3.33301 1.66699 5 5 5s5 -1.66699 5 -5c0 -27.333 3 -52.666 9 -75.999s15.5 -44 28.5 -62
s29.833 -32.833 50.5 -44.5s45.334 -19.167 74.001 -22.5c16 -2 31.333 -3 46 -3c-11.333 24.667 -17.666 51.167 -18.999 79.5s2.5 54.666 11.5 78.999s23.167 44.833 42.5 61.5s44.666 25.334 75.999 26.001c28 0.666992 51.5 -7.33301 70.5 -24s28.833 -40 29.5 -70
c0.666992 -26.667 -5.83301 -52.167 -19.5 -76.5s-35.5 -44.166 -65.5 -59.499c-9.33301 -4.66699 -19.5 -8.83398 -30.5 -12.501s-23.167 -6.5 -36.5 -8.5c8.66699 -16.667 19.667 -31.334 33 -44.001s28.666 -22 45.999 -28c0.666992 0 2.16699 -0.166992 4.5 -0.5
s3.5 -1.83301 3.5 -4.5c-0.666992 -3.33301 -2 -5 -4 -5s-4 0.333008 -6 1c-9.33301 0.666992 -20.5 0.333984 -33.5 -0.999023s-27.167 -4 -42.5 -8c-12 -3.33301 -24 -7.83301 -36 -13.5s-23.667 -12.5 -35 -20.5c-23.333 -17.333 -41 -40.166 -53 -68.499
s-17.833 -57.166 -17.5 -86.499s7.33301 -57.166 21 -83.499s34.834 -46.166 63.501 -59.499c16 -7.33301 32.667 -11.166 50 -11.499s34.5 2 51.5 7s33.833 12.167 50.5 21.5s32 20 46 32c23.333 19.333 43.333 42.166 60 68.499s27.667 55.166 33 86.499zM342.998 634.997
c-7.33301 -12 -12.999 -25.5 -16.999 -40.5s-6 -30.333 -6 -46s1.5 -31.334 4.5 -47.001s7.83301 -30.167 14.5 -43.5c25.333 4 47.666 11 66.999 21c28 14 48.333 32.333 61 55s18.667 46.334 18 71.001c0 20.667 -5.16699 37.5 -15.5 50.5s-22.833 21.167 -37.5 24.5
s-30.167 1.5 -46.5 -5.5s-30.5 -20.167 -42.5 -39.5z" />
    <glyph glyph-name="F" unicode="F" horiz-adv-x="703" 
d="M123 68c3.33301 0 4.99414 -1.33398 4.99414 -4.00098c0 -3.33301 -1.66699 -5 -5 -5c-14.667 0 -26.667 4.5 -36 13.5s-15.666 20 -18.999 33s-3.83301 27.333 -1.5 43s7.5 30 15.5 43s18.833 23.833 32.5 32.5s30.167 13 49.5 13c12 0 23.667 -2.83301 35 -8.5
s22.5 -12.667 33.5 -21s21.667 -17.333 32 -27l30.5 -27.5c4 19.333 11.833 36.166 23.5 50.499s28.167 21.5 49.5 21.5c16.667 0 29.334 -4.5 38.001 -13.5s14 -19.5 16 -31.5s0.5 -24.167 -4.5 -36.5s-12.667 -21.833 -23 -28.5s-23.333 -9 -39 -7s-33.5 11 -53.5 27
c-1.33301 -20 0.666992 -39.667 6 -59c4 -12 9.83301 -23.167 17.5 -33.5s16.334 -18.5 26.001 -24.5s20 -9 31 -9s21.833 4.66699 32.5 14c8.66699 7.33301 16.667 17.5 24 30.5s14 28.167 20 45.5c6.66699 18 12.5 38 17.5 60s9.5 44.667 13.5 68s7.5 46.833 10.5 70.5
s5.5 46.834 7.5 69.501c1.33301 16.667 3 35.334 5 56.001s3.16699 41.834 3.5 63.501s-0.333984 43.167 -2.00098 64.5s-5.5 41.333 -11.5 60c-14.667 0 -28.5 -0.833008 -41.5 -2.5s-24.167 -5.83398 -33.5 -12.501s-16.833 -15.834 -22.5 -27.501s-8.5 -27.5 -8.5 -47.5
c0 -3.33301 -1.66699 -5 -5 -5s-5 1.66699 -5 5c0 21.333 3 38.5 9 51.5s14 23.167 24 30.5s21.833 12.166 35.5 14.499s28.167 3.16602 43.5 2.49902c-7.33301 20 -17.666 35 -30.999 45s-27.5 15.167 -42.5 15.5s-30 -3.83398 -45 -12.501s-28.167 -21.667 -39.5 -39
c-16 -23.333 -24.667 -49.666 -26 -78.999s4 -56.666 16 -81.999c9.33301 -20.667 23.333 -39.167 42 -55.5s42 -29.166 70 -38.499c3.33301 -1.33301 4.5 -3.5 3.5 -6.5s-3.16699 -3.83301 -6.5 -2.5c-35.333 11.333 -63.166 27.833 -83.499 49.5s-34.5 45.5 -42.5 71.5
s-10.167 52.333 -6.5 79s12.5 50.334 26.5 71.001s32.667 36.834 56 48.501s50.333 15.5 81 11.5c23.333 -3.33301 41.666 -12.333 54.999 -27s23.333 -32.334 30 -53.001c22 -2.66699 44.5 -4.83398 67.5 -6.50098s44.667 -0.5 65 3.5s38.5 12.167 54.5 24.5
s28.333 31.166 37 56.499c1.33301 3.33301 3.5 4.5 6.5 3.5s3.83301 -3.16699 2.5 -6.5c-9.33301 -27.333 -22.166 -47.5 -38.499 -60.5s-34.833 -21.833 -55.5 -26.5s-42.834 -6.16699 -66.501 -4.5s-46.834 3.83398 -69.501 6.50098
c6.66699 -22.667 10.667 -46.834 12 -72.501s1.33301 -51.167 0 -76.5c13.333 -1.33301 26.666 -2.5 39.999 -3.5s25.833 -0.833008 37.5 0.5s22.167 4.83301 31.5 10.5s17 14.167 23 25.5c1.33301 2.66699 3.5 3.33398 6.5 2.00098s3.83301 -3.66602 2.5 -6.99902
c-6.66699 -12.667 -15.167 -22 -25.5 -28s-21.666 -10 -33.999 -12s-25.5 -2.5 -39.5 -1.5s-28 2.16699 -42 3.5c-1.33301 -20 -3 -41.167 -5 -63.5s-4.33301 -44.666 -7 -66.999s-5.66699 -44 -9 -65s-7 -40.167 -11 -57.5c-6 -25.333 -13.333 -50 -22 -74
s-19.334 -45.333 -32.001 -64c-15.333 -24.667 -34.333 -41.667 -57 -51c-16 -6 -31 -8.5 -45 -7.5s-26.5 4.66699 -37.5 11s-20.333 15.166 -28 26.499s-13.834 24.333 -18.501 39c-6 21.333 -8 44 -6 68c-9.33301 8 -19.166 17 -29.499 27s-21 19.333 -32 28
s-22.167 16 -33.5 22s-22.666 9 -33.999 9c-17.333 0 -32.166 -3.83301 -44.499 -11.5s-22.166 -17.5 -29.499 -29.5s-12.166 -24.833 -14.499 -38.5s-2 -26.5 1 -38.5s8.33301 -22 16 -30s17.834 -12 30.501 -12zM306.994 161.999
c-0.666992 -2.66699 -1.16699 -5.33105 -1.5 -7.99805s-0.833008 -5.33398 -1.5 -8.00098c15.333 -12.667 29.833 -21.334 43.5 -26.001s26.167 -4.33398 37.5 0.999023c10 4.66699 17.333 12.167 22 22.5s6.5 20.833 5.5 31.5s-5 20.167 -12 28.5s-17.833 12.5 -32.5 12.5
c-16 0 -29 -5.16699 -39 -15.5s-17.333 -23.166 -22 -38.499z" />
    <glyph glyph-name="G" unicode="G" horiz-adv-x="669" 
d="M126 -151c3.33301 0 5.00195 -1.66895 5.00195 -5.00195s-1.66699 -5 -5 -5c-14.667 -0.666992 -26.834 3.16602 -36.501 11.499s-16.5 19 -20.5 32s-5.33301 27.333 -4 43s5.66602 30.334 12.999 44.001s17.666 25.167 30.999 34.5s29.666 14.333 48.999 15
c12 0.666992 23.833 -1.5 35.5 -6.5s23.334 -11.5 35.001 -19.5s22.834 -16.667 33.501 -26l31 -26c3.33301 20 10.5 37.333 21.5 52s27.167 22.667 48.5 24c16.667 0.666992 29.5 -3.16602 38.5 -11.499s14.833 -18.5 17.5 -30.5s1.83398 -24.167 -2.49902 -36.5
s-11.5 -22.166 -21.5 -29.499s-22.833 -10.333 -38.5 -9s-33.834 9.33301 -54.501 24c-1.33301 -27.333 3.5 -51.833 14.5 -73.5s24.5 -36.334 40.5 -44.001s32.833 -6.66699 50.5 3s33.167 32.167 46.5 67.5c7.33301 21.333 13.166 43 17.499 65s7.83301 40.667 10.5 56
l11 82c4.66699 35.333 9.33398 73.333 14.001 114l13.5 121c4.33301 40 7.83301 74 10.5 102c-7.33301 -22.667 -15.833 -45.5 -25.5 -68.5s-20.167 -45.167 -31.5 -66.5c-6.66699 -11.333 -14.167 -23 -22.5 -35s-17.5 -23 -27.5 -33s-21.167 -18.333 -33.5 -25
s-25.5 -10.334 -39.5 -11.001c-19.333 -0.666992 -35.166 3.5 -47.499 12.5s-22.333 20.833 -30 35.5s-13.334 31.334 -17.001 50.001s-5.83398 37.5 -6.50098 56.5s-0.166992 36.833 1.5 53.5s3.5 30.334 5.5 41.001c-29.333 20 -53.333 48 -72 84
c-1.33301 3.33301 -0.5 5.66602 2.5 6.99902s5.16699 0.333008 6.5 -3c18 -34 40 -60 66 -78c6 29.333 14.667 58.333 26 87s24.833 54.667 40.5 78s33.5 42.833 53.5 58.5s41.667 24.834 65 27.501c19.333 2 35.166 -1.5 47.499 -10.5s21 -21.5 26 -37.5
s6.83301 -34.167 5.5 -54.5s-5.83301 -40.5 -13.5 -60.5s-18.167 -38.667 -31.5 -56s-29.333 -31.333 -48 -42c-18.667 -10 -38.5 -17 -59.5 -21s-42.167 -3.66699 -63.5 1c-3.33301 -23.333 -4.33301 -46.666 -3 -69.999s4.83301 -44.333 10.5 -63
s13.334 -34.167 23.001 -46.5s20.834 -19.166 33.501 -20.499s26.834 4 42.501 16s32.167 33 49.5 63c16.667 27.333 30.834 56.5 42.501 87.5s21.167 59.833 28.5 86.5c0 1.33301 1 2.66602 3 3.99902l46 16c1.33301 0.666992 2.83301 0.666992 4.5 0s2.16699 -2 1.5 -4
c-2 -28.667 -4.83301 -62.167 -8.5 -100.5s-7.83398 -77.5 -12.501 -117.5l-9.5 -81c-3 -26.667 -6 -51.5 -9 -74.5l-8 -61.5l-5.5 -43c-3.33301 -23.333 -7.83301 -47.333 -13.5 -72s-13.834 -47.667 -24.501 -69c-13.333 -26 -29.5 -45 -48.5 -57
s-38.167 -17.333 -57.5 -16s-37.333 8.83301 -54 22.5s-29 32.5 -37 56.5c-3.33301 10 -6 20.833 -8 32.5s-2.33301 23.167 -1 34.5l-31.5 26c-11 9.33301 -22.333 18 -34 26s-23.167 14.667 -34.5 20s-22.666 8 -33.999 8c-17.333 -0.666992 -32 -5.16699 -44 -13.5
s-21.333 -18.666 -28 -30.999s-10.834 -25.333 -12.501 -39s-0.666992 -26.334 3 -38.001s9.5 -21.334 17.5 -29.001s18.333 -11.167 31 -10.5zM305.002 -49.002c-1.33301 -6.66699 -1.99805 -12.001 -1.99805 -16.001c15.333 -12 30 -20 44 -24s26.667 -3 38 3
c9.33301 4.66699 16.166 12.5 20.499 23.5s5.83301 21.833 4.5 32.5s-5.83301 19.834 -13.5 27.501s-18.834 11.167 -33.501 10.5c-16 -1.33301 -28.833 -7.33301 -38.5 -18s-16.167 -23.667 -19.5 -39zM310.004 415.997c20 -4 40.0029 -4.16406 60.0029 -0.49707
s38.667 10.167 56 19.5c15.333 8.66699 29 20.167 41 34.5s21.833 29.833 29.5 46.5s13 33.667 16 51s3.5 33.666 1.5 48.999c-1.33301 12 -5 24.167 -11 36.5s-15.667 19.166 -29 20.499c-14 1.33301 -27.333 -2.5 -40 -11.5s-24.834 -21 -36.501 -36
s-22.334 -32 -32.001 -51s-18.334 -38.333 -26.001 -58s-14 -38.334 -19 -56.001s-8.5 -32.5 -10.5 -44.5z" />
    <glyph glyph-name="H" unicode="H" horiz-adv-x="874" 
d="M110 71c2.66699 0 3.99609 -1.33691 3.99609 -4.00391c0 -3.33301 -1.33301 -5 -4 -5c-14.667 0 -26.667 4.5 -36 13.5s-15.666 20 -18.999 33s-4 27.333 -2 43s7 30 15 43s19 23.833 33 32.5s30.667 13 50 13c12 0 23.667 -2.83301 35 -8.5s22.5 -12.667 33.5 -21
s21.667 -17.333 32 -27l30.5 -27.5c4 19.333 11.833 36.166 23.5 50.499s28.167 21.5 49.5 21.5c16.667 0 29.334 -4.5 38.001 -13.5s14 -19.5 16 -31.5s0.5 -24.167 -4.5 -36.5s-12.667 -21.833 -23 -28.5s-23.333 -9 -39 -7s-33.5 11 -53.5 27
c-1.33301 -20 0.666992 -39.667 6 -59c2.66699 -11.333 7.83398 -22.166 15.501 -32.499s16.5 -18.666 26.5 -24.999s20.833 -9.5 32.5 -9.5s22.834 5 33.501 15c16.667 15.333 31 40.333 43 75c8 22.667 15.833 52.834 23.5 90.501s14.167 77.167 19.5 118.5
s9.33301 82 12 122s3 74.333 1 103c-1.33301 18.667 -3.5 36.667 -6.5 54s-8.16699 33 -15.5 47c-11.333 23.333 -26.333 37.833 -45 43.5s-37.167 4.5 -55.5 -3.5s-34.833 -21.667 -49.5 -41s-23.667 -42.666 -27 -69.999c-5.33301 -41.333 3.16699 -79.5 25.5 -114.5
s55.833 -59.833 100.5 -74.5c3.33301 -1.33301 4.5 -3.5 3.5 -6.5s-3.16699 -3.83301 -6.5 -2.5c-32.667 10.667 -59.167 26.167 -79.5 46.5s-34.833 42.833 -43.5 67.5s-12 49.834 -10 75.501s9 49.167 21 70.5s28.833 38.666 50.5 51.999s47.5 20 77.5 20
c24 0 43.5 -5.83301 58.5 -17.5s26.833 -26.834 35.5 -45.501s14.667 -39.667 18 -63s5 -47 5 -71s-1 -47 -3 -69l-5 -56l171 -1l25 318c0 3.33301 1.33301 5.33301 4 6l48 14c3.33301 0 5 -1.66699 5 -5l-37 -473c-1.33301 -22.667 -2.83301 -45.5 -4.5 -68.5
s-1.83398 -44.833 -0.500977 -65.5c1.33301 -22 4.33301 -39.5 9 -52.5s10.667 -20.667 18 -23s15.666 1.33398 24.999 11.001s19.666 26.5 30.999 50.5c6.66699 14.667 12.334 29.5 17.001 44.5s8.66699 28.5 12 40.5c1.33301 3.33301 3.5 4.66602 6.5 3.99902
s3.83301 -2.66699 2.5 -6l-12 -39.5c-4.66699 -15 -10.334 -30 -17.001 -45s-14.334 -29 -23.001 -42s-18.667 -23.167 -30 -30.5c-11.333 -8 -23.666 -12 -36.999 -12c-17.333 0 -30.166 7.5 -38.499 22.5s-13.833 34.167 -16.5 57.5
c-2.66699 22 -3.33398 46.667 -2.00098 74s3 54.333 5 81l10 130h-172c-2 -19.333 -4.83301 -43 -8.5 -71s-8.83398 -56.833 -15.501 -86.5s-14.834 -58.667 -24.501 -87s-21.167 -52.5 -34.5 -72.5c-13.333 -19.333 -28.833 -33.166 -46.5 -41.499
s-35.334 -11.333 -53.001 -9s-34 10 -49 23s-25.833 30.833 -32.5 53.5c-3.33301 10.667 -5.5 21.834 -6.5 33.501s-0.833008 23.167 0.5 34.5c-9.33301 8 -19.166 17 -29.499 27s-21 19.333 -32 28s-22.167 16 -33.5 22s-22.666 9 -33.999 9
c-17.333 0 -32.166 -3.83301 -44.499 -11.5s-22.166 -17.5 -29.499 -29.5s-12.166 -24.833 -14.499 -38.5s-2 -26.5 1 -38.5s8.33301 -22 16 -30s17.834 -12 30.501 -12zM293.996 164.996l-2 -7.99805c-0.666992 -2.66699 -1 -5.33398 -1 -8.00098
c15.333 -12.667 29.833 -21.334 43.5 -26.001s26.167 -4.33398 37.5 0.999023c10 4.66699 17.333 12.167 22 22.5s6.5 20.833 5.5 31.5s-5 20.167 -12 28.5s-17.833 12.5 -32.5 12.5c-16 0 -29 -5.16699 -39 -15.5s-17.333 -23.166 -22 -38.499z" />
    <glyph glyph-name="I" unicode="I" horiz-adv-x="653" 
d="M467 493c3.33301 0 4.3291 -1.66797 2.99609 -5.00098c0 -4.66699 -1.66699 -6 -5 -4c-20 4.66699 -36.667 13.167 -50 25.5s-23.333 26.5 -30 42.5s-10.167 32.667 -10.5 50s2.33398 33.333 8.00098 48s14.167 26.667 25.5 36s25.333 14 42 14
c24 0 43.833 -6.5 59.5 -19.5s28.167 -30.667 37.5 -53s15.5 -48 18.5 -77s4.16699 -59.333 3.5 -91s-2.83398 -63.667 -6.50098 -96s-8.16699 -63 -13.5 -92s-10.833 -55.167 -16.5 -78.5s-10.834 -42 -15.501 -56c-7.33301 -23.333 -16.166 -44.666 -26.499 -63.999
s-22.5 -35 -36.5 -47c-14.667 -12.667 -30.167 -20.667 -46.5 -24s-32 -2.5 -47 2.5s-28.5 13.833 -40.5 26.5s-20.667 28 -26 46c-3.33301 10.667 -5.5 21.834 -6.5 33.501s-0.833008 23.167 0.5 34.5c-9.33301 8 -19.166 17 -29.499 27s-21 19.333 -32 28
s-22.167 16 -33.5 22s-22.666 9 -33.999 9c-17.333 0 -32.166 -3.83301 -44.499 -11.5s-22.166 -17.5 -29.499 -29.5s-12.166 -24.833 -14.499 -38.5s-2 -26.5 1 -38.5s8.33301 -22 16 -30s17.834 -12 30.501 -12c2.66699 0 4 -1.33301 4 -4c0 -3.33301 -1.33301 -5 -4 -5
c-15.333 0 -27.5 4.5 -36.5 13.5s-15.333 20 -19 33s-4.33398 27.333 -2.00098 43s7.5 30 15.5 43s19 23.833 33 32.5s30.667 13 50 13c12 0 23.667 -2.83301 35 -8.5s22.5 -12.667 33.5 -21s21.667 -17.333 32 -27l30.5 -27.5c4 19.333 11.833 36.166 23.5 50.499
s28.167 21.5 49.5 21.5c16.667 0 29.334 -4.5 38.001 -13.5s13.834 -19.5 15.501 -31.5s0.166992 -24.167 -4.5 -36.5s-12.167 -21.833 -22.5 -28.5s-23.333 -9 -39 -7s-33.5 11 -53.5 27c-1.33301 -20 0.666992 -39.667 6 -59c5.33301 -16.667 13.333 -30.167 24 -40.5
s22.167 -17 34.5 -20s24.666 -1.83301 36.999 3.5s22.833 15 31.5 29c4.66699 7.33301 9 15.333 13 24s7.66699 17.667 11 27c7.33301 20 14.833 44.5 22.5 73.5s14.667 60.167 21 93.5s11.5 68 15.5 104s5.83301 70.833 5.5 104.5s-3.33301 65.167 -9 94.5
s-14.834 54.333 -27.501 75c-14.667 23.333 -29.167 35.5 -43.5 36.5s-26.333 -4.66699 -36 -17s-15.834 -29 -18.501 -50s1 -41.833 11 -62.5c7.33301 -14.667 17 -27.5 29 -38.5s26.333 -18.5 43 -22.5zM301.996 164.999
c-1.33301 -2.66699 -2.16699 -5.33105 -2.5 -7.99805s-0.833008 -5.33398 -1.5 -8.00098c15.333 -12.667 30 -21.334 44 -26.001s26.667 -4.33398 38 0.999023c10 4.66699 17.333 12.167 22 22.5s6.5 20.833 5.5 31.5s-5 20.167 -12 28.5s-17.833 12.5 -32.5 12.5
c-16 0 -29 -5.16699 -39 -15.5s-17.333 -23.166 -22 -38.499z" />
    <glyph glyph-name="J" unicode="J" horiz-adv-x="655" 
d="M340 373c2.66699 -1.33301 3.32812 -3.3291 1.99512 -5.99609c-2.66699 -2.66699 -5 -3.33398 -7 -2.00098c-26 14.667 -45.667 33.167 -59 55.5s-21.333 45.833 -24 70.5s-0.166992 49.334 7.5 74.001s19.667 46.834 36 66.501s36.5 35.5 60.5 47.5s51.333 18 82 18
c22 0 40.167 -6.16699 54.5 -18.5s25.833 -28.166 34.5 -47.499s14.667 -41.333 18 -66s5.33301 -49.167 6 -73.5s0.5 -47.5 -0.5 -69.5s-2.16699 -40.333 -3.5 -55c-2 -19.333 -4.16699 -42 -6.5 -68s-6 -52.5 -11 -79.5s-11.5 -53.667 -19.5 -80s-18.5 -50 -31.5 -71
s-28.667 -37.833 -47 -50.5s-40.166 -19 -65.499 -19c-17.333 0 -32 4.66699 -44 14s-21.833 21 -29.5 35s-12.834 29.333 -15.501 46s-3 32.667 -1 48c-9.33301 8 -19.166 17 -29.499 27s-21 19.333 -32 28s-22.167 16 -33.5 22s-22.666 9 -33.999 9
c-17.333 0 -32.166 -3.83301 -44.499 -11.5s-22.166 -17.5 -29.499 -29.5s-12.166 -24.833 -14.499 -38.5s-2 -26.5 1 -38.5s8.33301 -22 16 -30s17.834 -12 30.501 -12c3.33301 0 5 -1.33301 5 -4c0 -3.33301 -1.66699 -5 -5 -5c-14.667 0 -26.667 4.5 -36 13.5
s-15.666 20 -18.999 33s-3.83301 27.333 -1.5 43s7.5 30 15.5 43s18.833 23.833 32.5 32.5s30.167 13 49.5 13c12 0 23.667 -2.83301 35 -8.5s22.5 -12.667 33.5 -21s21.667 -17.333 32 -27l30.5 -27.5c4 19.333 11.833 36.166 23.5 50.499s28.167 21.5 49.5 21.5
c16.667 0 29.334 -4.5 38.001 -13.5s14 -19.5 16 -31.5s0.5 -24.167 -4.5 -36.5s-12.667 -21.833 -23 -28.5s-23.333 -9 -39 -7s-33.5 11 -53.5 27c-1.33301 -14 -0.5 -28.333 2.5 -43s7.83301 -28.334 14.5 -41.001s15.5 -22.834 26.5 -30.501s24.167 -11.5 39.5 -11.5
c20 0.666992 37.667 14.167 53 40.5s28.166 59.666 38.499 99.999s18.333 84.833 24 133.5s9.16699 95.667 10.5 141s0.5 86.333 -2.5 123s-8.16699 63.334 -15.5 80.001c-7.33301 17.333 -17.5 30.166 -30.5 38.499s-27 12.5 -42 12.5s-30.167 -3.5 -45.5 -10.5
s-29.333 -16.833 -42 -29.5c-18.667 -18.667 -32.834 -40.167 -42.501 -64.5s-13.834 -48.833 -12.501 -73.5s8.33301 -48.334 21 -71.001s32 -41.334 58 -56.001zM289.994 162.004c-0.666992 -2.66699 -1.16699 -5.33105 -1.5 -7.99805s-0.833008 -5.33398 -1.5 -8.00098
c15.333 -12.667 29.833 -21.334 43.5 -26.001s26.167 -4.33398 37.5 0.999023c10 4.66699 17.333 12.167 22 22.5s6.5 20.833 5.5 31.5s-5 20.167 -12 28.5s-17.833 12.5 -32.5 12.5c-16 0 -29 -5.16699 -39 -15.5s-17.333 -23.166 -22 -38.499z" />
    <glyph glyph-name="K" unicode="K" horiz-adv-x="810" 
d="M106 72c3.33301 0 5 -1.33398 5 -4.00098c0 -3.33301 -1.66699 -5 -5 -5c-14.667 0 -26.667 4.5 -36 13.5s-15.666 20 -18.999 33s-3.83301 27.333 -1.5 43s7.5 30 15.5 43s19 23.833 33 32.5s30.667 13 50 13c12 0 23.667 -2.83301 35 -8.5s22.5 -12.667 33.5 -21
s21.667 -17.333 32 -27l30.5 -27.5c3.33301 19.333 11 36.166 23 50.499s28.333 21.5 49 21.5c16.667 0 29.334 -4.5 38.001 -13.5s14 -19.5 16 -31.5s0.666992 -24.167 -4 -36.5s-12.167 -21.833 -22.5 -28.5s-23.333 -9 -39 -7s-33.5 11 -53.5 27c-2 -20 0 -39.667 6 -59
c5.33301 -18.667 14.166 -34.5 26.499 -47.5s28.166 -19.5 47.499 -19.5c16 0 30 7.66699 42 23s22.5 34.833 31.5 58.5s16.667 50 23 79s11.666 57.167 15.999 84.5s7.5 52.666 9.5 75.999s3.66699 41 5 53c2 17.333 3.66699 37.5 5 60.5s1.66602 46.5 0.999023 70.5
s-3 47.333 -7 70s-10.667 42.334 -20 59.001c-8.66699 15.333 -19.334 25.833 -32.001 31.5s-25.667 7.66699 -39 6s-26.5 -6.66699 -39.5 -15s-24.5 -19.166 -34.5 -32.499c-15.333 -21.333 -24.5 -45.166 -27.5 -71.499s-0.166992 -52.166 8.5 -77.499
c8 -23.333 21.667 -45 41 -65s45 -35 77 -45c3.33301 -1.33301 4.33301 -3.33301 3 -6c-1.33301 -3.33301 -3.33301 -4.33301 -6 -3c-32.667 10.667 -59.167 26.167 -79.5 46.5s-35 42.833 -44 67.5s-12.5 49.834 -10.5 75.501s9 49.167 21 70.5s28.833 38.666 50.5 51.999
s47.5 20 77.5 20c26 0 46.833 -6.5 62.5 -19.5s27.667 -29.833 36 -50.5s13.666 -43.834 15.999 -69.501s3.16602 -50.834 2.49902 -75.501c14.667 21.333 30.834 41.666 48.501 60.999s36.167 36.666 55.5 51.999c30 24 61.667 41.833 95 53.5s66 13.167 98 4.5
c3.33301 -1.33301 4.66602 -3.33301 3.99902 -6s-2.33398 -4 -5.00098 -4c-27.333 1.33301 -55.166 -5 -83.499 -19s-55.833 -33 -82.5 -57c-28.667 -26 -54.667 -56 -78 -90s-41.666 -69 -54.999 -105c24 -5.33301 45.333 -19 64 -41s35.834 -47.833 51.501 -77.5
s30.167 -60.5 43.5 -92.5s26.833 -60.5 40.5 -85.5s27.667 -43.833 42 -56.5s30.166 -14.334 47.499 -5.00098c4 2 7.33301 4.16699 10 6.5s5 3.5 7 3.5c2.66699 0 4.33398 -1 5.00098 -3s0 -3.66699 -2 -5l-7.5 -5.5c-2.33301 -1.66699 -4.83301 -3.16699 -7.5 -4.5
c-27.333 -16.667 -51 -21.167 -71 -13.5s-38.333 22.834 -55 45.501c-15.333 20 -29.333 44.5 -42 73.5l-39.5 88c-13.667 29.667 -28 57.5 -43 83.5s-31.833 46.333 -50.5 61c-2.66699 -27.333 -6.83398 -59.666 -12.501 -96.999s-14.167 -73.666 -25.5 -108.999
c-8.66699 -28 -19.5 -53.167 -32.5 -75.5s-28.5 -39.166 -46.5 -50.499c-15.333 -9.33301 -30.333 -14.666 -45 -15.999s-28.5 0.666992 -41.5 6s-24.667 14.166 -35 26.499s-18.166 27.5 -23.499 45.5c-7.33301 21.333 -9.33301 44 -6 68l-30 27
c-10.667 10 -21.5 19.333 -32.5 28s-22.167 16 -33.5 22s-22.333 9 -33 9c-18 0 -33.167 -3.83301 -45.5 -11.5s-22.166 -17.5 -29.499 -29.5s-12 -24.833 -14 -38.5s-1.66699 -26.5 1 -38.5s7.83398 -22 15.501 -30s17.834 -12 30.501 -12zM287 149.999
c15.333 -12.667 30 -21.332 44 -25.999s26.667 -4.33398 38 0.999023c10 4.66699 17.333 12.167 22 22.5s6.5 20.833 5.5 31.5s-5.16699 20.167 -12.5 28.5s-18.333 12.5 -33 12.5c-19.333 0 -34 -7.33301 -44 -22s-16.667 -30.667 -20 -48z" />
    <glyph glyph-name="L" unicode="L" horiz-adv-x="701" 
d="M150 705c2.66699 -0.666992 4.00586 -2.6709 4.00586 -6.00391c-1.33301 -3.33301 -3.33301 -4.33301 -6 -3c-18 4.66699 -33 0 -45 -14s-19 -31.167 -21 -51.5s1.83301 -40.333 11.5 -60s27.167 -32.834 52.5 -39.501c10.667 -2.66699 22.334 -2.66699 35.001 0
s25.334 6.83398 38.001 12.501s25.334 11.834 38.001 18.501s24.667 12.667 36 18c2 14 6 28 12 42s13.5 26.5 22.5 37.5s19.667 20 32 27s26.166 10.5 41.499 10.5c24 0 43.667 -5.83301 59 -17.5s27.333 -26.834 36 -45.501s14.5 -40 17.5 -64s4.5 -48.167 4.5 -72.5
s-1 -48 -3 -71s-3.66699 -42.833 -5 -59.5c-2 -18.667 -4.5 -40.667 -7.5 -66s-7.33301 -51.666 -13 -78.999s-12.5 -54.333 -20.5 -81s-18 -50.334 -30 -71.001c22.667 -7.33301 46.334 -13.833 71.001 -19.5s48.667 -7.33398 72 -5.00098s45.166 10.333 65.499 24
s38.166 36.167 53.499 67.5c1.33301 2.66699 3.5 3.33398 6.5 2.00098s3.83301 -3.33301 2.5 -6c-16 -33.333 -34.833 -57.333 -56.5 -72s-44.834 -23.167 -69.501 -25.5s-49.834 -0.5 -75.501 5.5s-50.5 13 -74.5 21c-9.33301 -15.333 -19.666 -28 -30.999 -38
s-24 -17.333 -38 -22c-7.33301 -2 -15.333 -3.33301 -24 -4s-17.167 0 -25.5 2s-15.833 5.33301 -22.5 10s-11.667 11.334 -15 20.001c-3.33301 8 -4.66602 16.167 -3.99902 24.5s3.16699 16 7.5 23s10.166 12.667 17.499 17s16.666 6.5 27.999 6.5
c10 -0.666992 21.167 -2.5 33.5 -5.5s25.166 -7.16699 38.499 -12.5c8.66699 21.333 16.167 44.5 22.5 69.5s11.666 50.833 15.999 77.5s8 53 11 79s5.5 50.667 7.5 74l4.5 59c1.66699 22.667 2.33398 45.834 2.00098 69.501s-2.33301 46.834 -6 69.501
s-9.83398 42.334 -18.501 59.001c-8 14.667 -17.167 24.834 -27.5 30.501s-20.833 8 -31.5 7s-21 -5.33301 -31 -13s-18.667 -17.5 -26 -29.5c-8.66699 -14.667 -14.667 -31.334 -18 -50.001c23.333 10 42.833 14 58.5 12s27.667 -7.66699 36 -17s13.166 -20.5 14.499 -33.5
s-0.5 -25.167 -5.5 -36.5s-12.833 -20.166 -23.5 -26.499s-24 -7.16602 -40 -2.49902c-10 2.66699 -18.5 7 -25.5 13s-12.5 13 -16.5 21s-6.83301 16.667 -8.5 26s-2.16699 18.666 -1.5 27.999l-36 -19c-12.667 -6.66699 -25.334 -12.5 -38.001 -17.5
s-25.334 -8.83301 -38.001 -11.5s-24.667 -2.33398 -36 0.999023c-19.333 4.66699 -34.5 13 -45.5 25s-18.667 25.5 -23 40.5s-5.5 30.167 -3.5 45.5s6.33301 29 13 41s15.667 21.167 27 27.5s24 7.5 38 3.5zM389.006 60.9961c1.33301 2.66699 3.33398 7.33301 6.00098 14
c-13.333 4 -25.833 7.5 -37.5 10.5s-22.167 4.83301 -31.5 5.5c-14 0.666992 -24.5 -3.33301 -31.5 -12s-10.5 -18.167 -10.5 -28.5s3.16699 -19.833 9.5 -28.5s16.166 -13 29.499 -13c16.667 0 30 5.16699 40 15.5s18.667 22.5 26 36.5zM302.007 573.995
c-2 -17.333 0 -34.3301 6 -50.9971s18.667 -27.667 38 -33c13.333 -3.33301 24.5 -2.33301 33.5 3s15.5 12.666 19.5 21.999s5.5 19.333 4.5 30s-5 19.834 -12 27.501s-17 12.667 -30 15s-29.5 -0.833984 -49.5 -9.50098c-1.33301 -0.666992 -3 -1.33398 -5 -2.00098
s-3.66699 -1.33398 -5 -2.00098z" />
    <glyph glyph-name="M" unicode="M" horiz-adv-x="1098" 
d="M115 68c3.33301 0 5.00488 -1.66406 5.00488 -4.99707s-1.66699 -5 -5 -5c-14.667 0 -26.667 4.5 -36 13.5s-15.666 20.167 -18.999 33.5s-3.83301 27.666 -1.5 42.999s7.5 29.666 15.5 42.999s19 24.166 33 32.499s30.667 12.5 50 12.5c12 0 23.667 -2.83301 35 -8.5
s22.5 -12.667 33.5 -21s21.667 -17.333 32 -27l30.5 -27.5c3.33301 19.333 11 36.166 23 50.499s28.333 21.5 49 21.5c16.667 0 29.334 -4.5 38.001 -13.5s14 -19.5 16 -31.5s0.666992 -24 -4 -36s-12.167 -21.333 -22.5 -28s-23.333 -9.16699 -39 -7.5
s-33.5 10.5 -53.5 26.5c-2 -20 0 -39.667 6 -59c6 -18.667 15.167 -34.334 27.5 -47.001s28.166 -19.334 47.499 -20.001c16 0.666992 30.167 9.16699 42.5 25.5s23.5 37.833 33.5 64.5c6 17.333 12.167 39.833 18.5 67.5s12.166 57.834 17.499 90.501
s9.83301 66.667 13.5 102s5.83398 69.5 6.50098 102.5s-0.166016 63.5 -2.49902 91.5s-7.16602 51 -14.499 69s-17.333 31.833 -30 41.5s-26.167 15 -40.5 16s-29 -2.33301 -44 -10s-28.5 -19.5 -40.5 -35.5c-15.333 -21.333 -24.5 -45.333 -27.5 -72
s-0.166992 -52.667 8.5 -78c8 -23.333 21.667 -45 41 -65s45 -35 77 -45c3.33301 -1.33301 4.33301 -3.33301 3 -6c0 -3.33301 -2 -4.33301 -6 -3c-47.333 15.333 -82.666 41.5 -105.999 78.5s-32.333 77.167 -27 120.5c4 29.333 14 54.333 30 75
c13.333 19.333 30.166 33.833 50.499 43.5s42.833 14.5 67.5 14.5c24 0 43.667 -5.83301 59 -17.5s27.333 -26.834 36 -45.501s14.5 -40 17.5 -64s4.5 -48.167 4.5 -72.5s-1 -48 -3 -71s-3.66699 -42.833 -5 -59.5l-7 -65c10.667 32.667 21.5 62.834 32.5 90.501
s22.167 53.167 33.5 76.5c14 30 27.833 54.833 41.5 74.5s27.167 33.834 40.5 42.501l2 2c9.33301 5.33301 17.666 8 24.999 8c15.333 0 27 -7 35 -21s12.667 -36.667 14 -68c1.33301 -24.667 0.166016 -55 -3.50098 -91s-9.16699 -79 -16.5 -129l28 78
c10.667 29.333 22.167 59.166 34.5 89.499s25.333 60.166 39 89.499s27.5 55.333 41.5 78s28.167 41 42.5 55s27.833 21 40.5 21c17.333 0 29.5 -9.33301 36.5 -28s10.5 -44 10.5 -76c0 -23.333 -1.5 -49.5 -4.5 -78.5s-6.66699 -59.333 -11 -91
s-9.16602 -63.834 -14.499 -96.501s-10.166 -64.167 -14.499 -94.5s-8 -59.166 -11 -86.499s-4.5 -51 -4.5 -71s1.66699 -35.833 5 -47.5s10.333 -16.167 21 -13.5c9.33301 2.66699 19.166 12.334 29.499 29.001s20.166 36.5 29.499 59.5s18.166 46.833 26.499 71.5
s15.166 46 20.499 64c1.33301 3.33301 3.33301 4.33301 6 3c3.33301 -1.33301 4.33301 -3.33301 3 -6c-13.333 -42 -25.5 -77.667 -36.5 -107s-21.167 -53 -30.5 -71c-4.66699 -9.33301 -10.5 -19.166 -17.5 -29.499s-15 -18.5 -24 -24.5s-18.667 -8.83301 -29 -8.5
s-21.5 6.5 -33.5 18.5c-8 8 -13.667 19 -17 33s-5.16602 29 -5.49902 45s0.333984 32 2.00098 48l4.5 42l15 105.5l16 107.5c5.33301 33.333 9.66602 65.333 12.999 96s5.33301 59 6 85c1.33301 35.333 -0.333984 59.666 -5.00098 72.999s-11.334 18.333 -20.001 15
s-18.834 -13.5 -30.501 -30.5s-23.5 -37.5 -35.5 -61.5c-14.667 -28 -29 -58.5 -43 -91.5s-26.833 -65.333 -38.5 -97l-31 -87.5l-21.5 -63c-1.33301 -3.33301 -2 -6.16602 -2 -8.49902s-1.33301 -4.16602 -4 -5.49902c-1.33301 -0.666992 -4.5 -1.83398 -9.5 -3.50098
s-10.333 -3.33398 -16 -5.00098s-10.834 -3 -15.501 -4s-7.33398 -1.5 -8.00098 -1.5c-2.66699 0 -4 1.66699 -4 5c2.66699 14.667 5.5 31.834 8.5 51.501s6 40.5 9 62.5s5.66699 44.333 8 67s3.83301 44.334 4.5 65.001c2 38.667 1 66.667 -3 84s-10.167 25.5 -18.5 24.5
s-18.666 -10.167 -30.999 -27.5s-25.833 -41.333 -40.5 -72c-30 -61.333 -58.333 -138 -85 -230l-10.5 -47c-3.66699 -16 -8.16699 -31.667 -13.5 -47c-6.66699 -20 -14.5 -38.833 -23.5 -56.5s-19.167 -33 -30.5 -46s-24 -23 -38 -30s-29.667 -9.83301 -47 -8.5
c-21.333 0 -39 7.16699 -53 21.5s-24 31.833 -30 52.5c-7.33301 21.333 -9.33301 44 -6 68l-30 27c-10.667 10 -21.5 19.333 -32.5 28s-22.167 16 -33.5 22s-22.333 9 -33 9c-26 0 -46.333 -8.16699 -61 -24.5s-23.834 -34.5 -27.501 -54.5s-1.5 -38.333 6.5 -55
s21.333 -25 40 -25zM300.005 161.003c-1.33301 -2.66699 -2.16699 -5.33301 -2.5 -8s-0.833008 -5.33398 -1.5 -8.00098c15.333 -12.667 30 -21.334 44 -26.001s26.667 -4.33398 38 0.999023c10 4.66699 17.333 12.334 22 23.001s6.5 21.334 5.5 32.001
s-5.16699 20 -12.5 28s-18.333 12 -33 12c-15.333 0 -28 -5.16699 -38 -15.5s-17.333 -23.166 -22 -38.499z" />
    <glyph glyph-name="N" unicode="N" horiz-adv-x="886" 
d="M886 238c0.666992 2.66699 2.66309 3.6709 5.99609 3.00391c2.66699 -1.33301 3.66699 -3.33301 3 -6c-13.333 -42 -25.5 -77.5 -36.5 -106.5s-21.167 -52.833 -30.5 -71.5c-17.333 -32 -33.666 -49.333 -48.999 -52c-8.66699 -2.66699 -17.167 -4.16699 -25.5 -4.5
s-17.166 1.83398 -26.499 6.50098s-16.333 11.5 -21 20.5s-7.66699 19.167 -9 30.5c-2 24.667 -1 56.5 3 95.5s9 81 15 126l18 137c6 46.333 10 88.5 12 126.5c2 32 1.83301 57.333 -0.5 76s-7 29.5 -14 32.5s-16.167 -2.5 -27.5 -16.5s-25.333 -37.667 -42 -71
c-10 -21.333 -20 -43.833 -30 -67.5l-29 -71.5l-27 -71c-8.66699 -23.333 -16.334 -45 -23.001 -65l-14.5 -87.5c-5.66699 -33 -14.5 -64.5 -26.5 -94.5s-28.167 -55.333 -48.5 -76s-47.5 -31 -81.5 -31c-17.333 0 -32.166 4.5 -44.499 13.5s-22.166 20.5 -29.499 34.5
s-12.333 29.333 -15 46s-3 32.667 -1 48c-9.33301 8 -19.166 17 -29.499 27s-21 19.333 -32 28s-22.167 16 -33.5 22s-22.666 9 -33.999 9c-26 0 -46.333 -8.16699 -61 -24.5s-23.667 -34.5 -27 -54.5s-1.16602 -38.333 6.50098 -55s21.167 -25 40.5 -25
c2.66699 0 4 -1.66699 4 -5s-1.33301 -5 -4 -5c-15.333 0 -27.5 4.5 -36.5 13.5s-15.333 20.167 -19 33.5s-4.33398 27.666 -2.00098 42.999s7.5 29.666 15.5 42.999s19 24.333 33 33s30.667 13 50 13c12 0 23.667 -2.83301 35 -8.5s22.5 -12.667 33.5 -21
s21.667 -17.333 32 -27l30.5 -27.5c4 19.333 11.833 36 23.5 50s28.167 21 49.5 21c16.667 0 29.334 -4.5 38.001 -13.5s13.834 -19.5 15.501 -31.5s0.166992 -24 -4.5 -36s-12.167 -21.333 -22.5 -28s-23.333 -9.16699 -39 -7.5s-33.5 10.5 -53.5 26.5
c-1.33301 -13.333 -0.5 -27.333 2.5 -42s7.66699 -28.167 14 -40.5s14.833 -22.5 25.5 -30.5s23.667 -12 39 -12c17.333 0 32.833 7.66699 46.5 23s25.5 36 35.5 62s18.333 55.667 25 89s11.834 68.166 15.501 104.499s6 72.5 7 108.5s1 69.5 0 100.5s-2.83301 58 -5.5 81
s-6.33398 39.5 -11.001 49.5c-8 17.333 -18.167 30.333 -30.5 39s-25.666 13 -39.999 13s-28.833 -3.83301 -43.5 -11.5s-27.667 -19.167 -39 -34.5c-15.333 -21.333 -24.5 -45.333 -27.5 -72s-0.166992 -52.334 8.5 -77.001c8.66699 -24 22.5 -46 41.5 -66
s44.5 -35 76.5 -45c3.33301 -1.33301 4.5 -3.5 3.5 -6.5s-3.16699 -3.83301 -6.5 -2.5c-47.333 15.333 -82.666 41.5 -105.999 78.5s-32.333 77.5 -27 121.5c4 28.667 14 53.334 30 74.001c15.333 21.333 33 36.5 53 45.5s42 13.5 66 13.5
c25.333 0 45.666 -6.5 60.999 -19.5s26.833 -30 34.5 -51s12.5 -44.5 14.5 -70.5s2.66699 -52.333 2 -79s-1.83398 -52 -3.50098 -76s-2.5 -44.333 -2.5 -61c8 24 17 49.333 27 76l31 79.5c10.667 26.333 22 51.333 34 75s24 44.667 36 63s24 32.666 36 42.999
s23.667 15.5 35 15.5c17.333 0 29.166 -10.667 35.499 -32s9.16602 -49.333 8.49902 -84c-1.33301 -35.333 -4.5 -75.333 -9.5 -120s-10.833 -90 -17.5 -136l-16.5 -129.5c-5 -41 -7.5 -76.5 -7.5 -106.5c0 -22 1.66699 -39.333 5 -52s9.33301 -19 18 -19
c6.66699 0 13.667 3.66699 21 11s15.666 19.666 24.999 36.999c9.33301 18 19.333 41.333 30 70s22.667 64 36 106zM304.996 162.004c-1.33301 -4 -2.66699 -9.33398 -4 -16.001c15.333 -12.667 30 -21.334 44 -26.001s26.667 -4.33398 38 0.999023
c10 4.66699 17.333 12.334 22 23.001s6.5 21.334 5.5 32.001s-5 20 -12 28s-17.833 12 -32.5 12c-16 0 -29 -5.16699 -39 -15.5s-17.333 -23.166 -22 -38.499z" />
    <glyph glyph-name="O" unicode="O" horiz-adv-x="518" 
d="M246 613c8 23.333 19.833 43.9932 35.5 61.9932s36.5 27 62.5 27c23.333 -1.33301 41.666 -10 54.999 -26s22.666 -34.667 27.999 -56c6 -24.667 8.33301 -54.167 7 -88.5s-5.66602 -71.166 -12.999 -110.499c-8.66699 -44 -21 -88.833 -37 -134.5
s-35 -87.834 -57 -126.501c-22.667 -40 -48 -73.667 -76 -101s-58 -45.333 -90 -54c-20 -5.33301 -37.667 -7.16602 -53 -5.49902s-28.666 5.83398 -39.999 12.501c-19.333 10 -34.5 28.333 -45.5 55s-18.167 57.834 -21.5 93.501s-2.66602 73.834 2.00098 114.501
s13.167 80.334 25.5 119.001s28.666 74.667 48.999 108s44.5 60 72.5 80c14.667 10.667 30 18.834 46 24.501s32.667 7.83398 50 6.50098zM315 252.993c-14 10.667 -26.4951 24.835 -37.4951 42.502s-20.167 37.167 -27.5 58.5s-12.833 44.166 -16.5 68.499
s-5.5 48.5 -5.5 72.5c0 18.667 1.16699 37.167 3.5 55.5s6.16602 36.166 11.499 53.499c-18.667 0.666992 -36.334 -2.66602 -53.001 -9.99902s-32.334 -17 -47.001 -29s-27.834 -25.667 -39.501 -41s-21.5 -30.666 -29.5 -45.999c-22 -42 -38.5 -86.667 -49.5 -134
s-16.5 -93 -16.5 -137c0 -15.333 1 -32.5 3 -51.5s5.33301 -37.333 10 -55s11.167 -33.834 19.5 -48.501s18.833 -25.334 31.5 -32.001c8 -4 16.167 -6.16699 24.5 -6.5s16.833 0.5 25.5 2.5c19.333 4.66699 38.166 14.667 56.499 30s35.833 34 52.5 56s32 46 46 72
s26.667 52.333 38 79zM260.005 622.994c-8.66699 -20.667 -14.4971 -42.665 -17.4971 -65.998s-4.5 -44 -4.5 -62c0 -23.333 1.66699 -46.666 5 -69.999s8.5 -45.333 15.5 -66s15.5 -39.334 25.5 -56.001s21.667 -30.334 35 -41.001c10.667 26 20.667 54.5 30 85.5
s16.666 62.333 21.999 94s8.33301 62.667 9 93s-2 58.166 -8 83.499c-5.33301 22 -12.5 38.333 -21.5 49s-18.833 16.167 -29.5 16.5s-21.334 -4.5 -32.001 -14.5s-20.334 -25.333 -29.001 -46z" />
    <glyph glyph-name="P" unicode="P" horiz-adv-x="694" 
d="M437 378c2.66699 -1.33301 3.65723 -3.32812 2.99023 -5.99512c-1.33301 -3.33301 -3.33301 -4.33301 -6 -3c-48 15.333 -83.5 41.5 -106.5 78.5s-31.833 77.5 -26.5 121.5c3.33301 28 13 52.667 29 74c14 19.333 31.167 34 51.5 44s42.833 15 67.5 15
c18.667 0 34.334 -3.5 47.001 -10.5s23.667 -16.5 33 -28.5c23.333 18 49.333 29.833 78 35.5s55.667 5 81 -2s47.333 -20.667 66 -41s29.667 -47.5 33 -81.5c2 -23.333 -0.833008 -47.166 -8.5 -71.499s-20.834 -46.333 -39.501 -66s-43 -35.834 -73 -48.501
s-66.333 -19 -109 -19c-2 -21.333 -4.33301 -44.333 -7 -69s-6.16699 -49.5 -10.5 -74.5s-9.5 -49.333 -15.5 -73s-13 -45.167 -21 -64.5c-6.66699 -17.333 -15.167 -32.333 -25.5 -45s-20.166 -21.667 -29.499 -27c-16 -10 -32.167 -15.667 -48.5 -17s-31.5 1 -45.5 7
s-26.333 15.167 -37 27.5s-18.667 27.166 -24 44.499c-6.66699 23.333 -8.33398 46 -5.00098 68c-10 8 -20.167 17 -30.5 27s-21 19.333 -32 28s-22.167 16 -33.5 22s-22.666 9 -33.999 9c-26 0 -46.333 -8.16699 -61 -24.5s-23.667 -34.5 -27 -54.5
s-1.16602 -38.333 6.50098 -55s21.167 -25 40.5 -25c3.33301 0 5 -1.66699 5 -5s-1.66699 -5 -5 -5c-14.667 0 -26.667 4.5 -36 13.5s-15.666 20.167 -18.999 33.5s-3.83301 27.666 -1.5 42.999s7.5 29.666 15.5 42.999s18.833 24.333 32.5 33s30.167 13 49.5 13
c12 0 23.667 -2.83301 35 -8.5s22.5 -12.667 33.5 -21s21.667 -17.333 32 -27l30.5 -27.5c4 19.333 11.833 36 23.5 50s28.167 21 49.5 21c16.667 0 29.334 -4.5 38.001 -13.5s14 -19.5 16 -31.5s0.666992 -24 -4 -36s-12.167 -21.333 -22.5 -28s-23.333 -9.16699 -39 -7.5
s-33.5 10.5 -53.5 26.5c-2 -20 0 -39.667 6 -59c4 -13.333 10.333 -25.5 19 -36.5s18.334 -19 29.001 -24s21.834 -6.5 33.501 -4.5s22.834 9 33.501 21c13.333 16 25 38.333 35 67c6 17.333 12.5 40.833 19.5 70.5s13.333 62.167 19 97.5s10.167 72.166 13.5 110.499
s4.83301 75 4.5 110s-2.83301 66.833 -7.5 95.5s-12.667 51 -24 67c-9.33301 13.333 -20.166 22.333 -32.499 27s-25 6 -38 4s-25.5 -7.16699 -37.5 -15.5s-22.667 -18.833 -32 -31.5c-15.333 -21.333 -24.666 -45.333 -27.999 -72s-0.666016 -52.334 8.00098 -77.001
c8.66699 -24 22.667 -46 42 -66s45 -35 77 -45zM585.99 683.005c-18.667 -6 -35.6689 -15.332 -51.002 -27.999c10.667 -17.333 18.334 -37.5 23.001 -60.5s7.33398 -47 8.00098 -72s0.166992 -49.833 -1.5 -74.5s-3.5 -46.667 -5.5 -66c24.667 4 48 11.167 70 21.5
s41 23.666 57 39.999s28.167 35.333 36.5 57s11.5 45.5 9.5 71.5c-2 18.667 -6.83301 36 -14.5 52s-18 29.5 -31 40.5s-28 18.333 -45 22s-35.5 2.5 -55.5 -3.5zM300.988 166.006l-3 -16.001c15.333 -12.667 29.833 -21.334 43.5 -26.001s26.167 -4.33398 37.5 0.999023
c10 4.66699 17.333 12.334 22 23.001s6.5 21.334 5.5 32.001s-5 20 -12 28s-17.833 12 -32.5 12c-16 0 -29 -5.16699 -39 -15.5s-17.333 -23.166 -22 -38.499z" />
    <glyph glyph-name="Q" unicode="Q" horiz-adv-x="529" 
d="M300 -39c-2.66699 2.66699 -2.82715 5.16211 -0.494141 7.49512s4.83301 2.16602 7.5 -0.500977c8.66699 -8.66699 18.5 -13 29.5 -13s21.667 3.33301 32 10s19.666 15.667 27.999 27s14 23.666 17 36.999s2.83301 27.166 -0.5 41.499s-11.333 27.5 -24 39.5
c-8 8 -18.333 14 -31 18s-26 6.66699 -40 8c-13.333 -20 -29.5 -40 -48.5 -60s-39.5 -36.667 -61.5 -50s-44.667 -22 -68 -26s-46 0 -68 12c-19.333 10 -34.5 28.333 -45.5 55s-18.167 57.834 -21.5 93.501s-2.66602 73.834 2.00098 114.501s13.167 80.334 25.5 119.001
s28.666 74.667 48.999 108s44.5 60 72.5 80c14.667 10.667 30 18.834 46 24.501s32.667 7.83398 50 6.50098c4 12 9 23.333 15 34s13 20 21 28s17.167 14.5 27.5 19.5s22.166 7.5 35.499 7.5c21.333 0 39.166 -8.33301 53.499 -25s24.166 -35.667 29.499 -57
c8 -35.333 10.167 -74.666 6.5 -117.999s-11.167 -86.666 -22.5 -129.999s-25.333 -84.833 -42 -124.5s-33.667 -73.834 -51 -102.501c14.667 -1.33301 28.167 -4.16602 40.5 -8.49902s23.166 -10.833 32.499 -19.5c14 -13.333 22.833 -28.166 26.5 -44.499
s3.5 -32.166 -0.5 -47.499s-10.833 -29.333 -20.5 -42s-20.834 -22.334 -33.501 -29.001c-11.333 -6 -23 -8.66699 -35 -8s-23 5.66699 -33 15zM247.007 603.995c-18.667 0.666992 -36.3281 -2.66406 -52.9951 -9.99707s-32.167 -17 -46.5 -29s-27.333 -25.667 -39 -41
s-21.5 -30.666 -29.5 -45.999c-22.667 -42 -39.334 -86.667 -50.001 -134s-16 -93 -16 -137c0 -15.333 0.833008 -32.5 2.5 -51.5s5 -37.333 10 -55s11.5 -33.834 19.5 -48.501s18.667 -25.334 32 -32.001c7.33301 -4 15.166 -6.16699 23.499 -6.5s16.833 0.5 25.5 2.5
c23.333 6 46.666 20 69.999 42s45 49 65 81l-40 3c-26 3.33301 -44.833 10.5 -56.5 21.5s-18 23.167 -19 36.5s2.16699 26.166 9.5 38.499s17 21.166 29 26.499c9.33301 4 19.166 5.16699 29.499 3.5s20.166 -7.16699 29.499 -16.5c2 -2 2 -4.16699 0 -6.5
s-4.33301 -2.5 -7 -0.5c-10 9.33301 -20.167 14 -30.5 14s-19.5 -3 -27.5 -9s-14.167 -14 -18.5 -24s-5.5 -20 -3.5 -30s8.16699 -19.167 18.5 -27.5s26.166 -13.833 47.499 -16.5c14 -2 29 -3 45 -3c10 16 19.5 32.833 28.5 50.5s17.167 35.5 24.5 53.5
c-19.333 14.667 -35.666 35.334 -48.999 62.001s-23 56 -29 88c-7.33301 34 -10.5 68.667 -9.5 104s5.83301 67.666 14.5 96.999zM324.013 261.997c10.667 26 20.498 54.5039 29.498 85.5039s16.333 62.333 22 94s8.83398 62.667 9.50098 93s-2 58.166 -8 83.499
c-5.33301 19.333 -12.333 34.666 -21 45.999c-9.33301 11.333 -18.5 18.166 -27.5 20.499s-19.833 -2.16699 -32.5 -13.5c-15.333 -14.667 -27.666 -35.334 -36.999 -62.001c-10 -29.333 -15.667 -62 -17 -98s1.66699 -71.333 9 -106c6 -30.667 15.167 -58.667 27.5 -84
s27.5 -45 45.5 -59z" />
    <glyph glyph-name="R" unicode="R" horiz-adv-x="845" 
d="M112 69c3.33301 0 4.99902 -1.66211 4.99902 -4.99512s-1.66699 -5 -5 -5c-14.667 0 -26.667 4.5 -36 13.5s-15.666 20.167 -18.999 33.5s-3.83301 27.666 -1.5 42.999s7.5 29.666 15.5 42.999s19 24.333 33 33s30.667 13 50 13c12 0 23.667 -2.83301 35 -8.5
s22.5 -12.667 33.5 -21s21.667 -17.333 32 -27l30.5 -27.5c4 19.333 11.833 36 23.5 50s27.834 21 48.501 21c16.667 0 29.334 -4.5 38.001 -13.5s14 -19.5 16 -31.5s0.666992 -24 -4 -36s-12.167 -21.333 -22.5 -28s-23.333 -9.16699 -39 -7.5s-33.5 10.5 -53.5 26.5
c-1.33301 -10 -1.33301 -20 0 -30s3.33301 -19.667 6 -29s6.16699 -18 10.5 -26s9.83301 -15 16.5 -21c11.333 -11.333 24 -18 38 -20s27.333 2 40 12c9.33301 7.33301 17.666 17.833 24.999 31.5s14.333 29.167 21 46.5c8.66699 24.667 16.167 52.167 22.5 82.5
s11.833 61.666 16.5 93.999s8.33398 64.666 11.001 96.999s4.66699 62.5 6 90.5c1.33301 26 1.16602 52.667 -0.500977 80s-6.5 52 -14.5 74s-18.5 38 -31.5 48s-27 15.167 -42 15.5s-30 -3.66699 -45 -12s-27.833 -19.833 -38.5 -34.5
c-15.333 -21.333 -24.5 -45.333 -27.5 -72s-0.166992 -52.334 8.5 -77.001c8 -24 21.667 -46 41 -66s45 -35 77 -45c2.66699 -1.33301 3.66699 -3.33301 3 -6c-1.33301 -2.66699 -3.33301 -3.66699 -6 -3c-47.333 15.333 -82.666 41.5 -105.999 78.5s-32.333 77.5 -27 121.5
c4 28.667 14 53.334 30 74.001c10.667 14.667 24.5 27.334 41.5 38.001s34.833 17.667 53.5 21s37.167 2.16602 55.5 -3.50098s34.166 -17.5 47.499 -35.5c17.333 13.333 36.333 23.166 57 29.499s42 9.5 64 9.5c31.333 0 57.5 -7.66699 78.5 -23s36.5 -34.666 46.5 -57.999
s14.167 -48.833 12.5 -76.5s-10 -53.834 -25 -78.501s-37 -45.834 -66 -63.501s-65.5 -28.5 -109.5 -32.5c24.667 -11.333 46.5 -31.166 65.5 -59.499s36.333 -59.5 52 -93.5l44.5 -100c14 -32.667 28.667 -58.667 44 -78c13.333 -16.667 25.5 -25.167 36.5 -25.5
s24.833 4.5 41.5 14.5c2.66699 1.33301 5 0.833008 7 -1.5s1.66699 -4.5 -1 -6.5c-16 -12.667 -31.833 -20 -47.5 -22s-30.5 0 -44.5 6s-27.167 15.167 -39.5 27.5s-22.833 26.166 -31.5 41.499c-12.667 20.667 -24.667 44.5 -36 71.5l-35 80
c-12 26.333 -25 50.833 -39 73.5s-30 40.334 -48 53.001c-3.33301 -30 -7 -59.833 -11 -89.5s-9.33301 -58.834 -16 -87.501c-4 -19.333 -8.5 -38.166 -13.5 -56.499s-11.5 -35 -19.5 -50s-18 -28 -30 -39s-27.333 -18.5 -46 -22.5
c-32.667 -6.66699 -59.5 -4.33398 -80.5 6.99902s-36.167 33 -45.5 65c-7.33301 22.667 -9.33301 45.334 -6 68.001l-30 27c-10.667 10 -21.5 19.333 -32.5 28s-22.167 16 -33.5 22s-22.333 9 -33 9c-26 0 -46.333 -8.16699 -61 -24.5s-23.834 -34.5 -27.501 -54.5
s-1.5 -38.333 6.5 -55s21.333 -25 40 -25zM553.999 378.005c48.667 7.33301 88.4971 25.166 119.497 53.499s48.833 63.5 53.5 105.5c2.66699 30.667 -1.5 57.334 -12.5 80.001s-26.167 39.667 -45.5 51s-41.166 16 -65.499 14s-48.833 -12.333 -73.5 -31
c10.667 -17.333 18.334 -37.5 23.001 -60.5s7.33398 -47 8.00098 -72s0.166992 -49.833 -1.5 -74.5s-3.5 -46.667 -5.5 -66zM296.996 162.005c-1.33301 -4 -2.66699 -9.33398 -4 -16.001c15.333 -12.667 30 -21.334 44 -26.001s26.667 -4.33398 38 0.999023
c10 4.66699 17.333 12.334 22 23.001s6.5 21.334 5.5 32.001s-5.16699 20 -12.5 28s-18.333 12 -33 12c-15.333 0 -28 -5.16699 -38 -15.5s-17.333 -23.166 -22 -38.499z" />
    <glyph glyph-name="S" unicode="S" horiz-adv-x="655" 
d="M222 539c-1.33301 2.66699 -1.00195 4.67188 0.998047 6.00488c3.33301 2 5.66602 1.66699 6.99902 -1c20 -28 40.667 -49.167 62 -63.5s42.666 -23.166 63.999 -26.499c-3.33301 24.667 -2.83301 51.667 1.5 81s12.833 56.5 25.5 81.5s29.667 46 51 63
s47.333 25.833 78 26.5c22.667 0.666992 40.334 -6.5 53.001 -21.5s18.667 -34 18 -57s-8.5 -47.833 -23.5 -74.5s-38.5 -51.334 -70.5 -74.001c-11.333 -8 -23.5 -15 -36.5 -21s-26.167 -10.333 -39.5 -13c6.66699 -33.333 18.5 -62.833 35.5 -88.5l51.5 -74.5
c17.333 -24 32 -48.333 44 -73s16.333 -52 13 -82c-2.66699 -23.333 -9.66699 -43.666 -21 -60.999s-25.333 -31.5 -42 -42.5s-34.667 -18.167 -54 -21.5s-38.166 -2.5 -56.499 2.5s-35 14.333 -50 28s-26.5 32.5 -34.5 56.5c-6 18 -9 36.333 -9 55
c-10 8 -20.5 17.167 -31.5 27.5s-22.167 20.166 -33.5 29.499s-22.833 17.166 -34.5 23.499s-23.5 9.5 -35.5 9.5c-26 0 -46.333 -8.16699 -61 -24.5s-23.667 -34.5 -27 -54.5s-1 -38.333 7 -55s21.333 -25 40 -25c3.33301 0 5 -1.66699 5 -5s-1.66699 -5 -5 -5
c-14.667 0 -26.667 4.5 -36 13.5s-15.666 20.167 -18.999 33.5s-3.83301 27.666 -1.5 42.999s7.5 29.666 15.5 42.999s18.833 24.333 32.5 33s30.167 13 49.5 13c12 0 24 -3 36 -9s23.833 -13.5 35.5 -22.5s22.834 -18.5 33.501 -28.5l31 -28
c2 19.333 8.33301 36.666 19 51.999s27 23 49 23c16 0 28.5 -4.33301 37.5 -13s14.5 -18.834 16.5 -30.501s0.833008 -23.667 -3.5 -36s-11.5 -22 -21.5 -29s-22.333 -10 -37 -9s-31.667 8.5 -51 22.5c0.666992 -20 5 -38.667 13 -56s18.5 -31.666 31.5 -42.999
s28 -18.5 45 -21.5s34.5 0.166992 52.5 9.5c21.333 10.667 37.333 25.834 48 45.501s15.667 41.167 15 64.5c-0.666992 24.667 -7.5 47.834 -20.5 69.501s-27.833 44 -44.5 67s-33 48.167 -49 75.5s-27 59.666 -33 96.999c-24 3.33301 -47.333 12.666 -70 27.999
s-44.667 37.666 -66 66.999zM410.998 454.005c18.667 4 36.666 10.9971 53.999 20.9971s33 22 47 36s25.833 29.333 35.5 46s16.5 33.334 20.5 50.001c3.33301 15.333 3.5 29.333 0.5 42s-8.66699 22.334 -17 29.001s-19 9.16699 -32 7.5s-27.5 -9.16699 -43.5 -22.5
c-14.667 -13.333 -26.667 -28.166 -36 -44.499s-16.666 -33.833 -21.999 -52.5s-8.5 -37.5 -9.5 -56.5s-0.166992 -37.5 2.5 -55.5zM304.997 177.002c-1.33301 -4.66699 -2.33203 -9.33203 -2.99902 -13.999s-1.33398 -9.66699 -2.00098 -15c20 -16 37.167 -24.333 51.5 -25
s25.833 2.66602 34.5 9.99902s14.334 17 17.001 29s2 23 -2 33c-3.33301 7.33301 -8.33301 13.666 -15 18.999s-15.667 8 -27 8c-14.667 0 -26.334 -4.16699 -35.001 -12.5s-15 -19.166 -19 -32.499z" />
    <glyph glyph-name="T" unicode="T" horiz-adv-x="665" 
d="M109 78c3.33301 0 4.99219 -1.6543 4.99219 -4.9873s-1.66699 -5 -5 -5c-14.667 0 -26.667 4.5 -36 13.5s-15.666 20.167 -18.999 33.5s-3.83301 27.666 -1.5 42.999s7.5 29.666 15.5 42.999s18.833 24.333 32.5 33s30.167 13 49.5 13c12 0 23.667 -2.83301 35 -8.5
s22.5 -12.667 33.5 -21s21.667 -17.333 32 -27l30.5 -27.5c4 19.333 11.833 36 23.5 50s28.167 21 49.5 21c16.667 0 29.334 -4.5 38.001 -13.5s14 -19.5 16 -31.5s0.5 -24 -4.5 -36s-12.667 -21.333 -23 -28s-23.333 -9.16699 -39 -7.5s-33.5 10.5 -53.5 26.5
c-1.33301 -21.333 1 -41 7 -59c5.33301 -18.667 14.333 -34.5 27 -47.5s28.667 -19.167 48 -18.5c14.667 0 28 7.5 40 22.5s22.833 35 32.5 60s18.334 54 26.001 87s14.167 67.833 19.5 104.5c5.33301 37.333 9.83301 75.666 13.5 114.999s6.66699 77.166 9 113.499
s3.83301 69.666 4.5 99.999s1 55.5 1 75.5c-20.667 -2 -40.834 -3.5 -60.501 -4.5s-37.5 -0.833008 -53.5 0.5s-29.667 4.16602 -41 8.49902s-19.333 11.166 -24 20.499c-1.33301 3.33301 -0.666016 5.66602 2.00098 6.99902s4.66699 0.333008 6 -3
c4 -8 12 -13.833 24 -17.5s26.333 -5.83398 43 -6.50098s35.167 -0.333984 55.5 0.999023s41.166 3 62.499 5l55 4c18 1.33301 35.667 2 53 2c32.667 0 59.834 -4 81.501 -12s32.5 -23.667 32.5 -47c0 -3.33301 -1.66699 -5 -5 -5s-5 1.66699 -5 5
c0 19.333 -9.83301 32.333 -29.5 39s-44.5 10 -74.5 10c-10.667 0 -21.667 -0.166992 -33 -0.5s-22.666 -0.833008 -33.999 -1.5c0 -16.667 -0.166992 -41 -0.5 -73s-1.66602 -67.833 -3.99902 -107.5s-5.66602 -81.834 -9.99902 -126.501s-10 -88 -17 -130
s-15.5 -81.167 -25.5 -117.5s-21.667 -65.833 -35 -88.5s-29.833 -38.667 -49.5 -48s-39.167 -12.5 -58.5 -9.5s-37 11.5 -53 25.5s-27 32.667 -33 56c-2.66699 11.333 -4.5 22.666 -5.5 33.999s-0.833008 22.666 0.5 33.999c-10 8 -20.167 17 -30.5 27s-21 19.333 -32 28
s-22.167 16 -33.5 22s-22.666 9 -33.999 9c-26 0 -46.333 -8.16699 -61 -24.5s-23.667 -34.5 -27 -54.5s-1.16602 -38.333 6.50098 -55s21.167 -25 40.5 -25zM289.992 155.013c15.333 -12.667 29.832 -21.334 43.499 -26.001s26.167 -4.33398 37.5 0.999023
c10 4.66699 17.333 12.334 22 23.001s6.5 21.334 5.5 32.001s-5 20 -12 28s-17.833 12 -32.5 12c-19.333 0 -34.166 -7.33301 -44.499 -22s-16.833 -30.667 -19.5 -48z" />
    <glyph glyph-name="U" unicode="U" horiz-adv-x="909" 
d="M909 238c0.666992 2.66699 2.66602 3.66504 5.99902 2.99805c2.66699 -1.33301 3.66699 -3.33301 3 -6c-13.333 -42 -25.5 -77.5 -36.5 -106.5s-21.167 -52.833 -30.5 -71.5c-14 -25.333 -27 -41.666 -39 -48.999c-5.33301 -3.33301 -9.83301 -5.66602 -13.5 -6.99902
s-8.16699 -2.33301 -13.5 -3c-8.66699 -0.666992 -18 1 -28 5c-14.667 6.66699 -25.334 22 -32.001 46s-10.5 53.167 -11.5 87.5s0.333008 71.833 4 112.5s8.16699 81.334 13.5 122.001c-11.333 -38 -23.666 -74.5 -36.999 -109.5s-27.666 -67.5 -42.999 -97.5
c-22 -44 -44.167 -80.5 -66.5 -109.5s-46.166 -46.5 -71.499 -52.5c-6.66699 -1.33301 -12.334 -2 -17.001 -2c-27.333 0 -46.666 10.5 -57.999 31.5s-18 48.5 -20 82.5s-0.666992 72.5 4 115.5l14 131c4.66699 44.333 8 87.333 10 129s-0.666992 77.834 -8 108.501
c-4 17.333 -10.833 32.833 -20.5 46.5s-21 23.167 -34 28.5s-26.5 5.33301 -40.5 0s-27 -18.333 -39 -39c-9.33301 -15.333 -15.333 -31.333 -18 -48c23.333 10 42.666 13.833 57.999 11.5s27.166 -8 35.499 -17s13.166 -20.167 14.499 -33.5s-0.5 -25.5 -5.5 -36.5
s-12.833 -19.667 -23.5 -26s-24 -7.5 -40 -3.5c-20.667 5.33301 -34.667 16.666 -42 33.999s-10.333 35.666 -9 54.999l-37 -19c-12.667 -6.66699 -25.334 -12.667 -38.001 -18s-25.334 -9.33301 -38.001 -12s-24.667 -2.33398 -36 0.999023
c-19.333 4.66699 -34.5 13.167 -45.5 25.5s-18.667 25.833 -23 40.5s-5.5 29.834 -3.5 45.501s6.33301 29.334 13 41.001s15.667 20.667 27 27s24 7.5 38 3.5c3.33301 -0.666992 4.66602 -2.66699 3.99902 -6s-2.66699 -4.33301 -6 -3
c-12.667 3.33301 -23.667 2.16602 -33 -3.50098s-17 -13.834 -23 -24.501s-9.66699 -23 -11 -37s0 -27.667 4 -41s11 -25.333 21 -36s23.333 -18 40 -22c10.667 -3.33301 22.334 -3.66602 35.001 -0.999023s25.5 6.83398 38.5 12.501s25.833 12 38.5 19
s24.667 13.167 36 18.5c2.66699 16.667 7.33398 32.667 14.001 48s15.5 28.5 26.5 39.5s23.833 19 38.5 24s31.667 6.16699 51 3.5c18.667 -2.66699 34.334 -9.33398 47.001 -20.001s22.5 -24.167 29.5 -40.5s12 -35.333 15 -57s4.5 -44.834 4.5 -69.501
c0 -30 -1.5 -61.333 -4.5 -94s-6.5 -66 -10.5 -100c-4.66699 -42 -8.5 -82.333 -11.5 -121s-2.83301 -72.334 0.5 -101.001c2.66699 -26 7.66699 -44.833 15 -56.5s15.833 -17.5 25.5 -17.5s20.5 5 32.5 15s24.667 23.667 38 41c9.33301 12.667 18.833 26.834 28.5 42.501
s19.167 32.5 28.5 50.5c20.667 41.333 39.834 87.5 57.501 138.5s32.167 103.5 43.5 157.5l11.5 73.5c3 19 5.5 34.167 7.5 45.5l4.5 25.5l2.5 14.5l2 3c8.66699 2 16.667 4.33301 24 7l16.5 5.5c5 1.66699 8.16699 2.5 9.5 2.5c2.66699 0 4 -1.66699 4 -5l-18 -124.5
c-6.66699 -45 -12.834 -90.5 -18.501 -136.5s-10.5 -90.667 -14.5 -134s-6 -82.666 -6 -117.999c0 -33.333 2.16699 -59.833 6.5 -79.5s11.5 -29.5 21.5 -29.5c8.66699 0 16.834 5 24.501 15s14.834 21 21.501 33c9.33301 18 19.333 41.333 30 70s22.667 64 36 106z
M292.999 578.998c-2 -1.33301 -5 -2.66602 -9 -3.99902c-2 -17.333 -0.166992 -34.333 5.5 -51s18.167 -27.667 37.5 -33c13.333 -4 24.5 -3.33301 33.5 2s15.5 12.666 19.5 21.999s5.5 19.333 4.5 30s-5 20 -12 28s-17 13 -30 15s-29.5 -1 -49.5 -9z" />
    <glyph glyph-name="V" unicode="V" horiz-adv-x="833" 
d="M741 698c0 3.33301 1.67285 5.00293 5.00586 5.00293s5 -1.33301 5 -4c6 -94 1.33301 -185 -14 -273s-38 -167 -68 -237l-29.5 -59.5c-12.333 -24.333 -27 -47 -44 -68s-35.833 -37.833 -56.5 -50.5s-42.334 -15 -65.001 -7c-20.667 7.33301 -34.667 23 -42 47
s-11 53.333 -11 88c0 26 1.5 54 4.5 84l9.5 93c3.33301 30 6.5 60 9.5 90s4.83301 58.833 5.5 86.5s-0.333008 53.5 -3 77.5s-8 44.667 -16 62c-16 34.667 -35.833 51.5 -59.5 50.5s-44.834 -17.167 -63.501 -48.5c-9.33301 -15.333 -15.333 -31.333 -18 -48
c23.333 10 42.666 13.833 57.999 11.5s27.166 -8 35.499 -17s13.166 -20.167 14.499 -33.5s-0.5 -25.5 -5.5 -36.5s-12.833 -19.667 -23.5 -26s-24 -7.5 -40 -3.5c-20.667 5.33301 -34.667 16.666 -42 33.999s-10.333 35.666 -9 54.999l-37 -19
c-12.667 -6.66699 -25.334 -12.667 -38.001 -18s-25.334 -9.33301 -38.001 -12s-24.667 -2.33398 -36 0.999023c-19.333 4.66699 -34.5 13.167 -45.5 25.5s-18.667 25.833 -23 40.5s-5.5 29.834 -3.5 45.501s6.33301 29.334 13 41.001s15.667 20.667 27 27s24 7.5 38 3.5
c3.33301 -0.666992 4.5 -2.66699 3.5 -6s-3.16699 -4.33301 -6.5 -3c-12 3.33301 -22.833 2.16602 -32.5 -3.50098s-17.334 -13.834 -23.001 -24.501s-9.16699 -23 -10.5 -37s0 -27.667 4 -41s11 -25.333 21 -36s23.333 -18 40 -22
c10.667 -3.33301 22.334 -3.66602 35.001 -0.999023s25.5 6.83398 38.5 12.501s25.833 12 38.5 19s24.667 13.167 36 18.5c2.66699 17.333 7.66699 33.666 15 48.999s16.833 28.5 28.5 39.5s25 19 40 24s31.5 5.83301 49.5 2.5s33 -10.333 45 -21s21.5 -24.167 28.5 -40.5
s12 -35.166 15 -56.499s4.5 -44 4.5 -68c0 -30 -1.5 -61.5 -4.5 -94.5s-6.5 -66.5 -10.5 -100.5c-2 -16.667 -3.83301 -33.334 -5.5 -50.001s-3.16699 -32.667 -4.5 -48c-7.33301 -64 -6.5 -111.333 2.5 -142s22.833 -46.167 41.5 -46.5s40.167 13.667 64.5 42
s48.166 69.166 71.499 122.499c14.667 34 27.834 70.833 39.501 110.5s21 81 28 124s11.833 87.333 14.5 133s2.33398 91.5 -0.999023 137.5zM297.006 579.003c-2 -1.33301 -5 -2.66602 -9 -3.99902c-2 -17.333 -0.166992 -34.333 5.5 -51s18.167 -27.667 37.5 -33
c13.333 -4 24.5 -3.33301 33.5 2s15.5 12.666 19.5 21.999s5.5 19.333 4.5 30s-5 20 -12 28s-17 13 -30 15s-29.5 -1 -49.5 -9z" />
    <glyph glyph-name="W" unicode="W" horiz-adv-x="1114" 
d="M133 705c3.33301 0 4.33398 -1.99902 3.00098 -5.99902c0 -1.33301 -0.5 -2.33301 -1.5 -3s-2.16699 -0.666992 -3.5 0c-12 3.33301 -22.833 2.16602 -32.5 -3.50098s-17.334 -13.834 -23.001 -24.501s-9.16699 -23 -10.5 -37s-0.166016 -27.667 3.50098 -41
s10.5 -25.333 20.5 -36s23.333 -18 40 -22c10.667 -3.33301 22.334 -3.66602 35.001 -0.999023s25.5 6.83398 38.5 12.501s25.833 12 38.5 19s24.667 13.167 36 18.5c4 25.333 12.333 47.166 25 65.499s27.334 32 44.001 41s34.334 13 53.001 12s35.667 -8.33301 51 -22
s28 -34.167 38 -61.5s15 -62.666 15 -105.999c0 -30 -1.5 -61.5 -4.5 -94.5s-6.5 -66.5 -10.5 -100.5c-4 -38 -7.5 -74.333 -10.5 -109s-3.83301 -66 -2.5 -94c2 -38 8.16699 -63.333 18.5 -76s22.5 -17 36.5 -13s28.833 14.667 44.5 32s30.167 37 43.5 59
c19.333 32 37.333 69.333 54 112s30.667 90 42 142c0 4.66699 1.33301 7.33398 4 8.00098c1.33301 0.666992 4.5 1.66699 9.5 3s10.333 2.83301 16 4.5l15 4.5c4.33301 1.33301 6.83301 2 7.5 2c3.33301 0 5 -1.66699 5 -5c-4.66699 -40.667 -8.33398 -81.667 -11.001 -123
s-3.33398 -79.666 -2.00098 -114.999c1.33301 -39.333 5.5 -68.166 12.5 -86.499s15.5 -29 25.5 -32s21.167 0.166992 33.5 9.5s24.833 22.166 37.5 38.499s24.667 35 36 56s21.333 41.167 30 60.5c30 69.333 52.667 147.5 68 234.5s19.666 177.167 12.999 270.5
c0 3.33301 1.66699 5.16602 5 5.49902s5 -1.16699 5 -4.5c6.66699 -94 2.16699 -185 -13.5 -273s-38.5 -167 -68.5 -237c-6 -14 -14.5 -31.5 -25.5 -52.5s-23.667 -41.333 -38 -61s-30.166 -36.834 -47.499 -51.501s-35.333 -22.667 -54 -24
c-24 -1.33301 -41.5 9.16699 -52.5 31.5s-18.167 51.833 -21.5 88.5c-2 26 -2.5 54.833 -1.5 86.5s3.16699 64.5 6.5 98.5c-11.333 -39.333 -24 -75.5 -38 -108.5s-28.667 -62.167 -44 -87.5c-7.33301 -12 -16.666 -25.5 -27.999 -40.5s-24 -28.5 -38 -40.5
s-29.167 -20.5 -45.5 -25.5s-32.833 -3.5 -49.5 4.5c-17.333 9.33301 -29.333 25.5 -36 48.5s-10 50.833 -10 83.5c0 26 1.5 54 4.5 84l9.5 93c4 32.667 7.5 65.5 10.5 98.5s4.5 64.333 4.5 94s-2.16699 56.834 -6.5 81.501s-12.166 45 -23.499 61
c-11.333 17.333 -26.166 27 -44.499 29s-35.166 -5.33301 -50.499 -22c-9.33301 -10 -16.833 -21.333 -22.5 -34s-9.83398 -25.334 -12.501 -38.001c23.333 10 42.666 13.833 57.999 11.5s27.166 -8 35.499 -17s13.166 -20.167 14.499 -33.5s-0.5 -25.5 -5.5 -36.5
s-12.833 -19.667 -23.5 -26s-24 -7.5 -40 -3.5c-20.667 5.33301 -34.667 16.666 -42 33.999s-10.333 35.666 -9 54.999l-37 -19c-12.667 -6.66699 -25.334 -12.667 -38.001 -18s-25.334 -9.33301 -38.001 -12s-24.667 -2.33398 -36 0.999023
c-19.333 4.66699 -34.5 13.167 -45.5 25.5s-18.667 25.833 -23 40.5s-5.5 29.834 -3.5 45.501s6.33301 29.334 13 41.001s15.667 20.667 27 27s24 7.5 38 3.5zM295.001 579.001c-2 -1.33301 -5 -2.66602 -9 -3.99902c-2 -17.333 -0.166992 -34.333 5.5 -51
s18.167 -27.667 37.5 -33c13.333 -4 24.5 -3.33301 33.5 2s15.5 12.666 19.5 21.999s5.5 19.333 4.5 30s-5 20 -12 28s-17 13 -30 15s-29.5 -1 -49.5 -9z" />
    <glyph glyph-name="X" unicode="X" horiz-adv-x="1081" 
d="M140 715c2.66699 -1.33301 3.66699 -3.33789 3 -6.00488c0 -4 -1.66699 -5 -5 -3c-18 4.66699 -33.167 0 -45.5 -14s-19.5 -31.167 -21.5 -51.5s2 -40.333 12 -60s27.667 -32.834 53 -39.501c10.667 -2.66699 22.334 -2.5 35.001 0.5s25.5 7.16699 38.5 12.5
s26 11.5 39 18.5s25.167 13.167 36.5 18.5c2.66699 16 7.5 31.5 14.5 46.5s16.167 28.5 27.5 40.5s24.5 21.5 39.5 28.5s31.5 10.5 49.5 10.5c26.667 0 50.834 -9.83301 72.501 -29.5s42 -45.5 61 -77.5s37 -68.667 54 -110l50.5 -126l42 75c14 24.667 28.333 48.667 43 72
c22.667 36 45.667 68.667 69 98s47.5 52.5 72.5 69.5s50.833 26.667 77.5 29s54.334 -5.5 83.001 -23.5c2.66699 -1.33301 3.16699 -3.5 1.5 -6.5s-3.83398 -3.5 -6.50098 -1.5c-20.667 12.667 -42.667 13.834 -66 3.50098s-46.833 -27.5 -70.5 -51.5
s-46.834 -52.667 -69.501 -86s-43.5 -66.666 -62.5 -99.999l-50.5 -92c-14.667 -28 -26 -48.667 -34 -62c6.66699 -17.333 15.5 -38.666 26.5 -63.999s23.5 -50.666 37.5 -75.999s29.5 -48.833 46.5 -70.5s35.167 -37.667 54.5 -48s40 -13.166 62 -8.49902s44.667 21 68 49
c15.333 18 31.666 41.333 48.999 70s36.666 63.334 57.999 104.001c1.33301 2.66699 3.33301 3.33398 6 2.00098c4 -1.33301 4.66699 -3.33301 2 -6c-21.333 -41.333 -40.833 -76.5 -58.5 -105.5s-34.167 -52.833 -49.5 -71.5c-26.667 -32 -52.167 -53 -76.5 -63
s-47.5 -12.5 -69.5 -7.5s-42.333 16 -61 33s-36 37 -52 60s-30.5 47.333 -43.5 73s-24.167 49.5 -33.5 71.5l-34 -55.5c-12.667 -20.333 -26.667 -40.5 -42 -60.5s-32 -38.667 -50 -56s-37 -30.833 -57 -40.5s-41 -14.334 -63 -14.001s-44.667 7.83301 -68 22.5
c-2.66699 2 -3.16699 4.33301 -1.5 7s3.83398 3 6.50098 1c18.667 -12 37.834 -15.333 57.501 -10s38.667 15.833 57 31.5s36.166 35.167 53.499 58.5s33.166 46.833 47.499 70.5s27 46 38 67l26.5 49.5l-33.5 90.5c-12.333 34.333 -25.666 68.666 -39.999 102.999
s-29.833 66.5 -46.5 96.5s-34.334 54 -53.001 72c-19.333 18 -38.166 27.167 -56.499 27.5s-37.166 -9.16699 -56.499 -28.5c-20 -21.333 -32.667 -46.666 -38 -75.999c23.333 10 42.666 13.833 57.999 11.5s27 -8.16602 35 -17.499s12.667 -20.5 14 -33.5
s-0.5 -25.167 -5.5 -36.5s-12.833 -20.166 -23.5 -26.499s-24 -7.16602 -40 -2.49902c-20 5.33301 -33.667 16.666 -41 33.999s-10.333 35.666 -9 54.999l-37 -19c-12.667 -6.66699 -25.5 -12.667 -38.5 -18s-25.833 -9.33301 -38.5 -12s-24.667 -2.33398 -36 0.999023
c-19.333 4.66699 -34.5 13 -45.5 25s-18.667 25.5 -23 40.5s-5.5 30.167 -3.5 45.5s6.33301 29 13 41s15.667 21.167 27 27.5s24 7.5 38 3.5zM294 584.995c-1.33301 -8.66699 -1.5 -17.499 -0.5 -26.499s3.16699 -17.5 6.5 -25.5s7.83301 -14.833 13.5 -20.5
s13.167 -9.83398 22.5 -12.501c13.333 -3.33301 24.5 -2.33301 33.5 3s15.5 12.666 19.5 21.999s5.5 19.333 4.5 30s-5 19.834 -12 27.501s-17 12.5 -30 14.5s-29.5 -1 -49.5 -9z" />
    <glyph glyph-name="Y" unicode="Y" horiz-adv-x="862" 
d="M323 -187c2.66699 0 3.99805 -1.66113 3.99805 -4.99414c1.33301 -3.33301 0.333008 -5 -3 -5c-14.667 -1.33301 -27 2.16699 -37 10.5s-17.333 19 -22 32s-6.5 27.167 -5.5 42.5s4.83301 30 11.5 44s16.5 26 29.5 36s29.5 15.667 49.5 17
c12 0.666992 23.833 -1.33301 35.5 -6s23.334 -10.667 35.001 -18s23.167 -15.5 34.5 -24.5l33 -25.5c2 19.333 8.33301 36.833 19 52.5s26.334 24.5 47.001 26.5c16.667 1.33301 29.667 -2.16699 39 -10.5s15.5 -18.333 18.5 -30s2.66699 -23.834 -1 -36.501
s-10.334 -22.834 -20.001 -30.501s-22.5 -11.334 -38.5 -11.001s-34.667 7.5 -56 21.5c0.666992 -9.33301 1.83398 -18.833 3.50098 -28.5s4.16699 -19.167 7.5 -28.5c8.66699 -21.333 19.5 -36.833 32.5 -46.5s26.333 -13.834 40 -12.501s26.667 7.66602 39 18.999
s22.5 27.666 30.5 48.999c6 17.333 11 37 15 59s7 45 9 69c7.33301 80 15.166 161 23.499 243s15.166 162.333 20.499 241c-13.333 -46 -27.166 -86 -41.499 -120s-29.166 -62.667 -44.499 -86c-6.66699 -11.333 -14.334 -22.833 -23.001 -34.5s-18.167 -22.167 -28.5 -31.5
s-21.666 -17.333 -33.999 -24s-25.5 -10.667 -39.5 -12c-17.333 -1.33301 -31.666 1.33398 -42.999 8.00098s-20.166 16.167 -26.499 28.5s-10.833 26.5 -13.5 42.5s-4.16699 32.5 -4.5 49.5s0 33.667 1 50s1.83301 30.833 2.5 43.5c1.33301 18.667 2.5 37.5 3.5 56.5
s1.16699 37.333 0.5 55s-2.33398 34.334 -5.00098 50.001s-7 29.834 -13 42.501c-8.66699 18.667 -19.167 31.667 -31.5 39s-24.833 10.166 -37.5 8.49902s-24.834 -7.16699 -36.501 -16.5s-20.834 -21.333 -27.501 -36c-7.33301 -16.667 -12.333 -33.334 -15 -50.001
c22.667 12 41.834 17.5 57.501 16.5s28 -5.66699 37 -14s14.667 -19 17 -32s1.5 -25.167 -2.5 -36.5s-11.167 -20.666 -21.5 -27.999s-23.5 -9.66602 -39.5 -6.99902c-10.667 2 -19.667 5.66699 -27 11s-13.166 11.833 -17.499 19.5s-7.66602 16.167 -9.99902 25.5
s-3.5 18.666 -3.5 27.999l-35 -21.5c-12 -7.66699 -24.167 -14.667 -36.5 -21s-24.666 -11.166 -36.999 -14.499s-24.166 -4 -35.499 -2c-19.333 3.33301 -35 10.5 -47 21.5s-20.667 23.667 -26 38s-7.83301 29.333 -7.5 45s3.5 29.667 9.5 42s14.167 22 24.5 29
s22.833 9.16699 37.5 6.5c2.66699 1.33301 4 -0.333984 4 -5.00098c-2 -3.33301 -4 -4.66602 -6 -3.99902c-12.667 2 -23.5 -0.166992 -32.5 -6.5s-15.833 -15 -20.5 -26s-7.16699 -23.5 -7.5 -37.5s2 -27.333 7 -40s12.833 -24 23.5 -34s24.667 -16.333 42 -19
c10.667 -2 22.167 -1.16699 34.5 2.5s24.833 8.66699 37.5 15s25 13.5 37 21.5s23.667 15.333 35 22c0.666992 17.333 4.33398 33.833 11.001 49.5s15.5 29.5 26.5 41.5s24.333 21.167 40 27.5s33.167 8.5 52.5 6.5c22.667 -2.66699 40.834 -9.83398 54.501 -21.501
s24 -26.5 31 -44.5s11.5 -38.167 13.5 -60.5s2.5 -45 1.5 -68s-2.5 -45.333 -4.5 -67s-3.33301 -41.167 -4 -58.5c0 -8.66699 0.166992 -21.5 0.5 -38.5s2.16602 -34 5.49902 -51s8.5 -31.833 15.5 -44.5s17.167 -19 30.5 -19c8.66699 0 17.667 3 27 9s18.5 13.5 27.5 22.5
s17.167 18.667 24.5 29l19 27.5c17.333 28 33.833 62.167 49.5 102.5s31.167 89.166 46.5 146.499v4l1 2c0 2.66699 1 4.33398 3 5.00098l45 18c5.33301 1.33301 7.33301 -0.333984 6 -5.00098c-0.666992 -18.667 -1.66699 -41.5 -3 -68.5s-3.33301 -56.167 -6 -87.5
c-5.33301 -67.333 -11.166 -133.5 -17.499 -198.5l-19.5 -197.5c-2.66699 -26.667 -7.5 -54.167 -14.5 -82.5s-17.167 -53.5 -30.5 -75.5c-12.667 -18.667 -27.834 -32.667 -45.501 -42s-35.334 -13.833 -53.001 -13.5s-34.334 6.16602 -50.001 17.499
s-27.834 28.666 -36.501 51.999c-8.66699 22.667 -12.334 45.334 -11.001 68.001l-32 24.5c-11.333 9 -22.833 17.5 -34.5 25.5s-23.334 14.333 -35.001 19s-23.167 6.66699 -34.5 6c-17.333 -1.33301 -31.833 -6.33301 -43.5 -15s-20.667 -19.167 -27 -31.5
s-10 -25.5 -11 -39.5s0.333008 -26.833 4 -38.5s9.66699 -21 18 -28s18.833 -10.167 31.5 -9.5zM498.998 -78.9941c-0.666992 -2.66699 -1.16602 -5.16895 -1.49902 -7.50195s-0.5 -5.16602 -0.5 -8.49902c16 -11.333 31 -19 45 -23s26.667 -2.66699 38 4
c9.33301 5.33301 16 13.5 20 24.5s5 21.833 3 32.5s-6.83301 19.667 -14.5 27s-18.834 10.666 -33.501 9.99902c-16 -1.33301 -28.5 -7.66602 -37.5 -18.999s-15.167 -24.666 -18.5 -39.999zM268.999 514.004c-1.33301 -1.33301 -2.83203 -2.1709 -4.49902 -2.50391
s-3.16699 -1.16602 -4.5 -2.49902c-1.33301 -17.333 1.83398 -34.166 9.50098 -50.499s21.167 -26.166 40.5 -29.499c13.333 -2.66699 24.166 -1 32.499 5s14.166 13.833 17.499 23.5s4 19.834 2 30.501s-6.66699 19.667 -14 27s-17.5 11.5 -30.5 12.5
s-29.167 -3.5 -48.5 -13.5z" />
    <glyph glyph-name="Z" unicode="Z" horiz-adv-x="738" 
d="M135 697c2.66699 -0.666992 4.00293 -2.66504 4.00293 -5.99805c-0.666992 -2.66699 -2.66699 -4 -6 -4c-12 3.33301 -22.833 2.16602 -32.5 -3.50098s-17.334 -13.834 -23.001 -24.501s-9.16699 -23 -10.5 -37s-0.166016 -27.5 3.50098 -40.5s10.5 -25 20.5 -36
s23.333 -18.5 40 -22.5c11.333 -2.66699 23.333 -2.5 36 0.5s25.5 7.33301 38.5 13s26 12 39 19s25.5 13.167 37.5 18.5c3.33301 20 10.666 39.667 21.999 59c12.667 19.333 29.5 35.5 50.5 48.5s43.167 18.167 66.5 15.5c15.333 -1.33301 33.666 -6.33301 54.999 -15
s43.666 -18.667 66.999 -30l26 -11.5l26 -11.5c7.33301 16.667 16.333 31.334 27 44.001s24.667 21.334 42 26.001c10 2.66699 21.667 3.83398 35 3.50098s25.666 -3 36.999 -8s20.5 -12.167 27.5 -21.5s9.83301 -21.333 8.5 -36c-1.33301 -13.333 -7 -25.166 -17 -35.499
s-24.333 -15.5 -43 -15.5c-20.667 0 -45.334 5.33301 -74.001 16c-13.333 -38 -23.666 -77.5 -30.999 -118.5s-14.333 -82.667 -21 -125s-14.667 -85 -24 -128s-22.666 -85.5 -39.999 -127.5c6.66699 -2.66699 18.667 -8.16699 36 -16.5s37 -17.166 59 -26.499
s45 -18.166 69 -26.499s46 -14.166 66 -17.499s36.5 -3 49.5 1s19.5 14 19.5 30c0 3.33301 1.66699 5 5 5c2.66699 0 4 -1.66699 4 -5c0 -18.667 -6.66699 -31 -20 -37s-30.166 -7.83301 -50.499 -5.5s-43 7.83301 -68 16.5s-49 17.834 -72 27.501
s-43.667 18.834 -62 27.501s-31.5 14.667 -39.5 18c-6.66699 -14.667 -14.667 -28.334 -24 -41.001s-20.666 -23.334 -33.999 -32.001c-12.667 -8 -26.667 -14.167 -42 -18.5s-30.5 -6 -45.5 -5s-28.667 5 -41 12s-21.833 17.5 -28.5 31.5c-10 19.333 -10 38.666 0 57.999
c6 12 16 22 30 30s32.667 12 56 12c11.333 0 24.333 -1.83301 39 -5.5s30.667 -8.5 48 -14.5c13.333 35.333 24.666 75.833 33.999 121.5s18 91.667 26 138s16.333 90.666 25 132.999s18.667 77.833 30 106.5c-12.667 5.33301 -26.834 11.666 -42.501 18.999l-47 21.5
c-15.667 7 -30.667 13 -45 18s-26.5 8.16699 -36.5 9.5c-16 2 -31 0 -45 -6s-26.667 -14.167 -38 -24.5s-20.833 -22.5 -28.5 -36.5s-12.834 -28.333 -15.501 -43c24.667 10.667 44.834 14 60.501 10s27.167 -11.333 34.5 -22s10.833 -23.167 10.5 -37.5
s-4.5 -26.833 -12.5 -37.5c-5.33301 -8 -12.833 -13.833 -22.5 -17.5s-21.167 -3.83398 -34.5 -0.500977c-20 5.33301 -33.5 16.666 -40.5 33.999s-9.83301 35.666 -8.5 54.999l-37 -19c-12.667 -6.66699 -25.5 -12.667 -38.5 -18s-25.833 -9.33301 -38.5 -12
s-25 -2.33398 -37 0.999023c-19.333 4.66699 -34.5 13 -45.5 25s-18.667 25.5 -23 40.5s-5.5 30.167 -3.5 45.5s6.33301 29 13 41s15.667 21.167 27 27.5s24 7.5 38 3.5zM371.003 10.002c22.667 0 42.167 9.16797 58.5 27.501s30.833 43.166 43.5 74.499
c-17.333 6 -33 10.833 -47 14.5s-26.333 5.5 -37 5.5c-28.667 0 -49.5 -6.33301 -62.5 -19s-19.667 -26.667 -20 -42s5.16699 -29.333 16.5 -42s27.333 -19 48 -19zM297.003 570.003l-5.99902 -3c-2.66699 -17.333 -1.33398 -34.5 3.99902 -51.5s17.333 -28.167 36 -33.5
c13.333 -3.33301 24.5 -2.33301 33.5 3s15.5 12.666 19.5 21.999s5.5 19.333 4.5 30s-5 19.834 -12 27.501s-17 12.5 -30 14.5s-29.5 -1 -49.5 -9zM641.004 611.003c10 -3.33301 21 -6.66895 33 -10.002s23.5 -5.16602 34.5 -5.49902s21 1.5 30 5.5s15.833 11.333 20.5 22
c6 14 5.5 27 -1.5 39s-17.167 19.5 -30.5 22.5s-28 -0.666992 -44 -11s-30 -31.166 -42 -62.499z" />
    <glyph glyph-name="bracketleft" unicode="[" horiz-adv-x="215" 
d="M58 629l-0.000976562 4.00098c0 3.33301 1.33301 6.33301 4 9s6.66699 4 12 4h78c5.33301 0 9.33301 -1.33301 12 -4s4 -5.5 4 -8.5s-1.33301 -5.66699 -4 -8s-6.66699 -3.5 -12 -3.5h-43v-650h43c5.33301 0 9.33301 -1.33301 12 -4s4 -5.5 4 -8.5
s-1.33301 -5.66699 -4 -8s-6.66699 -3.5 -12 -3.5h-78c-5.33301 0 -9.16602 1.16699 -11.499 3.5s-3.83301 5.16602 -4.5 8.49902v4v665z" />
    <glyph glyph-name="backslash" unicode="\" horiz-adv-x="833" 
d="M444 640c0.666992 5.33301 2.83398 9 6.50098 11s7.5 2.66699 11.5 2s7.5 -2.66699 10.5 -6s4.16699 -7.33301 3.5 -12l-112 -668c-0.666992 -5.33301 -2.83398 -9 -6.50098 -11s-7.5 -2.66699 -11.5 -2s-7.5 2.5 -10.5 5.5s-3.83301 7.16699 -2.5 12.5z" />
    <glyph glyph-name="bracketright" unicode="]" horiz-adv-x="207" 
d="M125 -36l-0.000976562 -4.00098c-0.666992 -3.33301 -2.16699 -6.16602 -4.5 -8.49902s-6.16602 -3.5 -11.499 -3.5h-78c-5.33301 0 -9.33301 1.16699 -12 3.5s-4 5 -4 8s1.33301 5.83301 4 8.5s6.66699 4 12 4h43v650h-43c-5.33301 0 -9.33301 1.16699 -12 3.5
s-4 5 -4 8s1.33301 5.83301 4 8.5s6.66699 4 12 4h78c5.33301 0 9.33301 -1.33301 12 -4s4 -5.66699 4 -9v-4v-665z" />
    <glyph glyph-name="asciicircum" unicode="^" horiz-adv-x="420" 
d="M355 476c2 -2.66699 4.16406 -5.16699 6.49707 -7.5s2.16602 -4.5 -0.500977 -6.5c-3.33301 -3.33301 -6.16602 -3.33301 -8.49902 0s-4.16602 6.33301 -5.49902 9l-135 169l-135 -169l-5 -8.5c-1.33301 -2.33301 -3.66602 -2.83301 -6.99902 -1.5
c-4 2 -4.66699 4.5 -2 7.5s5 5.5 7 7.5l138 224c1.33301 1.33301 2.83301 2 4.5 2s2.83398 -0.666992 3.50098 -2z" />
    <glyph glyph-name="underscore" unicode="_" horiz-adv-x="548" 
d="M72 -33c-5.33301 0 -9.33301 1.66699 -12 5s-4 7 -4 11s1.33301 7.66699 4 11s6.66699 5 12 5h393c5.33301 0 9.33301 -1.66699 12 -5s4 -7 4 -11s-1.33301 -7.66699 -4 -11s-6.66699 -5 -12 -5h-393z" />
    <glyph glyph-name="grave" unicode="`" horiz-adv-x="259" 
d="M209 544c-3.33301 -2.66699 -6.99805 -6.00488 -10.998 -10.0049s-7.66699 -5.33301 -11 -4c-11.333 4 -22.5 8.83301 -33.5 14.5s-22.333 10.834 -34 15.501s-23.667 7.83398 -36 9.50098s-25.5 0.166992 -39.5 -4.5c16 14.667 30 25.334 42 32.001s23 10.334 33 11.001
s18.833 -1.16602 26.5 -5.49902s15.167 -9.83301 22.5 -16.5c7.33301 -7.33301 14.166 -14.5 20.499 -21.5s13.166 -13.833 20.499 -20.5z" />
    <glyph glyph-name="a" unicode="a" horiz-adv-x="365" 
d="M365 307c1.33301 3.33301 3.49805 4.5 6.49805 3.5s3.83301 -3.16699 2.5 -6.5c-28.667 -80.667 -55.167 -144.334 -79.5 -191.001s-45.833 -78.667 -64.5 -96c-16 -15.333 -29.667 -20.666 -41 -15.999s-19.666 17.334 -24.999 38.001
c-10.667 39.333 -8.33398 103.666 6.99902 192.999c-11.333 -22 -22.666 -40.833 -33.999 -56.5s-22.333 -28.834 -33 -39.501c-16.667 -16.667 -32 -27.667 -46 -33s-26.333 -6.66602 -37 -3.99902c-14 4 -24.667 12.833 -32 26.5s-11.666 30.167 -12.999 49.5
s0.166992 40.666 4.5 63.999s10.833 46 19.5 68c12 30.667 27.833 58.334 47.5 83.001s41.834 40.667 66.501 48c18 5.33301 35.167 4.5 51.5 -2.5s27.166 -19.167 32.499 -36.5c1.33301 -3.33301 0.333008 -5.5 -3 -6.5s-5.33301 0.166992 -6 3.5
c-3.33301 10.667 -11 18.667 -23 24c-13.333 6 -26.5 4.83301 -39.5 -3.5s-25 -21.166 -36 -38.499s-20.833 -37.5 -29.5 -60.5s-15.667 -46 -21 -69s-8.5 -44.667 -9.5 -65s0.5 -36.333 4.5 -48s11 -17.667 21 -18s23.667 8.16699 41 25.5
c12.667 12.667 25.834 28.834 39.501 48.501s27.5 44.5 41.5 74.5c1.33301 7.33301 2.83301 14.833 4.5 22.5s3.5 15.5 5.5 23.5c0 2 1 3 3 3l48 15c4.66699 1.33301 7 -0.666992 7 -6l-7 -32.5c-3.33301 -15.667 -6.66602 -33.334 -9.99902 -53.001s-6.5 -40.5 -9.5 -62.5
s-5.16699 -42.5 -6.5 -61.5s-1.5 -35.333 -0.5 -49s4 -22.167 9 -25.5s12 -0.333008 21 9s21.167 27.666 36.5 54.999c13.333 24 27.166 52.833 41.499 86.5s29.166 72.5 44.499 116.5z" />
    <glyph glyph-name="b" unicode="b" horiz-adv-x="383" 
d="M383 307c1.33301 3.33301 3.49414 4.50195 6.49414 3.50195s3.83301 -3.16699 2.5 -6.5c-10 -29.333 -21.5 -57.333 -34.5 -84s-29.167 -51 -48.5 -73c-15.333 -18.667 -33.166 -35 -53.499 -49s-43.166 -24.667 -68.499 -32c-14 -19.333 -28.667 -34.833 -44 -46.5
s-30.666 -17.5 -45.999 -17.5c-8.66699 0 -15.167 1.83301 -19.5 5.5s-7 8 -8 13s-0.166992 10.333 2.5 16s7 10.5 13 14.5c5.33301 3.33301 11.666 6.16602 18.999 8.49902s15.666 4.16602 24.999 5.49902c16 21.333 30.333 46 43 74c6 12.667 11.833 27.5 17.5 44.5
s10.334 34.167 14.001 51.5s5.33398 34.333 5.00098 51s-3.83301 30.667 -10.5 42s-14.5 15.833 -23.5 13.5s-18.333 -8.66602 -28 -18.999s-19.167 -23.5 -28.5 -39.5s-18 -31.833 -26 -47.5s-14.833 -29.667 -20.5 -42s-9.5 -20.166 -11.5 -23.499
c-4 -7.33301 -7.83301 -15 -11.5 -23l-10.5 -23c0 -3.33301 -1.33301 -5.33301 -4 -6l-2 -1c-1.33301 0 -4.33301 -0.666992 -9 -2s-9.66699 -3 -15 -5s-10.5 -3.66699 -15.5 -5s-7.83301 -2 -8.5 -2c-2.66699 1.33301 -4 3.33301 -4 6c3.33301 15.333 6 35.5 8 60.5
s4.66699 53.5 8 85.5c0.666992 8.66699 1.16699 17.167 1.5 25.5s1.16602 17.166 2.49902 26.499c3.33301 40 7.33301 82.333 12 127s10.5 88.5 17.5 131.5s15.5 84 25.5 123s21.667 73.167 35 102.5s28.833 52.333 46.5 69s37.834 24 60.501 22
c11.333 -1.33301 20.833 -5 28.5 -11s13.667 -13.833 18 -23.5s7.33301 -20.334 9 -32.001s2.5 -23.5 2.5 -35.5c0 -39.333 -8.66699 -84 -26 -134c-15.333 -44 -36.833 -88.667 -64.5 -134s-61.5 -85.666 -101.5 -120.999l-11 -124l-10 -114l33.5 73.5
c11.667 25 23.834 47.5 36.501 67.5s26.334 36.167 41.001 48.5s31 18.5 49 18.5c14.667 0 26.334 -3.5 35.001 -10.5s15 -15.833 19 -26.5s6.16699 -22.334 6.5 -35.001s-0.166992 -25 -1.5 -37c-3.33301 -29.333 -11 -59.333 -23 -90s-26 -58.334 -42 -83.001
c25.333 8.66699 47.833 20.834 67.5 36.501s37 33.667 52 54s28 42.333 39 66s20.5 47.5 28.5 71.5zM143.994 790.002c-10.667 -23.333 -19.998 -49.8311 -27.998 -79.498s-15.333 -61.334 -22 -95.001s-12.334 -68.5 -17.001 -104.5s-8.66699 -71.333 -12 -106
c36.667 34 68 72.667 94 116s46.333 86 61 128c17.333 48.667 26 92.334 26 131.001c-0.666992 28.667 -4.33398 49.667 -11.001 63s-15 19.666 -25 18.999s-21 -7.33398 -33 -20.001s-23 -30 -33 -52zM79.9961 19.0039c6.66699 3.33301 13.334 7.99902 20.001 13.999
s13 12.667 19 20c-8 -1.33301 -15.833 -3.83301 -23.5 -7.5s-12.834 -9.16699 -15.501 -16.5c-1.33301 -3.33301 -1.33301 -6.66602 0 -9.99902z" />
    <glyph glyph-name="c" unicode="c" horiz-adv-x="245" 
d="M245 307c1.33301 3.33301 3.50293 4.50684 6.50293 3.50684s3.83301 -3.16699 2.5 -6.5c-7.33301 -22 -19.666 -45 -36.999 -69s-36.666 -45.667 -57.999 -65c-30 -26.667 -55.667 -44.834 -77 -54.501s-39.333 -13.167 -54 -10.5s-25.834 10.667 -33.501 24
s-12.5 29.666 -14.5 48.999s-1.16699 40.166 2.5 62.499s9.5 44.5 17.5 66.5c10.667 28.667 24.667 54.167 42 76.5s37.333 36.5 60 42.5c13.333 3.33301 26.166 3 38.499 -1s20.5 -14 24.5 -30c2.66699 -11.333 2.16699 -25.5 -1.5 -42.5s-11.5 -37.167 -23.5 -60.5
c-1.33301 -2.66699 -3.33301 -3.33398 -6 -2.00098s-3.33398 3.66602 -2.00098 6.99902c11.333 21.333 18.666 40.166 21.999 56.499s3.66602 29.5 0.999023 39.5c-1.33301 6 -3.83301 11 -7.5 15s-8.5 5.66699 -14.5 5c-15.333 -0.666992 -30.333 -11.334 -45 -32.001
s-26.834 -44.834 -36.501 -72.501s-16.167 -55.834 -19.5 -84.501s-1.83301 -51.667 4.5 -69s18.833 -25.666 37.5 -24.999s45 16.334 79 47.001c20.667 19.333 39.334 40.5 56.001 63.5s28.667 45.167 36 66.5z" />
    <glyph glyph-name="d" unicode="d" horiz-adv-x="398" 
d="M85 196c17.333 17.333 33.166 37.5039 47.499 60.5039s27.166 45.833 38.499 68.5c1.33301 3.33301 2.5 7.66602 3.5 12.999s1.5 10.333 1.5 15c0 4 -2.33301 9.66699 -7 17c-10 14.667 -21.167 20.667 -33.5 18s-24.666 -10.334 -36.999 -23.001
s-23.833 -28.834 -34.5 -48.501s-19.5 -39.334 -26.5 -59.001s-11.167 -37.667 -12.5 -54s1.33398 -27.5 8.00098 -33.5c5.33301 -4.66699 12.5 -4.5 21.5 0.5s19.167 13.5 30.5 25.5zM398 307.004c1.33301 2.66699 3.50391 3.49805 6.50391 2.49805
s3.83301 -3.16699 2.5 -6.5c-6 -17.333 -13.833 -37 -23.5 -59s-20.334 -44.5 -32.001 -67.5s-24 -45.5 -37 -67.5s-25.833 -41.5 -38.5 -58.5s-24.834 -30.167 -36.501 -39.5s-21.834 -13 -30.501 -11c-14 2.66699 -24.5 14.667 -31.5 36s-11.333 47 -13 77
s-1.66699 62 0 96s3.83398 65.333 6.50098 94c-13.333 -25.333 -26.5 -47.166 -39.5 -65.499s-25.833 -34.166 -38.5 -47.499c-5.33301 -5.33301 -11.5 -11 -18.5 -17s-14.5 -11.333 -22.5 -16s-16.167 -8.16699 -24.5 -10.5s-16.166 -2.5 -23.499 -0.5
c-15.333 4.66699 -25.333 15.667 -30 33s-4.33398 37.666 0.999023 60.999c2.66699 11.333 6.16699 22.5 10.5 33.5s9.16602 22.167 14.499 33.5c11.333 22 25.5 41.833 42.5 59.5s35.5 29.5 55.5 35.5c15.333 4.66699 30.666 4.33398 45.999 -0.999023
s26.666 -15 33.999 -29c3.33301 30 7.83301 65.333 13.5 106s13.167 81.334 22.5 122.001s21 78.167 35 112.5s30.667 60.5 50 78.5c19.333 17.333 39.666 25 60.999 23c18.667 -1.33301 32.5 -8.66602 41.5 -21.999s13.833 -30 14.5 -50
c1.33301 -30.667 -6 -66.667 -22 -108c-13.333 -36 -33.666 -75.5 -60.999 -118.5s-62.333 -88.167 -105 -135.5c-1.33301 -10.667 -2.33301 -20.834 -3 -30.501s-1.66699 -19.5 -3 -29.5l-4 -43.5c-2 -21.667 -3.66699 -45.5 -5 -71.5s-1.66602 -51.833 -0.999023 -77.5
s3.5 -46.334 8.5 -62.001s12.333 -23.5 22 -23.5s23.167 12.333 40.5 37c10.667 16 21.667 33.667 33 53s22 39 32 59s19.333 40 28 60s16 38.667 22 56zM231.004 396.002c39.333 45.333 71.501 88.3359 96.501 129.003s44.167 78 57.5 112
c8 21.333 13.667 40.666 17 57.999s4.66602 33 3.99902 47c-0.666992 14.667 -3.33398 26.167 -8.00098 34.5s-10.5 13.166 -17.5 14.499s-15 -0.833984 -24 -6.50098s-17.833 -15.5 -26.5 -29.5c-13.333 -22.667 -26 -50 -38 -82c-13.333 -38.667 -25.166 -82 -35.499 -130
s-18.833 -97 -25.5 -147z" />
    <glyph glyph-name="e" unicode="e" horiz-adv-x="231" 
d="M93 376c-16 -24 -29.3311 -50.333 -39.998 -79c15.333 10 27.666 21 36.999 33s15.666 23.667 18.999 35c4 14 4.33301 22.333 1 25s-9 -2 -17 -14zM231.002 307c1.33301 3.33301 3.50488 4.5 6.50488 3.5s3.83301 -3.16699 2.5 -6.5
c-7.33301 -21.333 -18.833 -43.833 -34.5 -67.5s-33.834 -45.167 -54.501 -64.5c-15.333 -15.333 -32.666 -28.833 -51.999 -40.5s-38.333 -17.834 -57 -18.501c-15.333 -0.666992 -27.5 2.66602 -36.5 9.99902s-15.5 16.833 -19.5 28.5s-6.16699 24.834 -6.5 39.501
s0.5 29.334 2.5 44.001s4.66699 28.334 8 41.001s6.66602 23 9.99902 31c6.66699 17.333 14.167 33.666 22.5 48.999s17.166 28.666 26.499 39.999c12 14 23.167 22.667 33.5 26s18.666 2.66602 24.999 -2.00098s10.666 -12.167 12.999 -22.5s1.5 -22.166 -2.5 -35.499
s-11.667 -27 -23 -41s-27 -26.667 -47 -38c-8.66699 -26 -13.667 -50.833 -15 -74.5s1.5 -42.167 8.5 -55.5s18.667 -19.166 35 -17.499s38.166 15.167 65.499 40.5c20.667 19.333 39 41 55 65s27.333 46 34 66z" />
    <glyph glyph-name="f" unicode="f" horiz-adv-x="266" 
d="M266 307c1.33301 2.66699 3.50391 3.50586 6.50391 2.50586s3.83301 -3.16699 2.5 -6.5c-14 -40 -29.833 -75.167 -47.5 -105.5s-35.834 -57.166 -54.501 -80.499c-28.667 -34.667 -55.5 -60.834 -80.5 -78.501s-43.167 -28.834 -54.5 -33.501
c24 -50 38.667 -91.333 44 -124s5.33301 -57.334 0 -74.001c-4 -14 -10.5 -23.833 -19.5 -29.5s-18.667 -8 -29 -7s-20.5 5 -30.5 12s-17.667 16.833 -23 29.5c-6 12 -9.66699 31.667 -11 59s-1.33301 58.666 0 93.999s3.66602 72.666 6.99902 111.999s7 77.333 11 114
s7.83301 70.167 11.5 100.5l8.5 70.5c12 94.667 30 172 54 232s48.5 103.833 73.5 131.5s48 39.667 69 36s34.5 -22.5 40.5 -56.5s1.33301 -84 -14 -150s-47 -148 -95 -246c-11.333 -23.333 -23.833 -46.333 -37.5 -69l-41.5 -68l-24 -39
c-3.33301 -27.333 -6.16602 -54.833 -8.49902 -82.5s-4.33301 -54.5 -6 -80.5s-2.33398 -50.167 -2.00098 -72.5s1.5 -41.833 3.5 -58.5c2 -14 5.33301 -25.333 10 -34s9.66699 -14.334 15 -17.001s10.666 -2.33398 15.999 0.999023s9.66602 10 12.999 20
c4.66699 16.667 4.33398 41.167 -0.999023 73.5s-20.333 73.5 -45 123.5c-1.33301 1.33301 -1.5 2.83301 -0.5 4.5s2.16699 2.5 3.5 2.5c4 0.666992 10.5 3.33398 19.5 8.00098s19.5 11.5 31.5 20.5s25.167 20.167 39.5 33.5s29.166 29.333 44.499 48
c18.667 22.667 36.667 49.167 54 79.5s33 65.166 47 104.499zM35.0039 156.006l46.999 77.5c16 26.333 30.667 52.833 44 79.5c47.333 96.667 78.666 177.667 93.999 243s20 114.666 14 147.999c-4 24 -10.833 35.167 -20.5 33.5s-21.5 -11.5 -35.5 -29.5
c-20 -25.333 -38.667 -58.666 -56 -99.999c-11.333 -28 -21.666 -60.833 -30.999 -98.5s-17.5 -77.167 -24.5 -118.5s-13.167 -82.333 -18.5 -123s-9.66602 -78 -12.999 -112z" />
    <glyph glyph-name="g" unicode="g" horiz-adv-x="361" 
d="M361 307c2 3.33301 4.50195 4.33105 7.50195 2.99805s3.83301 -3.66602 2.5 -6.99902c-9.33301 -24.667 -19.166 -46.167 -29.499 -64.5s-21.833 -34.666 -34.5 -48.999s-26.334 -27.833 -41.001 -40.5s-31 -26 -49 -40c-6 -58 -13.5 -116.667 -22.5 -176
s-20.833 -112.833 -35.5 -160.5s-32.334 -86 -53.001 -115s-46 -42.5 -76 -40.5c-12 0.666992 -21.833 4.5 -29.5 11.5s-13.334 15.5 -17.001 25.5s-6 20.833 -7 32.5s-1.16699 23.167 -0.5 34.5c2 20.667 5.83301 42.167 11.5 64.5s12.834 44.5 21.501 66.5
s18.334 43.333 29.001 64s21.667 39.667 33 57c12.667 18.667 26.167 36.5 40.5 53.5s29.5 32.833 45.5 47.5c3.33301 29.333 6.16602 58 8.49902 86l6.5 80l5.5 57l4.5 50c-12.667 -24 -24.834 -44.333 -36.501 -61s-23.167 -30.667 -34.5 -42
c-20 -20 -37.833 -32.167 -53.5 -36.5s-28.5 -2.83301 -38.5 4.5s-16.833 19.5 -20.5 36.5s-3.16699 36.5 1.5 58.5c3.33301 16 8.83301 32.333 16.5 49s16.834 32.334 27.501 47.001s22.667 27.5 36 38.5s27.333 18.5 42 22.5c17.333 4.66699 34.166 3.5 50.499 -3.5
s27.166 -18.833 32.499 -35.5c1.33301 -3.33301 0.5 -5.33301 -2.5 -6s-5.16699 0.666016 -6.5 3.99902c-5.33301 11.333 -11.166 19 -17.499 23s-11.833 5.66699 -16.5 5c-16.667 -2 -32.334 -10.833 -47.001 -26.5s-27.5 -34 -38.5 -55s-19.667 -42.5 -26 -64.5
s-8.83301 -40.167 -7.5 -54.5s6.83301 -22.666 16.5 -24.999s24.5 5.83398 44.5 24.501c13.333 12 26.666 28.167 39.999 48.5s27 45.166 41 74.499c-1.33301 2.66699 -0.333008 4.66699 3 6l48 15c4.66699 1.33301 7 -0.333984 7 -5.00098
c-2.66699 -16.667 -5 -36.334 -7 -59.001s-4 -47.667 -6 -75l-6 -64l-6 -68c16.667 12.667 31.834 24.834 45.501 36.501s26.334 24.5 38.001 38.5s22.5 29.833 32.5 47.5s19 38.167 27 61.5zM51.002 -340.002c14.667 17.333 27.502 40.334 38.502 69.001
s20.667 60.667 29 96s15.5 73.166 21.5 113.499s11.333 80.833 16 121.5c-36.667 -35.333 -67.834 -75.166 -93.501 -119.499s-45.834 -90.5 -60.501 -138.5c-3.33301 -11.333 -6.33301 -23.333 -9 -36s-4.66699 -25.334 -6 -38.001s-1.66602 -25 -0.999023 -37
s2.66699 -23 6 -33c4 -10 8.33301 -16.833 13 -20.5s9.5 -4.83398 14.5 -3.50098s10.167 4.33301 15.5 9s10.666 10.334 15.999 17.001z" />
    <glyph glyph-name="h" unicode="h" 
d="M147 797c-11.333 -22.667 -21.501 -49.168 -30.501 -79.501s-16.833 -62.666 -23.5 -96.999s-12.334 -70 -17.001 -107s-9 -73.5 -13 -109.5c37.333 34 69 72.667 95 116s46.333 86 61 128c8 24 14.167 47.167 18.5 69.5s6.5 42.833 6.5 61.5c0 24 -3 42.667 -9 56
s-13.667 20.833 -23 22.5s-19.666 -2.5 -30.999 -12.5s-22.666 -26 -33.999 -48zM363.999 306.999c1.33301 2.66699 3.5 3.33301 6.5 2s3.83301 -3.33301 2.5 -6c-21.333 -56.667 -39.833 -104 -55.5 -142s-29.834 -68.667 -42.501 -92
c-11.333 -21.333 -22.666 -38.5 -33.999 -51.5s-25.666 -20.5 -42.999 -22.5c-20 -2 -34.167 2.83301 -42.5 14.5s-13 27.167 -14 46.5s0.666992 41.333 5 66s9.16602 49 14.499 73s9.83301 46.5 13.5 67.5s4.83398 37.5 3.50098 49.5c-2 15.333 -7.33301 20.333 -16 15
s-18.167 -15 -28.5 -29s-20 -28.667 -29 -44l-17.5 -30l-52 -104c0 -2 -1.33301 -3.66699 -4 -5l-48 -15c-5.33301 -1.33301 -7.33301 0.666992 -6 6c4.66699 25.333 8.83398 55.166 12.501 89.499s7.16699 71.5 10.5 111.5l13 131c4.66699 45.333 10.167 89.5 16.5 132.5
s14.166 83.833 23.499 122.5s20.666 72.167 33.999 100.5s29 50.5 47 66.5s38.667 23 62 21c11.333 -1.33301 20.666 -5 27.999 -11s13.333 -13.667 18 -23s7.83398 -20 9.50098 -32s2.5 -24 2.5 -36c-0.666992 -19.333 -3 -40.333 -7 -63s-10.333 -46.334 -19 -71.001
c-15.333 -44 -36.833 -88.667 -64.5 -134s-61.5 -85.666 -101.5 -120.999c-4.66699 -40.667 -8.16699 -80.667 -10.5 -120s-6.16602 -78.666 -11.499 -117.999l20 41c7.33301 14.667 15 29.167 23 43.5s16.167 28.166 24.5 41.499s16.5 25.333 24.5 36
c8 9.33301 16.5 18.166 25.5 26.499s18 14.333 27 18s17.167 4.33398 24.5 2.00098s13.333 -9.5 18 -21.5c6 -15.333 8.16699 -31 6.5 -47s-3.83398 -31.667 -6.50098 -47c-2.66699 -16 -5.83398 -33 -9.50098 -51s-7 -35.667 -10 -53s-5.5 -33.833 -7.5 -49.5
s-3 -29.5 -3 -41.5c0 -24.667 4.66699 -37 14 -37c7.33301 0 15.5 4.66699 24.5 14s19.167 25 30.5 47c12.667 22.667 26.834 52.834 42.501 90.501s34.167 85.167 55.5 142.5z" />
    <glyph glyph-name="i" unicode="i" horiz-adv-x="179" 
d="M43 453c7.33301 0 13.668 -1.99512 19.001 -5.99512s9.16602 -8.83301 11.499 -14.5s3 -11.834 2 -18.501s-4.16699 -12.334 -9.5 -17.001c-5.33301 -5.33301 -11.166 -8.5 -17.499 -9.5s-12.333 -0.333008 -18 2s-10.5 6.16602 -14.5 11.499s-6 11.666 -6 18.999
c0 9.33301 3.16699 17.166 9.5 23.499s14.166 9.5 23.499 9.5zM179.002 307.005c1.33301 2.66699 3.5 3.50195 6.5 2.50195s3.83301 -3.16699 2.5 -6.5c-2 -6 -5.83301 -14.333 -11.5 -25s-12.334 -22.167 -20.001 -34.5s-16.167 -25 -25.5 -38s-19 -25.5 -29 -37.5
c-34 -40 -61.5 -58 -82.5 -54s-31.5 31 -31.5 81c0 31.333 4 68.666 12 111.999c1.33301 7.33301 2.83301 14.833 4.5 22.5s3.5 15.167 5.5 22.5c0.666992 1.33301 1 2.5 1 3.5s1 1.83301 3 2.5l48 15c5.33301 1.33301 7.33301 -0.666992 6 -6c-6 -26 -11 -51.833 -15 -77.5
s-6.66699 -49.167 -8 -70.5c-1.33301 -26 -0.666016 -44.667 2.00098 -56s7.5 -16.5 14.5 -15.5s15.667 7.33301 26 19s22.5 27.167 36.5 46.5c13.333 18.667 25 36.667 35 54s16.667 30.666 20 39.999z" />
    <glyph glyph-name="j" unicode="j" horiz-adv-x="185" 
d="M185 307c1.33301 2.66699 3.50195 3.50293 6.50195 2.50293s3.83301 -3.16699 2.5 -6.5c-9.33301 -25.333 -19 -47 -29 -65s-21.167 -34 -33.5 -48s-26 -27.167 -41 -39.5l-49.5 -39.5c-5.33301 -57.333 -12.166 -115.333 -20.499 -174s-19.5 -111.834 -33.5 -159.501
s-31.333 -86 -52 -115s-46.334 -42.5 -77.001 -40.5c-12 0.666992 -21.833 4.5 -29.5 11.5s-13.334 15.5 -17.001 25.5s-6 20.833 -7 32.5s-0.833008 23.167 0.5 34.5c1.33301 20.667 5 42.167 11 64.5s13.167 44.5 21.5 66.5s18 43.333 29 64s22.167 39.667 33.5 57
c22.667 35.333 49.667 67.666 81 96.999c3.33301 38 6.33301 76.5 9 115.5s6 77.833 10 116.5c1.33301 8 2.16602 15.833 2.49902 23.5s1.16602 15.5 2.49902 23.5c0 2.66699 1 4 3 4l49 15c1.33301 0.666992 2.83301 0.5 4.5 -0.5s2.16699 -2.5 1.5 -4.5
c-5.33301 -40 -9.33301 -80.5 -12 -121.5s-5.66699 -81.833 -9 -122.5c16.667 12.667 32 25 46 37s26.667 24.667 38 38s21.833 28.666 31.5 45.999s18.834 38 27.501 62zM34.002 453.003c7.33301 0 13.668 -1.99512 19.001 -5.99512s9.16602 -8.83301 11.499 -14.5
s3 -11.834 2 -18.501s-4.16699 -12.334 -9.5 -17.001c-5.33301 -5.33301 -11.166 -8.5 -17.499 -9.5s-12.333 -0.333008 -18 2s-10.5 6.16602 -14.5 11.499s-6 11.666 -6 18.999c0 9.33301 3.16699 17.166 9.5 23.499s14.166 9.5 23.499 9.5zM-125.996 -341.992
c15.333 16 28.667 38.1699 40 66.5029s21.166 60.5 29.499 96.5s15.333 74.5 21 115.5s10.5 82.167 14.5 123.5c-35.333 -34.667 -65.5 -73.834 -90.5 -117.501s-44.5 -88.834 -58.5 -135.501c-3.33301 -11.333 -6.33301 -23.333 -9 -36s-4.66699 -25.334 -6 -38.001
s-1.66602 -25 -0.999023 -37s2.66699 -23 6 -33c6.66699 -16.667 14.5 -24.667 23.5 -24s19.167 7 30.5 19z" />
    <glyph glyph-name="k" unicode="k" horiz-adv-x="315" 
d="M315 307c1.33301 2.66699 3.50488 3.50293 6.50488 2.50293s3.83301 -3.16699 2.5 -6.5c-12 -34 -25.167 -64.667 -39.5 -92s-29.833 -50.666 -46.5 -69.999c-10 -11.333 -21.167 -22.666 -33.5 -33.999s-25.833 -20.5 -40.5 -27.5s-29.834 -10.667 -45.501 -11
s-31.834 4.5 -48.501 14.5c-11.333 7.33301 -22.666 17 -33.999 29l-11 -103c0 -2 -1.33301 -3.66699 -4 -5c-2 0 -5.5 -0.833008 -10.5 -2.5s-10.333 -3.33398 -16 -5.00098l-15.5 -4.5c-4.66699 -1.33301 -7.33398 -2 -8.00098 -2c-2.66699 0 -4 1.66699 -4 5
c1.33301 10 2.66602 22.167 3.99902 36.5s3 30.166 5 47.499c3.33301 30.667 6.83301 65.5 10.5 104.5s8.16699 80.167 13.5 123.5c5.33301 44 11.5 88.833 18.5 134.5s15 90 24 133s19.167 83.5 30.5 121.5s23.833 70.833 37.5 98.5s28.667 49.334 45 65.001
s34.5 22.834 54.5 21.501c12 -1.33301 21.833 -5.33301 29.5 -12s13.667 -14.834 18 -24.501s7.16602 -20.334 8.49902 -32.001s2 -22.834 2 -33.501c-0.666992 -19.333 -3.16699 -40.333 -7.5 -63s-10.833 -46.334 -19.5 -71.001c-15.333 -46 -37.833 -92.667 -67.5 -140
s-65.5 -88.666 -107.5 -123.999c-2.66699 -16 -5 -32.167 -7 -48.5l-6 -47.5c20.667 26 41.167 45 61.5 57s37.833 18.5 52.5 19.5s25.5 -2.83301 32.5 -11.5s7.5 -20.667 1.5 -36c-6 -16.667 -21 -36.834 -45 -60.501s-60.333 -49.834 -109 -78.501
c7.33301 -11.333 15.333 -22.166 24 -32.499s18 -19 28 -26s20.667 -11.833 32 -14.5s23.333 -2.33398 36 0.999023c18 4.66699 34.667 14.667 50 30s29.166 33 41.499 53s23.333 40.833 33 62.5s17.5 41.167 23.5 58.5zM163.005 789.003
c-11.333 -22.667 -21.6631 -49.001 -30.9961 -79.001s-17.833 -62 -25.5 -96s-14.834 -69.5 -21.501 -106.5s-12.334 -74.167 -17.001 -111.5c39.333 34.667 72.666 74.334 99.999 119.001s48.666 89 63.999 133c17.333 48.667 26 92.334 26 131.001c0 26 -3 45.333 -9 58
s-13.5 19.167 -22.5 19.5s-19.167 -5.33398 -30.5 -17.001s-22.333 -28.5 -33 -50.5zM51.0078 266.002l-4 -42.5l-4 -40.5c46.667 28 81.667 53.5 105 76.5s38 42.167 44 57.5s4.33301 25.833 -5 31.5s-23 5.16699 -41 -1.5c-14 -5.33301 -29.167 -14.5 -45.5 -27.5
s-32.833 -30.833 -49.5 -53.5z" />
    <glyph glyph-name="l" unicode="l" horiz-adv-x="227" 
d="M147 777c-12 -25.333 -22.6641 -54 -31.9971 -86s-17.5 -65 -24.5 -99s-13 -68.167 -18 -102.5s-8.83301 -66.5 -11.5 -96.5c36.667 31.333 68.167 66.833 94.5 106.5s47.5 79.5 63.5 119.5c10.667 26.667 18.667 52.5 24 77.5s8.66602 48.167 9.99902 69.5
c1.33301 28.667 -1.33398 50 -8.00098 64s-15.334 21.333 -26.001 22s-22.5 -5.5 -35.5 -18.5s-25.167 -31.833 -36.5 -56.5zM110.003 813c13.333 23.333 28.0068 41.3301 44.0068 53.9971s33.667 17.334 53 14.001c11.333 -2 20.833 -6.66699 28.5 -14
s13.667 -16.333 18 -27s7.16602 -22.5 8.49902 -35.5s1.66602 -26.167 0.999023 -39.5c-1.33301 -21.333 -4.83301 -44.833 -10.5 -70.5s-13.834 -52.167 -24.501 -79.5c-17.333 -42 -40 -83.667 -68 -125s-61.333 -78 -100 -110
c-0.666992 -6.66699 -1.66699 -18.167 -3 -34.5s-2.33301 -35.5 -3 -57.5s-1.16699 -45.167 -1.5 -69.5s0.166992 -47.666 1.5 -69.999s3.66602 -42.166 6.99902 -59.499s8.16602 -29.666 14.499 -36.999s14.333 -8.5 24 -3.5s21.5 18.833 35.5 41.5
c11.333 18.667 22.166 39 32.499 61s20.166 44.667 29.499 68c10.667 27.333 20.667 56.666 30 87.999c1.33301 3.33301 3.5 4.33301 6.5 3s3.83301 -3.33301 2.5 -6c-12 -40 -25.667 -79.167 -41 -117.5s-32.333 -72.5 -51 -102.5c-4.66699 -8 -10.667 -17 -18 -27
s-15.5 -19.167 -24.5 -27.5s-18.5 -14.666 -28.5 -18.999s-20 -4.5 -30 -0.5c-8.66699 3.33301 -16.167 12 -22.5 26s-11.333 32 -15 54s-6.16699 47.667 -7.5 77s-1.33301 61 0 95c0 7.33301 0.166992 14.833 0.5 22.5s0.833008 15.167 1.5 22.5
c2 41.333 5.5 85.166 10.5 131.499s12 92 21 137s19.833 88 32.5 129s28 77.167 46 108.5z" />
    <glyph glyph-name="m" unicode="m" horiz-adv-x="504" 
d="M504 307c1.33301 2.66699 3.50391 3.49609 6.50391 2.49609s3.83301 -3.16699 2.5 -6.5c-21.333 -56.667 -39.833 -104 -55.5 -142s-29.834 -68.667 -42.501 -92l-12 -21c-4.66699 -8 -10 -16 -16 -24s-12.667 -15.333 -20 -22s-15.333 -11.667 -24 -15
c-18.667 -6.66699 -34.334 -2.66699 -47.001 12c-3.33301 4.66699 -6.33301 10.334 -9 17.001s-4.33398 14.667 -5.00098 24c-1.33301 18 0.333984 40.833 5.00098 68.5s9.66699 55.5 15 83.5c5.33301 25.333 9.83301 48.833 13.5 70.5s4.83398 38.167 3.50098 49.5
c-2 15.333 -7.33301 20.333 -16 15s-18.167 -15 -28.5 -29s-20 -28.667 -29 -44l-17.5 -30l-10.5 -20l-18 -35l-17 -34.5c-5 -10.333 -7.5 -16.166 -7.5 -17.499c0 -2.66699 -1 -4.33398 -3 -5.00098l-49 -15c-1.33301 -0.666992 -2.83301 -0.333984 -4.5 0.999023
s-2.16699 3 -1.5 5c0.666992 4 2.66699 12.667 6 26s6.5 28.333 9.5 45s5.66699 33.5 8 50.5s3.16602 30.667 2.49902 41s-3.66699 15.833 -9 16.5s-13.666 -6.66602 -24.999 -21.999c-13.333 -17.333 -26.833 -38.166 -40.5 -62.499s-26.834 -50.5 -39.501 -78.5
c-0.666992 -1.33301 -0.833984 -2.5 -0.500977 -3.5s-0.5 -2.16699 -2.5 -3.5l-1.5 -0.5c-1 -0.333008 -3.16699 -1 -6.5 -2l-14.5 -4.5c-6.33301 -2 -15.5 -4.66699 -27.5 -8c-4 -1.33301 -6 0.666992 -6 6l15.5 102.5l14.5 101.5c1.33301 8.66699 2.5 17 3.5 25
s2.16699 16.333 3.5 25c0 0.666992 1 2 3 4l50 15c3.33301 0 5 -1.66699 5 -5c-1.33301 -12.667 -3.66602 -30 -6.99902 -52l-10 -69l-8 -52c-2.66699 -17.333 -4.66699 -33 -6 -47c7.33301 15.333 16.5 32.833 27.5 52.5s22.667 38.167 35 55.5s24.833 31.833 37.5 43.5
s24.334 17.167 35.001 16.5c10 -0.666992 17 -6.33398 21 -17.001s6 -24 6 -40s-1.33301 -33.167 -4 -51.5s-5.33398 -35.5 -8.00098 -51.5l42 81c15.333 28.667 31 53.334 47 74.001c12.667 15.333 26.667 27.833 42 37.5s28.666 10.834 39.999 3.50098
c7.33301 -5.33301 12.333 -12.833 15 -22.5s4 -20 4 -31s-0.833008 -22 -2.5 -33s-3.16699 -20.167 -4.5 -27.5c-2.66699 -16 -5.83398 -32.667 -9.50098 -50s-7 -34.5 -10 -51.5s-5.5 -33.333 -7.5 -49s-3 -29.167 -3 -40.5c0 -24.667 5 -37 15 -37
c9.33301 0 18.833 6.5 28.5 19.5s18.5 26.833 26.5 41.5c12 22.667 25.833 52.834 41.5 90.501s34.167 85.167 55.5 142.5z" />
    <glyph glyph-name="n" unicode="n" horiz-adv-x="358" 
d="M358 307c1.33301 2.66699 3.50391 3.49805 6.50391 2.49805s3.83301 -3.16699 2.5 -6.5c-21.333 -56.667 -39.833 -104 -55.5 -142s-29.834 -68.667 -42.501 -92l-17.5 -29.5c-6.33301 -10.333 -13.833 -19.5 -22.5 -27.5s-18.334 -13.5 -29.001 -16.5
s-22.667 -1.83301 -36 3.5c-12 4.66699 -19.833 14 -23.5 28s-4.83398 30.667 -3.50098 50s4.16602 40.166 8.49902 62.499s8.83301 44.333 13.5 66s8.5 41.834 11.5 60.501s3.83301 34 2.5 46c-1.33301 10 -4.16602 15.167 -8.49902 15.5
s-9.66602 -2.33398 -15.999 -8.00098s-13 -13.167 -20 -22.5s-13.667 -19 -20 -29l-17 -27.5c-5 -8.33301 -8.16699 -13.833 -9.5 -16.5c-9.33301 -16.667 -18.166 -33.834 -26.499 -51.501l-25.5 -53.5c-0.666992 -1.33301 -1 -2.66602 -1 -3.99902
s-1.33301 -2.33301 -4 -3l-48 -15c-1.33301 -0.666992 -2.83301 -0.5 -4.5 0.5s-2.16699 3.16699 -1.5 6.5c5.33301 34.667 10.166 68.667 14.499 102s9.16602 67 14.499 101c1.33301 10.667 2.66602 20.167 3.99902 28.5s2.33301 15.5 3 21.5c0.666992 2 2 3.33301 4 4
l50 15c3.33301 0 5 -1.66699 5 -5l-8 -52c-3.33301 -22 -6.66602 -45.333 -9.99902 -70c-2.66699 -17.333 -5.16699 -34.666 -7.5 -51.999l-6.5 -47c6 13.333 12.667 27.333 20 42s15 29.167 23 43.5l24.5 42c8.33301 13.667 16.833 25.834 25.5 36.501
s18.334 20.334 29.001 29.001s21 13.834 31 15.501s18.667 -0.833008 26 -7.5s12.333 -19.334 15 -38.001c1.33301 -11.333 0.166016 -28.166 -3.50098 -50.499s-8 -46.333 -13 -72s-9.66699 -51.334 -14 -77.001s-6.5 -46.834 -6.5 -63.501c0 -24.667 5 -37 15 -37
c8.66699 0 17.667 5.66699 27 17s18.666 26 27.999 44c12 22.667 25.833 52.834 41.5 90.501s34.167 85.167 55.5 142.5z" />
    <glyph glyph-name="o" unicode="o" horiz-adv-x="354" 
d="M144 422c3.33301 0.666992 5.50391 -0.499023 6.50391 -3.49902s-0.166992 -4.83301 -3.5 -5.5c-4 -1.33301 -8 -2.83301 -12 -4.5s-7.66699 -3.5 -11 -5.5c-2.66699 -13.333 -3.33398 -28 -2.00098 -44s4.66602 -31.833 9.99902 -47.5s12.5 -30.167 21.5 -43.5
s19.5 -24.333 31.5 -33c9.33301 17.333 17.5 36.666 24.5 57.999s12.167 44.666 15.5 69.999c0.666992 7.33301 1.16699 15.5 1.5 24.5s0 18 -1 27s-3.16699 17.333 -6.5 25s-8 14.167 -14 19.5c-7.33301 6 -14.833 8.83301 -22.5 8.5s-15 -2.5 -22 -6.5
s-13.333 -9.5 -19 -16.5s-9.83398 -14.5 -12.501 -22.5c2 0 4.66699 -0.166992 8 -0.5s5.66602 -0.166016 6.99902 0.500977zM113.004 397.001c-21.333 -10 -37.668 -25.667 -49.001 -47s-18.5 -43.833 -21.5 -67.5s-2.16699 -46.5 2.5 -68.5s12.5 -38.5 23.5 -49.5
s24.833 -14.333 41.5 -10s35.334 20.833 56.001 49.5c2.66699 3.33301 5.16699 6.83301 7.5 10.5l7.5 11.5c-12.667 8.66699 -23.667 19.834 -33 33.501s-17 28.167 -23 43.5s-10 31.166 -12 47.499s-2 31.833 0 46.5zM354.002 307.001
c2.66699 2.66699 4.99805 2.99707 6.99805 0.99707s2.33301 -4.33301 1 -7c-25.333 -36 -49.833 -60.667 -73.5 -74s-45.5 -19 -65.5 -17l-17.5 4c-5.66699 1.33301 -11.167 3.66602 -16.5 6.99902c-16.667 -28 -35.167 -49.667 -55.5 -65s-39.833 -23.666 -58.5 -24.999
s-35.5 4 -50.5 16s-25.167 31.667 -30.5 59c-6 32.667 -4 66.334 6 101.001c8.66699 29.333 23 55 43 77s45.333 34.667 76 38c4 11.333 10 21.666 18 30.999s17.333 16.333 28 21c14 5.33301 26.833 4.5 38.5 -2.5s20.167 -17.167 25.5 -30.5
c4.66699 -12 7.16699 -24.833 7.5 -38.5s-0.166992 -27.167 -1.5 -40.5c-3.33301 -26 -8.66602 -50.167 -15.999 -72.5s-15.666 -42.166 -24.999 -59.499c8.66699 -5.33301 18.667 -8.66602 30 -9.99902c18.667 -2 39 3.33301 61 16s45 36.334 69 71.001z" />
    <glyph glyph-name="p" unicode="p" horiz-adv-x="405" 
d="M-145 -339c16 17.333 30.332 41.002 42.999 71.002s23.834 63.667 33.501 101s18 77.166 25 119.499s13.167 84.166 18.5 125.499c-40 -35.333 -74.167 -76.5 -102.5 -123.5s-50.166 -96.167 -65.499 -147.5c-3.33301 -10 -6.5 -22.167 -9.5 -36.5
s-5.16699 -29.333 -6.5 -45s-1 -30.5 1 -44.5s6.66699 -25.333 14 -34c6.66699 -8 14.167 -10.167 22.5 -6.5s17.166 10.5 26.499 20.5zM404.999 307.002c1.33301 3.33301 3.50195 4.33008 6.50195 2.99707s3.83301 -3.33301 2.5 -6
c-11.333 -30.667 -23.666 -57.167 -36.999 -79.5s-28.333 -41 -45 -56s-35.834 -26.167 -57.501 -33.5s-46.5 -11.333 -74.5 -12c-16 -19.333 -34 -34.833 -54 -46.5s-41 -17.5 -63 -17.5c-16 0 -27.667 4.66699 -35 14s-9.33301 19.333 -6 30s12.166 19.834 26.499 27.501
s34.833 9.83398 61.5 6.50098c4 -0.666992 7.83301 -1.16699 11.5 -1.5s7.16699 -0.5 10.5 -0.5c20 24.667 36.5 52.667 49.5 84s20.5 61.333 22.5 90c0.666992 20.667 -1.66602 36.834 -6.99902 48.501s-12.833 19.167 -22.5 22.5s-20.667 2.5 -33 -2.5
s-24.833 -13.833 -37.5 -26.5c-13.333 -12.667 -26 -26.5 -38 -41.5s-23 -29.5 -33 -43.5c-1.33301 -1.33301 -2.33301 -2 -3 -2v-4c-4 -39.333 -8.66699 -82.666 -14 -129.999s-11.666 -95 -18.999 -143s-16.333 -94.333 -27 -139s-23.334 -84 -38.001 -118
s-31.667 -61 -51 -81s-41.333 -29 -66 -27c-12 0.666992 -21.833 4.5 -29.5 11.5s-13.334 15.5 -17.001 25.5s-6 21 -7 33s-0.833008 23.333 0.5 34c1.33301 20.667 5 42.167 11 64.5s13.167 44.666 21.5 66.999s18 43.833 29 64.5s22.167 39.667 33.5 57
c14 21.333 29.333 41.5 46 60.5s34.667 36.833 54 53.5c3.33301 28 6.33301 55.167 9 81.5s5.33398 51.166 8.00098 74.499c1.33301 10.667 2.33301 20.667 3 30s1.66699 18.666 3 27.999c2.66699 30 5.66699 54 9 72c0 2.66699 1.33301 4.33398 4 5.00098
c1.33301 0.666992 4.5 1.83398 9.5 3.50098s10.333 3.33398 16 5.00098s10.667 3 15 4s6.83301 1.5 7.5 1.5c4 0 5.33301 -1.66699 4 -5c-2 -12.667 -4 -28.5 -6 -47.5l-7 -64.5c9.33301 13.333 19.666 26.666 30.999 39.999s22.666 25.666 33.999 36.999
c19.333 18.667 39 31.334 59 38.001s37.833 7.5 53.5 2.5s28.334 -15.167 38.001 -30.5s13.5 -35.333 11.5 -60c-2 -28 -9.16699 -57.833 -21.5 -89.5s-28.5 -60.167 -48.5 -85.5c34.667 1.33301 64.334 9 89.001 23c21.333 12 40.666 30.167 57.999 54.5
s33.666 56.5 48.999 96.5zM144.001 125.999c-2.66699 0 -5.16602 0.168945 -7.49902 0.501953s-4.83301 0.5 -7.5 0.5c-19.333 2.66699 -34.833 2.16699 -46.5 -1.5s-20.167 -8.83398 -25.5 -15.501c-6 -8 -7.83301 -14.833 -5.5 -20.5s7.83301 -8.83398 16.5 -9.50098
s19.667 2.5 33 9.5s27.666 19.167 42.999 36.5z" />
    <glyph glyph-name="q" unicode="q" horiz-adv-x="362" 
d="M362 307c1.33301 3.33301 3.5 4.3291 6.5 2.99609s3.83301 -3.33301 2.5 -6c-11.333 -31.333 -23.5 -62.666 -36.5 -93.999s-26.667 -61 -41 -89s-29 -52.833 -44 -74.5s-30.167 -38.167 -45.5 -49.5c40.667 -42 67.334 -80.833 80.001 -116.5s17.334 -65.5 14.001 -89.5
c-4 -24 -13 -40.667 -27 -50c-1.33301 -1.33301 -2.83301 -2.16602 -4.5 -2.49902s-3.16699 -1.16602 -4.5 -2.49902l-2 -2c-27.333 -8.66699 -50.5 -7.33398 -69.5 3.99902s-33.167 31 -42.5 59c-2.66699 7.33301 -4.66699 15.333 -6 24l-4 27
c-2.66699 34 -2.66699 73.5 0 118.5s6.5 90.833 11.5 137.5s10.5 91.667 16.5 135s11.333 80 16 110c-12 -23.333 -23.833 -43.166 -35.5 -59.499s-23.167 -30.166 -34.5 -41.499c-19.333 -19.333 -36.666 -31.166 -51.999 -35.499s-28.166 -3.16602 -38.499 3.50098
s-17.5 18 -21.5 34s-4 35 0 57c3.33301 16 8.83301 32.667 16.5 50s16.834 33.5 27.501 48.5s22.667 28 36 39s27.666 18.833 42.999 23.5c17.333 5.33301 34.166 4.66602 50.499 -2.00098s27.166 -18.667 32.499 -36c1.33301 -3.33301 0.5 -5.5 -2.5 -6.5
s-5.16699 0.166992 -6.5 3.5c-2.66699 9.33301 -6.5 16.166 -11.5 20.499s-10.333 6.66602 -16 6.99902s-11.667 -1 -18 -4s-12.5 -6.5 -18.5 -10.5c-22 -16 -39.667 -35.667 -53 -59s-22.5 -46 -27.5 -68s-5.83301 -40.667 -2.5 -56s10.666 -22.5 21.999 -21.5
s26.666 12.333 45.999 34s42.333 58.5 69 110.5l4 3l46 15c4.66699 1.33301 7 -0.666992 7 -6c-1.33301 -5.33301 -2.5 -11.833 -3.5 -19.5s-2.16699 -16.167 -3.5 -25.5l-11 -76.5c-4 -28.333 -7.83301 -57.5 -11.5 -87.5s-7.16699 -60.333 -10.5 -91s-6 -60 -8 -88h1
c14.667 10.667 29.5 26.667 44.5 48s29.667 45.833 44 73.5s28 57.334 41 89.001s24.833 62.5 35.5 92.5zM195 -8.00391c-1.33301 -23.333 -2.33398 -47.501 -3.00098 -72.501s0 -48.5 2 -70.5c2.66699 -36 9.33398 -62.333 20.001 -79s21.667 -25.5 33 -26.5
s21.5 5 30.5 18s13 30.667 12 53s-8.5 48.833 -22.5 79.5s-38 63.334 -72 98.001z" />
    <glyph glyph-name="r" unicode="r" horiz-adv-x="277" 
d="M25 507c-8.66699 -11.333 -17.166 -24.833 -25.499 -40.5s-14.166 -31.667 -17.499 -48s-3.33301 -32 0 -47s12 -27.5 26 -37.5c3.33301 10 7.16602 22.5 11.499 37.5s8.33301 30.833 12 47.5s6.66699 32.5 9 47.5s3.16602 27.5 2.49902 37.5
c-0.666992 5.33301 -1.5 9 -2.5 11s-2.33301 2.83301 -4 2.5s-3.5 -1.5 -5.5 -3.5s-4 -4.33301 -6 -7zM277.001 307c1.33301 3.33301 3.67285 4.33203 7.00586 2.99902s4.33301 -3.33301 3 -6c-18.667 -51.333 -35.667 -95.333 -51 -132s-29.333 -67 -42 -91
c-4 -8 -9.16699 -17.667 -15.5 -29s-13.333 -22 -21 -32s-16.334 -18.5 -26.001 -25.5s-19.834 -10.167 -30.501 -9.5c-11.333 0.666992 -21 6 -29 16s-12.667 23.667 -14 41c-3.33301 28 -2 64.5 4 109.5s15.667 95.833 29 152.5c-7.33301 -2 -18.5 -3.66699 -33.5 -5
s-33.167 1 -54.5 7c-0.666992 0 -1.16699 0.166992 -1.5 0.5s-0.833008 0.5 -1.5 0.5c-19.333 6 -33.166 15.833 -41.499 29.5s-12.833 29 -13.5 46s1.66602 34.5 6.99902 52.5s12.166 34.667 20.499 50s17.5 28.166 27.5 38.499s19 15.833 27 16.5
c14.667 1.33301 23 -10.334 25 -35.001c0.666992 -10 0 -23 -2 -39s-5 -32.333 -9 -49s-8.33301 -33 -13 -49s-8.66699 -29 -12 -39c10 -4 21.833 -6.66699 35.5 -8s27 -2 40 -2h34.5c10 0 16.667 -1 20 -3c2 -1.33301 2.66699 -3.5 2 -6.5s-1.33398 -5.5 -2.00098 -7.5
c-13.333 -57.333 -22.833 -109.166 -28.5 -155.499s-6.83398 -81.166 -3.50098 -104.499c1.33301 -10 3.66602 -16.833 6.99902 -20.5s7.33301 -5 12 -4s9.33398 3.83301 14.001 8.5s9.33398 10.334 14.001 17.001c15.333 22.667 32.666 56.167 51.999 100.5
s40.666 98.833 63.999 163.5z" />
    <glyph glyph-name="s" unicode="s" horiz-adv-x="268" 
d="M268 307c1.33301 3.33301 3.49902 4.17285 6.49902 2.50586s3.83301 -4.16699 2.5 -7.5c-17.333 -36 -38.666 -64.167 -63.999 -84.5s-54 -37.5 -86 -51.5c6 -12 8 -25.833 6 -41.5s-6.83301 -30.334 -14.5 -44.001s-17.334 -24.834 -29.001 -33.501s-24.5 -12 -38.5 -10
c-11.333 1.33301 -20.333 6.16602 -27 14.499s-9.66699 18.166 -9 29.499s5.66699 23.5 15 36.5s24.666 25.167 45.999 36.5c-5.33301 10.667 -11.5 22 -18.5 34l-21.5 37.5c-7.33301 13 -14.166 26.333 -20.499 40s-11.5 27.5 -15.5 41.5
c-4 15.333 -5.83301 30.833 -5.5 46.5s3.83301 31.5 10.5 47.5c9.33301 21.333 22.666 40.166 39.999 56.499s37.666 25.5 60.999 27.5c18.667 2 35.334 -1.66699 50.001 -11s25.334 -22 32.001 -38s8.83398 -34 6.50098 -54s-10.833 -39.667 -25.5 -59
c-2 -2.66699 -4.16699 -3 -6.5 -1s-2.5 4.33301 -0.5 7c17.333 24.667 25 47.167 23 67.5s-9 36.166 -21 47.499s-26.667 17 -44 17s-32.666 -8 -45.999 -24c-20 -24 -30.167 -47.833 -30.5 -71.5s4.33398 -46.834 14.001 -69.501s21.167 -44.167 34.5 -64.5
s23.666 -39.166 30.999 -56.499c31.333 13.333 59.166 29.833 83.499 49.5s44.833 47.167 61.5 82.5zM78.999 145.007c-15.333 -8 -27 -16.3311 -35 -24.998s-13.333 -16.834 -16 -24.501s-3.16699 -14.5 -1.5 -20.5s4.16699 -10.333 7.5 -13
c5.33301 -4 11.333 -3.66699 18 1s12.5 11.667 17.5 21s8.66699 19.666 11 30.999s1.83301 21.333 -1.5 30z" />
    <glyph glyph-name="t" unicode="t" horiz-adv-x="187" 
d="M187 307c1.33301 3.33301 3.50488 4.33496 6.50488 3.00195s3.83301 -3.33301 2.5 -6c-21.333 -57.333 -39.833 -104.833 -55.5 -142.5s-29.834 -68.167 -42.501 -91.5c-17.333 -31.333 -35.5 -52.5 -54.5 -63.5s-34.5 -12.5 -46.5 -4.5
c-6.66699 4.66699 -11.334 14.167 -14.001 28.5s-4.16699 31.166 -4.5 50.499s0.333984 40.333 2.00098 63s3.66699 44.5 6 65.5s4.83301 40.167 7.5 57.5l6 40l14 87.5l13.5 83l12 72.5l9.5 56l-67.5 10c-18.333 2.66699 -34 3 -47 1s-24.333 -7 -34 -15
s-19.5 -20.667 -29.5 -38c-1.33301 -2.66699 -3.5 -3.33398 -6.5 -2.00098s-3.83301 3.66602 -2.5 6.99902c9.33301 18 19.166 31.333 29.499 40s22.666 14.167 36.999 16.5s31.333 2.16602 51 -0.500977l71.5 -10l8.5 59c2.33301 16 2.83301 27 1.5 33
c0 2.66699 1.33301 4.33398 4 5.00098l46 14c4 1.33301 6 0 6 -4c1.33301 -7.33301 0.666016 -21 -2.00098 -41s-6.33398 -44.667 -11.001 -74c26 -4 51.333 -7 76 -9s48 -2 70 0s41.833 6.66699 59.5 14s32.167 19 43.5 35c1.33301 2.66699 3.33301 3 6 1s3 -4.33301 1 -7
c-12 -16.667 -27.167 -29 -45.5 -37s-38.833 -13.167 -61.5 -15.5s-46.834 -2.33301 -72.501 0s-51.5 5.5 -77.5 9.5l-15 -88l-16.5 -99l-17 -102c-5.66699 -34 -10.667 -66.5 -15 -97.5s-7.83301 -59.5 -10.5 -85.5s-4 -48 -4 -66s2.33301 -29.333 7 -34
s10.334 -5 17.001 -1s13.667 10.667 21 20s13.666 19 18.999 29c12.667 23.333 26.834 53.833 42.501 91.5s34.167 84.834 55.5 141.501z" />
    <glyph glyph-name="u" unicode="u" horiz-adv-x="340" 
d="M340 307c0 2.66699 1.83984 3.66699 5.50684 3s4.83398 -2.66699 3.50098 -6l-19 -64l-21 -68c-7.33301 -22.667 -14.833 -44 -22.5 -64s-14.834 -37 -21.501 -51c-9.33301 -19.333 -20 -34.5 -32 -45.5s-23.833 -16.833 -35.5 -17.5s-22.334 4 -32.001 14
s-16.5 26.667 -20.5 50c-2 11.333 -3.33301 24 -4 38s-0.833984 28.167 -0.500977 42.5s1.16602 28.833 2.49902 43.5s2.66602 28.334 3.99902 41.001c-4.66699 -13.333 -10.834 -29.333 -18.501 -48s-16.667 -36.667 -27 -54s-22 -32.166 -35 -44.499
s-26.833 -18.5 -41.5 -18.5c-15.333 0 -25.833 8.83301 -31.5 26.5s-8.5 39.167 -8.5 64.5s1.66699 52.166 5 80.499s6.66602 54.166 9.99902 77.499c1.33301 7.33301 2.66602 15.166 3.99902 23.499s2 16.5 2 24.5c1.33301 2.66699 3 4 5 4l46 14
c4 1.33301 6 -0.333984 6 -5.00098c-0.666992 -5.33301 -1.5 -11.5 -2.5 -18.5l-3.5 -23.5c-0.666992 -6 -2 -15.5 -4 -28.5s-3.83301 -28 -5.5 -45l-5 -53c-1.66699 -18.333 -2.5 -35.333 -2.5 -51s0.833008 -29.334 2.5 -41.001s4.5 -19.167 8.5 -22.5
c7.33301 -5.33301 18 3 32 25c9.33301 12.667 18.333 28.334 27 47.001c10.667 22 19.834 44.667 27.501 68s13.5 43.666 17.5 60.999l4 24c0 2 1.33301 3.66699 4 5c1.33301 0.666992 4.5 1.83398 9.5 3.50098s10.333 3.33398 16 5.00098s10.667 3 15 4
s6.83301 1.5 7.5 1.5c4 0 5.33301 -1.66699 4 -5c-1.33301 -8 -3.16602 -19.667 -5.49902 -35s-4.5 -32.833 -6.5 -52.5l-6 -61.5c-2 -21.333 -3 -41.666 -3 -60.999c0 -7.33301 0.166992 -18.166 0.5 -32.499s2.16602 -27.333 5.49902 -39s8.16602 -19.334 14.499 -23.001
s15.5 1.83301 27.5 16.5c8 10 16.667 26.5 26 49.5s18.5 48 27.5 75s17.333 53.833 25 80.5z" />
    <glyph glyph-name="v" unicode="v" horiz-adv-x="332" 
d="M332 307c1.33301 2.66699 3.3291 3.1709 5.99609 1.50391s3.33398 -3.83398 2.00098 -6.50098c-19.333 -30 -37.666 -52.667 -54.999 -68s-33.666 -25.666 -48.999 -30.999c-27.333 -8.66699 -50.666 -2 -69.999 20c-6 -12.667 -13.833 -28.334 -23.5 -47.001
s-20.5 -36.667 -32.5 -54s-24.5 -32.166 -37.5 -44.499s-25.833 -18.5 -38.5 -18.5s-22.5 5 -29.5 15s-12 22.833 -15 38.5s-4.33301 33.167 -4 52.5s1.33301 38.166 3 56.499s3.66699 35.166 6 50.499s4.16602 27 5.49902 35l4 25l4 24
c1.33301 2.66699 2.66602 4 3.99902 4c2 0 5.5 0.833008 10.5 2.5l15.5 5l14.5 4.5c4.33301 1.33301 7.16602 2 8.49902 2c2.66699 0 4 -1.66699 4 -5c-0.666992 -2.66699 -1.16699 -5.83398 -1.5 -9.50098s-1.16602 -7.83398 -2.49902 -12.501
c-1.33301 -6.66699 -3 -17 -5 -31s-4 -30 -6 -48s-3.83301 -37 -5.5 -57s-2.5 -38.5 -2.5 -55.5s1 -31.833 3 -44.5s5.66699 -20.667 11 -24c4.66699 -3.33301 10.334 -1.83301 17.001 4.5s14.667 15.833 24 28.5c12.667 17.333 24.5 36.333 35.5 57s20.167 38.667 27.5 54
c-11.333 16.667 -18.833 37 -22.5 61s-3.16699 48 1.5 72s13.334 42.833 26.001 56.5s24.667 20.834 36 21.501s19.833 -5.83301 25.5 -19.5s3.5 -35.834 -6.5 -66.501c-4 -13.333 -10.333 -31 -19 -53s-18.667 -45.667 -30 -71c7.33301 -9.33301 16.333 -16 27 -20
s22.334 -4 35.001 0c14 4.66699 29.167 14.5 45.5 29.5s34.166 36.833 53.499 65.5zM164.996 241.004c10.667 23.333 20 45.5 28 66.5s14 37.833 18 50.5c8.66699 28 11 47.667 7 59s-10.5 16.333 -19.5 15s-18.667 -8.33301 -29 -21s-17.5 -29 -21.5 -49
c-4 -22 -4.5 -43.833 -1.5 -65.5s9.16699 -40.167 18.5 -55.5z" />
    <glyph glyph-name="w" unicode="w" horiz-adv-x="485" 
d="M485 307c2.66699 2.66699 5.16797 3.16504 7.50098 1.49805s2.83301 -3.83398 1.5 -6.50098c-10 -16.667 -21 -32.5 -33 -47.5s-24.5 -27.5 -37.5 -37.5s-26.167 -16.667 -39.5 -20s-26.666 -2 -39.999 4c-10 5.33301 -18 12 -24 20l-18.5 -37.5
c-6.33301 -12.333 -13.166 -24.166 -20.499 -35.499c-10.667 -17.333 -21.334 -32.833 -32.001 -46.5s-21.334 -24.167 -32.001 -31.5l-4 -2c-9.33301 -6 -17.333 -9 -24 -9c-18.667 0 -31.334 9.83301 -38.001 29.5s-10 43.5 -10 71.5c0 21.333 1.16699 44.166 3.5 68.499
s5.16602 47.166 8.49902 68.499c-9.33301 -26.667 -19.833 -55 -31.5 -85s-24 -57.167 -37 -81.5s-26 -43.833 -39 -58.5s-25.167 -20 -36.5 -16c-8.66699 2.66699 -14.834 13 -18.501 31s-5.5 39.5 -5.5 64.5s1.5 51.5 4.5 79.5s6.5 53.333 10.5 76l4 18.5l4 19.5
c0 2 1 3.66699 3 5l47 14c5.33301 1.33301 7.33301 -0.666992 6 -6c-2 -8.66699 -4.66699 -22.667 -8 -42s-6.66602 -40.333 -9.99902 -63s-5.83301 -45.167 -7.5 -67.5s-2 -40.833 -1 -55.5s4.16699 -23.334 9.5 -26.001s13.333 4.33301 24 21
c13.333 20.667 25.5 44.334 36.5 71.001s20.5 51.834 28.5 75.501s14.333 43.834 19 60.501s7.33398 25.334 8.00098 26.001s1 1.16699 1 1.5s0.666992 0.833008 2 1.5s4.5 1.83398 9.5 3.50098l15.5 5c5.33301 1.66699 10.333 3 15 4s7.66699 1.5 9 1.5
c2.66699 -1.33301 3.66699 -3.33301 3 -6c-2 -8.66699 -4.83301 -24.834 -8.5 -48.501s-7 -49.334 -10 -77.001s-5 -54.5 -6 -80.5s0.833008 -45.667 5.5 -59s12.667 -17.5 24 -12.5s27.333 24.5 48 58.5c8 13.333 15.667 27 23 41s13.666 26.667 18.999 38
c-11.333 16.667 -18.833 36.834 -22.5 60.501s-3.16699 47.167 1.5 70.5s13 42 25 56s23.667 22 35 24s20 -3 26 -15s5.66699 -32 -1 -60c-3.33301 -14 -9.66602 -33.167 -18.999 -57.5s-20.666 -50.166 -33.999 -77.499c8 -10.667 17.5 -18 28.5 -22
s23.167 -3.66699 36.5 1c14 4.66699 29.167 14.667 45.5 30s33.166 38 50.499 68zM318.001 239.998c12 25.333 22.335 49.5 31.002 72.5s14.667 41.167 18 54.5c6.66699 26 7.66699 43.667 3 53s-11.334 12.5 -20.001 9.5s-17.834 -11 -27.501 -24
s-16.5 -28.833 -20.5 -47.5c-4.66699 -21.333 -5.5 -42.5 -2.5 -63.5s9.16699 -39.167 18.5 -54.5z" />
    <glyph glyph-name="x" unicode="x" 
d="M364 307c1.33301 3.33301 3.50195 4.33887 6.50195 3.00586s3.83301 -3.33301 2.5 -6c-20.667 -58.667 -40.167 -106.5 -58.5 -143.5s-36.166 -65.833 -53.499 -86.5c-9.33301 -11.333 -19.666 -21.5 -30.999 -30.5s-24.333 -15.5 -39 -19.5
c-12.667 -3.33301 -24.5 -4 -35.5 -2s-21.167 6 -30.5 12s-18 13.333 -26 22s-15.333 18 -22 28c-11.333 -13.333 -20.833 -26 -28.5 -38s-13.167 -24.333 -16.5 -37c-1.33301 -3.33301 -3.5 -4.5 -6.5 -3.5s-4.16699 3.16699 -3.5 6.5
c3.33301 13.333 9.5 26.666 18.5 39.999s19.5 27 31.5 41c-6.66699 10 -12.5 20.667 -17.5 32l-14.5 34c-6.66699 17.333 -12.5 34.333 -17.5 51s-9.16699 31.834 -12.5 45.501s-5.83301 25 -7.5 34s-2.5 14.167 -2.5 15.5v2c0 1.33301 1 2.66602 3 3.99902l44 13
c2 1.33301 3.66699 1.16602 5 -0.500977s1.66602 -3.16699 0.999023 -4.5c0 -2 1 -9.16699 3 -21.5s5.16699 -27.666 9.5 -45.999s9.66602 -38.166 15.999 -59.499s13.833 -42 22.5 -62l39.5 45.5c13.667 16.333 26.667 33.666 39 51.999s23.5 38.166 33.5 59.499
s18 44.666 24 69.999c1.33301 3.33301 3.5 4.66602 6.5 3.99902s4.16699 -2.66699 3.5 -6c-6.66699 -26 -15.334 -50.167 -26.001 -72.5s-22.334 -43 -35.001 -62s-26 -36.833 -40 -53.5l-40 -47c8.66699 -18.667 18.167 -34.834 28.5 -48.501s21.833 -23.167 34.5 -28.5
c12 -5.33301 24.833 -5.33301 38.5 0s28.167 17.666 43.5 36.999c16 20 33.167 48.167 51.5 84.5s37.833 83.833 58.5 142.5z" />
    <glyph glyph-name="y" unicode="y" horiz-adv-x="388" 
d="M388 307c2.66699 3.33301 5.00488 4.33496 7.00488 3.00195s3 -3.33301 3 -6c-7.33301 -20.667 -16.333 -39.334 -27 -56.001s-22.334 -32 -35.001 -46s-26.334 -27.333 -41.001 -40l-46 -38c-1.33301 -1.33301 -4 -3.33301 -8 -6
c-4 -39.333 -8.83301 -79.166 -14.5 -119.499s-12.167 -79 -19.5 -116s-16 -71.667 -26 -104s-21.333 -60.333 -34 -84s-27 -41.834 -43 -54.501s-33.667 -18.334 -53 -17.001c-12 0.666992 -21.667 4.5 -29 11.5s-12.833 15.5 -16.5 25.5s-6 20.833 -7 32.5
s-1.16699 23.167 -0.5 34.5c2 24 7.66699 51.667 17 83c10 33.333 21.333 63.5 34 90.5s26 51.167 40 72.5s28.833 40.666 44.5 57.999s31.5 33.333 47.5 48c4.66699 43.333 8.5 85.166 11.5 125.499l8.5 111.5c1.33301 9.33301 2.16602 18.5 2.49902 27.5
s0.833008 17.5 1.5 25.5c-22.667 -55.333 -44.667 -99.166 -66 -131.499s-40.666 -54.833 -57.999 -67.5c-17.333 -12 -32.333 -15.5 -45 -10.5s-22.334 17.167 -29.001 36.5c-9.33301 26.667 -11.666 63.667 -6.99902 111c4 41.333 13.333 87.666 28 138.999l3 4l50 15
c3.33301 0 5 -2 5 -6c-4 -13.333 -8.5 -32.166 -13.5 -56.499s-9.33301 -50 -13 -77s-5.83398 -52.833 -6.50098 -77.5s1.66602 -43.334 6.99902 -56.001c3.33301 -7.33301 8.33301 -10.5 15 -9.5s16.667 9.16699 30 24.5c15.333 18.667 31.666 43.834 48.999 75.501
s35.333 71.167 54 118.5v6c0 2 1.33301 3.33301 4 4l48 15c4 1.33301 6 -0.666992 6 -6c-1.33301 -11.333 -2.5 -24.333 -3.5 -39s-2.16699 -30.667 -3.5 -48c-2 -28.667 -4.33301 -60.167 -7 -94.5s-5.66699 -70.166 -9 -107.499l44.5 37.5
c14.333 12.333 27.833 25.5 40.5 39.5s24 29 34 45s18.667 34 26 54zM108.005 -273.998c8.66699 20.667 16.666 44.168 23.999 70.501s13.833 54 19.5 83s10.834 59.167 15.501 90.5s8.66699 62.666 12 93.999c-29.333 -28 -57.833 -62 -85.5 -102
s-50.834 -91.667 -69.501 -155c-3.33301 -11.333 -6.5 -24 -9.5 -38s-5.16699 -27.667 -6.5 -41c-0.666992 -6 -1 -13 -1 -21s0.666992 -16 2 -24s3.33301 -15.667 6 -23s6.33398 -13 11.001 -17c7.33301 -6 15.333 -5.83301 24 0.5s17 14.833 25 25.5s15 21.667 21 33
s10 19.333 12 24z" />
    <glyph glyph-name="z" unicode="z" horiz-adv-x="259" 
d="M259 307c2 2 4.32617 2.00488 6.99316 0.00488281c1.33301 -1.33301 2 -2.66602 2 -3.99902s-0.666992 -2.33301 -2 -3l-34 -28l-35 -29l-38 -32l-43 -38c15.333 -27.333 23.5 -58 24.5 -92s-4 -67.333 -15 -100s-27.167 -62.667 -48.5 -90s-46.333 -48.333 -75 -63
c-13.333 -6.66699 -26.333 -9.33398 -39 -8.00098s-23.667 5.5 -33 12.5s-16.5 16.5 -21.5 28.5s-6.83301 25.333 -5.5 40c2.66699 26 13.834 54.5 33.501 85.5s43.834 62.167 72.501 93.5l34.5 36l35.5 35c-7.33301 12 -17.166 20.667 -29.499 26s-26.833 6.33301 -43.5 3
c-2.66699 -0.666992 -4.66699 0.166016 -6 2.49902s-1 4.5 1 6.5c19.333 19.333 37.166 39.833 53.499 61.5s24.5 45.5 24.5 71.5c0 17.333 -3.5 27.166 -10.5 29.499s-14.667 0.833008 -23 -4.5s-16.333 -13 -24 -23s-12.167 -18.333 -13.5 -25
c-1.33301 -3.33301 -3.66602 -4.5 -6.99902 -3.5s-4.33301 3.16699 -3 6.5c0.666992 1.33301 1 2.16602 1 2.49902s0.333008 1.16602 1 2.49902c6.66699 17.333 17.334 31.333 32.001 42s29.334 17 44.001 19s27.5 -0.5 38.5 -7.5s16.5 -19.833 16.5 -38.5
c0 -8 -1.83301 -17.167 -5.5 -27.5s-8.66699 -20.833 -15 -31.5s-13.666 -20.834 -21.999 -30.501s-17.166 -17.5 -26.499 -23.5c18.667 -2 34.667 -11.667 48 -29l43.5 39l37.5 32l34.5 28.5zM83.9932 143.005l-35 -34.499l-33 -34.5c-28 -31.333 -52 -62.166 -72 -92.499
s-30.667 -57.833 -32 -82.5c-0.666992 -9.33301 0.5 -19 3.5 -29s8.16699 -17.667 15.5 -23c10.667 -7.33301 23 -7.83301 37 -1.5s28 17.166 42 32.499s27.167 34 39.5 56s22.5 45.167 30.5 69.5s12.667 48.666 14 72.999s-2 46.5 -10 66.5z" />
    <glyph glyph-name="braceleft" unicode="{" horiz-adv-x="231" 
d="M266 638c-19.333 -5.33301 -33.8301 -15.499 -43.4971 -30.499s-16.834 -32.833 -21.501 -53.5s-8 -43.167 -10 -67.5s-5.16699 -48.5 -9.5 -72.5s-11 -46.667 -20 -68s-22.5 -39.333 -40.5 -54c11.333 -11.333 20 -24.166 26 -38.499s10.167 -29.666 12.5 -45.999
s3.33301 -33.333 3 -51s-0.833008 -35.167 -1.5 -52.5c-0.666992 -18.667 -1.16699 -36.667 -1.5 -54s1 -33 4 -47s8.16699 -26 15.5 -36s18 -17 32 -21c3.33301 -1.33301 4.83301 -3.16602 4.5 -5.49902s-1.83301 -3.83301 -4.5 -4.5
c-33.333 -3.33301 -56.5 3.5 -69.5 20.5s-21.167 39.833 -24.5 68.5c-2 20 -2.66699 42.667 -2 68s0.166992 50.666 -1.5 75.999s-6.33398 49 -14.001 71s-20.834 39.333 -39.501 52c14.667 10.667 26.5 23 35.5 37s16.333 29 22 45s10 32.667 13 50l8.5 51
c4 23.333 8.16699 45.666 12.5 66.999s10.833 40.166 19.5 56.499s20.5 29 35.5 38s34.5 12.5 58.5 10.5c3.33301 0 5 -1.33301 5 -4s-1.33301 -4.33398 -4 -5.00098z" />
    <glyph glyph-name="bar" unicode="|" horiz-adv-x="155" 
d="M58 629c0 5.33301 1.66699 9.33301 5 12s7 4 11 4s7.66699 -1.33301 11 -4s5 -6.66699 5 -12v-665c0 -5.33301 -1.66699 -9.33301 -5 -12s-7 -4 -11 -4s-7.66699 1.33301 -11 4s-5 6.66699 -5 12v665z" />
    <glyph glyph-name="braceright" unicode="}" horiz-adv-x="272" 
d="M15 -63c-3.33301 0 -5.16406 1.33105 -5.49707 3.99805s1.16699 4.33398 4.5 5.00098c14.667 4 26.5 11 35.5 21s16.167 22.167 21.5 36.5s9.33301 30.166 12 47.499s5 35.333 7 54c2 17.333 4.16699 34.833 6.5 52.5s6 34.834 11 51.501s11.333 32.167 19 46.5
s18.167 26.833 31.5 37.5c-11.333 10.667 -19.833 23.167 -25.5 37.5s-9.66699 29.666 -12 45.999s-3.33301 33.333 -3 51s0.833008 35.167 1.5 52.5c0.666992 18.667 1 36.667 1 54s-1.5 33 -4.5 47s-8.16699 26 -15.5 36s-18 17 -32 21
c-2.66699 1.33301 -3.83398 3.16602 -3.50098 5.49902s1.83301 3.83301 4.5 4.5c32.667 4 55.667 -2.66699 69 -20s21.666 -40.333 24.999 -69c2 -20 2.66699 -42.667 2 -68s-0.166992 -50.666 1.5 -75.999s6.16699 -49 13.5 -71s20.666 -39.333 39.999 -52
c-14.667 -10.667 -26.5 -23 -35.5 -37s-16.333 -29 -22 -45s-10 -32.667 -13 -50l-8.5 -51c-4 -23.333 -8.16699 -45.666 -12.5 -66.999s-10.833 -40.166 -19.5 -56.499s-20.5 -29 -35.5 -38s-34.5 -12.5 -58.5 -10.5z" />
    <glyph glyph-name="asciitilde" unicode="~" horiz-adv-x="503" 
d="M408 172c-16 -10 -31.332 -17.001 -45.999 -21.001s-29 -6 -43 -6s-27.667 1.5 -41 4.5s-26.666 6.16699 -39.999 9.5c-21.333 5.33301 -43 9.83301 -65 13.5s-46 2.83398 -72 -2.49902c16 10 31.5 16.833 46.5 20.5s29.5 5.5 43.5 5.5s27.667 -1.5 41 -4.5
s26.666 -6.16699 39.999 -9.5c20.667 -5.33301 42.167 -9.83301 64.5 -13.5s46.166 -2.5 71.499 3.5z" />
    <glyph glyph-name="uniE000" unicode="&#xe000;" horiz-adv-x="341" 
d="M197 399c1.33301 -2.66699 0.332031 -4.66406 -3.00098 -5.99707c-3.33301 0 -5.33301 1.33301 -6 4c-6.66699 14.667 -15.167 23.5 -25.5 26.5s-21.833 -0.5 -34.5 -10.5c-13.333 -10 -25.5 -26 -36.5 -48s-20.5 -45.667 -28.5 -71s-13.667 -50.5 -17 -75.5
s-4 -45.833 -2 -62.5s7.16699 -27.167 15.5 -31.5s20.5 1.83398 36.5 18.501c12.667 12.667 25.5 28.5 38.5 47.5s26.5 42.5 40.5 70.5l4 22l4 23c0.666992 2 3.5 3.66699 8.5 5s10.667 2.16602 17 2.49902s12.5 0.166016 18.5 -0.500977s10.333 -1.66699 13 -3
c-4 -17.333 -7.5 -34 -10.5 -50s-5.16699 -31.333 -6.5 -46c-2.66699 -26 -4.83398 -55 -6.50098 -87s-1.33398 -64.333 0.999023 -97s7.66602 -63.834 15.999 -93.501s21 -55.167 38 -76.5s39.167 -37 66.5 -47s61.666 -11.333 102.999 -4c12.667 2 25.167 6.66699 37.5 14
s23.833 16.166 34.5 26.499s19.834 21.666 27.501 33.999s13.5 24.833 17.5 37.5c-13.333 0 -25.333 2.33301 -36 7c-13.333 5.33301 -21.5 11.833 -24.5 19.5s-2.83301 14.834 0.5 21.501s9 12 17 16s16 5.5 24 4.5s15 -5.66699 21 -14s9 -21.5 9 -39.5v-5l20.5 2.5
c8.33301 1 23.5 4.16699 45.5 9.5c18.667 4 37.834 7.33301 57.501 10s38.5 3.5 56.5 2.5s34.833 -4.33301 50.5 -10s28.834 -14.834 39.501 -27.501c2 -2.66699 1.66699 -5 -1 -7s-5 -1.66699 -7 1c-10 12 -22.167 20.5 -36.5 25.5s-30.166 7.83301 -47.499 8.5
s-35.333 -0.333008 -54 -3s-37 -6 -55 -10c-2.66699 -0.666992 -5.5 -1.16699 -8.5 -1.5s-7 -1 -12 -2s-11.333 -2.16699 -19 -3.5s-17.834 -3 -30.501 -5c-6.66699 -29.333 -22 -54.666 -46 -75.999s-50.333 -36.333 -79 -45c-26 -8 -52.5 -11 -79.5 -9
s-52.167 10 -75.5 24c-39.333 24 -67.833 53.167 -85.5 87.5s-29.167 70.666 -34.5 108.999s-6.66602 76.833 -3.99902 115.5s4.66699 73.667 6 105c-11.333 -21.333 -22.666 -40 -33.999 -56s-22.333 -29.333 -33 -40c-16.667 -16.667 -32 -27.667 -46 -33
s-26.333 -6.33301 -37 -3c-10 2.66699 -18 7.5 -24 14.5s-10.5 15 -13.5 24s-5 18.667 -6 29s-1.5 20.166 -1.5 29.499c0 16 2.16699 33.5 6.5 52.5s10.5 38.167 18.5 57.5c11.333 28 26.333 53.833 45 77.5s39.667 40.834 63 51.501c8 3.33301 16.667 5.16602 26 5.49902
s18.166 -1.16699 26.499 -4.5s15.833 -8.16602 22.5 -14.499s11.334 -14.166 14.001 -23.499zM558.999 -68.9971c0.666992 1.33301 0.999023 3.00391 0.999023 5.00391c0.666992 14 -1.16602 24.5 -5.49902 31.5s-9.5 11.167 -15.5 12.5s-12 0.666016 -18 -2.00098
s-10.5 -6.33398 -13.5 -11.001s-3.33301 -9.83398 -1 -15.501s8.5 -10.834 18.5 -15.501c10 -3.33301 21 -5 33 -5h1z" />
    <glyph glyph-name="uniE001" unicode="&#xe001;" horiz-adv-x="383" 
d="M383 307c0.666992 2.66699 2.66211 3.67285 5.99512 3.00586c3.33301 0 4.33301 -2 3 -6c-10 -29.333 -22 -57.5 -36 -84.5s-30.667 -51.167 -50 -72.5c-16.667 -19.333 -35.334 -35.833 -56.001 -49.5s-43.667 -24.167 -69 -31.5c-14 -19.333 -28.667 -34.833 -44 -46.5
s-30.666 -17.5 -45.999 -17.5c-8.66699 0 -15.167 1.83301 -19.5 5.5s-7 8 -8 13s-0.166992 10.333 2.5 16s7 10.5 13 14.5c5.33301 3.33301 11.666 6.16602 18.999 8.49902s15.333 4.16602 24 5.49902c20 25.333 36.5 53.166 49.5 83.499s22.167 61.166 27.5 92.499
c6 34 6.66699 59.167 2 75.5s-12 25.166 -22 26.499s-22 -4.33398 -36 -17.001s-27.667 -31.334 -41 -56.001l-24.5 -47c-8.33301 -16.667 -16.5 -34 -24.5 -52l-21 -45c-2 -1.33301 -5.5 -3.33301 -10.5 -6s-10.333 -5.33398 -16 -8.00098s-11 -5 -16 -7
s-8.16699 -2.66699 -9.5 -2c-4.66699 0 -6 1.66699 -4 5c2 11.333 4 27 6 47s4 41.5 6 64.5l6 68.5c2 22.667 3.66699 42.667 5 60c-25.333 -17.333 -51.166 -34.166 -77.499 -50.499s-51.166 -34 -74.499 -53s-44.333 -40.167 -63 -63.5s-33 -51 -43 -83
c-8 -26 -11.667 -52.667 -11 -80s7.66699 -52 21 -74c7.33301 -13.333 16.5 -24.166 27.5 -32.499s23.167 -12.5 36.5 -12.5c3.33301 0 5 -1.66699 5 -5s-1.66699 -5 -5 -5c-15.333 0 -29.166 4.83301 -41.499 14.5s-22.833 21.5 -31.5 35.5
c-13.333 23.333 -20.5 49.166 -21.5 77.499s2.83301 56.5 11.5 84.5c10.667 33.333 25.667 62.166 45 86.499s41.166 46.333 65.499 66s50.166 37.834 77.499 54.501s54 34 80 52c3.33301 39.333 7.5 79.666 12.5 120.999s11.167 81.666 18.5 120.999
s15.833 76.166 25.5 110.499s20.834 64.333 33.501 90s27.334 45.667 44.001 60s35.667 20.833 57 19.5c14 -1.33301 25 -6 33 -14s14 -18 18 -30s6.16699 -24.833 6.5 -38.5s0.166016 -26.167 -0.500977 -37.5c-1.33301 -23.333 -5.5 -48.666 -12.5 -75.999
s-16.667 -55.333 -29 -84s-27.166 -57.167 -44.499 -85.5s-37 -54.833 -59 -79.5l-22 -23c-7.33301 -7.33301 -15 -14.333 -23 -21l-11 -119l-5.5 -63c-1.66699 -19.333 -3.5 -36.666 -5.5 -51.999l34.5 73c11.667 24 23.834 45.667 36.501 65s26.167 34.833 40.5 46.5
s30.5 17.5 48.5 17.5c14.667 0 26.334 -3.5 35.001 -10.5s15 -15.833 19 -26.5s6.16699 -22.5 6.5 -35.5s-0.166992 -25.5 -1.5 -37.5c-3.33301 -28.667 -11.166 -58.5 -23.499 -89.5s-26.166 -58.5 -41.499 -82.5c25.333 8.66699 48.166 20.834 68.499 36.501
s38.166 33.5 53.499 53.5s28.833 41.833 40.5 65.5s21.834 47.834 30.501 72.501zM135.995 785.006c-10 -23.333 -19 -49.6689 -27 -79.002s-15.167 -60.5 -21.5 -93.5s-11.833 -67 -16.5 -102s-8.66699 -69.5 -12 -103.5c26 23.333 49.667 50 71 80s39.833 61 55.5 93
s28 63.833 37 95.5s14.5 60.5 16.5 86.5c2 28.667 0.166992 51.334 -5.5 68.001s-13.667 26.334 -24 29.001s-22 -2 -35 -14s-25.833 -32 -38.5 -60zM112.995 53.0029c-2.66699 0 -6.50098 -0.667969 -11.501 -2.00098s-9.66699 -3.33301 -14 -6s-8.16602 -6 -11.499 -10
s-4.33301 -8.33301 -3 -13c0.666992 -2.66699 3 -2.66699 7 0s8.33301 6.33398 13 11.001l13 13z" />
    <glyph glyph-name="uniE002" unicode="&#xe002;" horiz-adv-x="245" 
d="M245 307c2 2.66699 4.33496 3.33398 7.00195 2.00098s3.33398 -3.33301 2.00098 -6c-13.333 -28 -29 -53.5 -47 -76.5s-37 -43.167 -57 -60.5s-40.333 -30.833 -61 -40.5s-40 -14.167 -58 -13.5c-14 0 -25.167 3.33301 -33.5 10s-14.666 15.167 -18.999 25.5
s-7 21.666 -8 33.999s-0.833008 24.5 0.5 36.5c-19.333 -3.33301 -38.833 -7 -58.5 -11s-38 -10 -55 -18s-32.333 -19.167 -46 -33.5s-24.5 -33.833 -32.5 -58.5c-8 -26 -11.667 -52.667 -11 -80s7.66699 -52 21 -74c7.33301 -12.667 16.5 -23.334 27.5 -32.001
s23.167 -13 36.5 -13c3.33301 0 5 -1.66699 5 -5s-1.66699 -5 -5 -5c-15.333 0 -29.166 4.83301 -41.499 14.5s-22.833 21.834 -31.5 36.501c-13.333 23.333 -20.5 49 -21.5 77s2.83301 56 11.5 84c8.66699 26 20.167 46.667 34.5 62s30.5 27.166 48.5 35.499
s37.333 14.5 58 18.5l61 12c2 14.667 5.16699 29.834 9.5 45.501s9.5 30.834 15.5 45.501s12.833 28.5 20.5 41.5s15.5 24.5 23.5 34.5c13.333 15.333 26.666 23.833 39.999 25.5s24.5 -1.83301 33.5 -10.5s14.5 -21.667 16.5 -39s-2 -37.333 -12 -60
s-22.833 -39.834 -38.5 -51.501s-33.167 -20.834 -52.5 -27.501c-4.66699 -30 -4.83398 -53.167 -0.500977 -69.5s11.833 -26.5 22.5 -30.5s24.167 -2.33301 40.5 5s34.166 19.333 53.499 36c19.333 17.333 37.666 37.333 54.999 60s32.666 47.334 45.999 74.001z
M55.002 323c-5.33301 -12.667 -10.168 -25.834 -14.501 -39.501s-7.83301 -27.167 -10.5 -40.5c17.333 6 32.833 14.667 46.5 26s24.834 26.666 33.501 45.999c8 18 11.833 33.833 11.5 47.5s-3.33301 22.334 -9 26.001s-13.5 0.833984 -23.5 -8.49902
s-21.333 -28.333 -34 -57z" />
    <glyph glyph-name="uniE003" unicode="&#xe003;" horiz-adv-x="351" 
d="M90 205c14 14.667 28.4961 32.9941 43.4961 54.9941s29.833 48 44.5 78c0 3.33301 0.166992 7 0.5 11s0.833008 7.66699 1.5 11c0 2.66699 -1 5.83398 -3 9.50098s-3.66699 6.5 -5 8.5c-9.33301 15.333 -19.833 22.5 -31.5 21.5s-23.167 -7.16699 -34.5 -18.5
s-22.166 -26.166 -32.499 -44.499s-19.166 -37.166 -26.499 -56.499s-12.666 -37.666 -15.999 -54.999s-3.83301 -30.666 -1.5 -39.999s8.33301 -13.166 18 -11.499s23.834 12.167 42.501 31.5zM831.996 -84.0059c2 -2.66699 1.99805 -4.99805 -0.00195312 -6.99805
c-2.66699 -1.33301 -5 -1 -7 1c-11.333 14 -25.833 23.333 -43.5 28s-36.667 6.83398 -57 6.50098s-41.333 -2.66602 -63 -6.99902l-61.5 -12.5c-7.33301 -1.33301 -14.166 -2.5 -20.499 -3.5s-12.5 -1.5 -18.5 -1.5c-3.33301 -21.333 -16 -44 -38 -68
c-18.667 -20 -41.667 -36 -69 -48c-28.667 -11.333 -57.667 -16 -87 -14c-39.333 4 -71.666 15.833 -96.999 35.5s-45.5 44.167 -60.5 73.5s-25.667 62 -32 98s-10.166 72.667 -11.499 110s-0.833008 73.666 1.5 108.999s4.83301 67 7.5 95
c-13.333 -25.333 -26.5 -47.166 -39.5 -65.499s-25.833 -34.166 -38.5 -47.499c-17.333 -18 -33.833 -30.667 -49.5 -38s-28.834 -9.33301 -39.501 -6c-16 4.66699 -26.167 15.667 -30.5 33s-3.83301 37.666 1.5 60.999c2 9.33301 4.83301 19 8.5 29s7.83398 20 12.501 30
c11.333 23.333 25.833 44.666 43.5 63.999s37.167 32.333 58.5 39c15.333 4.66699 30.666 4.5 45.999 -0.5s26.666 -14.833 33.999 -29.5c5.33301 47.333 11.666 94.166 18.999 140.499s16.666 89.166 27.999 128.499c7.33301 26 15.5 50 24.5 72s19 40.667 30 56
s23.167 27 36.5 35s28 11.333 44 10c16.667 -1.33301 28.334 -8 35.001 -20s9.33398 -27 8.00098 -45c-1.33301 -28 -9.33301 -60.333 -24 -97c-13.333 -35.333 -32 -72.833 -56 -112.5s-52 -78.5 -84 -116.5c-6 -36 -11.167 -75 -15.5 -117s-7.16602 -84.667 -8.49902 -128
s-0.5 -86 2.5 -128s8.83301 -80.667 17.5 -116c9.33301 -36 25.333 -66.333 48 -91c20 -22 44.167 -37.167 72.5 -45.5s58.5 -5.83301 90.5 7.5c26 10 48 25 66 45c20 22 31.667 42.667 35 62c-20.667 0 -36 3.66699 -46 11s-15.833 15.333 -17.5 24s0.333008 16.667 6 24
s13.5 11 23.5 11c9.33301 0 17.5 -2.83301 24.5 -8.5s12.5 -12.834 16.5 -21.501c3.33301 -7.33301 5 -17.333 5 -30c6 0 12 0.5 18 1.5l20 3.5l63 12.5c22 4.33301 43.5 6.5 64.5 6.5s40.5 -2.66699 58.5 -8s33 -15.333 45 -30zM245.994 448.996
c28.667 36 54 72.5 76 109.5s39.333 72.167 52 105.5c16 42 23.667 74.667 23 98s-6.16699 36.333 -16.5 39s-23.5 -5.33301 -39.5 -24s-31 -49 -45 -91c-6.66699 -20 -12.667 -40.667 -18 -62s-10 -42.5 -14 -63.5s-7.5 -41.167 -10.5 -60.5s-5.5 -36.333 -7.5 -51z
M552.994 -71.0039c0.666992 10.667 -0.832031 19.834 -4.49902 27.501s-8.33398 13.5 -14.001 17.5s-11.5 6.16699 -17.5 6.5s-11 -1.83398 -15 -6.50098c-3.33301 -4 -5 -8.5 -5 -13.5s2 -9.83301 6 -14.5s10 -8.66699 18 -12s18.667 -5 32 -5z" />
    <glyph glyph-name="uniE004" unicode="&#xe004;" horiz-adv-x="231" 
d="M74 326c-3.33301 -6.66699 -6.5 -13.3311 -9.5 -19.998l-8.5 -19c12.667 8.66699 23.667 18 33 28c10 11.333 17.667 23.666 23 36.999s7.5 22.833 6.5 28.5s-5.16699 5.16699 -12.5 -1.5s-18 -24.334 -32 -53.001zM231 307.003
c1.33301 3.33301 3.49512 4.33594 6.49512 3.00293s3.83301 -3.66602 2.5 -6.99902c-7.33301 -15.333 -17.666 -33.833 -30.999 -55.5s-28.5 -42.667 -45.5 -63s-35.333 -37.666 -55 -51.999s-39.167 -21.166 -58.5 -20.499c-16.667 0.666992 -29.5 5.5 -38.5 14.5
s-15.167 20.167 -18.5 33.5s-4.66602 27.666 -3.99902 42.999s2 29.333 4 42c-24.667 0 -50.334 -3.5 -77.001 -10.5s-52 -17 -76 -30s-45.667 -28.5 -65 -46.5s-34.166 -38.167 -44.499 -60.5s-15.166 -46.5 -14.499 -72.5s9 -53 25 -81
c7.33301 -13.333 16.5 -24.333 27.5 -33s23.167 -13 36.5 -13c3.33301 0 5 -1.5 5 -4.5s-1.66699 -4.5 -5 -4.5c-15.333 0 -29.166 4.66699 -41.499 14s-22.833 21.333 -31.5 36c-17.333 30 -26.333 58.667 -27 86s4.5 52.666 15.5 75.999s26.667 44.666 47 63.999
s43 35.666 68 48.999s51.5 23.666 79.5 30.999s55 11 81 11c5.33301 26 13.833 51.667 25.5 77s24.5 46 38.5 62c16 18.667 29.667 27.834 41 27.501s19.333 -6 24 -17s5 -25.5 1 -43.5s-14 -35.667 -30 -53c-7.33301 -7.33301 -14.666 -14.166 -21.999 -20.499
s-15 -11.833 -23 -16.5c-4 -12.667 -7 -24.334 -9 -35.001c-5.33301 -28 -6 -50.5 -2 -67.5s11.333 -27.833 22 -32.5s24 -2.83398 40 5.49902s33.667 23.833 53 46.5c16.667 19.333 31.5 39.666 44.5 60.999s23.5 40.333 31.5 57z" />
    <glyph glyph-name="uniE005" unicode="&#xe005;" horiz-adv-x="266" 
d="M266 307c0.666992 2 2.66504 3.00195 5.99805 3.00195c3.33301 -1.33301 4.33301 -3.66602 3 -6.99902c-16 -44 -31.667 -82.5 -47 -115.5s-30 -61.167 -44 -84.5c-17.333 -30 -33.166 -52.667 -47.499 -68s-26.166 -25 -35.499 -29
c21.333 -45.333 34.666 -85.333 39.999 -120s5.66602 -61.667 0.999023 -81c-3.33301 -13.333 -8.16602 -22.833 -14.499 -28.5s-16.166 -6.83398 -29.499 -3.50098c-22 4.66699 -38.333 20.5 -49 47.5s-17.334 58.5 -20.001 94.5c-2 22 -3 44.5 -3 67.5
s0.5 45.167 1.5 66.5s2.33301 41.333 4 60l4.5 49c2.66699 28.667 5.66699 58 9 88s7 60.667 11 92l-74 -48.5c-24.667 -15.667 -48 -32.667 -70 -51s-41.667 -38.833 -59 -61.5s-31 -49.334 -41 -80.001c-8.66699 -26 -12.5 -52.667 -11.5 -80s7.83301 -52 20.5 -74
c7.33301 -12.667 16.666 -23.334 27.999 -32.001s23.666 -13 36.999 -13c2.66699 0 4 -1.66699 4 -5s-1.33301 -5 -4 -5c-15.333 0 -29.333 4.83301 -42 14.5s-23 21.5 -31 35.5c-13.333 23.333 -20.666 49.166 -21.999 77.499s2.66699 56.5 12 84.5
c10 32 24.167 59.833 42.5 83.5s39 45 62 64s47.5 36.667 73.5 53l77 50.5c2.66699 18.667 6.66699 45 12 79s12 71 20 111s17.5 80.5 28.5 121.5s23.667 77.833 38 110.5s30.333 59.167 48 79.5s36.834 29.833 57.501 28.5c13.333 -1.33301 24 -6 32 -14s14 -18 18 -30
s6.33301 -24.833 7 -38.5s0.666992 -26.167 0 -37.5c-2 -23.333 -6.5 -48.666 -13.5 -75.999s-16.5 -55.333 -28.5 -84s-26.667 -57.167 -44 -85.5s-37 -54.833 -59 -79.5c-17.333 -19.333 -35.666 -36.666 -54.999 -51.999c-10.667 -72.667 -19 -143.834 -25 -213.501
s-10.333 -131.5 -13 -185.5c-2 -52.667 -0.666992 -94.167 4 -124.5s10.667 -52.166 18 -65.499c7.33301 -12 13.5 -15.833 18.5 -11.5s8.83301 12.166 11.5 23.499c4 19.333 3.33301 46 -2 80s-19 73.667 -41 119c-1.33301 4.66699 0 7 4 7
c7.33301 1.33301 18 9.33301 32 24s30.667 38 50 70c13.333 23.333 27.833 51.5 43.5 84.5s31.167 71.5 46.5 115.5zM214.998 780.002c-12.667 -27.333 -23.999 -58 -33.999 -92s-18.833 -68.5 -26.5 -103.5s-14.334 -68.833 -20.001 -101.5s-10.167 -61 -13.5 -85
c8 6.66699 15.667 13.667 23 21l22 23c22 24.667 41.5 51 58.5 79s31.5 56 43.5 84s21.5 55.333 28.5 82s11.167 51.667 12.5 75c2 26 0.666992 46.667 -4 62s-11.5 24.5 -20.5 27.5s-19.667 -1.16699 -32 -12.5s-24.833 -31 -37.5 -59z" />
    <glyph glyph-name="uniE006" unicode="&#xe006;" horiz-adv-x="361" 
d="M716 -97c2.66699 2.66699 5.00293 2.99902 7.00293 0.999023c2 -2.66699 2 -5 0 -7c-14.667 -18 -33.667 -29.167 -57 -33.5s-47.833 -5.33301 -73.5 -3s-50.834 6.33301 -75.501 12s-45.667 9.5 -63 11.5c0.666992 -13.333 -1.5 -24.5 -6.5 -33.5
s-11.167 -15.667 -18.5 -20s-15 -6.33301 -23 -6s-14.667 3.16602 -20 8.49902c-4.66699 4.66699 -7.16699 10.5 -7.5 17.5s1.66699 13.667 6 20s11.166 11.833 20.499 16.5s21.666 7 36.999 7c-3.33301 18.667 -15 39 -35 61c-18.667 20.667 -41.167 36 -67.5 46
s-53.5 14.333 -81.5 13c-18.667 -0.666992 -37 -3.66699 -55 -9c-6 -50 -13.667 -98.667 -23 -146s-21 -89.166 -35 -125.499s-30.333 -65.166 -49 -86.499s-40.667 -31 -66 -29c-21.333 1.33301 -37.166 9.33301 -47.499 24s-16 33.167 -17 55.5s2.66699 47.166 11 74.499
s20.5 54.666 36.5 81.999s35.333 53 58 77s48 44 76 60c6 44.667 11 89 15 133l11 123c2 19.333 3.66699 37.333 5 54s2.66602 32.334 3.99902 47.001c-12 -24 -24 -44.333 -36 -61s-23.667 -30.667 -35 -42c-20 -20 -37.833 -32.167 -53.5 -36.5s-28.5 -3 -38.5 4
s-16.667 18.833 -20 35.5s-3 36.334 1 59.001c2.66699 16 7.83398 32.5 15.501 49.5s16.834 32.833 27.501 47.5s22.667 27.5 36 38.5s27.666 18.5 42.999 22.5c17.333 4.66699 34.166 3.5 50.499 -3.5s27.166 -18.833 32.499 -35.5c1.33301 -3.33301 0.5 -5.5 -2.5 -6.5
s-5.16699 0.166992 -6.5 3.5c-2.66699 10 -6.66699 17 -12 21s-11.333 5.83301 -18 5.5s-13.667 -2.33301 -21 -6s-14 -8.5 -20 -14.5c-13.333 -12 -25 -26.667 -35 -44s-18.333 -35 -25 -53s-11.167 -35.167 -13.5 -51.5s-2 -29.166 1 -38.499
s8.83301 -13.666 17.5 -12.999s20.667 8.66699 36 24s29.666 34 42.999 56s25.666 44.333 36.999 67c0.666992 2 3.66699 3.83301 9 5.5s11 3.16699 17 4.5s11.833 2 17.5 2s9.16699 -1 10.5 -3c-2 -16.667 -4 -36.5 -6 -59.5s-4 -48.5 -6 -76.5
c-3.33301 -35.333 -6.66602 -72.833 -9.99902 -112.5s-7.66602 -80.167 -12.999 -121.5c37.333 10.667 75 11.667 113 3s70 -27.334 96 -56.001c22 -25.333 34.667 -48 38 -68c18.667 -2 40.334 -5.83301 65.001 -11.5s49.5 -9.83398 74.5 -12.501s48.5 -2.16699 70.5 1.5
s40 14.167 54 31.5zM50.0029 -341.001c12 14.667 22.998 33.168 32.998 55.501s18.833 47.5 26.5 75.5s14.5 58 20.5 90s11.333 65 16 99c-22.667 -13.333 -43.667 -29.666 -63 -48.999s-36.166 -39.833 -50.499 -61.5s-26.333 -43.834 -36 -66.501
s-16.167 -44.334 -19.5 -65.001c-1.33301 -6.66699 -2.16602 -15 -2.49902 -25s0.166992 -20 1.5 -30s4.16602 -19.167 8.49902 -27.5s10.5 -13.833 18.5 -16.5c14.667 -5.33301 30.334 1.66699 47.001 21zM444.001 -116c-17.333 0 -30.3311 -2.66992 -38.998 -8.00293
s-14 -11.166 -16 -17.499s-1.16699 -12.166 2.5 -17.499s9.16699 -8 16.5 -8s13.666 2.33301 18.999 7s9.66602 10.334 12.999 17.001c1.33301 3.33301 2.33301 6.83301 3 10.5s1 9.16699 1 16.5z" />
    <glyph glyph-name="uniE007" unicode="&#xe007;" horiz-adv-x="346" 
d="M789 -123c2 -2.66699 1.99414 -4.99609 -0.00585938 -6.99609c-3.33301 -2 -5.66602 -1.66699 -6.99902 1c-11.333 14 -25.833 23.333 -43.5 28s-36.667 6.83398 -57 6.50098s-41.5 -2.66602 -63.5 -6.99902l-62 -12.5c-15.333 -3.33301 -28 -5 -38 -5
c-2 -10 -6 -20.667 -12 -32s-14.667 -23.333 -26 -36c-20 -22 -44.667 -38.167 -74 -48.5s-59.166 -14.5 -89.499 -12.5s-58.666 10.167 -84.999 24.5s-45.833 35.166 -58.5 62.499c-11.333 27.333 -18 55.333 -20 84s-1.66699 57.5 1 86.5s6.5 58 11.5 87
s8.5 57.5 10.5 85.5c3.33301 43.333 3.83301 74.666 1.5 93.999s-7 30.166 -14 32.499s-15.667 -2.5 -26 -14.5s-21.166 -27.5 -32.499 -46.5s-23 -39.833 -35 -62.5l-33 -64c0.666992 -2 -0.333008 -3.66699 -3 -5l-48 -15c-4.66699 -1.33301 -7 0.666992 -7 6
c6.66699 34.667 11 68.5 13 101.5s4.66699 65.833 8 98.5c3.33301 40 7.33301 82.333 12 127s10.5 88.5 17.5 131.5s15.5 83.833 25.5 122.5s21.667 72.667 35 102s28.833 52.166 46.5 68.499s37.834 23.833 60.501 22.5c12 -1.33301 21.833 -5.33301 29.5 -12
s13.667 -14.834 18 -24.501s7.16602 -20.334 8.49902 -32.001s2 -22.834 2 -33.501c0 -39.333 -8.66699 -84 -26 -134c-15.333 -44 -36.833 -88.667 -64.5 -134s-61.5 -85.666 -101.5 -120.999c-4 -42 -7.16699 -76.667 -9.5 -104s-4.16602 -49.666 -5.49902 -66.999
s-2.66602 -31 -3.99902 -41s-2.33301 -18.667 -3 -26l26 53.5c11.333 23 24 45.833 38 68.5s29.167 42.5 45.5 59.5s32.833 25.5 49.5 25.5c8.66699 0 15.5 -4.83301 20.5 -14.5s8.5 -22.834 10.5 -39.501s2.66699 -35.667 2 -57s-2 -43.333 -4 -66
c-2.66699 -32 -6.5 -62.833 -11.5 -92.5s-9 -58 -12 -85s-3.83301 -52.833 -2.5 -77.5s6.66602 -47.334 15.999 -68.001c8 -18 18.833 -33.833 32.5 -47.5s28.834 -24.5 45.501 -32.5s34.167 -12.667 52.5 -14s36.5 1.33398 54.5 8.00098c27.333 10 50.333 25.333 69 46
c20 22 31.667 42.667 35 62c-20.667 0 -36 3.66699 -46 11s-15.833 15.333 -17.5 24s0.333008 16.667 6 24s13.5 11 23.5 11c8.66699 0 16.667 -2.83301 24 -8.5s12.666 -12.834 15.999 -21.501c4 -9.33301 5.66699 -19.666 5 -30.999
c6.66699 0.666992 12.834 1.5 18.501 2.5l19.5 3.5l63 12.5c22 4.33301 43.5 6.5 64.5 6.5s40.667 -2.66699 59 -8s33.5 -15.333 45.5 -30zM147.994 797.004c-11.333 -22.667 -21.501 -49.168 -30.501 -79.501s-16.833 -62.666 -23.5 -96.999s-12.334 -70 -17.001 -107
s-9 -73.5 -13 -109.5c37.333 34 69 72.667 95 116s46.333 86 61 128c8 24 14.167 47.167 18.5 69.5s6.5 42.833 6.5 61.5c0 24 -3 42.667 -9 56s-13.667 20.833 -23 22.5s-19.666 -2.5 -30.999 -12.5s-22.666 -26 -33.999 -48zM509.993 -109.997
c0.666992 10.667 -0.832031 19.834 -4.49902 27.501s-8.33398 13.5 -14.001 17.5s-11.5 6.16699 -17.5 6.5s-11 -1.83398 -15 -6.50098c-3.33301 -4 -5 -8.5 -5 -13.5s2 -9.83301 6 -14.5s10 -8.66699 18 -12s18.333 -5 31 -5h1z" />
    <glyph glyph-name="uniE008" unicode="&#xe008;" horiz-adv-x="180" 
d="M816 -5c2 -2 1.67188 -4.33398 -0.995117 -7.00098s-4.66699 -2.33398 -6 0.999023c-11.333 14 -25.833 23.333 -43.5 28s-36.667 6.83398 -57 6.50098s-41.5 -2.66602 -63.5 -6.99902l-62 -12.5c-15.333 -3.33301 -28 -5 -38 -5c-2 -10 -6 -20.667 -12 -32
s-14.667 -23.333 -26 -36c-20 -22.667 -44.5 -39.167 -73.5 -49.5s-58.5 -14.166 -88.5 -11.499c-38 2.66699 -68.5 10.167 -91.5 22.5s-40.5 27.833 -52.5 46.5s-19.5 39.834 -22.5 63.501s-3.5 48.167 -1.5 73.5c2 24.667 5.33301 49.167 10 73.5s9 48.5 13 72.5
c1.33301 6.66699 2.83301 15.834 4.5 27.501s2.16699 23.167 1.5 34.5s-3.33398 21.166 -8.00098 29.499s-12.667 12.5 -24 12.5c-6 0 -11.5 -2.33301 -16.5 -7s-9.83301 -11.334 -14.5 -20.001s-9.33398 -18.5 -14.001 -29.5l-14 -34.5
c-3.33301 -8 -7.5 -18.833 -12.5 -32.5s-11 -27.167 -18 -40.5s-15 -25 -24 -35s-18.833 -15.333 -29.5 -16c-12 -1.33301 -22.167 5.66699 -30.5 21s-12.5 37.333 -12.5 66c0 30.667 4 67 12 109c1.33301 8 2.83301 15.833 4.5 23.5l5.5 24.5
c0 1.33301 1 2.66602 3 3.99902l50 14c1.33301 0.666992 2.83301 0.333984 4.5 -0.999023s2.16699 -3 1.5 -5c-2.66699 -9.33301 -5.33398 -20.5 -8.00098 -33.5s-5.16699 -26.833 -7.5 -41.5s-4.33301 -29.667 -6 -45s-2.5 -30 -2.5 -44
c-1.33301 -36 2.16699 -54.833 10.5 -56.5s20.5 16.5 36.5 54.5l18 47c6 16 12.167 30.5 18.5 43.5s13.166 23.667 20.499 32s15.666 12.5 24.999 12.5c14 0 24 -4.5 30 -13.5s9.66699 -19.667 11 -32s1.16602 -25.166 -0.500977 -38.499s-3.16699 -24.333 -4.5 -33
c-4 -23.333 -8.33301 -47 -13 -71s-8 -48 -10 -72s-1.66699 -47.333 1 -70s9.66699 -42.834 21 -60.501s27.833 -32.5 49.5 -44.5s50.5 -19.333 86.5 -22c28.667 -2 56.834 1.83301 84.501 11.5s51.167 25.167 70.5 46.5c10.667 11.333 18.667 22.166 24 32.499
s9 19.833 11 28.5c-20.667 0 -36 3.83301 -46 11.5s-15.833 15.834 -17.5 24.501s0.333008 16.667 6 24s13.5 11 23.5 11c8.66699 0 16.667 -2.83301 24 -8.5s12.666 -12.834 15.999 -21.501c4 -10 5.66699 -20.333 5 -31c10.667 0.666992 23.334 2.66699 38.001 6l63 12.5
c22 4.33301 43.5 6.5 64.5 6.5s40.667 -2.66699 59 -8s33.5 -15.333 45.5 -30zM536.005 7.99902c0.666992 10.667 -0.833008 19.834 -4.5 27.501s-8.16699 13.5 -13.5 17.5s-11 6.16699 -17 6.5s-11 -1.83398 -15 -6.50098c-3.33301 -4 -5 -8.5 -5 -13.5s2 -9.83301 6 -14.5
s10 -8.66699 18 -12s18.333 -5 31 -5zM45.0049 446.999c6.66699 0 12.499 -1.83301 17.499 -5.5s8.66699 -8.16699 11 -13.5s3 -11 2 -17s-3.83301 -11.333 -8.5 -16s-10 -7.5 -16 -8.5s-11.667 -0.5 -17 1.5s-9.83301 5.5 -13.5 10.5s-5.5 10.833 -5.5 17.5
c0 8.66699 2.83301 16 8.5 22s12.834 9 21.501 9z" />
    <glyph glyph-name="uniE009" unicode="&#xe009;" horiz-adv-x="183" 
d="M539 -82c1.33301 2 3.33496 2.33691 6.00195 1.00391c2.66699 -2.66699 3 -5 1 -7c-12 -15.333 -27.167 -25.666 -45.5 -30.999s-38.333 -7.83301 -60 -7.5s-43.667 2.66602 -66 6.99902l-63.5 12.5c-14.667 3.33301 -26.334 5 -35.001 5
c0.666992 -12.667 -1.33301 -23.667 -6 -33s-10.667 -16.333 -18 -21s-15.166 -6.83398 -23.499 -6.50098s-15.166 3.5 -20.499 9.5c-4.66699 5.33301 -7.16699 11.5 -7.5 18.5s1.83398 13.667 6.50098 20s11.667 11.666 21 15.999s21.666 6.5 36.999 6.5
c-2 9.33301 -5.66699 19.166 -11 29.499s-13.333 21.166 -24 32.499c-18.667 20.667 -41.167 36 -67.5 46s-53.5 14.333 -81.5 13c-17.333 -0.666992 -34.666 -3.66699 -51.999 -9c-6.66699 -50 -14.834 -98.667 -24.501 -146s-21.5 -89.333 -35.5 -126
s-30.667 -65.667 -50 -87s-41.666 -31 -66.999 -29c-21.333 1.33301 -37.166 9.5 -47.499 24.5s-16 33.667 -17 56s2.83301 47.166 11.5 74.499s20.834 54.666 36.501 81.999s35 53 58 77s48.833 44 77.5 60c5.33301 42.667 9.83301 84.834 13.5 126.501l10.5 118.5l5 56
l4 47c0.666992 2.66699 2 4.33398 4 5.00098c1.33301 0 4.66602 0.833008 9.99902 2.5s11 3.33398 17 5.00098l16 4.5c4.66699 1.33301 7.33398 2 8.00098 2c3.33301 -1.33301 4.66602 -3.33301 3.99902 -6c-2 -28 -5 -60.667 -9 -98l-10.5 -115
c-3.66699 -40.667 -8.16699 -82 -13.5 -124c37.333 10 74.666 10.667 111.999 2s69 -27.334 95 -56.001c11.333 -12.667 20 -24.667 26 -36s10 -22 12 -32l19.5 -2c6.33301 -0.666992 13.5 -2 21.5 -4c19.333 -4 39.666 -8 60.999 -12s42.166 -6.33301 62.499 -7
s39.166 1.5 56.499 6.5s31.666 14.5 42.999 28.5zM-114.998 -309.996c10.667 16 20.166 35.002 28.499 57.002s16 46.167 23 72.5s13.167 54.333 18.5 84s10 59.834 14 90.501c-28 -16.667 -53 -37.334 -75 -62.001s-40.5 -50.667 -55.5 -78s-26 -54.333 -33 -81
s-9.5 -50.334 -7.5 -71.001c2 -16 6 -28 12 -36s13 -12.5 21 -13.5s16.833 1.66699 26.5 8s18.834 16.166 27.501 29.499zM32.001 453.006c7.33301 0 13.668 -1.99512 19.001 -5.99512s9.16602 -8.83301 11.499 -14.5s3 -11.834 2 -18.501s-4.16699 -12.334 -9.5 -17.001
c-5.33301 -5.33301 -11.166 -8.5 -17.499 -9.5s-12.333 -0.333008 -18 2s-10.5 6.16602 -14.5 11.499s-6 11.666 -6 18.999c0 9.33301 3.16699 17.166 9.5 23.499s14.166 9.5 23.499 9.5zM267.003 -100.989c-17.333 0 -30.334 -2.83496 -39.001 -8.50195
s-14 -11.667 -16 -18s-1.16699 -12.166 2.5 -17.499s9.16699 -8 16.5 -8c6.66699 0 12.834 2.33301 18.501 7s10.167 10.334 13.5 17.001c1.33301 3.33301 2.33301 6.83301 3 10.5s1 7.5 1 11.5v6z" />
    <glyph glyph-name="uniE00A" unicode="&#xe00a;" horiz-adv-x="315" 
d="M309 289c2 6.66699 3.99414 12.6641 5.99414 17.9971c1.33301 2 3.33301 2.66699 6 2c3.33301 0 4.33301 -2 3 -6c-2 -3.33301 -4 -9 -6 -17c-3.33301 -10.667 -7.66602 -23.167 -12.999 -37.5l-17.5 -45.5c-6.33301 -16 -13 -31.667 -20 -47s-13.833 -29.333 -20.5 -42
c-6 -10.667 -12.667 -20.834 -20 -30.501s-15.5 -17.167 -24.5 -22.5s-19 -8 -30 -8s-22.833 4 -35.5 12c-8 5.33301 -15.667 11.833 -23 19.5s-14.666 15.834 -21.999 24.501c-1.33301 -11.333 -2.16602 -21.333 -2.49902 -30s-0.833008 -16.667 -1.5 -24
c-0.666992 -2 -2 -3.33301 -4 -4c-1.33301 -0.666992 -4.66602 -1.83398 -9.99902 -3.50098l-16.5 -5l-15.5 -4.5c-4.66699 -1.33301 -7.33398 -2 -8.00098 -2c-4.66699 0 -6 1.66699 -4 5l2.5 36l3.5 51c2 29.333 4.5 62.333 7.5 99s6.5 75.334 10.5 116.001l-76 -50
c-25.333 -16 -49.333 -33.333 -72 -52s-43 -39.5 -61 -62.5s-32 -50.167 -42 -81.5c-8.66699 -26 -12.5 -52.667 -11.5 -80s7.83301 -52 20.5 -74c7.33301 -13.333 16.5 -24.166 27.5 -32.499s23.167 -12.5 36.5 -12.5c3.33301 0 5 -1.66699 5 -5s-1.66699 -5 -5 -5
c-15.333 0 -29.166 4.83301 -41.499 14.5s-22.5 21.5 -30.5 35.5c-13.333 23.333 -20.666 49.166 -21.999 77.499s2.66699 56.5 12 84.5c10.667 32.667 25.334 61 44.001 85s39.834 45.667 63.501 65s48.667 37.166 75 53.499s52.5 33.5 78.5 51.5
c4 40.667 9 82.334 15 125.001s13 83.667 21 123s17.167 76.166 27.5 110.499s22.166 64.166 35.499 89.499s28.166 45 44.499 59s34.5 20.333 54.5 19c13.333 -1.33301 24 -6 32 -14s14 -18 18 -30s6.33301 -24.833 7 -38.5s0.666992 -26.167 0 -37.5
c-2 -23.333 -6.5 -48.666 -13.5 -75.999s-16.667 -55.333 -29 -84s-27.166 -57.167 -44.499 -85.5s-37 -54.833 -59 -79.5c-7.33301 -9.33301 -15.166 -17.833 -23.499 -25.5l-25.5 -22.5c-4 -37.333 -7.5 -73.333 -10.5 -108s-5.5 -67 -7.5 -97
c11.333 6 23.166 13.833 35.499 23.5s24 20.167 35 31.5s20.833 23.333 29.5 36s15.334 25 20.001 37c1.33301 3.33301 3.5 4.33301 6.5 3s3.83301 -3.66602 2.5 -6.99902c-5.33301 -12.667 -12.5 -25.5 -21.5 -38.5s-19.167 -25.333 -30.5 -37s-23.333 -22.5 -36 -32.5
s-25 -18 -37 -24l15.5 -24.5c5.66699 -9 11.5 -17.667 17.5 -26s12.167 -16 18.5 -23s13.166 -12.5 20.499 -16.5c10 -5.33301 20.5 -6.16602 31.5 -2.49902s22.167 15.5 33.5 35.5c7.33301 12.667 14.5 26.834 21.5 42.501s13.5 31.334 19.5 47.001s11.5 30.667 16.5 45
s9.5 26.5 13.5 36.5zM197.994 779.997c-10 -22.667 -19.167 -48.4971 -27.5 -77.4971s-15.833 -60 -22.5 -93s-12.667 -67.167 -18 -102.5s-10 -70.333 -14 -105c26.667 23.333 51 50.166 73 80.499s40.833 61.666 56.5 93.999s28.167 64.333 37.5 96s15 61.167 17 88.5
c2 30.667 0 53.5 -6 68.5s-14.333 23 -25 24s-22.5 -4.83301 -35.5 -17.5s-24.833 -31.334 -35.5 -56.001z" />
    <glyph glyph-name="uniE00B" unicode="&#xe00b;" horiz-adv-x="227" 
d="M147 777c-11.333 -25.333 -21.666 -53.832 -30.999 -85.499s-17.5 -64.5 -24.5 -98.5s-13.167 -68.167 -18.5 -102.5s-9.33301 -66.5 -12 -96.5c36 31.333 67.167 66.666 93.5 105.999s47.5 79 63.5 119c10.667 26.667 18.834 52.5 24.501 77.5s9.16699 48.167 10.5 69.5
c1.33301 28.667 -1.33398 50.167 -8.00098 64.5s-15.334 21.833 -26.001 22.5s-22.5 -5.5 -35.5 -18.5s-25.167 -32.167 -36.5 -57.5zM109 813.001c14 24 29.0029 42.332 45.0029 54.999s33.333 17.334 52 14.001c12 -2 21.667 -6.66699 29 -14s13.166 -16.333 17.499 -27
s7.33301 -22.5 9 -35.5s2.16699 -26.167 1.5 -39.5c-1.33301 -22 -4.83301 -45.667 -10.5 -71s-14.167 -51.666 -25.5 -78.999c-16.667 -42 -39 -83.833 -67 -125.5s-61.333 -78.5 -100 -110.5c-0.666992 -6.66699 -1.66699 -18.167 -3 -34.5s-2.33301 -35.5 -3 -57.5
s-1.16699 -45.167 -1.5 -69.5s0.166992 -47.5 1.5 -69.5s3.66602 -41.667 6.99902 -59s8.16602 -29.666 14.499 -36.999s14.333 -8.5 24 -3.5s21.5 18.833 35.5 41.5c11.333 18.667 22.166 38.834 32.499 60.501s19.833 44.167 28.5 67.5
c5.33301 13.333 10.5 27.333 15.5 42l15.5 46c0 3.33301 2 4.33301 6 3c3.33301 0 4.33301 -2 3 -6c-12.667 -40 -26.667 -79 -42 -117s-32.666 -72.333 -51.999 -103c-4.66699 -7.33301 -10.667 -16 -18 -26s-15.333 -19.167 -24 -27.5s-18 -14.666 -28 -18.999
s-20 -4.5 -30 -0.5c-8.66699 3.33301 -16 12 -22 26s-10.833 32 -14.5 54s-6.33398 47.667 -8.00098 77s-1.83398 61 -0.500977 95c0.666992 13.333 1.16699 26.666 1.5 39.999s1.16602 27 2.49902 41l-76 -50c-25.333 -16 -49.5 -33.333 -72.5 -52s-43.5 -39.5 -61.5 -62.5
s-32 -50.167 -42 -81.5c-8 -26 -11.667 -52.667 -11 -80s7.33398 -52 20.001 -74c7.33301 -13.333 16.666 -24.166 27.999 -32.499s23.666 -12.5 36.999 -12.5c3.33301 0 5 -1.66699 5 -5s-1.66699 -5 -5 -5c-15.333 0 -29.166 4.83301 -41.499 14.5
s-22.833 21.5 -31.5 35.5c-13.333 23.333 -20.5 49.166 -21.5 77.499s2.83301 56.5 11.5 84.5c10.667 32.667 25.334 61 44.001 85s39.834 45.667 63.501 65s48.834 37.166 75.501 53.499s53 33.5 79 51.5c2.66699 34.667 6.66699 72.667 12 114s12.333 82.666 21 123.999
s19.167 81.166 31.5 119.499s26.5 71.5 42.5 99.5z" />
    <glyph glyph-name="uniE00C" unicode="&#xe00c;" horiz-adv-x="477" 
d="M924 -84c2.66699 -2.66699 2.33301 -4.66699 -1 -6c-2.66699 -2.66699 -5 -2.66699 -7 0c-11.333 14 -25.666 23.333 -42.999 28s-36.333 6.83398 -57 6.50098s-41.834 -2.66602 -63.501 -6.99902l-61.5 -12.5c-7.33301 -1.33301 -14.166 -2.33301 -20.499 -3
s-12.166 -1.33398 -17.499 -2.00098c-2 -10 -6 -20.667 -12 -32s-14.667 -23.333 -26 -36c-20 -22 -44.5 -38.333 -73.5 -49s-58.5 -14.667 -88.5 -12c-38 2.66699 -68 12 -90 28s-38.833 34.167 -50.5 54.5s-19.167 40.833 -22.5 61.5s-5 37.334 -5 50.001
c0 24 2.16699 50.5 6.5 79.5s9 58.333 14 88s9.16699 58.334 12.5 86.001s4 52.167 2 73.5c-2 15.333 -7.5 20.333 -16.5 15s-18.667 -15 -29 -29s-20 -28.667 -29 -44l-17.5 -30l-26 -51.5l-26 -53.5c-0.666992 -1.33301 -0.833984 -2.16602 -0.500977 -2.49902
s-0.166992 -1.16602 -1.5 -2.49902c0 -1.33301 -1 -2 -3 -2l-45 -13c-1.33301 -0.666992 -2.83301 -0.333984 -4.5 0.999023s-2.16699 2.66602 -1.5 3.99902c0.666992 4.66699 2.5 13.667 5.5 27s6 28.166 9 44.499s5.33301 32.666 7 48.999s2 29.5 1 39.5s-4 15.5 -9 16.5
s-12.833 -5.83301 -23.5 -20.5c-13.333 -17.333 -26.833 -38.166 -40.5 -62.499s-26.834 -50.5 -39.501 -78.5c-0.666992 -0.666992 -1.16699 -2 -1.5 -4s-2.16602 -3.33301 -5.49902 -4c-1.33301 0 -4.16602 -0.666992 -8.49902 -2l-14 -4.5
c-5 -1.66699 -9.83301 -3.16699 -14.5 -4.5s-7.33398 -2 -8.00098 -2c-2.66699 0.666992 -4 2.66699 -4 6l26 203l3 21c0.666992 2.66699 2 4.33398 4 5.00098c2 0 5.66699 0.833008 11 2.5l16.5 5l15.5 4.5c4.66699 1.33301 7.33398 2 8.00098 2c4 0 5.33301 -1.66699 4 -5
l-28 -190c2.66699 4.66699 8.83398 16.167 18.501 34.5s21 37.5 34 57.5s26.833 37.667 41.5 53s28.667 22.666 42 21.999c10 -0.666992 17 -6.33398 21 -17.001s6 -24 6 -40s-1.33301 -33.167 -4 -51.5s-5.33398 -35.5 -8.00098 -51.5c12 25.333 25.667 52.333 41 81
s31.333 53.334 48 74.001c8.66699 10.667 18.334 20.334 29.001 29.001s21 13.834 31 15.501s18.667 -0.833008 26 -7.5s12.333 -19.334 15 -38.001c2.66699 -21.333 1.66699 -47.5 -3 -78.5s-10 -64 -16 -99s-10.833 -70.5 -14.5 -106.5s-3 -69.167 2 -99.5
s15.833 -56.666 32.5 -78.999s42.667 -37.166 78 -44.499c28.667 -6 57 -3.66699 85 7c26 9.33301 49 24.333 69 45c10.667 11.333 18.667 22.166 24 32.499s9 20.166 11 29.499c-20.667 0 -36 3.66699 -46 11s-15.833 15.333 -17.5 24s0.166016 16.667 5.49902 24
s13 11 23 11c9.33301 0 17.666 -2.83301 24.999 -8.5s12.666 -12.834 15.999 -21.501c4 -9.33301 5.66699 -19.333 5 -30c6 0 12 0.5 18 1.5l20 3.5c20 4.66699 41 9 63 13s43.5 6.16699 64.5 6.5s40.667 -2.33398 59 -8.00098s33.5 -15.834 45.5 -30.501zM643.999 -71
c0.666992 10.667 -0.833984 20 -4.50098 28s-8.16699 14 -13.5 18s-11.166 6 -17.499 6s-11.5 -2.33301 -15.5 -7c-3.33301 -4 -5 -8.5 -5 -13.5s2 -9.83301 6 -14.5s10.167 -8.66699 18.5 -12s18.833 -5 31.5 -5z" />
    <glyph glyph-name="uniE00D" unicode="&#xe00d;" horiz-adv-x="340" 
d="M780 -84c2.66699 -2.66699 2.66895 -4.66406 0.00195312 -5.99707c-2.66699 -2.66699 -5 -2.66699 -7 0c-11.333 14 -25.833 23.333 -43.5 28s-36.667 6.83398 -57 6.50098s-41.333 -2.66602 -63 -6.99902l-61.5 -12.5c-7.33301 -1.33301 -14.166 -2.33301 -20.499 -3
l-18.5 -2c-3.33301 -21.333 -16 -44 -38 -68c-18.667 -21.333 -42.667 -37.333 -72 -48c-27.333 -10.667 -57.333 -15 -90 -13c-37.333 2.66699 -67.5 10.334 -90.5 23.001s-40.5 28 -52.5 46s-19.667 38 -23 60s-4 43.667 -2 65c1.33301 12 3.66602 29.167 6.99902 51.5
l10.5 73c3.66699 26.333 7.16699 53.166 10.5 80.499s5.5 52.333 6.5 75s0.666992 41.667 -1 57s-5.83398 23.833 -12.501 25.5s-16.167 -4.83301 -28.5 -19.5s-28.5 -40.334 -48.5 -77.001l-26 -51l-26 -53c0 -1.33301 0.166992 -2.83301 0.5 -4.5
s-0.833984 -2.83398 -3.50098 -3.50098l-11 -3.5l-16.5 -5l-15.5 -4.5c-4.66699 -1.33301 -7.33398 -2 -8.00098 -2c-3.33301 1.33301 -5 3.33301 -5 6l26 177l3 22c0 2 1.33301 3.66699 4 5c1.33301 0 4.66602 0.833008 9.99902 2.5l16.5 5
c5.66699 1.66699 11 3.16699 16 4.5s7.83301 2 8.5 2c2.66699 0 4 -1.66699 4 -5l-24 -164l20 41c7.33301 14.667 15 29.167 23 43.5s16.167 28.166 24.5 41.499s16.5 25.333 24.5 36c8.66699 10.667 18.5 20.334 29.5 29.001s21.333 13.834 31 15.501
s18.334 -0.833008 26.001 -7.5s12.5 -19.334 14.5 -38.001c2.66699 -21.333 2.83398 -47 0.500977 -77s-5.83301 -61 -10.5 -93l-14 -95.5c-4.66699 -31.667 -8 -59.834 -10 -84.501c-2 -23.333 -1.66699 -45 1 -65s8.5 -38 17.5 -54s21.333 -29.667 37 -41
s35.5 -19.333 59.5 -24c13.333 -2.66699 27.166 -3.5 41.499 -2.5s28.5 4.16699 42.5 9.5c26.667 9.33301 49.334 24.333 68.001 45c20 22.667 32 43.334 36 62.001c-20.667 0 -36 3.66699 -46 11s-16 15.333 -18 24s-0.166992 16.667 5.5 24s13.5 11 23.5 11
c9.33301 0 17.5 -2.83301 24.5 -8.5s12.5 -12.834 16.5 -21.501c3.33301 -7.33301 5 -17.333 5 -30c6 0 12 0.5 18 1.5l20 3.5c20 4.66699 41 9 63 13s43.5 6.16699 64.5 6.5s40.5 -2.33398 58.5 -8.00098s33 -15.834 45 -30.501zM501.002 -70.9971
c0.666992 10.667 -0.832031 19.834 -4.49902 27.501s-8.33398 13.5 -14.001 17.5s-11.5 6.16699 -17.5 6.5s-11 -1.83398 -15 -6.50098c-3.33301 -4 -5 -8.5 -5 -13.5s2 -9.83301 6 -14.5s10.167 -8.66699 18.5 -12s18.833 -5 31.5 -5z" />
    <glyph glyph-name="uniE00E" unicode="&#xe00e;" horiz-adv-x="351" 
d="M144 413c-4 -1.33301 -7.99902 -2.83203 -11.999 -4.49902s-7.66699 -3.5 -11 -5.5c-1.33301 -3.33301 -2.16602 -7 -2.49902 -11s-0.833008 -7.66699 -1.5 -11c-2 -28 4.16699 -54.333 18.5 -79s32.5 -45.334 54.5 -62.001c4.66699 10 9.5 21.5 14.5 34.5
s9.33301 26.667 13 41s6.33398 29 8.00098 44s2.16699 29.167 1.5 42.5c-2.66699 32 -12.834 52 -30.501 60s-35.834 1.33301 -54.501 -20c-4.66699 -5.33301 -9 -11.666 -13 -18.999c6 0 10.667 -0.333008 14 -1c2.66699 0 4.16699 -1.33301 4.5 -4
s-0.833984 -4.33398 -3.50098 -5.00098zM109.001 395.001c-13.333 -10.667 -24.667 -25.834 -34 -45.501s-16.333 -40.667 -21 -63s-6.66699 -44.166 -6 -65.499s4 -38.833 10 -52.5s15.167 -21.667 27.5 -24s27.833 4.5 46.5 20.5c10.667 8.66699 20.334 18.667 29.001 30
s16.667 23.333 24 36c-12.667 9.33301 -24.334 20.333 -35.001 33s-19.5 26 -26.5 40s-12 28.833 -15 44.5s-2.83301 31.167 0.5 46.5zM765 315.001c1.33301 -2.66699 0.995117 -4.67285 -1.00488 -6.00586c-2.66699 -2.66699 -5 -2.66699 -7 0
c-11.333 14 -25.833 23.333 -43.5 28s-36.667 6.83398 -57 6.50098s-41.333 -2.66602 -63 -6.99902l-61.5 -12.5c-7.33301 -1.33301 -14.166 -2.33301 -20.499 -3l-18.5 -2c-3.33301 -21.333 -16 -44 -38 -68c-20 -22 -44.5 -38.333 -73.5 -49s-58.5 -14.667 -88.5 -12
c-18.667 1.33301 -36.5 5.16602 -53.5 11.499s-32.5 14.166 -46.5 23.499c-16 -29.333 -34.333 -52.166 -55 -68.499s-40.834 -25.666 -60.501 -27.999s-37.167 2.83398 -52.5 15.501s-25.666 33 -30.999 61c-6.66699 32.667 -4.66699 66.667 6 102
c8.66699 30 22.834 56 42.501 78s44.834 34.667 75.501 38c3.33301 6.66699 7.5 13.334 12.5 20.001s10.667 12.5 17 17.5s13 8.83301 20 11.5s14.5 3.33398 22.5 2.00098c16 -2.66699 27.5 -11.5 34.5 -26.5s11.167 -30.167 12.5 -45.5
c0.666992 -11.333 0 -25.666 -2 -42.999c-3.33301 -24 -8.16602 -46.5 -14.499 -67.5s-14.166 -40.167 -23.499 -57.5c27.333 -18 56.833 -29 88.5 -33s63.167 -0.333008 94.5 11c26.667 9.33301 49.334 24.333 68.001 45c20 22.667 32 43.334 36 62.001
c-20.667 0 -36 3.83301 -46 11.5s-15.833 15.834 -17.5 24.501s0.166016 16.5 5.49902 23.5s13 10.5 23 10.5c9.33301 0 17.5 -2.83301 24.5 -8.5s12.5 -12.5 16.5 -20.5c3.33301 -8.66699 5 -19 5 -31c6 0 12 0.5 18 1.5l20 3.5c20 4.66699 41 9 63 13
s43.5 6.16699 64.5 6.5s40.667 -2.33398 59 -8.00098s33.5 -15.834 45.5 -30.501zM484.995 327.995c0.666992 10.667 -0.833984 20 -4.50098 28s-8.16699 14 -13.5 18s-11.166 6 -17.499 6s-11.5 -2.33301 -15.5 -7c-3.33301 -4 -5 -8.5 -5 -13.5s2 -9.83301 6 -14.5
s10.167 -8.66699 18.5 -12s18.833 -5 31.5 -5z" />
    <glyph glyph-name="uniE00F" unicode="&#xe00f;" 
d="M524 -91c0.666992 2 3.00098 2.33594 7.00098 1.00293c2 -2.66699 2 -5 0 -7c-12 -15.333 -27.167 -25.666 -45.5 -30.999s-38.333 -7.83301 -60 -7.5s-43.667 2.66602 -66 6.99902l-63.5 12.5c-6.66699 1.33301 -12.834 2.5 -18.501 3.5s-11.167 1.5 -16.5 1.5
c0.666992 -12.667 -1.33301 -23.667 -6 -33s-10.667 -16.333 -18 -21s-15 -6.83398 -23 -6.50098s-14.667 3.5 -20 9.5c-4.66699 5.33301 -7.16699 11.5 -7.5 18.5s1.66699 13.667 6 20s11.166 11.666 20.499 15.999s21.666 6.5 36.999 6.5
c-2 9.33301 -5.66699 19.166 -11 29.499s-13.333 21.166 -24 32.499c-24 26.667 -53.5 44.167 -88.5 52.5s-69.833 8.16602 -104.5 -0.500977c-8 -51.333 -17.5 -100.666 -28.5 -147.999s-24 -89.333 -39 -126s-32.167 -65.667 -51.5 -87s-41.333 -31 -66 -29
c-22 1.33301 -38.167 9.66602 -48.5 24.999s-15.666 34.5 -15.999 57.5s4 48.5 13 76.5s21.833 55.667 38.5 83s36.834 53.166 60.501 77.499s50.167 43.833 79.5 58.5c9.33301 56.667 16.5 109.667 21.5 159l14.5 146c1.33301 12.667 2.5 25 3.5 37s2.16699 24.333 3.5 37
c0 2.66699 1.33301 4 4 4c1.33301 0.666992 4.66602 1.83398 9.99902 3.50098s10.833 3.5 16.5 5.5s10.834 3.66699 15.501 5s7.33398 2 8.00098 2c3.33301 -1.33301 4.66602 -3.33301 3.99902 -6l-10 -105l29 36c10 12 20.333 23.333 31 34
c23.333 23.333 44.833 37.833 64.5 43.5s36.5 4.83398 50.5 -2.49902s25 -19.833 33 -37.5s11.5 -38.667 10.5 -63s-6.83301 -50.833 -17.5 -79.5s-27 -57 -49 -85c-17.333 -22 -36.666 -40 -57.999 -54s-44 -21 -68 -21c-2.66699 0 -7 0.333008 -13 1
s-9.66699 2.66699 -11 6c-1.33301 2.66699 0 4.66699 4 6c19.333 4.66699 38 15.334 56 32.001s35.333 35.667 52 57c14.667 19.333 26.167 39.833 34.5 61.5s13.5 42.5 15.5 62.5s1.33301 37.833 -2 53.5s-9.16602 27.334 -17.499 35.001s-19.166 10.167 -32.499 7.5
s-28.666 -12.667 -45.999 -30c-6 -6 -12 -12.333 -18 -19s-11.667 -13.334 -17 -20.001l-17 -21.5l-16 -21.5c-3.33301 -37.333 -7.5 -77 -12.5 -119s-10.833 -84.667 -17.5 -128c36 8.66699 72 8.5 108 -0.5s66.333 -27.5 91 -55.5c11.333 -12.667 20 -24.667 26 -36
s10 -22 12 -32l20 -2c6.66699 -0.666992 13.667 -2 21 -4c19.333 -4 39.666 -8 60.999 -12s42.166 -6.33301 62.499 -7s39.166 1.5 56.499 6.5s31.666 14.5 42.999 28.5zM-188.999 -357.997c14 -4 28.667 2.99902 44 20.999c12.667 14 24.5 32.333 35.5 55
s20.833 48.334 29.5 77.001s16.5 59.5 23.5 92.5s13.167 66.833 18.5 101.5c-22 -12 -42.833 -27.333 -62.5 -46s-37.334 -39 -53.001 -61s-28.834 -45.167 -39.501 -69.5s-18 -48.5 -22 -72.5c-1.33301 -6.66699 -2.16602 -15 -2.49902 -25s0.333984 -20 2.00098 -30
s4.5 -19 8.5 -27s10 -13.333 18 -16zM252.001 -115.998l-0.000976562 5.99805c-17.333 0 -30.333 -2.83301 -39 -8.5s-14 -11.667 -16 -18s-1.16699 -12.166 2.5 -17.499s9.16699 -8 16.5 -8c6.66699 0 12.834 2.33301 18.501 7s10.167 10.334 13.5 17.001
c1.33301 3.33301 2.33301 6.83301 3 10.5s1 7.5 1 11.5z" />
    <glyph glyph-name="uniE010" unicode="&#xe010;" horiz-adv-x="338" 
d="M195 -8c-1.33301 -23.333 -2.33398 -47.501 -3.00098 -72.501s0 -48.5 2 -70.5c2.66699 -36 9.33398 -62.333 20.001 -79s21.667 -25.5 33 -26.5s21.5 5 30.5 18s13 30.667 12 53s-8.5 48.833 -22.5 79.5s-38 63.334 -72 98.001zM663.999 -109.001
c1.33301 2 3.33887 2.32715 6.00586 0.994141c3.33301 -2 3.66602 -4.33301 0.999023 -7c-12 -15.333 -27.167 -25.666 -45.5 -30.999s-38.333 -7.83301 -60 -7.5s-43.667 2.66602 -66 6.99902s-43.5 8.83301 -63.5 13.5c-6.66699 1.33301 -12.834 2.33301 -18.501 3
l-16.5 2c1.33301 -16 -1.83398 -29.167 -9.50098 -39.5s-16.167 -17.166 -25.5 -20.499c-12 -3.33301 -21.667 -1.66602 -29 5.00098s-10.833 14.667 -10.5 24s5.5 18.333 15.5 27s26 13 48 13c-3.33301 19.333 -15 40 -35 62c-19.333 21.333 -42.833 37 -70.5 47
s-56.167 13.667 -85.5 11c42.667 -42.667 70.667 -82.167 84 -118.5s18.333 -66.833 15 -91.5c-3.33301 -21.333 -11.333 -37.166 -24 -47.499s-26.667 -15.5 -42 -15.5s-30.333 5.5 -45 16.5s-26 27.833 -34 50.5c-7.33301 22 -12 47.5 -14 76.5s-2.5 58 -1.5 87
s2.66699 56.333 5 82s4.5 46.167 6.5 61.5c0.666992 3.33301 1.16699 6.5 1.5 9.5s0.5 5.5 0.5 7.5c5.33301 48 10.666 90.333 15.999 127l15 103c-12 -23.333 -23.833 -43.166 -35.5 -59.499s-23.167 -30.166 -34.5 -41.499c-5.33301 -5.33301 -11.333 -10.666 -18 -15.999
s-13.667 -9.83301 -21 -13.5s-14.666 -6.16699 -21.999 -7.5s-14.666 -1 -21.999 1c-15.333 4.66699 -25.333 15.667 -30 33s-4.33398 37.666 0.999023 60.999c3.33301 16.667 8.83301 33.5 16.5 50.5s16.834 33 27.501 48s22.667 28.167 36 39.5s27.666 19.333 42.999 24
c17.333 5.33301 34.166 4.66602 50.499 -2.00098s27.166 -18.667 32.499 -36c1.33301 -3.33301 0.5 -5.5 -2.5 -6.5s-5.16699 0.166992 -6.5 3.5c-3.33301 9.33301 -8.33301 16 -15 20s-14 5.33301 -22 4c-10.667 -2 -21.334 -7.83301 -32.001 -17.5
s-20.834 -21.667 -30.501 -36s-18.334 -29.666 -26.001 -45.999s-13.5 -32.333 -17.5 -48s-5.66699 -29.834 -5 -42.501s4.33398 -22 11.001 -28c5.33301 -4.66699 11.833 -4.5 19.5 0.5s16.167 12.167 25.5 21.5c12.667 12.667 25.834 29 39.501 49s27.5 45 41.5 75
c0 1.33301 1 2.66602 3 3.99902l49 15c1.33301 0.666992 2.83301 0.333984 4.5 -0.999023s2.16699 -3 1.5 -5c-1.33301 -5.33301 -2.5 -12 -3.5 -20l-3.5 -28c-4.66699 -28 -9.83398 -62.167 -15.501 -102.5s-10.834 -81.5 -15.501 -123.5
c-1.33301 -16 -2.83301 -31.833 -4.5 -47.5s-3.5 -35.5 -5.5 -59.5c30.667 2.66699 60.834 -1.16602 90.501 -11.499s54.834 -27.166 75.501 -50.499c11.333 -12.667 20 -24.667 26 -36s10 -22 12 -32c11.333 0 25 -2 41 -6c19.333 -4 39.833 -8 61.5 -12
s42.667 -6.16699 63 -6.5s39 2 56 7s31.167 14.167 42.5 27.5zM392.005 -128.007c-17.333 0 -30.333 -2.66699 -39 -8s-14 -11.333 -16 -18s-1.16699 -12.667 2.5 -18s9.16699 -8 16.5 -8c6.66699 0 12.834 2.5 18.501 7.5s10.167 10.833 13.5 17.5
c3.33301 9.33301 4.66602 18.333 3.99902 27z" />
    <glyph glyph-name="uniE011" unicode="&#xe011;" horiz-adv-x="277" 
d="M688 -85c2 -2.66699 1.66602 -5.00781 -1.00098 -7.00781s-5 -1.66699 -7 1c-11.333 14 -25.833 23.333 -43.5 28s-36.667 6.83398 -57 6.50098s-41.333 -2.66602 -63 -6.99902l-61.5 -12.5c-7.33301 -1.33301 -14.166 -2.5 -20.499 -3.5s-12.5 -1.83301 -18.5 -2.5
c-6.66699 -34.667 -23.667 -62.667 -51 -84s-58 -35.333 -92 -42s-68 -5.5 -102 3.5s-61.333 26.833 -82 53.5c-16 21.333 -26.667 44 -32 68s-8 48.667 -8 74c0 24 1.16699 49.667 3.5 77s5.5 54.833 9.5 82.5s8.66699 54.834 14 81.501s10.666 51.334 15.999 74.001
c-18 -5.33301 -35.833 -7.5 -53.5 -6.5s-33.667 5.16699 -48 12.5s-25.833 18 -34.5 32s-12.667 31.667 -12 53c0.666992 20.667 4.33398 38.834 11.001 54.501s14.667 27.5 24 35.5c13.333 12 25.5 15 36.5 9s17.167 -20 18.5 -42
c1.33301 -17.333 0.666016 -36.333 -2.00098 -57s-6.66699 -39.667 -12 -57c8.66699 -8 19.167 -13.667 31.5 -17s25.5 -5 39.5 -5h14h16h15c4.66699 0 8 -0.333008 10 -1c2.66699 -1.33301 3.66699 -3.33301 3 -6c-4 -16 -8.33301 -35.333 -13 -58
s-9.33398 -46.834 -14.001 -72.501s-8.66699 -52.167 -12 -79.5s-5.66602 -53.666 -6.99902 -78.999s-1.16602 -49 0.500977 -71s5.16699 -40.333 10.5 -55c8.66699 -23.333 21.167 -42 37.5 -56s34.5 -23.667 54.5 -29s40.833 -6.83301 62.5 -4.5s42 8.33301 61 18
s35.5 22.334 49.5 38.001s23.333 34.167 28 55.5c-20.667 0 -36 3.83301 -46 11.5s-16 15.834 -18 24.501s-0.166992 16.667 5.5 24s13.5 11 23.5 11c9.33301 0 17.5 -3 24.5 -9s12.5 -13 16.5 -21c2 -4.66699 3.33301 -9.66699 4 -15s1 -10.666 1 -15.999
c6 0.666992 12 1.5 18 2.5l20 3.5l63 12.5c22 4.33301 43.5 6.5 64.5 6.5s40.667 -2.66699 59 -8s33.5 -15.333 45.5 -30zM407.999 -72.0078c0.666992 10.667 -0.832031 19.833 -4.49902 27.5s-8.33398 13.5 -14.001 17.5s-11.5 6 -17.5 6s-11 -2 -15 -6
c-3.33301 -4 -5 -8.5 -5 -13.5s2 -9.83301 6 -14.5s10.167 -8.66699 18.5 -12s18.833 -5 31.5 -5zM22 468.991c-5.33301 -7.33301 -10 -16.168 -14 -26.501s-6.66699 -21.166 -8 -32.499s-1 -22.5 1 -33.5s6 -20.5 12 -28.5l6.5 29c2.33301 10.667 4 21.5 5 32.5
s1.33301 21.667 1 32s-1.5 19.5 -3.5 27.5z" />
    <glyph glyph-name="uniE012" unicode="&#xe012;" horiz-adv-x="256" 
d="M637 -42c1.33301 3.33301 3.34082 3.67285 6.00781 1.00586s3 -5 1 -7c-12 -14.667 -27.167 -24.667 -45.5 -30s-38.333 -7.83301 -60 -7.5s-43.667 2.5 -66 6.5s-43.5 8.33301 -63.5 13c-6.66699 1.33301 -12.834 2.33301 -18.501 3l-16.5 2
c0.666992 -13.333 -1.33301 -24.5 -6 -33.5s-10.667 -15.833 -18 -20.5s-15.166 -6.83398 -23.499 -6.50098s-15.166 3.5 -20.499 9.5c-4.66699 4.66699 -7.16699 10.5 -7.5 17.5s1.83398 13.667 6.50098 20s11.667 11.833 21 16.5s21.666 7 36.999 7
c-2 8.66699 -5.66699 18.167 -11 28.5s-13.333 21.166 -24 32.499c-17.333 19.333 -39.333 34.333 -66 45c-19.333 7.33301 -38.666 11.833 -57.999 13.5s-39 0.833984 -59 -2.49902c7.33301 -20.667 9.16602 -38.834 5.49902 -54.501s-10 -28.5 -19 -38.5
s-19.667 -17.167 -32 -21.5s-23.666 -5.33301 -33.999 -3s-18.166 8.16602 -23.499 17.499s-6 22.333 -2 39c3.33301 12 9.66602 22.667 18.999 32s20.333 17 33 23c-1.33301 3.33301 -2.83301 6.16602 -4.5 8.49902s-3.16699 5.16602 -4.5 8.49902l-25 42.5
c-9.33301 16.333 -18.333 34.333 -27 54s-16 40.667 -22 63s-9 45.833 -9 70.5c0 18 4.16699 35 12.5 51s18.5 29.833 30.5 41.5s25.167 20.667 39.5 27s27.5 8.83301 39.5 7.5s21.833 -7.33301 29.5 -18s11.167 -26.667 10.5 -48
c-0.666992 -17.333 -4.66699 -35.333 -12 -54s-15.333 -34 -24 -46c-2 -2.66699 -4.33301 -3 -7 -1s-3 4.33301 -1 7c4.66699 6 9.5 14 14.5 24s9.16699 20.5 12.5 31.5s5.66602 22 6.99902 33s0.666016 20.833 -2.00098 29.5c-2 6.66699 -5.33301 11 -10 13
s-9.5 2.66699 -14.5 2s-10 -2.33398 -15 -5.00098s-8.83301 -5 -11.5 -7c-24 -20.667 -38.667 -43.667 -44 -69s-4.83301 -51.333 1.5 -78s16.666 -53.5 30.999 -80.5s29.166 -52.5 44.499 -76.5c1.33301 -2.66699 2.83301 -5.33398 4.5 -8.00098
s3.16699 -5.33398 4.5 -8.00098c35.333 6 70.166 4.83301 104.499 -3.5s64.166 -26.5 89.499 -54.5c11.333 -13.333 20 -25.666 26 -36.999s10 -21.666 12 -30.999c6.66699 -0.666992 13.167 -1.5 19.5 -2.5l21.5 -3.5c19.333 -4 39.666 -8 60.999 -12
s42.166 -6.33301 62.499 -7s39.166 1.5 56.499 6.5s31.666 14.167 42.999 27.5zM95.0078 51.0068c-11.333 -5.33301 -21.167 -12 -29.5 -20s-13.833 -17.667 -16.5 -29c-4 -16.667 -2.33301 -26.834 5 -30.501s15.333 -2.66699 24 3s15.667 15.334 21 29.001s4 29.5 -4 47.5
zM364.007 -60.9932c-17.333 0 -30.1689 -2.66992 -38.502 -8.00293s-13.5 -11.166 -15.5 -17.499s-1.16699 -12.166 2.5 -17.499s9.16699 -8 16.5 -8c6.66699 0 12.834 2.33301 18.501 7s9.83398 10.334 12.501 17.001c4 7.33301 5.33301 16.333 4 27z" />
    <glyph glyph-name="uniE013" unicode="&#xe013;" horiz-adv-x="138" 
d="M584 -82c1.33301 -2.66699 1.00488 -5.00195 -0.995117 -7.00195s-4.33301 -1.66699 -7 1c-14 17.333 -32.167 27.833 -54.5 31.5s-45.833 4 -70.5 1s-49.167 -7.5 -73.5 -13.5s-45.833 -9.33301 -64.5 -10c-2.66699 -13.333 -7.66699 -26 -15 -38
s-16.166 -23 -26.499 -33s-21.5 -18.833 -33.5 -26.5s-24 -13.834 -36 -18.501c-28.667 -10.667 -58.667 -15 -90 -13c-34.667 2.66699 -62.334 13.334 -83.001 32.001s-36.334 43 -47.001 73s-16.834 64.333 -18.501 103s-0.833984 79.667 2.49902 123
c2.66699 31.333 6.33398 62.166 11.001 92.499s9.66699 60.833 15 91.5l26 142c8.66699 46.667 14.667 93.667 18 141c-13.333 0.666992 -33.5 2.5 -60.5 5.5s-57.333 5.66699 -91 8s-68.667 4 -105 5s-70.333 0.333008 -102 -2s-59.167 -7.16602 -82.5 -14.499
s-39 -17.666 -47 -30.999c-1.33301 -2.66699 -3.5 -3.33398 -6.5 -2.00098s-3.83301 3.66602 -2.5 6.99902c6 16 20.5 28 43.5 36s50.5 13.5 82.5 16.5s66.667 3.83301 104 2.5s73.5 -3.5 108.5 -6.5s66.833 -6 95.5 -9s50 -5.16699 64 -6.5v22.5
c0 7 -0.333008 13.5 -1 19.5c-0.666992 2 0.333008 3.66699 3 5l48 15c3.33301 0 5 -1.33301 5 -4c2 -18 1.66699 -38.667 -1 -62c104.667 -7.33301 189.167 -7.66602 253.5 -0.999023s108.5 25.667 132.5 57c2 2.66699 4.33301 3 7 1s3 -4.33301 1 -7
c-25.333 -33.333 -70.666 -53.5 -135.999 -60.5s-151.333 -6.5 -258 1.5c-4 -36 -9 -71.833 -15 -107.5l-18.5 -107l-18.5 -107.5c-6 -36 -11 -72 -15 -108c-2 -16 -3.83301 -37 -5.5 -63s-2 -53.5 -1 -82.5s4.33301 -57.5 10 -85.5s15.334 -52 29.001 -72
s32 -34.167 55 -42.5s52.167 -7.16602 87.5 3.50098c11.333 3.33301 22.666 8.5 33.999 15.5s21.666 15.333 30.999 25s17.5 20.167 24.5 31.5s11.833 23 14.5 35c-20.667 0 -36 3.83301 -46 11.5s-15.833 15.834 -17.5 24.501s0.166016 16.667 5.49902 24s13 11 23 11
c9.33301 0 17.666 -3 24.999 -9s12.666 -13 15.999 -21c4 -10 5.66699 -20.333 5 -31c19.333 1.33301 41.5 4.83301 66.5 10.5s50 10 75 13s48.833 2.33301 71.5 -2s41.667 -15.833 57 -34.5zM304.005 -69.002c0.666992 10.667 -0.833984 19.833 -4.50098 27.5
s-8.16699 13.5 -13.5 17.5s-11.166 6 -17.499 6s-11.5 -2 -15.5 -6c-3.33301 -4 -5 -8.5 -5 -13.5s2 -9.83301 6 -14.5s10.167 -8.66699 18.5 -12s18.833 -5 31.5 -5z" />
    </font>
</defs>
</svg>
